  0
SECTION
  2
HEADER
  9
$ACADVER
  1
AC1009
  9
$INSBASE
 10
0.0
 20
0.0
 30
0.0
  9
$EXTMIN
 10
-0.000001
 20
-37.371351
 30
0.0
  9
$EXTMAX
 10
469.319779
 20
319.050151
 30
0.0
  9
$LIMMIN
 10
-10.789135
 20
-14.85121
  9
$LIMMAX
 10
480.715895
 20
338.435081
  9
$ORTHOMODE
 70
     1
  9
$REGENMODE
 70
     1
  9
$FILLMODE
 70
     1
  9
$QTEXTMODE
 70
     0
  9
$MIRRTEXT
 70
     1
  9
$DRAGMODE
 70
     2
  9
$LTSCALE
 40
3.5
  9
$OSMODE
 70
     1
  9
$ATTMODE
 70
     1
  9
$TEXTSIZE
 40
7.0
  9
$TRACEWID
 40
1.0
  9
$TEXTSTYLE
  7
STANDARD
  9
$CLAYER
  8
FF
  9
$CELTYPE
  6
BYLAYER
  9
$CECOLOR
 62
   256
  9
$DIMSCALE
 40
1.0
  9
$DIMASZ
 40
5.0
  9
$DIMEXO
 40
1.6667
  9
$DIMDLI
 40
0.38
  9
$DIMRND
 40
0.0
  9
$DIMDLE
 40
0.0
  9
$DIMEXE
 40
0.6667
  9
$DIMTP
 40
0.0
  9
$DIMTM
 40
0.0
  9
$DIMTXT
 40
5.0
  9
$DIMCEN
 40
0.09
  9
$DIMTSZ
 40
0.0
  9
$DIMTOL
 70
     0
  9
$DIMLIM
 70
     0
  9
$DIMTIH
 70
     0
  9
$DIMTOH
 70
     0
  9
$DIMSE1
 70
     0
  9
$DIMSE2
 70
     0
  9
$DIMTAD
 70
     1
  9
$DIMZIN
 70
     8
  9
$DIMBLK
  1

  9
$DIMASO
 70
     1
  9
$DIMSHO
 70
     1
  9
$DIMPOST
  1

  9
$DIMAPOST
  1

  9
$DIMALT
 70
     0
  9
$DIMALTD
 70
     4
  9
$DIMALTF
 40
0.0394
  9
$DIMLFAC
 40
1.0
  9
$DIMTOFL
 70
     1
  9
$DIMTVP
 40
0.0
  9
$DIMTIX
 70
     0
  9
$DIMSOXD
 70
     0
  9
$DIMSAH
 70
     1
  9
$DIMBLK1
  1
_OPEN
  9
$DIMBLK2
  1
_OPEN
  9
$DIMSTYLE
  2
FSTD2
  9
$DIMCLRD
 70
     0
  9
$DIMCLRE
 70
     0
  9
$DIMCLRT
 70
     0
  9
$DIMTFAC
 40
1.0
  9
$DIMGAP
 40
1.6667
  9
$LUNITS
 70
     2
  9
$LUPREC
 70
     4
  9
$SKETCHINC
 40
1.0
  9
$FILLETRAD
 40
10.0
  9
$AUNITS
 70
     0
  9
$AUPREC
 70
     0
  9
$MENU
  1
acad
  9
$ELEVATION
 40
0.0
  9
$PELEVATION
 40
0.0
  9
$THICKNESS
 40
0.0
  9
$LIMCHECK
 70
     0
  9
$BLIPMODE
 70
     0
  9
$CHAMFERA
 40
10.0
  9
$CHAMFERB
 40
10.0
  9
$SKPOLY
 70
     0
  9
$TDCREATE
 40
2452132.422477430
  9
$TDUPDATE
 40
2453733.420304316
  9
$TDINDWG
 40
0.0942500347
  9
$TDUSRTIMER
 40
0.0942500347
  9
$USRTIMER
 70
     1
  9
$ANGBASE
 50
0.0
  9
$ANGDIR
 70
     0
  9
$PDMODE
 70
     0
  9
$PDSIZE
 40
0.0
  9
$PLINEWID
 40
0.0
  9
$COORDS
 70
     1
  9
$SPLFRAME
 70
     0
  9
$SPLINETYPE
 70
     6
  9
$SPLINESEGS
 70
     8
  9
$ATTDIA
 70
     0
  9
$ATTREQ
 70
     1
  9
$HANDLING
 70
     1
  9
$HANDSEED
  5
EE8
  9
$SURFTAB1
 70
     6
  9
$SURFTAB2
 70
     6
  9
$SURFTYPE
 70
     6
  9
$SURFU
 70
     6
  9
$SURFV
 70
     6
  9
$UCSNAME
  2

  9
$UCSORG
 10
0.0
 20
0.0
 30
0.0
  9
$UCSXDIR
 10
1.0
 20
0.0
 30
0.0
  9
$UCSYDIR
 10
0.0
 20
1.0
 30
0.0
  9
$PUCSNAME
  2

  9
$PUCSORG
 10
0.0
 20
0.0
 30
0.0
  9
$PUCSXDIR
 10
1.0
 20
0.0
 30
0.0
  9
$PUCSYDIR
 10
0.0
 20
1.0
 30
0.0
  9
$USERI1
 70
     0
  9
$USERI2
 70
     0
  9
$USERI3
 70
     0
  9
$USERI4
 70
     0
  9
$USERI5
 70
     0
  9
$USERR1
 40
0.0
  9
$USERR2
 40
0.0
  9
$USERR3
 40
0.0
  9
$USERR4
 40
0.0
  9
$USERR5
 40
0.0
  9
$WORLDVIEW
 70
     1
  9
$SHADEDGE
 70
     3
  9
$SHADEDIF
 70
    70
  9
$TILEMODE
 70
     1
  9
$MAXACTVP
 70
    16
  9
$PINSBASE
 10
0.0
 20
0.0
 30
0.0
  9
$PLIMCHECK
 70
     0
  9
$PEXTMIN
 10
1.000000E+20
 20
1.000000E+20
 30
1.000000E+20
  9
$PEXTMAX
 10
-1.000000E+20
 20
-1.000000E+20
 30
-1.000000E+20
  9
$PLIMMIN
 10
0.0
 20
0.0
  9
$PLIMMAX
 10
420.0
 20
297.0
  9
$UNITMODE
 70
     0
  9
$VISRETAIN
 70
     1
  9
$PLINEGEN
 70
     0
  9
$PSLTSCALE
 70
     1
  9
$TREEDEPTH
 70
  3020
  9
$DWGCODEPAGE
  3
dos932
  0
ENDSEC
  0
SECTION
  2
TABLES
  0
TABLE
  2
VPORT
 70
     2
  0
VPORT
  2
*ACTIVE
 70
     0
 10
0.0
 20
0.0
 11
1.0
 21
1.0
 12
234.96338
 22
182.060714
 13
0.0
 23
0.0
 14
10.0
 24
10.0
 15
10.0
 25
10.0
 16
0.0
 26
0.0
 36
1.0
 17
0.0
 27
0.0
 37
0.0
 40
442.087867
 41
1.475202
 42
50.0
 43
0.0
 44
0.0
 50
0.0
 51
0.0
 71
     0
 72
   100
 73
     1
 74
     1
 75
     0
 76
     0
 77
     0
 78
     0
  0
ENDTAB
  0
TABLE
  2
LTYPE
 70
     4
  0
LTYPE
  2
CONTINUOUS
 70
    64
  3
Solid line
 72
    65
 73
     0
 40
0.0
  0
LTYPE
  2
DASHED
 70
    64
  3
DASHED
 72
    65
 73
     2
 40
0.75
 49
0.5
 49
-0.25
  0
LTYPE
  2
CENTER
 70
    64
  3
CENTER
 72
    65
 73
     4
 40
2.0
 49
1.25
 49
-0.25
 49
0.25
 49
-0.25
  0
LTYPE
  2
PHANTOM
 70
    64
  3
PHANTOM
 72
    65
 73
     6
 40
2.5
 49
1.25
 49
-0.25
 49
0.25
 49
-0.25
 49
0.25
 49
-0.25
  0
ENDTAB
  0
TABLE
  2
LAYER
 70
    15
  0
LAYER
  2
0
 70
    64
 62
     7
  6
CONTINUOUS
  0
LAYER
  2
FF
 70
    64
 62
     4
  6
CONTINUOUS
  0
LAYER
  2
DEFPOINTS
 70
    64
 62
     7
  6
CONTINUOUS
  0
LAYER
  2
0B
 70
    64
 62
     6
  6
CONTINUOUS
  0
LAYER
  2
0C
 70
    64
 62
     3
  6
CONTINUOUS
  0
LAYER
  2
0D
 70
    64
 62
     2
  6
CONTINUOUS
  0
LAYER
  2
10
 70
    64
 62
     6
  6
CENTER
  0
LAYER
  2
15
 70
    64
 62
     6
  6
CONTINUOUS
  0
LAYER
  2
16
 70
    64
 62
     3
  6
CONTINUOUS
  0
LAYER
  2
17
 70
    64
 62
     2
  6
CONTINUOUS
  0
LAYER
  2
1A
 70
    64
 62
     6
  6
CENTER
  0
LAYER
  2
33
 70
    64
 62
     6
  6
CONTINUOUS
  0
LAYER
  2
34
 70
    64
 62
     3
  6
CONTINUOUS
  0
LAYER
  2
38
 70
    64
 62
     6
  6
CENTER
  0
LAYER
  2
14
 70
    64
 62
     7
  6
CONTINUOUS
  0
ENDTAB
  0
TABLE
  2
STYLE
 70
     1
  0
STYLE
  2
STANDARD
 70
    64
 40
0.0
 41
1.0
 50
0.0
 71
     0
 42
7.0
  3
txt.shx
  4
bigfont.shx
  0
ENDTAB
  0
TABLE
  2
VIEW
 70
     0
  0
ENDTAB
  0
TABLE
  2
UCS
 70
     0
  0
ENDTAB
  0
TABLE
  2
APPID
 70
     1
  0
APPID
  2
ACAD
 70
    64
  0
ENDTAB
  0
TABLE
  2
DIMSTYLE
 70
     3
  0
DIMSTYLE
  2
FSTD1
 70
    64
  3

  4

  5

  6
_OPEN
  7
_OPEN
 40
0.0
 41
5.0
 42
1.6667
 43
0.38
 44
1.6667
 45
0.0
 46
0.0
 47
0.0
 48
0.0
140
5.0
141
0.09
142
0.0
143
0.0394
144
1.0
145
0.0
146
1.0
147
1.6667
 71
     0
 72
     0
 73
     0
 74
     0
 75
     0
 76
     0
 77
     1
 78
     8
170
     0
171
     4
172
     1
173
     1
174
     0
175
     0
176
     0
177
     0
178
     0
  0
DIMSTYLE
  2
FSTD2
 70
    64
  3

  4

  5

  6
_OPEN
  7
_OPEN
 40
1.0
 41
5.0
 42
1.6667
 43
0.38
 44
0.6667
 45
0.0
 46
0.0
 47
0.0
 48
0.0
140
5.0
141
0.09
142
0.0
143
0.0394
144
1.0
145
0.0
146
1.0
147
1.6667
 71
     0
 72
     0
 73
     0
 74
     0
 75
     0
 76
     0
 77
     1
 78
     8
170
     0
171
     4
172
     1
173
     1
174
     0
175
     0
176
     0
177
     0
178
     0
  0
DIMSTYLE
  2
FSTD3
 70
    64
  3

  4

  5

  6
_OPEN
  7
_OPEN
 40
1.0
 41
5.0
 42
1.6666
 43
0.38
 44
1.6667
 45
0.0
 46
0.0
 47
0.0
 48
0.0
140
5.0
141
0.09
142
0.0
143
0.0394
144
1.0
145
0.0
146
1.0
147
-1.6667
 71
     0
 72
     0
 73
     0
 74
     0
 75
     0
 76
     0
 77
     1
 78
     8
170
     0
171
     4
172
     1
173
     1
174
     0
175
     0
176
     0
177
     0
178
     0
  0
ENDTAB
  0
ENDSEC
  0
SECTION
  2
BLOCKS
  0
BLOCK
  8
0
  5
EB
  2
_OPEN
 70
    64
 10
0.0
 20
0.0
 30
0.0
  3
_OPEN
  0
LINE
  8
0
  6
BYBLOCK
 62
     0
  5
E8
 10
-1.0
 20
0.166667
 30
0.0
 11
0.0
 21
0.0
 31
0.0
  0
LINE
  8
0
  6
BYBLOCK
 62
     0
  5
E9
 10
0.0
 20
0.0
 30
0.0
 11
-1.0
 21
-0.166667
 31
0.0
  0
LINE
  8
0
  6
BYBLOCK
 62
     0
  5
EA
 10
0.0
 20
0.0
 30
0.0
 11
-1.0
 21
0.0
 31
0.0
  0
ENDBLK
  8
0
  5
EC
  0
BLOCK
  8
0
  5
D67
  2
*D1
 70
    65
 10
0.0
 20
0.0
 30
0.0
  3
*D1
  0
LINE
  8
0
  6
BYBLOCK
 62
     0
  5
D68
 10
256.830324
 20
254.645398
 30
0.0
 11
256.830324
 21
289.492252
 31
0.0
  0
LINE
  8
0
  6
BYBLOCK
 62
     0
  5
D69
 10
182.759667
 20
254.645398
 30
0.0
 11
182.759667
 21
289.492252
 31
0.0
  0
LINE
  8
0
  6
BYBLOCK
 62
     0
  5
D6A
 10
251.830324
 20
287.825552
 30
0.0
 11
187.759667
 21
287.825552
 31
0.0
  0
INSERT
  8
0
  6
BYBLOCK
 62
     0
  5
D6B
  2
_OPEN
 10
256.830324
 20
287.825552
 30
0.0
 41
5.0
 42
5.0
 43
5.0
  0
INSERT
  8
0
  6
BYBLOCK
 62
     0
  5
D6C
  2
_OPEN
 10
182.759667
 20
287.825552
 30
0.0
 41
5.0
 42
5.0
 50
180.0
 43
5.0
  0
TEXT
  8
0
  6
BYBLOCK
 62
     0
  5
D6D
 10
215.628329
 20
289.492252
 30
0.0
 40
5.0
  1
74
  0
POINT
  8
DEFPOINTS
  6
BYBLOCK
 62
     0
  5
D6E
 10
256.830324
 20
252.978698
 30
0.0
  0
POINT
  8
DEFPOINTS
  6
BYBLOCK
 62
     0
  5
D6F
 10
182.759667
 20
252.978698
 30
0.0
  0
POINT
  8
DEFPOINTS
  6
BYBLOCK
 62
     0
  5
D70
 10
182.759667
 20
287.825552
 30
0.0
  0
ENDBLK
  8
0
  5
D71
  0
BLOCK
  8
0
  5
D5C
  2
*D2
 70
    65
 10
0.0
 20
0.0
 30
0.0
  3
*D2
  0
LINE
  8
0
  6
BYBLOCK
 62
     0
  5
D5D
 10
269.342018
 20
244.636043
 30
0.0
 11
269.342018
 21
303.425274
 31
0.0
  0
LINE
  8
0
  6
BYBLOCK
 62
     0
  5
D5E
 10
170.247974
 20
244.636043
 30
0.0
 11
170.247974
 21
303.425274
 31
0.0
  0
LINE
  8
0
  6
BYBLOCK
 62
     0
  5
D5F
 10
264.342018
 20
301.758574
 30
0.0
 11
175.247974
 21
301.758574
 31
0.0
  0
INSERT
  8
0
  6
BYBLOCK
 62
     0
  5
D60
  2
_OPEN
 10
269.342018
 20
301.758574
 30
0.0
 41
5.0
 42
5.0
 43
5.0
  0
INSERT
  8
0
  6
BYBLOCK
 62
     0
  5
D61
  2
_OPEN
 10
170.247974
 20
301.758574
 30
0.0
 41
5.0
 42
5.0
 50
180.0
 43
5.0
  0
TEXT
  8
0
  6
BYBLOCK
 62
     0
  5
D62
 10
212.294996
 20
303.425274
 30
0.0
 40
5.0
  1
(99)
  0
POINT
  8
DEFPOINTS
  6
BYBLOCK
 62
     0
  5
D63
 10
269.342018
 20
242.969343
 30
0.0
  0
POINT
  8
DEFPOINTS
  6
BYBLOCK
 62
     0
  5
D64
 10
170.247974
 20
242.969343
 30
0.0
  0
POINT
  8
DEFPOINTS
  6
BYBLOCK
 62
     0
  5
D65
 10
170.247974
 20
301.758574
 30
0.0
  0
ENDBLK
  8
0
  5
D66
  0
BLOCK
  8
0
  5
CE1
  2
*D3
 70
    65
 10
0.0
 20
0.0
 30
0.0
  3
*D3
  0
LINE
  8
0
  6
BYBLOCK
 62
     0
  5
CE2
 10
108.697018
 20
218.111252
 30
0.0
 11
108.697018
 21
291.37973
 31
0.0
  0
LINE
  8
0
  6
BYBLOCK
 62
     0
  5
CE3
 10
12.807398
 20
256.098184
 30
0.0
 11
12.807398
 21
291.37973
 31
0.0
  0
LINE
  8
0
  6
BYBLOCK
 62
     0
  5
CE4
 10
103.697018
 20
289.71303
 30
0.0
 11
17.807398
 21
289.71303
 31
0.0
  0
INSERT
  8
0
  6
BYBLOCK
 62
     0
  5
CE5
  2
_OPEN
 10
108.697018
 20
289.71303
 30
0.0
 41
5.0
 42
5.0
 43
5.0
  0
INSERT
  8
0
  6
BYBLOCK
 62
     0
  5
CE6
  2
_OPEN
 10
12.807398
 20
289.71303
 30
0.0
 41
5.0
 42
5.0
 50
180.0
 43
5.0
  0
TEXT
  8
0
  6
BYBLOCK
 62
     0
  5
CE7
 10
56.585541
 20
291.37973
 30
0.0
 40
5.0
  1
96
  0
POINT
  8
DEFPOINTS
  6
BYBLOCK
 62
     0
  5
CE8
 10
108.697018
 20
216.444552
 30
0.0
  0
POINT
  8
DEFPOINTS
  6
BYBLOCK
 62
     0
  5
CE9
 10
12.807398
 20
254.431484
 30
0.0
  0
POINT
  8
DEFPOINTS
  6
BYBLOCK
 62
     0
  5
CEA
 10
12.807398
 20
289.71303
 30
0.0
  0
ENDBLK
  8
0
  5
CEB
  0
BLOCK
  8
0
  5
D51
  2
*D4
 70
    65
 10
0.0
 20
0.0
 30
0.0
  3
*D4
  0
LINE
  8
0
  6
BYBLOCK
 62
     0
  5
D52
 10
136.022557
 20
216.609849
 30
0.0
 11
136.022557
 21
291.170964
 31
0.0
  0
LINE
  8
0
  6
BYBLOCK
 62
     0
  5
D53
 10
108.697018
 20
218.111252
 30
0.0
 11
108.697018
 21
291.170964
 31
0.0
  0
LINE
  8
0
  6
BYBLOCK
 62
     0
  5
D54
 10
131.022557
 20
289.504264
 30
0.0
 11
113.697018
 21
289.504264
 31
0.0
  0
INSERT
  8
0
  6
BYBLOCK
 62
     0
  5
D55
  2
_OPEN
 10
136.022557
 20
289.504264
 30
0.0
 41
5.0
 42
5.0
 43
5.0
  0
INSERT
  8
0
  6
BYBLOCK
 62
     0
  5
D56
  2
_OPEN
 10
108.697018
 20
289.504264
 30
0.0
 41
5.0
 42
5.0
 50
180.0
 43
5.0
  0
TEXT
  8
0
  6
BYBLOCK
 62
     0
  5
D57
 10
114.859788
 20
291.170964
 30
0.0
 40
5.0
  1
(28)
  0
POINT
  8
DEFPOINTS
  6
BYBLOCK
 62
     0
  5
D58
 10
136.022557
 20
214.943149
 30
0.0
  0
POINT
  8
DEFPOINTS
  6
BYBLOCK
 62
     0
  5
D59
 10
108.697018
 20
216.444552
 30
0.0
  0
POINT
  8
DEFPOINTS
  6
BYBLOCK
 62
     0
  5
D5A
 10
108.697018
 20
289.504264
 30
0.0
  0
ENDBLK
  8
0
  5
D5B
  0
BLOCK
  8
0
  5
D8A
  2
*D5
 70
    65
 10
0.0
 20
0.0
 30
0.0
  3
*D5
  0
LINE
  8
0
  6
BYBLOCK
 62
     0
  5
D8B
 10
255.494217
 20
169.901052
 30
0.0
 11
297.327601
 21
169.901052
 31
0.0
  0
LINE
  8
0
  6
BYBLOCK
 62
     0
  5
D8C
 10
231.571859
 20
256.98244
 30
0.0
 11
297.327601
 21
256.98244
 31
0.0
  0
LINE
  8
0
  6
BYBLOCK
 62
     0
  5
D8D
 10
295.660901
 20
174.901052
 30
0.0
 11
295.660901
 21
251.98244
 31
0.0
  0
INSERT
  8
0
  6
BYBLOCK
 62
     0
  5
D8E
  2
_OPEN
 10
295.660901
 20
169.901052
 30
0.0
 41
5.0
 42
5.0
 50
270.0
 43
5.0
  0
INSERT
  8
0
  6
BYBLOCK
 62
     0
  5
D8F
  2
_OPEN
 10
295.660901
 20
256.98244
 30
0.0
 41
5.0
 42
5.0
 50
90.0
 43
5.0
  0
TEXT
  8
0
  6
BYBLOCK
 62
     0
  5
D90
 10
293.994201
 20
209.275079
 30
0.0
 40
5.0
  1
87
 50
90.0
  0
POINT
  8
DEFPOINTS
  6
BYBLOCK
 62
     0
  5
D91
 10
253.827517
 20
169.901052
 30
0.0
  0
POINT
  8
DEFPOINTS
  6
BYBLOCK
 62
     0
  5
D92
 10
229.905159
 20
256.98244
 30
0.0
  0
POINT
  8
DEFPOINTS
  6
BYBLOCK
 62
     0
  5
D93
 10
295.660901
 20
256.98244
 30
0.0
  0
ENDBLK
  8
0
  5
D94
  0
BLOCK
  8
0
  5
DAF
  2
*D6
 70
    65
 10
0.0
 20
0.0
 30
0.0
  3
*D6
  0
LINE
  8
0
  6
BYBLOCK
 62
     0
  5
DB0
 10
363.516321
 20
256.98244
 30
0.0
 11
323.993668
 21
256.98244
 31
0.0
  0
LINE
  8
0
  6
BYBLOCK
 62
     0
  5
DB1
 10
345.776884
 20
247.97402
 30
0.0
 11
323.993668
 21
247.97402
 31
0.0
  0
LINE
  8
0
  6
BYBLOCK
 62
     0
  5
DB2
 10
325.660368
 20
261.98244
 30
0.0
 11
325.660368
 21
266.98244
 31
0.0
  0
LINE
  8
0
  6
BYBLOCK
 62
     0
  5
DB3
 10
325.660368
 20
242.97402
 30
0.0
 11
325.660368
 21
237.97402
 31
0.0
  0
LINE
  8
0
  6
BYBLOCK
 62
     0
  5
DB4
 10
325.660368
 20
256.98244
 30
0.0
 11
325.660368
 21
247.97402
 31
0.0
  0
INSERT
  8
0
  6
BYBLOCK
 62
     0
  5
DB5
  2
_OPEN
 10
325.660368
 20
256.98244
 30
0.0
 41
5.0
 42
5.0
 50
270.0
 43
5.0
  0
INSERT
  8
0
  6
BYBLOCK
 62
     0
  5
DB6
  2
_OPEN
 10
325.660368
 20
247.97402
 30
0.0
 41
5.0
 42
5.0
 50
90.0
 43
5.0
  0
TEXT
  8
0
  6
BYBLOCK
 62
     0
  5
DB7
 10
323.993668
 20
250.811563
 30
0.0
 40
5.0
  1
9
 50
90.0
  0
POINT
  8
DEFPOINTS
  6
BYBLOCK
 62
     0
  5
DB8
 10
365.183021
 20
256.98244
 30
0.0
  0
POINT
  8
DEFPOINTS
  6
BYBLOCK
 62
     0
  5
DB9
 10
347.443584
 20
247.97402
 30
0.0
  0
POINT
  8
DEFPOINTS
  6
BYBLOCK
 62
     0
  5
DBA
 10
325.660368
 20
247.97402
 30
0.0
  0
ENDBLK
  8
0
  5
DBB
  0
BLOCK
  8
0
  5
CCB
  2
*D7
 70
    65
 10
0.0
 20
0.0
 30
0.0
  3
*D7
  0
LINE
  8
0
  6
BYBLOCK
 62
     0
  5
CCC
 10
2.798043
 20
228.120607
 30
0.0
 11
2.798043
 21
303.425274
 31
0.0
  0
LINE
  8
0
  6
BYBLOCK
 62
     0
  5
CCD
 10
108.697018
 20
218.111252
 30
0.0
 11
108.697018
 21
303.425274
 31
0.0
  0
LINE
  8
0
  6
BYBLOCK
 62
     0
  5
CCE
 10
7.798043
 20
301.758574
 30
0.0
 11
103.697018
 21
301.758574
 31
0.0
  0
INSERT
  8
0
  6
BYBLOCK
 62
     0
  5
CCF
  2
_OPEN
 10
2.798043
 20
301.758574
 30
0.0
 41
5.0
 42
5.0
 50
180.0
 43
5.0
  0
INSERT
  8
0
  6
BYBLOCK
 62
     0
  5
CD0
  2
_OPEN
 10
108.697018
 20
301.758574
 30
0.0
 41
5.0
 42
5.0
 43
5.0
  0
TEXT
  8
0
  6
BYBLOCK
 62
     0
  5
CD1
 10
50.330864
 20
303.425274
 30
0.0
 40
5.0
  1
106
  0
POINT
  8
DEFPOINTS
  6
BYBLOCK
 62
     0
  5
CD2
 10
2.798043
 20
226.453907
 30
0.0
  0
POINT
  8
DEFPOINTS
  6
BYBLOCK
 62
     0
  5
CD3
 10
108.697018
 20
216.444552
 30
0.0
  0
POINT
  8
DEFPOINTS
  6
BYBLOCK
 62
     0
  5
CD4
 10
108.697018
 20
301.758574
 30
0.0
  0
ENDBLK
  8
0
  5
CD5
  0
BLOCK
  8
0
  5
D95
  2
*D8
 70
    65
 10
0.0
 20
0.0
 30
0.0
  3
*D8
  0
LINE
  8
0
  6
BYBLOCK
 62
     0
  5
D96
 10
219.795711
 20
159.526213
 30
0.0
 11
219.795711
 21
150.305231
 31
0.0
  0
LINE
  8
0
  6
BYBLOCK
 62
     0
  5
D97
 10
236.309716
 20
181.496747
 30
0.0
 11
236.309716
 21
150.305231
 31
0.0
  0
LINE
  8
0
  6
BYBLOCK
 62
     0
  5
D98
 10
214.795711
 20
150.971931
 30
0.0
 11
209.795711
 21
150.971931
 31
0.0
  0
LINE
  8
0
  6
BYBLOCK
 62
     0
  5
D99
 10
241.309716
 20
150.971931
 30
0.0
 11
262.97645
 21
150.971931
 31
0.0
  0
LINE
  8
0
  6
BYBLOCK
 62
     0
  5
D9A
 10
219.795711
 20
150.971931
 30
0.0
 11
236.309716
 21
150.971931
 31
0.0
  0
INSERT
  8
0
  6
BYBLOCK
 62
     0
  5
D9B
  2
_OPEN
 10
219.795711
 20
150.971931
 30
0.0
 41
5.0
 42
5.0
 43
5.0
  0
INSERT
  8
0
  6
BYBLOCK
 62
     0
  5
D9C
  2
_OPEN
 10
236.309716
 20
150.971931
 30
0.0
 41
5.0
 42
5.0
 50
180.0
 43
5.0
  0
TEXT
  8
0
  6
BYBLOCK
 62
     0
  5
D9D
 10
247.976416
 20
152.638631
 30
0.0
 40
5.0
  1
16.5
  0
POINT
  8
DEFPOINTS
  6
BYBLOCK
 62
     0
  5
D9E
 10
219.795711
 20
161.192913
 30
0.0
  0
POINT
  8
DEFPOINTS
  6
BYBLOCK
 62
     0
  5
D9F
 10
236.309716
 20
183.163447
 30
0.0
  0
POINT
  8
DEFPOINTS
  6
BYBLOCK
 62
     0
  5
DA0
 10
236.309716
 20
150.971931
 30
0.0
  0
ENDBLK
  8
0
  5
DA1
  0
BLOCK
  8
0
  5
DA2
  2
*D9
 70
    65
 10
0.0
 20
0.0
 30
0.0
  3
*D9
  0
LINE
  8
0
  6
BYBLOCK
 62
     0
  5
DA3
 10
209.534692
 20
169.235287
 30
0.0
 11
209.534692
 21
138.316884
 31
0.0
  0
LINE
  8
0
  6
BYBLOCK
 62
     0
  5
DA4
 10
197.022998
 20
169.235287
 30
0.0
 11
197.022998
 21
138.316884
 31
0.0
  0
LINE
  8
0
  6
BYBLOCK
 62
     0
  5
DA5
 10
214.534692
 20
138.983584
 30
0.0
 11
219.534692
 21
138.983584
 31
0.0
  0
LINE
  8
0
  6
BYBLOCK
 62
     0
  5
DA6
 10
192.022998
 20
138.983584
 30
0.0
 11
170.356265
 21
138.983584
 31
0.0
  0
LINE
  8
0
  6
BYBLOCK
 62
     0
  5
DA7
 10
209.534692
 20
138.983584
 30
0.0
 11
197.022998
 21
138.983584
 31
0.0
  0
INSERT
  8
0
  6
BYBLOCK
 62
     0
  5
DA8
  2
_OPEN
 10
209.534692
 20
138.983584
 30
0.0
 41
5.0
 42
5.0
 50
180.0
 43
5.0
  0
INSERT
  8
0
  6
BYBLOCK
 62
     0
  5
DA9
  2
_OPEN
 10
197.022998
 20
138.983584
 30
0.0
 41
5.0
 42
5.0
 43
5.0
  0
TEXT
  8
0
  6
BYBLOCK
 62
     0
  5
DAA
 10
172.022965
 20
140.650284
 30
0.0
 40
5.0
  1
12.4
  0
POINT
  8
DEFPOINTS
  6
BYBLOCK
 62
     0
  5
DAB
 10
209.534692
 20
170.901987
 30
0.0
  0
POINT
  8
DEFPOINTS
  6
BYBLOCK
 62
     0
  5
DAC
 10
197.022998
 20
170.901987
 30
0.0
  0
POINT
  8
DEFPOINTS
  6
BYBLOCK
 62
     0
  5
DAD
 10
197.022998
 20
138.983584
 30
0.0
  0
ENDBLK
  8
0
  5
DAE
  0
BLOCK
  8
0
  5
D14
  2
*D10
 70
    65
 10
0.0
 20
0.0
 30
0.0
  3
*D10
  0
LINE
  8
0
  6
BYBLOCK
 62
     0
  5
D15
 10
78.368673
 20
250.392852
 30
0.0
 11
78.368673
 21
279.809851
 31
0.0
  0
LINE
  8
0
  6
BYBLOCK
 62
     0
  5
D16
 10
12.807398
 20
256.098184
 30
0.0
 11
12.807398
 21
279.809851
 31
0.0
  0
LINE
  8
0
  6
BYBLOCK
 62
     0
  5
D17
 10
73.368673
 20
279.143151
 30
0.0
 11
17.807398
 21
279.143151
 31
0.0
  0
INSERT
  8
0
  6
BYBLOCK
 62
     0
  5
D18
  2
_OPEN
 10
78.368673
 20
279.143151
 30
0.0
 41
5.0
 42
5.0
 43
5.0
  0
INSERT
  8
0
  6
BYBLOCK
 62
     0
  5
D19
  2
_OPEN
 10
12.807398
 20
279.143151
 30
0.0
 41
5.0
 42
5.0
 50
180.0
 43
5.0
  0
TEXT
  8
0
  6
BYBLOCK
 62
     0
  5
D1A
 10
38.088035
 20
280.809851
 30
0.0
 40
5.0
  1
65.5
  0
POINT
  8
DEFPOINTS
  6
BYBLOCK
 62
     0
  5
D1B
 10
78.368673
 20
248.726152
 30
0.0
  0
POINT
  8
DEFPOINTS
  6
BYBLOCK
 62
     0
  5
D1C
 10
12.807398
 20
254.431484
 30
0.0
  0
POINT
  8
DEFPOINTS
  6
BYBLOCK
 62
     0
  5
D1D
 10
12.807398
 20
279.143151
 30
0.0
  0
ENDBLK
  8
0
  5
D1E
  0
BLOCK
  8
0
  5
D1F
  2
*D11
 70
    65
 10
0.0
 20
0.0
 30
0.0
  3
*D11
  0
LINE
  8
0
  6
BYBLOCK
 62
     0
  5
D20
 10
12.807398
 20
256.098184
 30
0.0
 11
12.807398
 21
268.999748
 31
0.0
  0
LINE
  8
0
  6
BYBLOCK
 62
     0
  5
D21
 10
23.317221
 20
256.647269
 30
0.0
 11
23.317221
 21
268.999748
 31
0.0
  0
LINE
  8
0
  6
BYBLOCK
 62
     0
  5
D22
 10
7.807398
 20
268.333048
 30
0.0
 11
2.807398
 21
268.333048
 31
0.0
  0
LINE
  8
0
  6
BYBLOCK
 62
     0
  5
D23
 10
28.317221
 20
268.333048
 30
0.0
 11
49.150621
 21
268.333048
 31
0.0
  0
LINE
  8
0
  6
BYBLOCK
 62
     0
  5
D24
 10
12.807398
 20
268.333048
 30
0.0
 11
23.317221
 21
268.333048
 31
0.0
  0
INSERT
  8
0
  6
BYBLOCK
 62
     0
  5
D25
  2
_OPEN
 10
12.807398
 20
268.333048
 30
0.0
 41
5.0
 42
5.0
 43
5.0
  0
INSERT
  8
0
  6
BYBLOCK
 62
     0
  5
D26
  2
_OPEN
 10
23.317221
 20
268.333048
 30
0.0
 41
5.0
 42
5.0
 50
180.0
 43
5.0
  0
TEXT
  8
0
  6
BYBLOCK
 62
     0
  5
D27
 10
34.983921
 20
269.999748
 30
0.0
 40
5.0
  1
10.5
  0
POINT
  8
DEFPOINTS
  6
BYBLOCK
 62
     0
  5
D28
 10
12.807398
 20
254.431484
 30
0.0
  0
POINT
  8
DEFPOINTS
  6
BYBLOCK
 62
     0
  5
D29
 10
23.317221
 20
254.980569
 30
0.0
  0
POINT
  8
DEFPOINTS
  6
BYBLOCK
 62
     0
  5
D2A
 10
23.317221
 20
268.333048
 30
0.0
  0
ENDBLK
  8
0
  5
D2B
  0
BLOCK
  8
0
  5
D72
  2
*D12
 70
    65
 10
0.0
 20
0.0
 30
0.0
  3
*D12
  0
LINE
  8
0
  6
BYBLOCK
 62
     0
  5
D73
 10
237.976416
 20
242.719109
 30
0.0
 11
284.825423
 21
242.719109
 31
0.0
  0
LINE
  8
0
  6
BYBLOCK
 62
     0
  5
D74
 10
231.571859
 20
256.98244
 30
0.0
 11
284.825423
 21
256.98244
 31
0.0
  0
LINE
  8
0
  6
BYBLOCK
 62
     0
  5
D75
 10
284.158723
 20
237.719109
 30
0.0
 11
284.158723
 21
232.719109
 31
0.0
  0
LINE
  8
0
  6
BYBLOCK
 62
     0
  5
D76
 10
284.158723
 20
261.98244
 30
0.0
 11
284.158723
 21
283.649173
 31
0.0
  0
LINE
  8
0
  6
BYBLOCK
 62
     0
  5
D77
 10
284.158723
 20
242.719109
 30
0.0
 11
284.158723
 21
256.98244
 31
0.0
  0
INSERT
  8
0
  6
BYBLOCK
 62
     0
  5
D78
  2
_OPEN
 10
284.158723
 20
242.719109
 30
0.0
 41
5.0
 42
5.0
 50
90.0
 43
5.0
  0
INSERT
  8
0
  6
BYBLOCK
 62
     0
  5
D79
  2
_OPEN
 10
284.158723
 20
256.98244
 30
0.0
 41
5.0
 42
5.0
 50
270.0
 43
5.0
  0
TEXT
  8
0
  6
BYBLOCK
 62
     0
  5
D7A
 10
282.492023
 20
268.64914
 30
0.0
 40
5.0
  1
14.3
 50
90.0
  0
POINT
  8
DEFPOINTS
  6
BYBLOCK
 62
     0
  5
D7B
 10
236.309716
 20
242.719109
 30
0.0
  0
POINT
  8
DEFPOINTS
  6
BYBLOCK
 62
     0
  5
D7C
 10
229.905159
 20
256.98244
 30
0.0
  0
POINT
  8
DEFPOINTS
  6
BYBLOCK
 62
     0
  5
D7D
 10
284.158723
 20
256.98244
 30
0.0
  0
ENDBLK
  8
0
  5
D7E
  0
BLOCK
  8
0
  5
D7F
  2
*D13
 70
    65
 10
0.0
 20
0.0
 30
0.0
  3
*D13
  0
LINE
  8
0
  6
BYBLOCK
 62
     0
  5
D80
 10
237.976416
 20
242.719109
 30
0.0
 11
284.825423
 21
242.719109
 31
0.0
  0
LINE
  8
0
  6
BYBLOCK
 62
     0
  5
D81
 10
237.976416
 20
183.163447
 30
0.0
 11
284.825423
 21
183.163447
 31
0.0
  0
LINE
  8
0
  6
BYBLOCK
 62
     0
  5
D82
 10
284.158723
 20
237.719109
 30
0.0
 11
284.158723
 21
188.163447
 31
0.0
  0
INSERT
  8
0
  6
BYBLOCK
 62
     0
  5
D83
  2
_OPEN
 10
284.158723
 20
242.719109
 30
0.0
 41
5.0
 42
5.0
 50
90.0
 43
5.0
  0
INSERT
  8
0
  6
BYBLOCK
 62
     0
  5
D84
  2
_OPEN
 10
284.158723
 20
183.163447
 30
0.0
 41
5.0
 42
5.0
 50
270.0
 43
5.0
  0
TEXT
  8
0
  6
BYBLOCK
 62
     0
  5
D85
 10
282.492023
 20
205.441278
 30
0.0
 40
5.0
  1
59.5
 50
90.0
  0
POINT
  8
DEFPOINTS
  6
BYBLOCK
 62
     0
  5
D86
 10
236.309716
 20
242.719109
 30
0.0
  0
POINT
  8
DEFPOINTS
  6
BYBLOCK
 62
     0
  5
D87
 10
236.309716
 20
183.163447
 30
0.0
  0
POINT
  8
DEFPOINTS
  6
BYBLOCK
 62
     0
  5
D88
 10
284.158723
 20
183.163447
 30
0.0
  0
ENDBLK
  8
0
  5
D89
  0
BLOCK
  8
0
  5
DDA
  2
*D14
 70
    65
 10
0.0
 20
0.0
 30
0.0
  3
*D14
  0
LINE
  8
0
  6
BYBLOCK
 62
     0
  5
DDB
 10
417.14244
 20
250.476359
 30
0.0
 11
445.303981
 21
250.476359
 31
0.0
  0
LINE
  8
0
  6
BYBLOCK
 62
     0
  5
DDC
 10
407.287515
 20
256.98244
 30
0.0
 11
445.303981
 21
256.98244
 31
0.0
  0
LINE
  8
0
  6
BYBLOCK
 62
     0
  5
DDD
 10
444.637281
 20
245.476359
 30
0.0
 11
444.637281
 21
240.476359
 31
0.0
  0
LINE
  8
0
  6
BYBLOCK
 62
     0
  5
DDE
 10
444.637281
 20
261.98244
 30
0.0
 11
444.637281
 21
280.31584
 31
0.0
  0
LINE
  8
0
  6
BYBLOCK
 62
     0
  5
DDF
 10
444.637281
 20
250.476359
 30
0.0
 11
444.637281
 21
256.98244
 31
0.0
  0
INSERT
  8
0
  6
BYBLOCK
 62
     0
  5
DE0
  2
_OPEN
 10
444.637281
 20
250.476359
 30
0.0
 41
5.0
 42
5.0
 50
90.0
 43
5.0
  0
INSERT
  8
0
  6
BYBLOCK
 62
     0
  5
DE1
  2
_OPEN
 10
444.637281
 20
256.98244
 30
0.0
 41
5.0
 42
5.0
 50
270.0
 43
5.0
  0
TEXT
  8
0
  6
BYBLOCK
 62
     0
  5
DE2
 10
442.970581
 20
268.64914
 30
0.0
 40
5.0
  1
6.5
 50
90.0
  0
POINT
  8
DEFPOINTS
  6
BYBLOCK
 62
     0
  5
DE3
 10
415.47574
 20
250.476359
 30
0.0
  0
POINT
  8
DEFPOINTS
  6
BYBLOCK
 62
     0
  5
DE4
 10
405.620815
 20
256.98244
 30
0.0
  0
POINT
  8
DEFPOINTS
  6
BYBLOCK
 62
     0
  5
DE5
 10
444.637281
 20
256.98244
 30
0.0
  0
ENDBLK
  8
0
  5
DE6
  0
BLOCK
  8
0
  5
DF6
  2
*D15
 70
    65
 10
0.0
 20
0.0
 30
0.0
  3
*D15
  0
LINE
  8
0
  6
BYBLOCK
 62
     0
  5
DF7
 10
417.932322
 20
171.420286
 30
0.0
 11
417.932322
 21
139.71055
 31
0.0
  0
LINE
  8
0
  6
BYBLOCK
 62
     0
  5
DF8
 10
352.871514
 20
241.697397
 30
0.0
 11
352.871514
 21
139.71055
 31
0.0
  0
LINE
  8
0
  6
BYBLOCK
 62
     0
  5
DF9
 10
412.932322
 20
141.37725
 30
0.0
 11
357.871514
 21
141.37725
 31
0.0
  0
INSERT
  8
0
  6
BYBLOCK
 62
     0
  5
DFA
  2
_OPEN
 10
417.932322
 20
141.37725
 30
0.0
 41
5.0
 42
5.0
 43
5.0
  0
INSERT
  8
0
  6
BYBLOCK
 62
     0
  5
DFB
  2
_OPEN
 10
352.871514
 20
141.37725
 30
0.0
 41
5.0
 42
5.0
 50
180.0
 43
5.0
  0
TEXT
  8
0
  6
BYBLOCK
 62
     0
  5
DFC
 10
370.318585
 20
144.71065
 30
0.0
 40
5.0
  1
(60～)65
  0
LINE
  8
0
  6
BYBLOCK
 62
     0
  5
DFD
 10
368.651885
 20
143.04395
 30
0.0
 11
402.151951
 21
143.04395
 31
0.0
  0
LINE
  8
0
  6
BYBLOCK
 62
     0
  5
DFE
 10
402.151951
 20
143.04395
 30
0.0
 11
402.151951
 21
151.37735
 31
0.0
  0
LINE
  8
0
  6
BYBLOCK
 62
     0
  5
DFF
 10
402.151951
 20
151.37735
 30
0.0
 11
368.651885
 21
151.37735
 31
0.0
  0
LINE
  8
0
  6
BYBLOCK
 62
     0
  5
E00
 10
368.651885
 20
151.37735
 30
0.0
 11
368.651885
 21
143.04395
 31
0.0
  0
POINT
  8
DEFPOINTS
  6
BYBLOCK
 62
     0
  5
E01
 10
417.932322
 20
173.086886
 30
0.0
  0
POINT
  8
DEFPOINTS
  6
BYBLOCK
 62
     0
  5
E02
 10
352.871514
 20
243.363997
 30
0.0
  0
POINT
  8
DEFPOINTS
  6
BYBLOCK
 62
     0
  5
E03
 10
352.871514
 20
141.37725
 30
0.0
  0
ENDBLK
  8
0
  5
E04
  0
BLOCK
  8
0
  5
DBC
  2
*D16
 70
    65
 10
0.0
 20
0.0
 30
0.0
  3
*D16
  0
LINE
  8
0
  6
BYBLOCK
 62
     0
  5
DBD
 10
408.335453
 20
177.908536
 30
0.0
 11
323.993668
 21
177.908536
 31
0.0
  0
LINE
  8
0
  6
BYBLOCK
 62
     0
  5
DBE
 10
345.776984
 20
247.97402
 30
0.0
 11
323.993668
 21
247.97402
 31
0.0
  0
LINE
  8
0
  6
BYBLOCK
 62
     0
  5
DBF
 10
325.660368
 20
182.908536
 30
0.0
 11
325.660368
 21
242.97402
 31
0.0
  0
INSERT
  8
0
  6
BYBLOCK
 62
     0
  5
DC0
  2
_OPEN
 10
325.660368
 20
177.908536
 30
0.0
 41
5.0
 42
5.0
 50
270.0
 43
5.0
  0
INSERT
  8
0
  6
BYBLOCK
 62
     0
  5
DC1
  2
_OPEN
 10
325.660368
 20
247.97402
 30
0.0
 41
5.0
 42
5.0
 50
90.0
 43
5.0
  0
TEXT
  8
0
  6
BYBLOCK
 62
     0
  5
DC2
 10
322.326968
 20
209.191278
 30
0.0
 40
5.0
  1
70
 50
90.0
  0
LINE
  8
0
  6
BYBLOCK
 62
     0
  5
DC3
 10
323.993668
 20
207.524578
 30
0.0
 11
323.993668
 21
218.357978
 31
0.0
  0
LINE
  8
0
  6
BYBLOCK
 62
     0
  5
DC4
 10
323.993668
 20
218.357978
 30
0.0
 11
315.660268
 21
218.357978
 31
0.0
  0
LINE
  8
0
  6
BYBLOCK
 62
     0
  5
DC5
 10
315.660268
 20
218.357978
 30
0.0
 11
315.660268
 21
207.524578
 31
0.0
  0
LINE
  8
0
  6
BYBLOCK
 62
     0
  5
DC6
 10
315.660268
 20
207.524578
 30
0.0
 11
323.993668
 21
207.524578
 31
0.0
  0
POINT
  8
DEFPOINTS
  6
BYBLOCK
 62
     0
  5
DC7
 10
410.002053
 20
177.908536
 30
0.0
  0
POINT
  8
DEFPOINTS
  6
BYBLOCK
 62
     0
  5
DC8
 10
347.443584
 20
247.97402
 30
0.0
  0
POINT
  8
DEFPOINTS
  6
BYBLOCK
 62
     0
  5
DC9
 10
325.660368
 20
247.97402
 30
0.0
  0
ENDBLK
  8
0
  5
DCA
  0
BLOCK
  8
0
  5
DCB
  2
*D17
 70
    65
 10
0.0
 20
0.0
 30
0.0
  3
*D17
  0
LINE
  8
0
  6
BYBLOCK
 62
     0
  5
DCC
 10
410.425305
 20
256.018009
 30
0.0
 11
410.425305
 21
295.120369
 31
0.0
  0
LINE
  8
0
  6
BYBLOCK
 62
     0
  5
DCD
 10
360.378531
 20
180.922109
 30
0.0
 11
360.378531
 21
295.120369
 31
0.0
  0
LINE
  8
0
  6
BYBLOCK
 62
     0
  5
DCE
 10
405.425305
 20
293.453669
 30
0.0
 11
365.378531
 21
293.453669
 31
0.0
  0
INSERT
  8
0
  6
BYBLOCK
 62
     0
  5
DCF
  2
_OPEN
 10
410.425305
 20
293.453669
 30
0.0
 41
5.0
 42
5.0
 43
5.0
  0
INSERT
  8
0
  6
BYBLOCK
 62
     0
  5
DD0
  2
_OPEN
 10
360.378531
 20
293.453669
 30
0.0
 41
5.0
 42
5.0
 50
180.0
 43
5.0
  0
TEXT
  8
0
  6
BYBLOCK
 62
     0
  5
DD1
 10
370.318585
 20
296.787069
 30
0.0
 40
5.0
  1
45(～50)
  0
LINE
  8
0
  6
BYBLOCK
 62
     0
  5
DD2
 10
368.651885
 20
295.120369
 30
0.0
 11
402.151951
 21
295.120369
 31
0.0
  0
LINE
  8
0
  6
BYBLOCK
 62
     0
  5
DD3
 10
402.151951
 20
295.120369
 30
0.0
 11
402.151951
 21
303.453769
 31
0.0
  0
LINE
  8
0
  6
BYBLOCK
 62
     0
  5
DD4
 10
402.151951
 20
303.453769
 30
0.0
 11
368.651885
 21
303.453769
 31
0.0
  0
LINE
  8
0
  6
BYBLOCK
 62
     0
  5
DD5
 10
368.651885
 20
303.453769
 30
0.0
 11
368.651885
 21
295.120369
 31
0.0
  0
POINT
  8
DEFPOINTS
  6
BYBLOCK
 62
     0
  5
DD6
 10
410.425305
 20
254.351409
 30
0.0
  0
POINT
  8
DEFPOINTS
  6
BYBLOCK
 62
     0
  5
DD7
 10
360.378531
 20
179.255509
 30
0.0
  0
POINT
  8
DEFPOINTS
  6
BYBLOCK
 62
     0
  5
DD8
 10
360.378531
 20
293.453669
 30
0.0
  0
ENDBLK
  8
0
  5
DD9
  0
BLOCK
  8
0
  5
DE7
  2
*D18
 70
    65
 10
0.0
 20
0.0
 30
0.0
  3
*D18
  0
LINE
  8
0
  6
BYBLOCK
 62
     0
  5
DE8
 10
369.597904
 20
175.406197
 30
0.0
 11
446.303981
 21
175.406197
 31
0.0
  0
LINE
  8
0
  6
BYBLOCK
 62
     0
  5
DE9
 10
417.14234
 20
250.476359
 30
0.0
 11
446.303981
 21
250.476359
 31
0.0
  0
LINE
  8
0
  6
BYBLOCK
 62
     0
  5
DEA
 10
444.637281
 20
180.406197
 30
0.0
 11
444.637281
 21
245.476359
 31
0.0
  0
INSERT
  8
0
  6
BYBLOCK
 62
     0
  5
DEB
  2
_OPEN
 10
444.637281
 20
175.406197
 30
0.0
 41
5.0
 42
5.0
 50
270.0
 43
5.0
  0
INSERT
  8
0
  6
BYBLOCK
 62
     0
  5
DEC
  2
_OPEN
 10
444.637281
 20
250.476359
 30
0.0
 41
5.0
 42
5.0
 50
90.0
 43
5.0
  0
TEXT
  8
0
  6
BYBLOCK
 62
     0
  5
DED
 10
441.303881
 20
208.774611
 30
0.0
 40
5.0
  1
75
 50
90.0
  0
LINE
  8
0
  6
BYBLOCK
 62
     0
  5
DEE
 10
442.970581
 20
207.107911
 30
0.0
 11
442.970581
 21
218.774645
 31
0.0
  0
LINE
  8
0
  6
BYBLOCK
 62
     0
  5
DEF
 10
442.970581
 20
218.774645
 30
0.0
 11
434.637181
 21
218.774645
 31
0.0
  0
LINE
  8
0
  6
BYBLOCK
 62
     0
  5
DF0
 10
434.637181
 20
218.774645
 30
0.0
 11
434.637181
 21
207.107911
 31
0.0
  0
LINE
  8
0
  6
BYBLOCK
 62
     0
  5
DF1
 10
434.637181
 20
207.107911
 30
0.0
 11
442.970581
 21
207.107911
 31
0.0
  0
POINT
  8
DEFPOINTS
  6
BYBLOCK
 62
     0
  5
DF2
 10
367.931304
 20
175.406197
 30
0.0
  0
POINT
  8
DEFPOINTS
  6
BYBLOCK
 62
     0
  5
DF3
 10
415.47574
 20
250.476359
 30
0.0
  0
POINT
  8
DEFPOINTS
  6
BYBLOCK
 62
     0
  5
DF4
 10
444.637281
 20
250.476359
 30
0.0
  0
ENDBLK
  8
0
  5
DF5
  0
ENDSEC
  0
SECTION
  2
ENTITIES
  0
TEXT
  8
FF
  5
47B
 10
21.947723
 20
83.789141
 30
0.0
 40
8.579447
  1
※２ ： 補助接点ユニット（サイドオン）を2個取付けた場合
 41
0.833333
  0
TEXT
  8
FF
  5
47C
 10
21.947723
 20
106.667667
 30
0.0
 40
8.579447
  1
※１ ： 補助接点ユニット（ヘッドオン）を取付けた場合
 41
0.833333
  0
DIMENSION
  8
FF
  5
47D
  2
*D8
 10
236.309716
 20
150.971931
 30
0.0
 11
254.643083
 21
155.138631
 31
0.0
  1
16.5
 13
219.795711
 23
161.192913
 33
0.0
 14
236.309716
 24
183.163447
 34
0.0
  3
FSTD2
  0
DIMENSION
  8
FF
  5
47E
  2
*D1
 10
182.759667
 20
287.825552
 30
0.0
 11
219.794996
 21
291.992252
 31
0.0
  1
74
 13
256.830324
 23
252.978698
 33
0.0
 14
182.759667
 24
252.978698
 34
0.0
 50
180.0
  3
FSTD1
  0
DIMENSION
  8
FF
  5
47F
  2
*D2
 10
170.247974
 20
301.758574
 30
0.0
 11
219.794996
 21
305.925274
 31
0.0
  1
(99)
 13
269.342018
 23
242.969343
 33
0.0
 14
170.247974
 24
242.969343
 34
0.0
 50
180.0
  3
FSTD1
  0
LINE
  8
10
  6
CENTER
  5
480
 10
166.807901
 20
212.941278
 30
0.0
 11
271.847216
 21
212.941278
 31
0.0
  0
LINE
  8
0B
  5
481
 10
209.686262
 20
256.98244
 30
0.0
 11
229.905159
 21
256.98244
 31
0.0
  0
LINE
  8
0B
  5
482
 10
227.051063
 20
169.901052
 30
0.0
 11
253.827517
 21
169.901052
 31
0.0
  0
LINE
  8
0C
  5
483
 10
209.686262
 20
228.956246
 30
0.0
 11
229.905159
 21
228.956246
 31
0.0
  0
LINE
  8
0C
  5
484
 10
209.686262
 20
199.128368
 30
0.0
 11
229.905159
 21
199.128368
 31
0.0
  0
LINE
  8
0C
  5
485
 10
194.271855
 20
190.671893
 30
0.0
 11
245.319566
 21
190.671893
 31
0.0
  0
LINE
  8
0C
  5
486
 10
194.271855
 20
235.213523
 30
0.0
 11
245.319566
 21
235.213523
 31
0.0
  0
LINE
  8
0C
  5
487
 10
229.304598
 20
200.429584
 30
0.0
 11
226.802259
 21
200.429584
 31
0.0
  0
LINE
  8
0C
  5
488
 10
229.805065
 20
218.146142
 30
0.0
 11
209.786356
 21
218.146142
 31
0.0
  0
LINE
  8
0C
  5
489
 10
229.805065
 20
207.736413
 30
0.0
 11
209.786356
 21
207.736413
 31
0.0
  0
LINE
  8
0C
  5
48A
 10
226.802259
 20
225.452972
 30
0.0
 11
229.304598
 21
225.452972
 31
0.0
  0
LINE
  8
0C
  5
48B
 10
227.051063
 20
255.981504
 30
0.0
 11
229.052934
 21
255.981504
 31
0.0
  0
LINE
  8
0C
  5
48C
 10
227.051063
 20
169.901052
 30
0.0
 11
229.052934
 21
169.901052
 31
0.0
  0
DIMENSION
  8
FF
  5
48E
  2
*D9
 10
197.022998
 20
138.983584
 30
0.0
 11
178.689631
 21
143.150284
 31
0.0
  1
12.4
 13
209.534692
 23
170.901987
 33
0.0
 14
197.022998
 24
170.901987
 34
0.0
 50
180.0
  3
FSTD2
  0
TEXT
  8
FF
  5
48F
 10
141.811326
 20
155.741236
 30
0.0
 40
7.006548
  1
※１
 41
0.833333
  0
LINE
  8
10
  6
CENTER
  5
490
 10
219.795711
 20
264.652465
 30
0.0
 11
219.795711
 21
161.192913
 31
0.0
  0
DIMENSION
  8
FF
  5
4AD
  2
*D10
 10
12.807398
 20
279.143151
 30
0.0
 11
45.588035
 21
283.309851
 31
0.0
  1
65.5
 13
78.368673
 23
248.726152
 33
0.0
 14
12.807398
 24
254.431484
 34
0.0
 50
180.0
  3
FSTD2
  0
DIMENSION
  8
FF
  5
4AF
  2
*D3
 10
12.807398
 20
289.71303
 30
0.0
 11
60.752208
 21
293.87973
 31
0.0
  1
96
 13
108.697018
 23
216.444552
 33
0.0
 14
12.807398
 24
254.431484
 34
0.0
 50
180.0
  3
FSTD1
  0
TEXT
  8
FF
  5
4B0
 10
62.429548
 20
303.532903
 30
0.0
 40
5.004677
  1
（レール高さ１５の場合）
 41
0.833333
  0
LINE
  8
1A
  6
CENTER
  5
4B1
 10
-0.000001
 20
212.941278
 30
0.0
 11
143.942817
 21
212.941278
 31
0.0
  0
ARC
  8
15
  5
4B2
 10
62.478107
 20
255.981504
 30
0.0
 40
1.000935
 50
6.99999
 51
90.0
  0
LINE
  8
16
  5
4B3
 10
64.555763
 20
245.972149
 30
0.0
 11
49.842011
 21
245.972149
 31
0.0
  0
LINE
  8
15
  5
4B4
 10
63.561977
 20
179.618705
 30
0.0
 11
62.103471
 21
178.160199
 31
0.0
  0
LINE
  8
16
  5
4B5
 10
64.269781
 20
179.910407
 30
0.0
 11
49.842011
 21
179.910407
 31
0.0
  0
LINE
  8
16
  5
4B6
 10
76.851255
 20
182.913213
 30
0.0
 11
58.349963
 21
182.913213
 31
0.0
  0
LINE
  8
16
  5
4B7
 10
76.847251
 20
242.969343
 30
0.0
 11
58.349963
 21
242.969343
 31
0.0
  0
LINE
  8
16
  5
4B8
 10
64.655856
 20
210.438939
 30
0.0
 11
49.842011
 21
210.438939
 31
0.0
  0
LINE
  8
16
  5
4B9
 10
64.655856
 20
215.443617
 30
0.0
 11
49.842011
 21
215.443617
 31
0.0
  0
LINE
  8
17
  6
PHANTOM
  5
4BA
 10
3.798978
 20
225.452972
 30
0.0
 11
3.798978
 21
200.429584
 31
0.0
  0
LINE
  8
17
  6
PHANTOM
  5
4BB
 10
2.798043
 20
226.453907
 30
0.0
 11
2.798043
 21
199.428649
 31
0.0
  0
LINE
  8
15
  5
4BC
 10
17.812075
 20
196.626029
 30
0.0
 11
17.812075
 21
229.957181
 31
0.0
  0
LINE
  8
16
  5
4BD
 10
49.842011
 20
215.343523
 30
0.0
 11
49.842011
 21
242.368781
 31
0.0
  0
LINE
  8
16
  5
4BE
 10
49.842011
 20
245.972149
 30
0.0
 11
49.842011
 21
215.443617
 31
0.0
  0
LINE
  8
16
  5
4BF
 10
17.812075
 20
196.677506
 30
0.0
 11
27.82143
 21
196.677506
 31
0.0
  0
LINE
  8
15
  5
4C0
 10
22.316285
 20
169.901052
 30
0.0
 11
13.808333
 21
169.901052
 31
0.0
  0
LINE
  8
16
  5
4C1
 10
43.836398
 20
199.179845
 30
0.0
 11
17.812075
 21
199.179845
 31
0.0
  0
LINE
  8
15
  5
4C2
 10
13.307866
 20
182.163941
 30
0.0
 11
13.307866
 21
194.461149
 31
0.0
  0
LINE
  8
15
  5
4C3
 10
12.807398
 20
181.863661
 30
0.0
 11
12.807398
 21
171.453931
 31
0.0
  0
ARC
  8
15
  5
4C4
 10
13.808333
 20
170.401519
 30
0.0
 40
0.500468
 50
180.0
 51
270.0
  0
ARC
  8
15
  5
4C5
 10
13.107678
 20
171.453931
 30
0.0
 40
0.300281
 50
180.0
 51
270.0
  0
LINE
  8
15
  5
4C6
 10
13.307866
 20
171.153651
 30
0.0
 11
13.107678
 21
171.153651
 31
0.0
  0
LINE
  8
15
  5
4C7
 10
13.307866
 20
170.401519
 30
0.0
 11
13.307866
 21
171.153651
 31
0.0
  0
ARC
  8
15
  5
4C8
 10
13.107678
 20
181.863661
 30
0.0
 40
0.300281
 50
90.0
 51
180.0
  0
LINE
  8
15
  5
4C9
 10
13.307866
 20
182.163941
 30
0.0
 11
13.107678
 21
182.163941
 31
0.0
  0
LINE
  8
17
  6
PHANTOM
  5
4CA
 10
2.798043
 20
199.428649
 30
0.0
 11
16.81114
 21
199.428649
 31
0.0
  0
LINE
  8
17
  6
PHANTOM
  5
4CB
 10
3.798978
 20
200.429584
 30
0.0
 11
17.812075
 21
200.429584
 31
0.0
  0
LINE
  8
17
  6
CENTER
  5
4CC
 10
17.812075
 20
200.429584
 30
0.0
 11
17.812075
 21
196.551674
 31
0.0
  0
LINE
  8
17
  6
CENTER
  5
4CD
 10
16.81114
 20
199.428649
 30
0.0
 11
16.81114
 21
196.668927
 31
0.0
  0
ARC
  8
16
  5
4CE
 10
16.560906
 20
190.320136
 30
0.0
 40
5.004677
 50
89.4259
 51
130.54
  0
ARC
  8
15
  5
4CF
 10
17.011327
 20
197.126497
 30
0.0
 40
0.500468
 50
180.0
 51
270.0
  0
LINE
  8
15
  5
4D0
 10
16.510859
 20
197.827152
 30
0.0
 11
16.294371
 21
197.827152
 31
0.0
  0
ARC
  8
15
  5
4D1
 10
16.294371
 20
196.826216
 30
0.0
 40
1.000935
 50
90.0
 51
140.0
  0
ARC
  8
15
  5
4D2
 10
14.308801
 20
194.461149
 30
0.0
 40
1.000935
 50
140.0
 51
180.0
  0
LINE
  8
15
  5
4D3
 10
13.542084
 20
195.104607
 30
0.0
 11
15.527655
 21
197.469675
 31
0.0
  0
LINE
  8
16
  5
4D4
 10
17.812075
 20
195.324813
 30
0.0
 11
17.812075
 21
196.626029
 31
0.0
  0
LINE
  8
15
  5
4D5
 10
16.510859
 20
197.126497
 30
0.0
 11
16.510859
 21
197.827152
 31
0.0
  0
LINE
  8
15
  5
4D6
 10
17.812075
 20
196.626029
 30
0.0
 11
17.011327
 21
196.626029
 31
0.0
  0
LINE
  8
16
  5
4D7
 10
17.812075
 20
195.324813
 30
0.0
 11
16.610953
 21
195.324813
 31
0.0
  0
LINE
  8
16
  5
4D8
 10
49.842011
 20
183.513774
 30
0.0
 11
49.842011
 21
210.539033
 31
0.0
  0
LINE
  8
16
  5
4D9
 10
49.842011
 20
210.438939
 30
0.0
 11
49.842011
 21
171.902923
 31
0.0
  0
ARC
  8
15
  5
4DA
 10
42.334995
 20
171.902923
 30
0.0
 40
1.000935
 50
180.0
 51
270.0
  0
ARC
  8
16
  5
4DB
 10
42.334995
 20
180.911342
 30
0.0
 40
1.000935
 50
180.0
 51
270.0
  0
LINE
  8
16
  5
4DC
 10
24.318156
 20
188.918826
 30
0.0
 11
49.842011
 21
188.918826
 31
0.0
  0
LINE
  8
15
  5
4DD
 10
41.334059
 20
181.011436
 30
0.0
 11
41.334059
 21
171.902923
 31
0.0
  0
LINE
  8
15
  5
4DE
 10
23.317221
 20
170.901987
 30
0.0
 11
23.317221
 21
181.011436
 31
0.0
  0
ARC
  8
15
  5
4DF
 10
22.316285
 20
170.901987
 30
0.0
 40
1.000935
 50
270.0
 51
0.0
  0
LINE
  8
15
  5
4E0
 10
40.333124
 20
182.012371
 30
0.0
 11
24.318156
 21
182.012371
 31
0.0
  0
LINE
  8
16
  5
4E1
 10
23.317221
 20
187.91789
 30
0.0
 11
23.317221
 21
181.011436
 31
0.0
  0
ARC
  8
15
  5
4E2
 10
24.318156
 20
181.011436
 30
0.0
 40
1.000935
 50
90.0
 51
180.0
  0
ARC
  8
16
  5
4E3
 10
24.318156
 20
187.91789
 30
0.0
 40
1.000935
 50
90.0
 51
180.0
  0
ARC
  8
15
  5
4E4
 10
40.333124
 20
181.011436
 30
0.0
 40
1.000935
 50
0.0
 51
90.0
  0
ARC
  8
17
  5
4E5
 10
49.892058
 20
174.405261
 30
0.0
 40
9.208607
 50
343.2
 51
16.8
  0
LINE
  8
15
  5
4E6
 10
55.432951
 20
175.491991
 30
0.0
 11
57.513467
 21
177.573937
 31
0.0
  0
LINE
  8
15
  5
4E7
 10
54.846689
 20
170.901987
 30
0.0
 11
50.842947
 21
170.901987
 31
0.0
  0
LINE
  8
15
  5
4E8
 10
49.842011
 20
170.901987
 30
0.0
 11
42.334995
 21
170.901987
 31
0.0
  0
LINE
  8
15
  5
4E9
 10
49.842011
 20
170.901987
 30
0.0
 11
49.842011
 21
171.902923
 31
0.0
  0
ARC
  8
15
  5
4EA
 10
50.842947
 20
171.902923
 30
0.0
 40
1.000935
 50
180.0
 51
270.0
  0
ARC
  8
17
  5
4EB
 10
57.501742
 20
172.183184
 30
0.0
 40
1.281197
 50
270.0
 51
343.722
  0
LINE
  8
17
  5
4EC
 10
55.347156
 20
173.404326
 30
0.0
 11
56.348092
 21
174.405261
 31
0.0
  0
LINE
  8
17
  5
4ED
 10
56.348092
 20
170.901987
 30
0.0
 11
54.846689
 21
170.901987
 31
0.0
  0
LINE
  8
17
  5
4EE
 10
56.348092
 20
176.407132
 30
0.0
 11
56.348092
 21
170.901987
 31
0.0
  0
LINE
  8
17
  5
4EF
 10
57.501742
 20
170.901987
 30
0.0
 11
56.348092
 21
170.901987
 31
0.0
  0
LINE
  8
17
  5
4F0
 10
55.347156
 20
174.405261
 30
0.0
 11
56.348092
 21
175.406197
 31
0.0
  0
LINE
  8
17
  5
4F1
 10
54.846689
 20
170.901987
 30
0.0
 11
54.846689
 21
174.076382
 31
0.0
  0
LINE
  8
17
  5
4F2
 10
55.347156
 20
175.406197
 30
0.0
 11
55.347156
 21
170.901987
 31
0.0
  0
ARC
  8
15
  5
4F3
 10
56.84856
 20
174.076382
 30
0.0
 40
2.001871
 50
135.0
 51
180.0
  0
LINE
  8
15
  5
4F4
 10
54.846689
 20
170.901987
 30
0.0
 11
54.846689
 21
174.076382
 31
0.0
  0
LINE
  8
16
  5
4F5
 10
58.929076
 20
178.160199
 30
0.0
 11
49.842011
 21
178.160199
 31
0.0
  0
LINE
  8
16
  5
4F6
 10
57.349027
 20
188.918826
 30
0.0
 11
49.842011
 21
188.918826
 31
0.0
  0
LINE
  8
16
  5
4F7
 10
51.843882
 20
179.910407
 30
0.0
 11
42.334995
 21
179.910407
 31
0.0
  0
LINE
  8
16
  5
4F8
 10
57.349027
 20
188.918826
 30
0.0
 11
57.349027
 21
183.914148
 31
0.0
  0
ARC
  8
15
  5
4F9
 10
58.929076
 20
176.158328
 30
0.0
 40
2.001871
 50
121.986507
 51
135.0
  0
ARC
  8
16
  5
4FA
 10
58.349963
 20
183.914148
 30
0.0
 40
1.000935
 50
180.0
 51
270.0
  0
ARC
  8
15
  5
4FB
 10
58.929076
 20
176.158328
 30
0.0
 40
2.001871
 50
90.0
 51
121.986507
  0
LINE
  8
15
  5
4FC
 10
58.929076
 20
178.160199
 30
0.0
 11
62.103471
 21
178.160199
 31
0.0
  0
ARC
  8
17
  5
4FD
 10
57.501742
 20
176.627338
 30
0.0
 40
1.281197
 50
16.2783
 51
73.3589
  0
LINE
  8
16
  5
4FE
 10
43.836398
 20
197.07788
 30
0.0
 11
27.82143
 21
196.677506
 31
0.0
  0
LINE
  8
16
  5
4FF
 10
34.827979
 20
199.179845
 30
0.0
 11
34.827979
 21
196.851955
 31
0.0
  0
ARC
  8
16
  5
500
 10
47.940234
 20
197.927245
 30
0.0
 40
2.101965
 50
90.0
 51
270.0
  0
LINE
  8
16
  5
501
 10
43.836398
 20
197.07788
 30
0.0
 11
43.836398
 21
199.179845
 31
0.0
  0
LINE
  8
16
  5
502
 10
49.842011
 20
195.825281
 30
0.0
 11
47.940234
 21
195.825281
 31
0.0
  0
LINE
  8
16
  5
503
 10
49.842011
 20
200.02921
 30
0.0
 11
47.940234
 21
200.02921
 31
0.0
  0
ARC
  8
16
  5
504
 10
51.343414
 20
213.84212
 30
0.0
 40
1.501403
 50
0.0
 51
90.0
  0
ARC
  8
16
  5
505
 10
51.343414
 20
212.040436
 30
0.0
 40
1.501403
 50
270.0
 51
0.0
  0
LINE
  8
16
  5
506
 10
51.343414
 20
210.539033
 30
0.0
 11
49.842011
 21
210.539033
 31
0.0
  0
LINE
  8
16
  5
507
 10
51.343414
 20
215.343523
 30
0.0
 11
49.842011
 21
215.343523
 31
0.0
  0
LINE
  8
16
  5
508
 10
52.844818
 20
212.040436
 30
0.0
 11
52.844818
 21
213.84212
 31
0.0
  0
DIMENSION
  8
FF
  5
509
  2
*D11
 10
23.317221
 20
268.333048
 30
0.0
 11
41.233921
 21
272.499748
 31
0.0
  1
10.5
 13
12.807398
 23
254.431484
 33
0.0
 14
23.317221
 24
254.980569
 34
0.0
  3
FSTD2
  0
LINE
  8
16
  5
50A
 10
17.812075
 20
229.20791
 30
0.0
 11
27.82143
 21
229.20791
 31
0.0
  0
LINE
  8
15
  5
50B
 10
22.316285
 20
255.981504
 30
0.0
 11
13.808333
 21
255.981504
 31
0.0
  0
LINE
  8
16
  5
50C
 10
43.836398
 20
226.705571
 30
0.0
 11
17.812075
 21
226.705571
 31
0.0
  0
LINE
  8
15
  5
50D
 10
12.807398
 20
244.021755
 30
0.0
 11
12.807398
 21
254.431484
 31
0.0
  0
LINE
  8
15
  5
50E
 10
13.307866
 20
228.055404
 30
0.0
 11
13.307866
 21
243.721474
 31
0.0
  0
LINE
  8
17
  6
PHANTOM
  5
50F
 10
3.798978
 20
225.452972
 30
0.0
 11
17.812075
 21
225.452972
 31
0.0
  0
LINE
  8
17
  6
PHANTOM
  5
510
 10
2.798043
 20
226.453907
 30
0.0
 11
16.81114
 21
226.453907
 31
0.0
  0
LINE
  8
17
  6
CENTER
  5
511
 10
17.812075
 20
229.957181
 30
0.0
 11
17.812075
 21
228.175516
 31
0.0
  0
LINE
  8
17
  6
CENTER
  5
512
 10
16.81114
 20
229.957181
 30
0.0
 11
16.81114
 21
226.453907
 31
0.0
  0
LINE
  8
15
  5
513
 10
16.761093
 20
229.35662
 30
0.0
 11
16.009819
 21
228.055404
 31
0.0
  0
LINE
  8
15
  5
514
 10
16.009819
 20
228.055404
 30
0.0
 11
13.307866
 21
228.055404
 31
0.0
  0
LINE
  8
16
  5
515
 10
17.812075
 20
230.557743
 30
0.0
 11
13.307866
 21
230.557743
 31
0.0
  0
LINE
  8
16
  5
516
 10
17.812075
 20
229.957181
 30
0.0
 11
17.812075
 21
230.557743
 31
0.0
  0
LINE
  8
15
  5
517
 10
17.812075
 20
229.957181
 30
0.0
 11
16.761093
 21
229.957181
 31
0.0
  0
LINE
  8
15
  5
518
 10
16.761093
 20
229.35662
 30
0.0
 11
16.761093
 21
229.957181
 31
0.0
  0
ARC
  8
15
  5
519
 10
13.107678
 20
244.021755
 30
0.0
 40
0.300281
 50
180.0
 51
270.0
  0
LINE
  8
15
  5
51A
 10
13.307866
 20
243.721474
 30
0.0
 11
13.107678
 21
243.721474
 31
0.0
  0
ARC
  8
15
  5
51B
 10
13.808333
 20
255.481036
 30
0.0
 40
0.500468
 50
90.0
 51
180.0
  0
ARC
  8
15
  5
51C
 10
13.107678
 20
254.431484
 30
0.0
 40
0.300281
 50
90.0
 51
180.0
  0
LINE
  8
15
  5
51D
 10
13.307866
 20
254.731765
 30
0.0
 11
13.107678
 21
254.731765
 31
0.0
  0
LINE
  8
15
  5
51E
 10
13.307866
 20
254.731765
 30
0.0
 11
13.307866
 21
255.481036
 31
0.0
  0
LINE
  8
15
  5
51F
 10
41.334059
 20
255.981504
 30
0.0
 11
41.334059
 21
244.87112
 31
0.0
  0
LINE
  8
15
  5
520
 10
23.317221
 20
244.87112
 30
0.0
 11
23.317221
 21
254.980569
 31
0.0
  0
ARC
  8
16
  5
521
 10
42.334995
 20
244.971214
 30
0.0
 40
1.000935
 50
90.0
 51
180.0
  0
LINE
  8
16
  5
522
 10
43.836398
 20
228.807535
 30
0.0
 11
27.82143
 21
229.20791
 31
0.0
  0
LINE
  8
16
  5
523
 10
24.318156
 20
236.96373
 30
0.0
 11
49.842011
 21
236.96373
 31
0.0
  0
LINE
  8
16
  5
524
 10
34.827979
 20
226.705571
 30
0.0
 11
34.827979
 21
229.030601
 31
0.0
  0
LINE
  8
15
  5
525
 10
40.333124
 20
243.870185
 30
0.0
 11
24.318156
 21
243.870185
 31
0.0
  0
LINE
  8
16
  5
526
 10
23.317221
 20
237.964665
 30
0.0
 11
23.317221
 21
244.87112
 31
0.0
  0
ARC
  8
15
  5
527
 10
24.318156
 20
244.87112
 30
0.0
 40
1.000935
 50
180.0
 51
270.0
  0
ARC
  8
16
  5
528
 10
24.318156
 20
237.964665
 30
0.0
 40
1.000935
 50
180.0
 51
270.0
  0
ARC
  8
15
  5
529
 10
40.333124
 20
244.87112
 30
0.0
 40
1.000935
 50
270.0
 51
0.0
  0
ARC
  8
16
  5
52A
 10
47.940234
 20
227.95531
 30
0.0
 40
2.101965
 50
90.0
 51
270.0
  0
LINE
  8
16
  5
52B
 10
43.836398
 20
228.807535
 30
0.0
 11
43.836398
 21
226.705571
 31
0.0
  0
LINE
  8
16
  5
52C
 10
49.842011
 20
225.853346
 30
0.0
 11
47.940234
 21
225.853346
 31
0.0
  0
LINE
  8
16
  5
52D
 10
49.842011
 20
230.057275
 30
0.0
 11
47.940234
 21
230.057275
 31
0.0
  0
LINE
  8
16
  5
52E
 10
57.349027
 20
236.96373
 30
0.0
 11
49.842011
 21
236.96373
 31
0.0
  0
LINE
  8
16
  5
52F
 10
49.942105
 20
245.972149
 30
0.0
 11
42.334995
 21
245.972149
 31
0.0
  0
ARC
  8
16
  5
530
 10
58.349963
 20
241.968407
 30
0.0
 40
1.000935
 50
90.0
 51
180.0
  0
LINE
  8
16
  5
531
 10
57.349027
 20
241.968407
 30
0.0
 11
57.349027
 21
236.96373
 31
0.0
  0
ARC
  8
15
  5
532
 10
42.334995
 20
255.981504
 30
0.0
 40
1.000935
 50
90.0
 51
180.0
  0
ARC
  8
15
  5
533
 10
22.316285
 20
254.980569
 30
0.0
 40
1.000935
 50
0.0
 51
90.0
  0
LINE
  8
15
  5
534
 10
62.478107
 20
256.98244
 30
0.0
 11
42.334995
 21
256.98244
 31
0.0
  0
LINE
  8
FF
  5
535
 10
199.702645
 20
245.457382
 30
0.0
 11
164.766565
 21
287.785515
 31
0.0
  0
DIMENSION
  8
FF
  5
536
  2
*D4
 10
108.697018
 20
289.504264
 30
0.0
 11
122.359788
 21
293.670964
 31
0.0
  1
(28)
 13
136.022557
 23
214.943149
 33
0.0
 14
108.697018
 24
216.444552
 34
0.0
 50
180.0
  3
FSTD1
  0
LINE
  8
FF
  5
537
 10
172.965085
 20
255.686943
 30
0.0
 11
141.459666
 21
255.686943
 31
0.0
  0
TEXT
  8
FF
  5
538
 10
143.136433
 20
258.815581
 30
0.0
 40
5.004677
  1
M3.5
 41
1.181776
  0
TEXT
  8
FF
  5
539
 10
142.485253
 20
264.935587
 30
0.0
 40
7.006548
  1
補助端子
 41
0.833333
  0
LINE
  8
FF
  5
53A
 10
123.825157
 20
194.913
 30
0.0
 11
147.648129
 21
166.063504
 31
0.0
  0
LINE
  8
16
  5
53B
 10
103.191873
 20
224.452036
 30
0.0
 11
103.191873
 21
218.146142
 31
0.0
  0
LINE
  8
17
  6
PHANTOM
  5
53C
 10
133.870546
 20
204.184522
 30
0.0
 11
133.870546
 21
221.700893
 31
0.0
  0
LINE
  8
16
  5
53D
 10
105.544071
 20
223.451101
 30
0.0
 11
105.544071
 21
219.447359
 31
0.0
  0
LINE
  8
15
  5
53E
 10
108.546878
 20
224.151755
 30
0.0
 11
108.546878
 21
219.147078
 31
0.0
  0
LINE
  8
16
  5
53F
 10
99.388318
 20
235.213523
 30
0.0
 11
99.388318
 21
190.671893
 31
0.0
  0
LINE
  8
16
  5
540
 10
105.544071
 20
219.447359
 30
0.0
 11
105.544071
 21
223.451101
 31
0.0
  0
LINE
  8
15
  5
541
 10
108.546878
 20
219.147078
 30
0.0
 11
108.546878
 21
224.151755
 31
0.0
  0
LINE
  8
17
  6
PHANTOM
  5
542
 10
103.5422
 20
196.677506
 30
0.0
 11
105.043604
 21
195.176103
 31
0.0
  0
LINE
  8
15
  5
543
 10
107.696083
 20
217.445488
 30
0.0
 11
103.191873
 21
217.445488
 31
0.0
  0
LINE
  8
15
  5
544
 10
107.696083
 20
208.437068
 30
0.0
 11
103.191873
 21
208.437068
 31
0.0
  0
LINE
  8
15
  5
545
 10
108.246597
 20
201.43052
 30
0.0
 11
103.191873
 21
201.43052
 31
0.0
  0
LINE
  8
15
  5
546
 10
107.545942
 20
207.736413
 30
0.0
 11
103.191873
 21
207.736413
 31
0.0
  0
LINE
  8
16
  5
547
 10
105.544071
 20
219.447359
 30
0.0
 11
103.191873
 21
219.447359
 31
0.0
  0
LINE
  8
15
  5
548
 10
103.191873
 20
218.146142
 30
0.0
 11
107.545942
 21
218.146142
 31
0.0
  0
LINE
  8
15
  5
549
 10
107.545942
 20
207.736413
 30
0.0
 11
103.342013
 21
207.736413
 31
0.0
  0
LINE
  8
15
  5
54A
 10
107.545942
 20
218.146142
 30
0.0
 11
103.342013
 21
218.146142
 31
0.0
  0
LINE
  8
16
  5
54B
 10
105.544071
 20
219.447359
 30
0.0
 11
103.342013
 21
219.447359
 31
0.0
  0
LINE
  8
15
  5
54C
 10
103.191873
 20
191.172361
 30
0.0
 11
103.191873
 21
201.43052
 31
0.0
  0
LINE
  8
16
  5
54D
 10
99.267634
 20
193.591765
 30
0.0
 11
97.836868
 21
189.662378
 31
0.0
  0
LINE
  8
16
  5
54E
 10
96.869964
 20
188.918826
 30
0.0
 11
79.369608
 21
188.918826
 31
0.0
  0
LINE
  8
15
  5
54F
 10
95.343109
 20
169.901052
 30
0.0
 11
70.075207
 21
169.901052
 31
0.0
  0
LINE
  8
15
  5
550
 10
66.055736
 20
179.169714
 30
0.0
 11
68.1414
 21
171.385296
 31
0.0
  0
ARC
  8
15
  5
551
 10
70.075207
 20
171.902923
 30
0.0
 40
2.001871
 50
195.0
 51
270.0
  0
LINE
  8
15
  5
552
 10
64.269781
 20
179.910407
 30
0.0
 11
65.089119
 21
179.910407
 31
0.0
  0
ARC
  8
15
  5
553
 10
64.269781
 20
178.909471
 30
0.0
 40
1.000935
 50
90.0
 51
135.0
  0
ARC
  8
15
  5
554
 10
65.089119
 20
178.909471
 30
0.0
 40
1.000935
 50
15.0
 51
90.0
  0
LINE
  8
17
  6
DASHED
  5
555
 10
78.368673
 20
177.159264
 30
0.0
 11
78.368673
 21
188.938845
 31
0.0
  0
LINE
  8
17
  6
DASHED
  5
556
 10
76.366802
 20
177.159264
 30
0.0
 11
76.366802
 21
189.053237
 31
0.0
  0
LINE
  8
16
  5
557
 10
79.248924
 20
187.586152
 30
0.0
 11
77.818158
 21
183.656765
 31
0.0
  0
LINE
  8
17
  5
558
 10
76.366802
 20
177.159264
 30
0.0
 11
78.368673
 21
177.159264
 31
0.0
  0
ARC
  8
16
  5
559
 10
76.851255
 20
183.914148
 30
0.0
 40
1.000935
 50
270.0
 51
345.0
  0
POLYLINE
  8
17
  5
55A
 66
     1
 10
0.0
 20
0.0
 30
0.0
  0
VERTEX
  8
17
  5
EAF
 10
78.368673
 20
188.938845
 30
0.0
  0
VERTEX
  8
17
  5
EB0
 10
78.329122
 20
188.961437
 30
0.0
  0
VERTEX
  8
17
  5
EB1
 10
78.275729
 20
188.996041
 30
0.0
  0
VERTEX
  8
17
  5
EB2
 10
78.196826
 20
189.049806
 30
0.0
  0
VERTEX
  8
17
  5
EB3
 10
78.089555
 20
189.113293
 30
0.0
  0
VERTEX
  8
17
  5
EB4
 10
77.956631
 20
189.172492
 30
0.0
  0
VERTEX
  8
17
  5
EB5
 10
77.814154
 20
189.213387
 30
0.0
  0
VERTEX
  8
17
  5
EB6
 10
77.677598
 20
189.22311
 30
0.0
  0
VERTEX
  8
17
  5
EB7
 10
77.54619
 20
189.190508
 30
0.0
  0
VERTEX
  8
17
  5
EB8
 10
77.416125
 20
189.111292
 30
0.0
  0
VERTEX
  8
17
  5
EB9
 10
77.287948
 20
189.01034
 30
0.0
  0
VERTEX
  8
17
  5
EBA
 10
77.163003
 20
188.915394
 30
0.0
  0
VERTEX
  8
17
  5
EBB
 10
77.042004
 20
188.841611
 30
0.0
  0
VERTEX
  8
17
  5
EBC
 10
76.924723
 20
188.799572
 30
0.0
  0
VERTEX
  8
17
  5
EBD
 10
76.808071
 20
188.795854
 30
0.0
  0
VERTEX
  8
17
  5
EBE
 10
76.691162
 20
188.832174
 30
0.0
  0
VERTEX
  8
17
  5
EBF
 10
76.585006
 20
188.890228
 30
0.0
  0
VERTEX
  8
17
  5
EC0
 10
76.500956
 20
188.949712
 30
0.0
  0
VERTEX
  8
17
  5
EC1
 10
76.439727
 20
188.998901
 30
0.0
  0
VERTEX
  8
17
  5
EC2
 10
76.397516
 20
189.031217
 30
0.0
  0
VERTEX
  8
17
  5
EC3
 10
76.366802
 20
189.053237
 30
0.0
  0
SEQEND
  8
17
  5
EC4
  0
ARC
  8
16
  5
571
 10
77.367737
 20
188.272508
 30
0.0
 40
2.001871
 50
340.0
 51
0.0
  0
LINE
  8
16
  5
572
 10
79.369608
 20
188.918826
 30
0.0
 11
79.369608
 21
188.272508
 31
0.0
  0
LINE
  8
15
  5
573
 10
99.388318
 20
190.671893
 30
0.0
 11
99.388318
 21
175.443374
 31
0.0
  0
ARC
  8
15
  5
574
 10
97.386447
 20
175.443374
 30
0.0
 40
2.001871
 50
330.0
 51
0.0
  0
ARC
  8
15
  5
575
 10
95.343109
 20
171.902923
 30
0.0
 40
2.001871
 50
270.0
 51
330.0
  0
LINE
  8
15
  5
576
 10
99.120067
 20
174.442439
 30
0.0
 11
97.076729
 21
170.901987
 31
0.0
  0
ARC
  8
16
  5
577
 10
96.869964
 20
189.919761
 30
0.0
 40
1.000935
 50
270.0
 51
345.0
  0
ARC
  8
15
  5
578
 10
102.691405
 20
191.172361
 30
0.0
 40
0.500468
 50
270.0
 51
0.0
  0
LINE
  8
15
  5
579
 10
102.691405
 20
190.671893
 30
0.0
 11
99.388318
 21
190.671893
 31
0.0
  0
LINE
  8
16
  5
57A
 10
65.156324
 20
214.943149
 30
0.0
 11
65.156324
 21
210.939407
 31
0.0
  0
ARC
  8
16
  5
57B
 10
64.655856
 20
210.939407
 30
0.0
 40
0.500468
 50
270.0
 51
0.0
  0
ARC
  8
16
  5
57C
 10
64.655856
 20
214.943149
 30
0.0
 40
0.500468
 50
0.0
 51
90.0
  0
LINE
  8
16
  5
57D
 10
103.191873
 20
207.736413
 30
0.0
 11
103.191873
 21
201.43052
 31
0.0
  0
LINE
  8
17
  6
PHANTOM
  5
57E
 10
103.5422
 20
196.677506
 30
0.0
 11
103.5422
 21
201.43052
 31
0.0
  0
ARC
  8
16
  5
57F
 10
97.386447
 20
194.278121
 30
0.0
 40
2.001871
 50
340.0
 51
0.0
  0
LINE
  8
16
  5
580
 10
103.191873
 20
208.437068
 30
0.0
 11
103.191873
 21
217.445488
 31
0.0
  0
LINE
  8
15
  5
581
 10
103.191873
 20
207.736413
 30
0.0
 11
103.191873
 21
208.437068
 31
0.0
  0
LINE
  8
15
  5
582
 10
103.191873
 20
218.146142
 30
0.0
 11
103.191873
 21
217.445488
 31
0.0
  0
LINE
  8
17
  6
PHANTOM
  5
583
 10
131.021598
 20
192.708082
 30
0.0
 11
129.180448
 21
189.519387
 31
0.0
  0
LINE
  8
17
  6
PHANTOM
  5
584
 10
111.83967
 20
192.708082
 30
0.0
 11
113.313047
 21
190.157126
 31
0.0
  0
LINE
  8
17
  6
PHANTOM
  5
585
 10
127.446828
 20
188.518452
 30
0.0
 11
117.577032
 21
188.518452
 31
0.0
  0
LINE
  8
17
  6
PHANTOM
  5
586
 10
114.596246
 20
189.207667
 30
0.0
 11
117.577032
 21
188.518452
 31
0.0
  0
ARC
  8
17
  6
PHANTOM
  5
587
 10
115.046667
 20
191.158062
 30
0.0
 40
2.001871
 50
210.0
 51
257.0
  0
ARC
  8
17
  6
PHANTOM
  5
588
 10
127.446828
 20
190.520323
 30
0.0
 40
2.001871
 50
270.0
 51
330.0
  0
LINE
  8
15
  5
589
 10
108.546878
 20
201.7308
 30
0.0
 11
108.546878
 21
206.735478
 31
0.0
  0
LINE
  8
16
  5
58A
 10
105.544071
 20
207.736413
 30
0.0
 11
105.544071
 21
201.43052
 31
0.0
  0
LINE
  8
16
  5
58B
 10
105.544071
 20
201.43052
 30
0.0
 11
105.544071
 21
207.736413
 31
0.0
  0
LINE
  8
15
  5
58C
 10
108.546878
 20
201.7308
 30
0.0
 11
108.546878
 21
206.735478
 31
0.0
  0
ARC
  8
17
  6
PHANTOM
  5
58D
 10
110.048281
 20
195.324813
 30
0.0
 40
0.500468
 50
90.0
 51
180.0
  0
LINE
  8
17
  6
PHANTOM
  5
58E
 10
109.570692
 20
195.176103
 30
0.0
 11
105.043604
 21
195.176103
 31
0.0
  0
ARC
  8
17
  6
PHANTOM
  5
58F
 10
113.57329
 20
193.709017
 30
0.0
 40
2.001871
 50
180.0
 51
210.0
  0
LINE
  8
17
  6
PHANTOM
  5
590
 10
109.547813
 20
195.176103
 30
0.0
 11
109.547813
 21
195.324813
 31
0.0
  0
LINE
  8
17
  6
PHANTOM
  5
591
 10
111.571419
 20
193.709017
 30
0.0
 11
111.571419
 21
195.825281
 31
0.0
  0
LINE
  8
17
  6
PHANTOM
  5
592
 10
110.048281
 20
195.825281
 30
0.0
 11
111.571419
 21
195.825281
 31
0.0
  0
ARC
  8
15
  5
593
 10
108.246597
 20
201.7308
 30
0.0
 40
0.300281
 50
270.0
 51
0.000005
  0
LINE
  8
15
  5
594
 10
105.544071
 20
201.43052
 30
0.0
 11
108.246597
 21
201.43052
 31
0.0
  0
LINE
  8
15
  5
595
 10
108.697018
 20
209.438004
 30
0.0
 11
108.697018
 21
216.444552
 31
0.0
  0
ARC
  8
15
  5
596
 10
107.696083
 20
209.438004
 30
0.0
 40
1.000935
 50
270.0
 51
0.0
  0
LINE
  8
15
  5
597
 10
107.545942
 20
207.736413
 30
0.0
 11
108.546878
 21
206.735478
 31
0.0
  0
LINE
  8
15
  5
598
 10
108.546878
 20
206.735478
 30
0.0
 11
107.545942
 21
207.736413
 31
0.0
  0
ARC
  8
15
  5
599
 10
107.696083
 20
216.444552
 30
0.0
 40
1.000935
 50
0.0
 51
90.0
  0
LINE
  8
15
  5
59A
 10
107.545942
 20
218.146142
 30
0.0
 11
108.546878
 21
219.147078
 31
0.0
  0
LINE
  8
15
  5
59B
 10
107.545942
 20
218.146142
 30
0.0
 11
108.546878
 21
219.147078
 31
0.0
  0
LINE
  8
17
  6
PHANTOM
  5
59C
 10
131.289848
 20
193.709017
 30
0.0
 11
131.289848
 21
203.884242
 31
0.0
  0
ARC
  8
17
  6
PHANTOM
  5
59D
 10
129.287977
 20
193.709017
 30
0.0
 40
2.001871
 50
330.0
 51
0.000005
  0
ARC
  8
17
  6
PHANTOM
  5
59E
 10
133.570265
 20
204.184522
 30
0.0
 40
0.300281
 50
270.0
 51
0.0
  0
LINE
  8
17
  6
PHANTOM
  5
59F
 10
133.570265
 20
203.884242
 30
0.0
 11
131.289848
 21
203.884242
 31
0.0
  0
LINE
  8
17
  5
5A0
 10
133.870546
 20
214.943149
 30
0.0
 11
136.022557
 21
214.943149
 31
0.0
  0
LINE
  8
17
  5
5A1
 10
133.870546
 20
210.939407
 30
0.0
 11
136.022557
 21
210.939407
 31
0.0
  0
LINE
  8
17
  5
5A2
 10
136.022557
 20
214.943149
 30
0.0
 11
136.022557
 21
210.939407
 31
0.0
  0
LINE
  8
17
  6
PHANTOM
  5
5A3
 10
103.5422
 20
229.20791
 30
0.0
 11
105.043604
 21
230.709313
 31
0.0
  0
LINE
  8
15
  5
5A4
 10
108.246597
 20
224.452036
 30
0.0
 11
103.191873
 21
224.452036
 31
0.0
  0
LINE
  8
15
  5
5A5
 10
108.246597
 20
224.452036
 30
0.0
 11
103.342013
 21
224.452036
 31
0.0
  0
LINE
  8
15
  5
5A6
 10
64.555763
 20
247.273365
 30
0.0
 11
63.471607
 21
256.104476
 31
0.0
  0
ARC
  8
15
  5
5A7
 10
97.386447
 20
250.442041
 30
0.0
 40
2.001871
 50
0.0
 51
30.0
  0
LINE
  8
15
  5
5A8
 10
66.055736
 20
246.715701
 30
0.0
 11
68.1414
 21
254.49726
 31
0.0
  0
LINE
  8
16
  5
5A9
 10
96.865961
 20
236.96373
 30
0.0
 11
79.369608
 21
236.96373
 31
0.0
  0
LINE
  8
15
  5
5AA
 10
65.089119
 20
245.972149
 30
0.0
 11
64.555763
 21
245.972149
 31
0.0
  0
LINE
  8
15
  5
5AB
 10
64.555763
 20
245.972149
 30
0.0
 11
64.555763
 21
247.273365
 31
0.0
  0
ARC
  8
15
  5
5AC
 10
65.089119
 20
246.973085
 30
0.0
 40
1.000935
 50
270.0
 51
345.0
  0
LINE
  8
17
  6
DASHED
  5
5AD
 10
76.366802
 20
248.726152
 30
0.0
 11
76.366802
 21
236.832178
 31
0.0
  0
LINE
  8
17
  6
DASHED
  5
5AE
 10
78.368673
 20
248.726152
 30
0.0
 11
78.368673
 21
236.943711
 31
0.0
  0
LINE
  8
16
  5
5AF
 10
79.248924
 20
238.296404
 30
0.0
 11
77.787844
 21
242.311585
 31
0.0
  0
POLYLINE
  8
17
  5
5B0
 66
     1
 10
0.0
 20
0.0
 30
0.0
  0
VERTEX
  8
17
  5
EC5
 10
78.368673
 20
236.943711
 30
0.0
  0
VERTEX
  8
17
  5
EC6
 10
78.329122
 20
236.921118
 30
0.0
  0
VERTEX
  8
17
  5
EC7
 10
78.275729
 20
236.886515
 30
0.0
  0
VERTEX
  8
17
  5
EC8
 10
78.196826
 20
236.83275
 30
0.0
  0
VERTEX
  8
17
  5
EC9
 10
78.089555
 20
236.769262
 30
0.0
  0
VERTEX
  8
17
  5
ECA
 10
77.956631
 20
236.710064
 30
0.0
  0
VERTEX
  8
17
  5
ECB
 10
77.814154
 20
236.669169
 30
0.0
  0
VERTEX
  8
17
  5
ECC
 10
77.677598
 20
236.660589
 30
0.0
  0
VERTEX
  8
17
  5
ECD
 10
77.54619
 20
236.694907
 30
0.0
  0
VERTEX
  8
17
  5
ECE
 10
77.416125
 20
236.774696
 30
0.0
  0
VERTEX
  8
17
  5
ECF
 10
77.287948
 20
236.875075
 30
0.0
  0
VERTEX
  8
17
  5
ED0
 10
77.163003
 20
236.968591
 30
0.0
  0
VERTEX
  8
17
  5
ED1
 10
77.042004
 20
237.040945
 30
0.0
  0
VERTEX
  8
17
  5
ED2
 10
76.924723
 20
237.082698
 30
0.0
  0
VERTEX
  8
17
  5
ED3
 10
76.808071
 20
237.086702
 30
0.0
  0
VERTEX
  8
17
  5
ED4
 10
76.691162
 20
237.050668
 30
0.0
  0
VERTEX
  8
17
  5
ED5
 10
76.585006
 20
236.992328
 30
0.0
  0
VERTEX
  8
17
  5
ED6
 10
76.500956
 20
236.932558
 30
0.0
  0
VERTEX
  8
17
  5
ED7
 10
76.439727
 20
236.883655
 30
0.0
  0
VERTEX
  8
17
  5
ED8
 10
76.397516
 20
236.852483
 30
0.0
  0
VERTEX
  8
17
  5
ED9
 10
76.366802
 20
236.832178
 30
0.0
  0
SEQEND
  8
17
  5
EDA
  0
ARC
  8
16
  5
5C7
 10
76.847251
 20
241.968407
 30
0.0
 40
1.000935
 50
20.0
 51
90.0
  0
ARC
  8
16
  5
5C8
 10
77.367737
 20
237.612908
 30
0.0
 40
2.001871
 50
0.0
 51
20.0
  0
LINE
  8
16
  5
5C9
 10
79.369608
 20
237.612908
 30
0.0
 11
79.369608
 21
236.96373
 31
0.0
  0
LINE
  8
17
  5
5CA
 10
76.366802
 20
248.726152
 30
0.0
 11
78.368673
 21
248.726152
 31
0.0
  0
LINE
  8
15
  5
5CB
 10
99.388318
 20
250.442041
 30
0.0
 11
99.388318
 21
235.213523
 31
0.0
  0
ARC
  8
16
  5
5CC
 10
96.865961
 20
235.962794
 30
0.0
 40
1.000935
 50
20.0
 51
90.0
  0
LINE
  8
15
  5
5CD
 10
103.191873
 20
224.452036
 30
0.0
 11
103.191873
 21
234.713055
 31
0.0
  0
LINE
  8
17
  6
PHANTOM
  5
5CE
 10
103.5422
 20
224.452036
 30
0.0
 11
103.5422
 21
229.20791
 31
0.0
  0
LINE
  8
17
  6
PHANTOM
  5
5CF
 10
103.5422
 20
228.956246
 30
0.0
 11
103.5422
 21
224.452036
 31
0.0
  0
LINE
  8
16
  5
5D0
 10
99.267634
 20
232.290791
 30
0.0
 11
97.806554
 21
236.305972
 31
0.0
  0
ARC
  8
15
  5
5D1
 10
102.691405
 20
234.713055
 30
0.0
 40
0.500468
 50
0.0
 51
90.0
  0
LINE
  8
15
  5
5D2
 10
102.691405
 20
235.213523
 30
0.0
 11
99.388318
 21
235.213523
 31
0.0
  0
ARC
  8
16
  5
5D3
 10
97.386447
 20
231.607295
 30
0.0
 40
2.001871
 50
0.0
 51
20.0
  0
LINE
  8
15
  5
5D4
 10
95.343109
 20
255.981504
 30
0.0
 11
70.075207
 21
255.981504
 31
0.0
  0
ARC
  8
15
  5
5D5
 10
70.075207
 20
253.979633
 30
0.0
 40
2.001871
 50
90.0
 51
165.0
  0
ARC
  8
15
  5
5D6
 10
95.343109
 20
253.979633
 30
0.0
 40
2.001871
 50
30.0
 51
90.0
  0
LINE
  8
15
  5
5D7
 10
99.120067
 20
251.442977
 30
0.0
 11
97.076729
 21
254.980569
 31
0.0
  0
LINE
  8
17
  6
PHANTOM
  5
5D8
 10
127.446828
 20
237.364104
 30
0.0
 11
117.577032
 21
237.364104
 31
0.0
  0
ARC
  8
17
  6
PHANTOM
  5
5D9
 10
115.046667
 20
234.724494
 30
0.0
 40
2.001871
 50
103.0
 51
150.0
  0
ARC
  8
15
  5
5DA
 10
108.246597
 20
224.151755
 30
0.0
 40
0.300281
 50
0.000005
 51
90.0
  0
LINE
  8
16
  5
5DB
 10
105.544071
 20
223.451101
 30
0.0
 11
106.545007
 21
224.452036
 31
0.0
  0
LINE
  8
17
  6
PHANTOM
  5
5DC
 10
111.549684
 20
230.709313
 30
0.0
 11
105.043604
 21
230.709313
 31
0.0
  0
LINE
  8
17
  6
PHANTOM
  5
5DD
 10
106.34482
 20
235.213523
 30
0.0
 11
105.343884
 21
234.212587
 31
0.0
  0
LINE
  8
17
  6
PHANTOM
  5
5DE
 10
106.845288
 20
235.213523
 30
0.0
 11
106.34482
 21
235.213523
 31
0.0
  0
LINE
  8
17
  6
PHANTOM
  5
5DF
 10
105.343884
 20
234.212587
 30
0.0
 11
105.343884
 21
230.709313
 31
0.0
  0
LINE
  8
17
  6
PHANTOM
  5
5E0
 10
106.845288
 20
235.213523
 30
0.0
 11
106.845288
 21
230.709313
 31
0.0
  0
ARC
  8
17
  6
PHANTOM
  5
5E1
 10
113.551555
 20
232.173538
 30
0.0
 40
2.001871
 50
150.0
 51
180.0
  0
LINE
  8
17
  6
PHANTOM
  5
5E2
 10
111.549684
 20
232.173538
 30
0.0
 11
111.549684
 21
230.709313
 31
0.0
  0
LINE
  8
17
  6
PHANTOM
  5
5E3
 10
111.817649
 20
233.174474
 30
0.0
 11
113.313047
 21
235.72543
 31
0.0
  0
LINE
  8
17
  6
PHANTOM
  5
5E4
 10
114.596246
 20
236.677748
 30
0.0
 11
117.577032
 21
237.364104
 31
0.0
  0
ARC
  8
17
  6
PHANTOM
  5
5E5
 10
127.446828
 20
235.362233
 30
0.0
 40
2.001871
 50
29.9999
 51
90.0
  0
LINE
  8
17
  6
PHANTOM
  5
5E6
 10
131.289848
 20
232.173538
 30
0.0
 11
131.289848
 21
222.001174
 31
0.0
  0
ARC
  8
17
  6
PHANTOM
  5
5E7
 10
133.570265
 20
221.700893
 30
0.0
 40
0.300281
 50
0.0
 51
90.0
  0
LINE
  8
17
  6
PHANTOM
  5
5E8
 10
133.570265
 20
222.001174
 30
0.0
 11
131.289848
 21
222.001174
 31
0.0
  0
LINE
  8
17
  6
PHANTOM
  5
5E9
 10
131.021598
 20
233.174474
 30
0.0
 11
129.180448
 21
236.363168
 31
0.0
  0
ARC
  8
17
  6
PHANTOM
  5
5EA
 10
129.266243
 20
232.173538
 30
0.0
 40
2.001871
 50
0.0
 51
29.9999
  0
LINE
  8
0D
  6
PHANTOM
  5
5EB
 10
170.247974
 20
242.969343
 30
0.0
 11
170.247974
 21
182.913213
 31
0.0
  0
LINE
  8
0B
  5
5EC
 10
182.759667
 20
172.903858
 30
0.0
 11
182.759667
 21
252.978698
 31
0.0
  0
LINE
  8
0C
  5
5ED
 10
208.685327
 20
200.129304
 30
0.0
 11
208.685327
 21
227.95531
 31
0.0
  0
LINE
  8
0C
  5
5EE
 10
193.26949
 20
191.672828
 30
0.0
 11
193.26949
 21
234.212587
 31
0.0
  0
LINE
  8
0C
  5
5EF
 10
209.786356
 20
224.952504
 30
0.0
 11
209.786356
 21
200.930052
 31
0.0
  0
LINE
  8
0C
  5
5F0
 10
213.28963
 20
220.448294
 30
0.0
 11
213.28963
 21
224.952504
 31
0.0
  0
LINE
  8
0C
  5
5F1
 10
226.301791
 20
220.448294
 30
0.0
 11
226.301791
 21
224.952504
 31
0.0
  0
LINE
  8
0C
  5
5F2
 10
182.759667
 20
183.413681
 30
0.0
 11
182.759667
 21
242.468875
 31
0.0
  0
LINE
  8
0C
  5
5F3
 10
185.462193
 20
221.349136
 30
0.0
 11
185.462193
 21
242.062781
 31
0.0
  0
LINE
  8
0C
  5
5F4
 10
193.26949
 20
221.349136
 30
0.0
 11
193.26949
 21
244.971214
 31
0.0
  0
LINE
  8
0B
  5
5F5
 10
185.762474
 20
169.901052
 30
0.0
 11
212.537498
 21
169.901052
 31
0.0
  0
CIRCLE
  8
0D
  5
5F6
 10
189.365842
 20
199.228462
 30
0.0
 40
3.002806
  0
CIRCLE
  8
0D
  5
5F7
 10
189.365842
 20
191.120884
 30
0.0
 40
3.002806
  0
LINE
  8
0C
  5
5F8
 10
192.668929
 20
195.424907
 30
0.0
 11
186.062754
 21
195.424907
 31
0.0
  0
LINE
  8
0C
  5
5F9
 10
192.668929
 20
203.032016
 30
0.0
 11
186.062754
 21
203.032016
 31
0.0
  0
LINE
  8
0C
  5
5FA
 10
192.668929
 20
187.317329
 30
0.0
 11
186.062754
 21
187.317329
 31
0.0
  0
LINE
  8
0C
  5
5FB
 10
192.668929
 20
194.924439
 30
0.0
 11
186.062754
 21
194.924439
 31
0.0
  0
LINE
  8
0C
  5
5FC
 10
185.462193
 20
221.349136
 30
0.0
 11
193.26949
 21
221.349136
 31
0.0
  0
LINE
  8
0C
  5
5FD
 10
185.462193
 20
204.53342
 30
0.0
 11
193.26949
 21
204.53342
 31
0.0
  0
LINE
  8
FF
  5
5FE
 10
176.896289
 20
205.633981
 30
0.0
 11
157.55609
 21
184.513945
 31
0.0
  0
LINE
  8
0C
  5
5FF
 10
185.562287
 20
194.423971
 30
0.0
 11
185.562287
 21
187.817797
 31
0.0
  0
LINE
  8
0C
  5
600
 10
185.462193
 20
204.53342
 30
0.0
 11
185.462193
 21
183.822634
 31
0.0
  0
TEXT
  8
FF
  5
601
 10
145.41422
 20
175.634418
 30
0.0
 40
7.006548
  1
※２
 41
0.833333
  0
ARC
  8
0B
  5
602
 10
185.762474
 20
172.903858
 30
0.0
 40
3.002806
 50
180.0
 51
270.0
  0
LINE
  8
0D
  6
PHANTOM
  5
603
 10
182.759667
 20
182.913213
 30
0.0
 11
170.247974
 21
182.913213
 31
0.0
  0
LINE
  8
0C
  5
604
 10
186.963596
 20
186.416487
 30
0.0
 11
186.293256
 21
183.914148
 31
0.0
  0
ARC
  8
0C
  5
605
 10
184.554202
 20
183.413681
 30
0.0
 40
0.500468
 50
270.0
 51
315.0
  0
ARC
  8
0C
  5
606
 10
184.961725
 20
183.822634
 30
0.0
 40
0.500468
 50
315.0
 51
0.0
  0
ARC
  8
0C
  5
607
 10
183.260135
 20
183.413681
 30
0.0
 40
0.500468
 50
180.0
 51
270.0
  0
LINE
  8
0C
  5
608
 10
185.315771
 20
183.468017
 30
0.0
 11
184.908247
 21
183.059064
 31
0.0
  0
LINE
  8
0C
  5
609
 10
186.293256
 20
183.914148
 30
0.0
 11
185.462193
 21
183.914148
 31
0.0
  0
LINE
  8
0C
  5
60A
 10
183.260135
 20
182.913213
 30
0.0
 11
184.554202
 21
182.913213
 31
0.0
  0
ARC
  8
0C
  5
60B
 10
186.062754
 20
187.817797
 30
0.0
 40
0.500468
 50
180.0
 51
270.0
  0
LINE
  8
0C
  5
60C
 10
186.963596
 20
187.317329
 30
0.0
 11
186.963596
 21
186.416487
 31
0.0
  0
LINE
  8
0C
  5
60D
 10
185.562287
 20
202.531549
 30
0.0
 11
185.562287
 21
195.925374
 31
0.0
  0
ARC
  8
0C
  5
60E
 10
186.062754
 20
195.925374
 30
0.0
 40
0.500468
 50
180.0
 51
270.0
  0
ARC
  8
0C
  5
60F
 10
186.062754
 20
194.423971
 30
0.0
 40
0.500468
 50
90.0
 51
180.0
  0
ARC
  8
0C
  5
610
 10
186.062754
 20
202.531549
 30
0.0
 40
0.500468
 50
90.0
 51
180.0
  0
LINE
  8
0C
  5
611
 10
193.169396
 20
194.423971
 30
0.0
 11
193.169396
 21
187.817797
 31
0.0
  0
LINE
  8
0D
  5
612
 10
190.62702
 20
189.859705
 30
0.0
 11
188.104663
 21
192.382063
 31
0.0
  0
LINE
  8
0D
  5
613
 10
191.489255
 20
193.245727
 30
0.0
 11
187.242428
 21
188.998901
 31
0.0
  0
LINE
  8
0C
  5
614
 10
193.26949
 20
204.53342
 30
0.0
 11
193.26949
 21
180.911342
 31
0.0
  0
LINE
  8
0C
  5
615
 10
197.77513
 20
189.17049
 30
0.0
 11
208.78542
 21
189.17049
 31
0.0
  0
LINE
  8
0C
  5
616
 10
197.77513
 20
177.159264
 30
0.0
 11
208.78542
 21
177.159264
 31
0.0
  0
LINE
  8
0C
  5
617
 10
209.534692
 20
177.159264
 30
0.0
 11
197.022998
 21
177.159264
 31
0.0
  0
ARC
  8
0C
  5
618
 10
196.022063
 20
175.406197
 30
0.0
 40
3.503274
 50
319.995
 51
30.0
  0
ARC
  8
0C
  5
619
 10
196.022063
 20
175.406197
 30
0.0
 40
3.503274
 50
139.995
 51
220.005
  0
LINE
  8
0C
  5
61A
 10
193.971575
 20
170.901987
 30
0.0
 11
193.971575
 21
190.71765
 31
0.0
  0
LINE
  8
0C
  5
61B
 10
197.022998
 20
170.901987
 30
0.0
 11
197.022998
 21
190.671893
 31
0.0
  0
LINE
  8
0C
  5
61C
 10
198.70457
 20
173.155522
 30
0.0
 11
197.022998
 21
173.155522
 31
0.0
  0
LINE
  8
0C
  5
61D
 10
193.971575
 20
173.155522
 30
0.0
 11
193.338698
 21
173.155522
 31
0.0
  0
ARC
  8
0C
  5
61E
 10
194.97251
 20
170.901987
 30
0.0
 40
1.000935
 50
180.0
 51
270.0
  0
ARC
  8
0C
  5
61F
 10
196.022063
 20
170.901987
 30
0.0
 40
1.000935
 50
270.0
 51
0.0
  0
LINE
  8
0C
  5
620
 10
194.97251
 20
169.901052
 30
0.0
 11
196.022063
 21
169.901052
 31
0.0
  0
ARC
  8
0C
  5
621
 10
197.77513
 20
188.670022
 30
0.0
 40
0.500468
 50
90.0
 51
180.0
  0
ARC
  8
0C
  5
622
 10
197.77513
 20
177.659732
 30
0.0
 40
0.500468
 50
180.0
 51
270.0
  0
LINE
  8
0C
  5
623
 10
193.26949
 20
180.911342
 30
0.0
 11
193.26949
 21
187.91789
 31
0.0
  0
LINE
  8
0C
  5
624
 10
197.274662
 20
188.670022
 30
0.0
 11
197.274662
 21
177.659732
 31
0.0
  0
LINE
  8
0C
  5
625
 10
191.768087
 20
186.416487
 30
0.0
 11
192.438714
 21
183.914148
 31
0.0
  0
LINE
  8
0C
  5
626
 10
193.971575
 20
177.659732
 30
0.0
 11
193.338698
 21
177.659732
 31
0.0
  0
ARC
  8
0C
  5
627
 10
194.271855
 20
180.911342
 30
0.0
 40
1.000935
 50
180.0
 51
252.542
  0
LINE
  8
0C
  5
628
 10
192.438714
 20
183.914148
 30
0.0
 11
193.26949
 21
183.914148
 31
0.0
  0
LINE
  8
0C
  5
629
 10
191.768087
 20
187.317329
 30
0.0
 11
191.768087
 21
186.416487
 31
0.0
  0
ARC
  8
0C
  5
62A
 10
194.271855
 20
191.672828
 30
0.0
 40
1.000935
 50
180.0
 51
270.0
  0
ARC
  8
0C
  5
62B
 10
192.668929
 20
187.817797
 30
0.0
 40
0.500468
 50
270.0
 51
0.0
  0
CIRCLE
  8
0D
  5
62C
 10
203.280275
 20
183.164877
 30
0.0
 40
4.50421
  0
LINE
  8
0D
  5
62D
 10
201.387077
 20
185.055215
 30
0.0
 11
205.170613
 21
181.271679
 31
0.0
  0
LINE
  8
0D
  5
62E
 10
206.46325
 20
186.347852
 30
0.0
 11
200.09444
 21
179.979042
 31
0.0
  0
LINE
  8
0C
  5
62F
 10
209.534692
 20
170.901987
 30
0.0
 11
209.534692
 21
190.671893
 31
0.0
  0
LINE
  8
0C
  5
630
 10
213.538434
 20
170.901987
 30
0.0
 11
213.538434
 21
190.671893
 31
0.0
  0
LINE
  8
0C
  5
631
 10
226.050127
 20
170.901987
 30
0.0
 11
226.050127
 21
190.671893
 31
0.0
  0
LINE
  8
0B
  5
632
 10
213.538434
 20
170.901987
 30
0.0
 11
226.050127
 21
170.901987
 31
0.0
  0
ARC
  8
0B
  5
633
 10
212.537498
 20
170.901987
 30
0.0
 40
1.000935
 50
270.0
 51
0.0
  0
ARC
  8
0C
  5
634
 10
210.535627
 20
170.901987
 30
0.0
 40
1.000935
 50
180.0
 51
270.0
  0
LINE
  8
0C
  5
635
 10
210.535627
 20
169.901052
 30
0.0
 11
212.537498
 21
169.901052
 31
0.0
  0
ARC
  8
0B
  5
636
 10
227.051063
 20
170.901987
 30
0.0
 40
1.000935
 50
180.0
 51
270.0
  0
CIRCLE
  8
0D
  5
637
 10
219.795711
 20
183.164877
 30
0.0
 40
4.50421
  0
LINE
  8
0C
  5
638
 10
214.290565
 20
189.17049
 30
0.0
 11
225.300856
 21
189.17049
 31
0.0
  0
LINE
  8
0C
  5
639
 10
214.290565
 20
177.159264
 30
0.0
 11
225.300856
 21
177.159264
 31
0.0
  0
LINE
  8
0D
  5
63A
 10
217.902513
 20
185.055215
 30
0.0
 11
221.686049
 21
181.271679
 31
0.0
  0
LINE
  8
0D
  5
63B
 10
222.978685
 20
186.347852
 30
0.0
 11
216.609876
 21
179.979042
 31
0.0
  0
LINE
  8
0C
  5
63C
 10
226.050127
 20
177.159264
 30
0.0
 11
213.538434
 21
177.159264
 31
0.0
  0
LINE
  8
0C
  5
63D
 10
209.285888
 20
188.670022
 30
0.0
 11
209.285888
 21
177.659732
 31
0.0
  0
LINE
  8
0C
  5
63E
 10
213.790098
 20
188.670022
 30
0.0
 11
213.790098
 21
177.659732
 31
0.0
  0
ARC
  8
0C
  5
63F
 10
208.78542
 20
177.659732
 30
0.0
 40
0.500468
 50
270.0
 51
0.0
  0
ARC
  8
0C
  5
640
 10
214.290565
 20
177.659732
 30
0.0
 40
0.500468
 50
180.0
 51
270.0
  0
ARC
  8
0C
  5
641
 10
208.78542
 20
188.670022
 30
0.0
 40
0.500468
 50
0.0
 51
90.0
  0
ARC
  8
0C
  5
642
 10
214.290565
 20
188.670022
 30
0.0
 40
0.500468
 50
90.0
 51
180.0
  0
LINE
  8
0C
  5
643
 10
225.801324
 20
188.670022
 30
0.0
 11
225.801324
 21
177.659732
 31
0.0
  0
ARC
  8
0C
  5
644
 10
225.300856
 20
177.659732
 30
0.0
 40
0.500468
 50
270.0
 51
0.0
  0
ARC
  8
0C
  5
645
 10
225.300856
 20
188.670022
 30
0.0
 40
0.500468
 50
0.0
 51
90.0
  0
LINE
  8
0C
  5
646
 10
193.169396
 20
202.531549
 30
0.0
 11
193.169396
 21
195.925374
 31
0.0
  0
LINE
  8
0D
  5
647
 10
190.62702
 20
197.967283
 30
0.0
 11
188.104663
 21
200.48964
 31
0.0
  0
LINE
  8
0D
  5
648
 10
191.489255
 20
201.353305
 30
0.0
 11
187.242428
 21
197.106478
 31
0.0
  0
ARC
  8
0C
  5
649
 10
192.668929
 20
195.925374
 30
0.0
 40
0.500468
 50
270.0
 51
0.0
  0
ARC
  8
0C
  5
64A
 10
192.668929
 20
194.423971
 30
0.0
 40
0.500468
 50
0.0
 51
90.0
  0
ARC
  8
0C
  5
64B
 10
192.668929
 20
202.531549
 30
0.0
 40
0.500468
 50
0.0
 51
90.0
  0
LINE
  8
0C
  5
64C
 10
213.28963
 20
205.434262
 30
0.0
 11
226.301791
 21
205.434262
 31
0.0
  0
ARC
  8
0C
  5
64D
 10
209.686262
 20
200.129304
 30
0.0
 40
1.000935
 50
180.0
 51
270.0
  0
ARC
  8
0C
  5
64E
 10
212.789162
 20
200.930052
 30
0.0
 40
0.500468
 50
270.0
 51
0.0
  0
ARC
  8
0C
  5
64F
 10
210.286823
 20
200.930052
 30
0.0
 40
0.500468
 50
180.0
 51
270.0
  0
LINE
  8
0C
  5
650
 10
212.789162
 20
200.429584
 30
0.0
 11
210.286823
 21
200.429584
 31
0.0
  0
LINE
  8
0C
  5
651
 10
213.28963
 20
200.930052
 30
0.0
 11
213.28963
 21
205.434262
 31
0.0
  0
ARC
  8
0C
  5
652
 10
226.802259
 20
200.930052
 30
0.0
 40
0.500468
 50
180.0
 51
270.0
  0
LINE
  8
0C
  5
653
 10
226.301791
 20
200.930052
 30
0.0
 11
226.301791
 21
205.434262
 31
0.0
  0
LINE
  8
0C
  5
654
 10
217.542176
 20
209.638191
 30
0.0
 11
222.046385
 21
209.638191
 31
0.0
  0
LINE
  8
0C
  5
655
 10
214.791033
 20
219.447359
 30
0.0
 11
224.800388
 21
219.447359
 31
0.0
  0
LINE
  8
0C
  5
656
 10
217.542176
 20
218.146142
 30
0.0
 11
217.542176
 21
209.638191
 31
0.0
  0
LINE
  8
0C
  5
657
 10
213.28963
 20
207.736413
 30
0.0
 11
213.28963
 21
218.146142
 31
0.0
  0
LINE
  8
0C
  5
658
 10
213.28963
 20
220.448294
 30
0.0
 11
214.791033
 21
220.448294
 31
0.0
  0
LINE
  8
0C
  5
659
 10
214.791033
 20
218.146142
 30
0.0
 11
214.791033
 21
220.448294
 31
0.0
  0
LINE
  8
0C
  5
65A
 10
226.301791
 20
207.736413
 30
0.0
 11
226.301791
 21
218.146142
 31
0.0
  0
LINE
  8
0C
  5
65B
 10
222.046385
 20
218.146142
 30
0.0
 11
222.046385
 21
209.638191
 31
0.0
  0
LINE
  8
0C
  5
65C
 10
224.800388
 20
220.448294
 30
0.0
 11
226.301791
 21
220.448294
 31
0.0
  0
LINE
  8
0C
  5
65D
 10
224.800388
 20
218.146142
 30
0.0
 11
224.800388
 21
220.448294
 31
0.0
  0
LINE
  8
0C
  5
65E
 10
185.831681
 20
245.723345
 30
0.0
 11
191.198411
 21
245.723345
 31
0.0
  0
LINE
  8
0C
  5
65F
 10
185.831681
 20
250.227555
 30
0.0
 11
191.198411
 21
250.227555
 31
0.0
  0
LINE
  8
0B
  5
660
 10
185.762474
 20
255.981504
 30
0.0
 11
199.436683
 21
255.981504
 31
0.0
  0
CIRCLE
  8
0D
  5
661
 10
189.365842
 20
226.654094
 30
0.0
 40
3.002806
  0
CIRCLE
  8
0D
  5
662
 10
189.365842
 20
234.761672
 30
0.0
 40
3.002806
  0
LINE
  8
0C
  5
663
 10
192.668929
 20
230.958117
 30
0.0
 11
186.062754
 21
230.958117
 31
0.0
  0
LINE
  8
0C
  5
664
 10
192.668929
 20
238.565227
 30
0.0
 11
186.062754
 21
238.565227
 31
0.0
  0
LINE
  8
0C
  5
665
 10
192.668929
 20
222.850539
 30
0.0
 11
186.062754
 21
222.850539
 31
0.0
  0
LINE
  8
0C
  5
666
 10
192.668929
 20
230.457649
 30
0.0
 11
186.062754
 21
230.457649
 31
0.0
  0
LINE
  8
FF
  5
667
 10
187.047389
 20
236.669169
 30
0.0
 11
172.965085
 21
255.686943
 31
0.0
  0
LINE
  8
0C
  5
668
 10
185.562287
 20
238.064759
 30
0.0
 11
185.562287
 21
231.458585
 31
0.0
  0
LINE
  8
0C
  5
669
 10
185.562287
 20
229.957181
 30
0.0
 11
185.562287
 21
223.351007
 31
0.0
  0
ARC
  8
0C
  5
66A
 10
186.062754
 20
223.351007
 30
0.0
 40
0.500468
 50
180.0
 51
270.0
  0
ARC
  8
0C
  5
66B
 10
186.062754
 20
231.458585
 30
0.0
 40
0.500468
 50
180.0
 51
270.0
  0
ARC
  8
0C
  5
66C
 10
186.062754
 20
229.957181
 30
0.0
 40
0.500468
 50
90.0
 51
180.0
  0
LINE
  8
0D
  6
PHANTOM
  5
66D
 10
182.759667
 20
242.969343
 30
0.0
 11
170.247974
 21
242.969343
 31
0.0
  0
LINE
  8
FF
  5
66E
 10
187.047389
 20
236.669169
 30
0.0
 11
183.858266
 21
244.757299
 31
0.0
  0
LINE
  8
FF
  5
66F
 10
180.241485
 20
242.079082
 30
0.0
 11
187.047389
 21
236.669169
 31
0.0
  0
ARC
  8
0C
  5
670
 10
186.062754
 20
238.064759
 30
0.0
 40
0.500468
 50
90.0
 51
180.0
  0
ARC
  8
0C
  5
671
 10
184.961725
 20
242.062781
 30
0.0
 40
0.500468
 50
0.0
 51
45.0
  0
ARC
  8
0C
  5
672
 10
184.554202
 20
242.468875
 30
0.0
 40
0.500468
 50
45.0
 51
90.0
  0
ARC
  8
0C
  5
673
 10
183.260135
 20
242.468875
 30
0.0
 40
0.500468
 50
90.0
 51
180.0
  0
LINE
  8
0C
  5
674
 10
185.315771
 20
242.414538
 30
0.0
 11
184.908247
 21
242.823492
 31
0.0
  0
LINE
  8
0C
  5
675
 10
183.260135
 20
242.969343
 30
0.0
 11
184.554202
 21
242.969343
 31
0.0
  0
LINE
  8
0C
  5
676
 10
186.293256
 20
241.968407
 30
0.0
 11
185.462193
 21
241.968407
 31
0.0
  0
LINE
  8
0C
  5
677
 10
186.963596
 20
239.466068
 30
0.0
 11
186.293256
 21
241.968407
 31
0.0
  0
LINE
  8
0C
  5
678
 10
186.963596
 20
238.565227
 30
0.0
 11
186.963596
 21
239.466068
 31
0.0
  0
ARC
  8
0C
  5
679
 10
188.515046
 20
247.97402
 30
0.0
 40
3.503274
 50
139.995
 51
220.005
  0
ARC
  8
0B
  5
67A
 10
185.762474
 20
252.978698
 30
0.0
 40
3.002806
 50
90.0
 51
180.0
  0
LINE
  8
FF
  5
67B
 10
199.702645
 20
245.457382
 30
0.0
 11
196.092414
 21
253.366489
 31
0.0
  0
LINE
  8
0C
  5
67C
 10
199.434439
 20
255.981504
 30
0.0
 11
198.421448
 21
248.726152
 31
0.0
  0
LINE
  8
0C
  5
67D
 10
200.87803
 20
255.981504
 30
0.0
 11
200.87803
 21
248.726152
 31
0.0
  0
ARC
  8
0D
  5
67E
 10
204.781678
 20
249.975891
 30
0.0
 40
3.002806
 50
335.376
 51
204.624
  0
LINE
  8
0C
  5
67F
 10
208.485139
 20
253.278978
 30
0.0
 11
208.485139
 21
248.726152
 31
0.0
  0
LINE
  8
0D
  5
680
 10
206.903661
 20
252.100734
 30
0.0
 11
203.520499
 21
248.714712
 31
0.0
  0
LINE
  8
0C
  5
681
 10
200.978123
 20
253.278978
 30
0.0
 11
200.978123
 21
248.726152
 31
0.0
  0
LINE
  8
0C
  5
682
 10
209.534692
 20
235.213523
 30
0.0
 11
209.534692
 21
254.980569
 31
0.0
  0
LINE
  8
0C
  5
683
 10
213.538434
 20
235.213523
 30
0.0
 11
213.538434
 21
254.980569
 31
0.0
  0
LINE
  8
0C
  5
684
 10
197.022998
 20
235.213523
 30
0.0
 11
197.022998
 21
254.980569
 31
0.0
  0
LINE
  8
0C
  5
685
 10
193.971575
 20
235.213523
 30
0.0
 11
193.971575
 21
254.980569
 31
0.0
  0
LINE
  8
0C
  5
686
 10
226.050127
 20
235.213523
 30
0.0
 11
226.050127
 21
254.980569
 31
0.0
  0
LINE
  8
0C
  5
687
 10
197.77513
 20
248.726152
 30
0.0
 11
208.78542
 21
248.726152
 31
0.0
  0
LINE
  8
0C
  5
688
 10
197.77513
 20
236.714926
 30
0.0
 11
208.78542
 21
236.714926
 31
0.0
  0
LINE
  8
0C
  5
689
 10
209.534692
 20
248.726152
 30
0.0
 11
197.022998
 21
248.726152
 31
0.0
  0
LINE
  8
0C
  5
68A
 10
193.169396
 20
238.064759
 30
0.0
 11
193.169396
 21
231.458585
 31
0.0
  0
LINE
  8
0D
  5
68B
 10
191.489255
 20
236.886515
 30
0.0
 11
187.242428
 21
232.639688
 31
0.0
  0
LINE
  8
0C
  5
68C
 10
193.169396
 20
229.957181
 30
0.0
 11
193.169396
 21
223.351007
 31
0.0
  0
LINE
  8
0D
  5
68D
 10
190.62702
 20
225.392915
 30
0.0
 11
188.104663
 21
227.915273
 31
0.0
  0
LINE
  8
0D
  5
68E
 10
191.489255
 20
228.778937
 30
0.0
 11
187.242428
 21
224.532111
 31
0.0
  0
ARC
  8
0C
  5
68F
 10
192.668929
 20
223.351007
 30
0.0
 40
0.500468
 50
270.0
 51
0.0
  0
LINE
  8
0D
  5
690
 10
190.62702
 20
233.500493
 30
0.0
 11
188.104663
 21
236.02285
 31
0.0
  0
ARC
  8
0C
  5
691
 10
194.271855
 20
234.212587
 30
0.0
 40
1.000935
 50
90.0
 51
180.0
  0
ARC
  8
0C
  5
692
 10
192.668929
 20
231.458585
 30
0.0
 40
0.500468
 50
270.0
 51
0.0
  0
ARC
  8
0C
  5
693
 10
192.668929
 20
229.957181
 30
0.0
 40
0.500468
 50
0.0
 51
90.0
  0
LINE
  8
FF
  5
694
 10
192.621542
 20
250.501811
 30
0.0
 11
199.702645
 21
245.457382
 31
0.0
  0
ARC
  8
0C
  5
695
 10
197.77513
 20
237.215394
 30
0.0
 40
0.500468
 50
180.0
 51
270.0
  0
ARC
  8
0C
  5
696
 10
197.77513
 20
248.225684
 30
0.0
 40
0.500468
 50
90.0
 51
180.0
  0
LINE
  8
0C
  5
697
 10
197.274662
 20
248.225684
 30
0.0
 11
197.274662
 21
237.215394
 31
0.0
  0
LINE
  8
0C
  5
698
 10
191.768087
 20
239.466068
 30
0.0
 11
192.438714
 21
241.968407
 31
0.0
  0
LINE
  8
0C
  5
699
 10
191.768087
 20
238.565227
 30
0.0
 11
191.768087
 21
239.466068
 31
0.0
  0
ARC
  8
0C
  5
69A
 10
192.668929
 20
238.064759
 30
0.0
 40
0.500468
 50
0.0
 51
90.0
  0
LINE
  8
0C
  5
69B
 10
192.438714
 20
241.968407
 30
0.0
 11
193.26949
 21
241.968407
 31
0.0
  0
ARC
  8
0C
  5
69C
 10
188.515046
 20
247.97402
 30
0.0
 40
3.503274
 50
319.995
 51
40.0052
  0
ARC
  8
0C
  5
69D
 10
194.271855
 20
244.971214
 30
0.0
 40
1.000935
 50
107.458
 51
180.0
  0
CIRCLE
  8
0D
  5
69E
 10
203.280275
 20
242.720539
 30
0.0
 40
4.50421
  0
LINE
  8
0D
  5
69F
 10
201.387077
 20
244.610877
 30
0.0
 11
205.170613
 21
240.827341
 31
0.0
  0
LINE
  8
0D
  5
6A0
 10
206.46325
 20
245.903514
 30
0.0
 11
200.09444
 21
239.534704
 31
0.0
  0
LINE
  8
0D
  5
6A1
 10
206.042857
 20
248.714712
 30
0.0
 11
203.520499
 21
251.23707
 31
0.0
  0
ARC
  8
0C
  5
6A2
 10
209.686262
 20
227.95531
 30
0.0
 40
1.000935
 50
90.0
 51
180.0
  0
ARC
  8
0C
  5
6A3
 10
212.789162
 20
224.952504
 30
0.0
 40
0.500468
 50
0.0
 51
90.0
  0
ARC
  8
0C
  5
6A4
 10
210.286823
 20
224.952504
 30
0.0
 40
0.500468
 50
90.0
 51
180.0
  0
LINE
  8
0C
  5
6A5
 10
210.286823
 20
225.452972
 30
0.0
 11
212.789162
 21
225.452972
 31
0.0
  0
LINE
  8
0C
  5
6A6
 10
218.294307
 20
225.452972
 30
0.0
 11
221.297114
 21
225.452972
 31
0.0
  0
LINE
  8
0C
  5
6A7
 10
218.294307
 20
227.95531
 30
0.0
 11
221.297114
 21
227.95531
 31
0.0
  0
LINE
  8
0C
  5
6A8
 10
218.294307
 20
227.95531
 30
0.0
 11
218.294307
 21
225.452972
 31
0.0
  0
LINE
  8
0C
  5
6A9
 10
221.297114
 20
227.95531
 30
0.0
 11
221.297114
 21
225.452972
 31
0.0
  0
ARC
  8
0C
  5
6AA
 10
226.802259
 20
224.952504
 30
0.0
 40
0.500468
 50
90.0
 51
180.0
  0
CIRCLE
  8
0D
  5
6AB
 10
219.795711
 20
242.720539
 30
0.0
 40
4.50421
  0
LINE
  8
0C
  5
6AC
 10
214.290565
 20
248.726152
 30
0.0
 11
225.300856
 21
248.726152
 31
0.0
  0
LINE
  8
0C
  5
6AD
 10
214.290565
 20
236.714926
 30
0.0
 11
225.300856
 21
236.714926
 31
0.0
  0
LINE
  8
0D
  5
6AE
 10
217.902513
 20
244.610877
 30
0.0
 11
221.686049
 21
240.827341
 31
0.0
  0
LINE
  8
0D
  5
6AF
 10
222.978685
 20
245.903514
 30
0.0
 11
216.609876
 21
239.534704
 31
0.0
  0
LINE
  8
0C
  5
6B0
 10
226.050127
 20
248.726152
 30
0.0
 11
213.538434
 21
248.726152
 31
0.0
  0
LINE
  8
0C
  5
6B1
 10
213.790098
 20
248.225684
 30
0.0
 11
213.790098
 21
237.215394
 31
0.0
  0
LINE
  8
0C
  5
6B2
 10
209.285888
 20
248.225684
 30
0.0
 11
209.285888
 21
237.215394
 31
0.0
  0
ARC
  8
0C
  5
6B3
 10
208.78542
 20
237.215394
 30
0.0
 40
0.500468
 50
270.0
 51
0.0
  0
ARC
  8
0C
  5
6B4
 10
214.290565
 20
237.215394
 30
0.0
 40
0.500468
 50
180.0
 51
270.0
  0
ARC
  8
0C
  5
6B5
 10
208.78542
 20
248.225684
 30
0.0
 40
0.500468
 50
0.0
 51
90.0
  0
ARC
  8
0C
  5
6B6
 10
214.290565
 20
248.225684
 30
0.0
 40
0.500468
 50
90.0
 51
180.0
  0
LINE
  8
0C
  5
6B7
 10
225.801324
 20
248.225684
 30
0.0
 11
225.801324
 21
237.215394
 31
0.0
  0
ARC
  8
0C
  5
6B8
 10
225.300856
 20
237.215394
 30
0.0
 40
0.500468
 50
270.0
 51
0.0
  0
ARC
  8
0C
  5
6B9
 10
225.300856
 20
248.225684
 30
0.0
 40
0.500468
 50
0.0
 51
90.0
  0
LINE
  8
0B
  5
6BA
 10
208.685327
 20
254.980569
 30
0.0
 11
204.517524
 21
254.980541
 31
0.0
  0
LINE
  8
0C
  5
6BB
 10
207.984672
 20
253.779446
 30
0.0
 11
201.478591
 21
253.779446
 31
0.0
  0
ARC
  8
0C
  5
6BC
 10
196.022063
 20
254.980569
 30
0.0
 40
1.000935
 50
0.0
 51
90.0
  0
ARC
  8
0C
  5
6BD
 10
194.97251
 20
254.980569
 30
0.0
 40
1.000935
 50
90.0
 51
180.0
  0
LINE
  8
0C
  5
6BE
 10
194.97251
 20
255.981504
 30
0.0
 11
196.022063
 21
255.981504
 31
0.0
  0
LINE
  8
0C
  5
6BF
 10
200.87803
 20
254.980569
 30
0.0
 11
204.517524
 21
254.980541
 31
0.0
  0
ARC
  8
0B
  5
6C0
 10
202.279339
 20
252.978698
 30
0.0
 40
3.002806
 50
41.8096
 51
90.0
  0
LINE
  8
0B
  5
6C1
 10
200.377562
 20
256.98244
 30
0.0
 11
200.014365
 21
256.98244
 31
0.0
  0
ARC
  8
0B
  5
6C2
 10
200.377562
 20
256.481972
 30
0.0
 40
0.500468
 50
0.0
 51
90.0
  0
ARC
  8
0B
  5
6C3
 10
200.011506
 20
256.481972
 30
0.0
 40
0.500468
 50
90.0
 51
172.043
  0
LINE
  8
0B
  5
6C4
 10
200.87803
 20
256.481972
 30
0.0
 11
200.87803
 21
255.981504
 31
0.0
  0
LINE
  8
0B
  5
6C5
 10
199.513898
 20
256.550607
 30
0.0
 11
199.434439
 21
255.981504
 31
0.0
  0
LINE
  8
0B
  5
6C6
 10
200.87803
 20
255.981504
 30
0.0
 11
202.279339
 21
255.981504
 31
0.0
  0
ARC
  8
0C
  5
6C7
 10
201.478591
 20
253.278978
 30
0.0
 40
0.500468
 50
90.0
 51
180.0
  0
ARC
  8
0C
  5
6C8
 10
212.537498
 20
254.980569
 30
0.0
 40
1.000935
 50
0.0
 51
90.0
  0
ARC
  8
0B
  5
6C9
 10
209.686262
 20
255.981504
 30
0.0
 40
1.000935
 50
90.0
 51
180.0
  0
LINE
  8
0B
  5
6CA
 10
208.685327
 20
254.980569
 30
0.0
 11
208.685327
 21
255.981504
 31
0.0
  0
ARC
  8
0C
  5
6CB
 10
207.984672
 20
253.278978
 30
0.0
 40
0.500468
 50
0.0
 51
90.0
  0
ARC
  8
0C
  5
6CC
 10
210.535627
 20
254.980569
 30
0.0
 40
1.000935
 50
90.0
 51
180.0
  0
LINE
  8
0C
  5
6CD
 10
210.535627
 20
255.981504
 30
0.0
 11
212.537498
 21
255.981504
 31
0.0
  0
ARC
  8
0C
  5
6CE
 10
227.051063
 20
254.980569
 30
0.0
 40
1.000935
 50
90.0
 51
180.0
  0
LINE
  8
FF
  5
6CF
 10
164.766565
 20
287.785515
 30
0.0
 11
144.443076
 21
287.785515
 31
0.0
  0
TEXT
  8
FF
  5
6D0
 10
144.307157
 20
299.113245
 30
0.0
 40
7.006548
  1
主端子
 41
0.833333
  0
TEXT
  8
FF
  5
6D1
 10
132.078177
 20
291.566341
 30
0.0
 40
5.004677
  1
※１
 41
0.833333
  0
TEXT
  8
FF
  5
6D2
 10
145.957271
 20
290.914153
 30
0.0
 40
5.004677
  1
M5
 41
1.046434
  0
DIMENSION
  8
FF
  5
6D3
  2
*D15
 10
352.871514
 20
141.37725
 30
0.0
 11
385.401918
 21
147.21065
 31
0.0
  1
(60～)65
 13
417.932322
 23
173.086886
 33
0.0
 14
352.871514
 24
243.363997
 34
0.0
 50
180.0
  3
FSTD3
  0
LINE
  8
38
  6
CENTER
  5
6D4
 10
385.401918
 20
264.652465
 30
0.0
 11
385.401918
 21
161.192913
 31
0.0
  0
TEXT
  8
FF
  5
6D5
 10
319.397372
 20
55.190984
 30
0.0
 40
8.579447
  1
・対角線の取付穴２カ所で取付けて
 41
0.833333
  0
TEXT
  8
FF
  5
6D6
 10
339.416082
 20
106.667667
 30
0.0
 40
8.579447
  1
１　・・・（６０～）６５×７０
 41
0.833333
  0
TEXT
  8
FF
  5
6D7
 10
339.416082
 20
83.789141
 30
0.0
 40
8.579447
  1
２　・・・４５（～５０）×７５
 41
0.833333
  0
TEXT
  8
FF
  5
6D8
 10
319.397372
 20
69.490063
 30
0.0
 40
8.579447
  1
・取付ねじ：２－Ｍ４
 41
0.833333
  0
TEXT
  8
FF
  5
6D9
 10
319.397372
 20
118.106929
 30
0.0
 40
8.579447
  1
・取付寸法：１，２の取付けが可能
 41
0.833333
  0
TEXT
  8
FF
  5
6DA
 10
336.556266
 20
95.228404
 30
0.0
 40
8.579447
  1
（ＳＣ－１Ｎ、２Ｎと互換性有）
 41
0.833333
  0
CIRCLE
  8
FF
  5
6DB
 10
391.382104
 20
122.173587
 30
0.0
 40
4.289724
  0
TEXT
  8
FF
  5
6DC
 10
312.205793
 20
47.532398
 30
0.0
 40
77.215024
  1
(
 41
0.104278
  0
TEXT
  8
FF
  5
6DD
 10
319.397372
 20
43.751721
 30
0.0
 40
8.579447
  1
　下さい。
 41
0.833333
  0
CIRCLE
  8
FF
  5
6DE
 10
342.668039
 20
87.884397
 30
0.0
 40
4.289724
  0
CIRCLE
  8
FF
  5
6DF
 10
342.668039
 20
110.780082
 30
0.0
 40
4.289724
  0
CIRCLE
  8
FF
  5
6E0
 10
374.266073
 20
122.173587
 30
0.0
 40
4.289724
  0
TEXT
  8
FF
  5
6E1
 10
466.635841
 20
47.532398
 30
0.0
 40
77.215024
  1
)
 41
0.104278
  0
TEXT
  8
FF
  5
6E2
 10
368.858679
 20
312.043602
 30
0.0
 40
7.006548
  1
取付寸法図
 41
0.833333
 72
     1
 11
385.401918
 21
311.109396
 31
0.0
 73
     1
  0
DIMENSION
  8
FF
  5
6E3
  2
*D16
 10
325.660368
 20
247.97402
 30
0.0
 11
319.826968
 21
212.941278
 31
0.0
  1
70
 13
410.002053
 23
177.908536
 33
0.0
 14
347.443584
 24
247.97402
 34
0.0
 50
90.0
  3
FSTD3
  0
DIMENSION
  8
FF
  5
6E4
  2
*D17
 10
360.378531
 20
293.453669
 30
0.0
 11
385.401918
 21
299.287069
 31
0.0
  1
45(～50)
 13
410.425305
 23
254.351409
 33
0.0
 14
360.378531
 24
179.255509
 34
0.0
 50
180.0
  3
FSTD3
  0
DIMENSION
  8
FF
  5
6E5
  2
*D18
 10
444.637281
 20
250.476359
 30
0.0
 11
438.803881
 21
212.941278
 31
0.0
  1
75
 13
367.931304
 23
175.406197
 33
0.0
 14
415.47574
 24
250.476359
 34
0.0
 50
90.0
  3
FSTD3
  0
LINE
  8
38
  6
CENTER
  5
6E6
 10
338.712567
 20
212.941278
 30
0.0
 11
430.323903
 21
212.941278
 31
0.0
  0
LINE
  8
34
  6
PHANTOM
  5
6E7
 10
385.401918
 20
169.901052
 30
0.0
 11
419.433725
 21
169.901052
 31
0.0
  0
LINE
  8
34
  6
PHANTOM
  5
6E8
 10
365.183021
 20
256.98244
 30
0.0
 11
405.620815
 21
256.98244
 31
0.0
  0
LINE
  8
FF
  5
6E9
 10
406.490199
 20
248.225684
 30
0.0
 11
364.313637
 21
177.659732
 31
0.0
  0
LINE
  8
FF
  5
6EA
 10
356.806621
 20
245.723345
 30
0.0
 11
413.997215
 21
180.16207
 31
0.0
  0
LINE
  8
FF
  5
6EB
 10
236.751558
 20
252.266604
 30
0.0
 11
279.929055
 21
292.0495
 31
0.0
  0
DIMENSION
  8
FF
  5
6EC
  2
*D12
 10
284.158723
 20
256.98244
 30
0.0
 11
279.992023
 21
275.315806
 31
0.0
  1
14.3
 13
236.309716
 23
242.719109
 33
0.0
 14
229.905159
 24
256.98244
 34
0.0
 50
90.0
  3
FSTD2
  0
LINE
  8
0D
  6
PHANTOM
  5
6ED
 10
269.342018
 20
242.969343
 30
0.0
 11
269.342018
 21
182.913213
 31
0.0
  0
DIMENSION
  8
FF
  5
6EE
  2
*D5
 10
295.660901
 20
256.98244
 30
0.0
 11
291.494201
 21
213.441746
 31
0.0
  1
87
 13
253.827517
 23
169.901052
 33
0.0
 14
229.905159
 24
256.98244
 34
0.0
 50
90.0
  3
FSTD1
  0
DIMENSION
  8
FF
  5
6EF
  2
*D13
 10
284.158723
 20
183.163447
 30
0.0
 11
279.992023
 21
212.941278
 31
0.0
  1
59.5
 13
236.309716
 23
242.719109
 33
0.0
 14
236.309716
 24
183.163447
 34
0.0
 50
270.0
  3
FSTD2
  0
LINE
  8
0B
  5
6F0
 10
256.830324
 20
172.903858
 30
0.0
 11
256.830324
 21
252.978698
 31
0.0
  0
LINE
  8
0C
  5
6F1
 10
230.906095
 20
200.129304
 30
0.0
 11
230.906095
 21
227.95531
 31
0.0
  0
LINE
  8
0C
  5
6F2
 10
246.320501
 20
191.672828
 30
0.0
 11
246.320501
 21
234.212587
 31
0.0
  0
LINE
  8
0C
  5
6F3
 10
246.320501
 20
221.349136
 30
0.0
 11
246.320501
 21
244.971214
 31
0.0
  0
LINE
  8
0C
  5
6F4
 10
254.127798
 20
221.349136
 30
0.0
 11
254.127798
 21
242.062781
 31
0.0
  0
LINE
  8
0C
  5
6F5
 10
256.830324
 20
183.413681
 30
0.0
 11
256.830324
 21
242.468875
 31
0.0
  0
LINE
  8
0C
  5
6F6
 10
229.805065
 20
224.952504
 30
0.0
 11
229.805065
 21
200.930052
 31
0.0
  0
CIRCLE
  8
0D
  5
6F7
 10
250.22415
 20
191.120884
 30
0.0
 40
3.002806
  0
LINE
  8
0D
  5
6F8
 10
248.962971
 20
192.382063
 30
0.0
 11
251.485328
 21
189.859705
 31
0.0
  0
LINE
  8
0D
  5
6F9
 10
248.099307
 20
188.998901
 30
0.0
 11
252.346133
 21
193.245727
 31
0.0
  0
LINE
  8
0C
  5
6FA
 10
246.420595
 20
194.423971
 30
0.0
 11
246.420595
 21
187.817797
 31
0.0
  0
LINE
  8
0C
  5
6FB
 10
254.027704
 20
194.423971
 30
0.0
 11
254.027704
 21
187.817797
 31
0.0
  0
LINE
  8
0C
  5
6FC
 10
254.127798
 20
204.53342
 30
0.0
 11
254.127798
 21
183.822634
 31
0.0
  0
LINE
  8
0C
  5
6FD
 10
246.320501
 20
204.53342
 30
0.0
 11
246.320501
 21
180.911342
 31
0.0
  0
LINE
  8
0C
  5
6FE
 10
253.756022
 20
175.657861
 30
0.0
 11
248.391008
 21
175.657861
 31
0.0
  0
LINE
  8
0C
  5
6FF
 10
253.756022
 20
180.16207
 30
0.0
 11
248.391008
 21
180.16207
 31
0.0
  0
LINE
  8
0C
  5
700
 10
246.921062
 20
187.317329
 30
0.0
 11
253.527237
 21
187.317329
 31
0.0
  0
ARC
  8
0C
  5
701
 10
251.073515
 20
177.908536
 30
0.0
 40
3.503274
 50
139.995
 51
220.005
  0
LINE
  8
0C
  5
702
 10
245.619846
 20
170.901987
 30
0.0
 11
245.619846
 21
190.671893
 31
0.0
  0
LINE
  8
0C
  5
703
 10
230.053869
 20
170.901987
 30
0.0
 11
230.053869
 21
190.671893
 31
0.0
  0
LINE
  8
0C
  5
704
 10
242.565563
 20
170.901987
 30
0.0
 11
242.565563
 21
190.671893
 31
0.0
  0
ARC
  8
0C
  5
705
 10
229.052934
 20
170.901987
 30
0.0
 40
1.000935
 50
270.0
 51
0.0
  0
LINE
  8
0C
  5
706
 10
243.566499
 20
169.901052
 30
0.0
 11
244.618911
 21
169.901052
 31
0.0
  0
ARC
  8
0C
  5
707
 10
243.566499
 20
170.901987
 30
0.0
 40
1.000935
 50
180.0
 51
270.0
  0
ARC
  8
0C
  5
708
 10
244.618911
 20
170.901987
 30
0.0
 40
1.000935
 50
270.0
 51
0.0
  0
CIRCLE
  8
0D
  5
709
 10
236.311146
 20
183.164877
 30
0.0
 40
4.50421
  0
LINE
  8
0D
  5
70A
 10
239.494121
 20
186.347852
 30
0.0
 11
233.125312
 21
179.979042
 31
0.0
  0
LINE
  8
0C
  5
70B
 10
230.806001
 20
189.17049
 30
0.0
 11
241.816291
 21
189.17049
 31
0.0
  0
LINE
  8
0C
  5
70C
 10
230.806001
 20
177.159264
 30
0.0
 11
241.816291
 21
177.159264
 31
0.0
  0
LINE
  8
0C
  5
70D
 10
230.053869
 20
177.159264
 30
0.0
 11
242.565563
 21
177.159264
 31
0.0
  0
LINE
  8
0C
  5
70E
 10
230.305533
 20
188.670022
 30
0.0
 11
230.305533
 21
177.659732
 31
0.0
  0
LINE
  8
0D
  5
70F
 10
234.417948
 20
185.055215
 30
0.0
 11
238.201484
 21
181.271679
 31
0.0
  0
ARC
  8
0C
  5
710
 10
230.806001
 20
177.659732
 30
0.0
 40
0.500468
 50
180.0
 51
270.0
  0
ARC
  8
0C
  5
711
 10
230.806001
 20
188.670022
 30
0.0
 40
0.500468
 50
90.0
 51
180.0
  0
LINE
  8
0C
  5
712
 10
242.316759
 20
188.670022
 30
0.0
 11
242.316759
 21
177.659732
 31
0.0
  0
LINE
  8
0C
  5
713
 10
247.821904
 20
186.416487
 30
0.0
 11
247.149848
 21
183.914148
 31
0.0
  0
ARC
  8
0C
  5
714
 10
241.816291
 20
177.659732
 30
0.0
 40
0.500468
 50
270.0
 51
0.0
  0
ARC
  8
0C
  5
715
 10
245.319566
 20
180.911342
 30
0.0
 40
1.000935
 50
287.458
 51
0.0
  0
LINE
  8
0C
  5
716
 10
247.149848
 20
183.914148
 30
0.0
 11
246.320501
 21
183.914148
 31
0.0
  0
ARC
  8
0C
  5
717
 10
241.816291
 20
188.670022
 30
0.0
 40
0.500468
 50
0.0
 51
90.0
  0
ARC
  8
0C
  5
718
 10
245.319566
 20
191.672828
 30
0.0
 40
1.000935
 50
270.0
 51
0.0
  0
ARC
  8
0C
  5
719
 10
246.921062
 20
187.817797
 30
0.0
 40
0.500468
 50
180.0
 51
270.0
  0
LINE
  8
0C
  5
71A
 10
247.821904
 20
187.317329
 30
0.0
 11
247.821904
 21
186.416487
 31
0.0
  0
ARC
  8
0C
  5
71B
 10
251.073515
 20
177.908536
 30
0.0
 40
3.503274
 50
319.995
 51
40.0052
  0
ARC
  8
0B
  5
71C
 10
253.827517
 20
172.903858
 30
0.0
 40
3.002806
 50
270.0
 51
0.0
  0
LINE
  8
0D
  6
PHANTOM
  5
71D
 10
256.830324
 20
182.913213
 30
0.0
 11
269.342018
 21
182.913213
 31
0.0
  0
LINE
  8
0C
  5
71E
 10
252.626395
 20
186.416487
 30
0.0
 11
253.295592
 21
183.914148
 31
0.0
  0
LINE
  8
0C
  5
71F
 10
254.273649
 20
183.468017
 30
0.0
 11
254.679742
 21
183.059064
 31
0.0
  0
ARC
  8
0C
  5
720
 10
254.628266
 20
183.822634
 30
0.0
 40
0.500468
 50
180.0
 51
225.0
  0
LINE
  8
0C
  5
721
 10
253.295592
 20
183.914148
 30
0.0
 11
254.127798
 21
183.914148
 31
0.0
  0
ARC
  8
0C
  5
722
 10
256.329856
 20
183.413681
 30
0.0
 40
0.500468
 50
270.0
 51
0.0
  0
ARC
  8
0C
  5
723
 10
255.03436
 20
183.413681
 30
0.0
 40
0.500468
 50
225.0
 51
270.0
  0
LINE
  8
0C
  5
724
 10
256.329856
 20
182.913213
 30
0.0
 11
255.03436
 21
182.913213
 31
0.0
  0
ARC
  8
0C
  5
725
 10
253.527237
 20
187.817797
 30
0.0
 40
0.500468
 50
270.0
 51
0.0
  0
LINE
  8
0C
  5
726
 10
252.626395
 20
187.317329
 30
0.0
 11
252.626395
 21
186.416487
 31
0.0
  0
CIRCLE
  8
0D
  5
727
 10
250.22415
 20
199.228462
 30
0.0
 40
3.002806
  0
LINE
  8
0C
  5
728
 10
246.921062
 20
194.924439
 30
0.0
 11
253.527237
 21
194.924439
 31
0.0
  0
LINE
  8
0D
  5
729
 10
248.962971
 20
200.48964
 30
0.0
 11
251.485328
 21
197.967283
 31
0.0
  0
LINE
  8
0D
  5
72A
 10
248.099307
 20
197.106478
 30
0.0
 11
252.346133
 21
201.353305
 31
0.0
  0
LINE
  8
0C
  5
72B
 10
246.921062
 20
203.032016
 30
0.0
 11
253.527237
 21
203.032016
 31
0.0
  0
LINE
  8
0C
  5
72C
 10
246.921062
 20
195.424907
 30
0.0
 11
253.527237
 21
195.424907
 31
0.0
  0
LINE
  8
0C
  5
72D
 10
254.127798
 20
204.53342
 30
0.0
 11
246.320501
 21
204.53342
 31
0.0
  0
LINE
  8
0C
  5
72E
 10
246.320501
 20
221.349136
 30
0.0
 11
254.127798
 21
221.349136
 31
0.0
  0
ARC
  8
0C
  5
72F
 10
229.905159
 20
200.129304
 30
0.0
 40
1.000935
 50
270.0
 51
0.0
  0
ARC
  8
0C
  5
730
 10
229.304598
 20
200.930052
 30
0.0
 40
0.500468
 50
270.0
 51
0.0
  0
LINE
  8
0C
  5
731
 10
246.420595
 20
202.531549
 30
0.0
 11
246.420595
 21
195.925374
 31
0.0
  0
ARC
  8
0C
  5
732
 10
246.921062
 20
194.423971
 30
0.0
 40
0.500468
 50
90.0
 51
180.0
  0
ARC
  8
0C
  5
733
 10
246.921062
 20
195.925374
 30
0.0
 40
0.500468
 50
180.0
 51
270.0
  0
ARC
  8
0C
  5
734
 10
246.921062
 20
202.531549
 30
0.0
 40
0.500468
 50
90.0
 51
180.0
  0
LINE
  8
0C
  5
735
 10
254.027704
 20
202.531549
 30
0.0
 11
254.027704
 21
195.925374
 31
0.0
  0
ARC
  8
0C
  5
736
 10
253.527237
 20
194.423971
 30
0.0
 40
0.500468
 50
0.0
 51
90.0
  0
ARC
  8
0C
  5
737
 10
253.527237
 20
195.925374
 30
0.0
 40
0.500468
 50
270.0
 51
0.0
  0
ARC
  8
0C
  5
738
 10
253.527237
 20
202.531549
 30
0.0
 40
0.500468
 50
0.0
 51
90.0
  0
ARC
  8
0C
  5
739
 10
243.566499
 20
250.476359
 30
0.0
 40
3.503274
 50
319.995
 51
40.0052
  0
LINE
  8
0C
  5
73A
 10
240.154122
 20
255.981504
 30
0.0
 11
241.167113
 21
248.726152
 31
0.0
  0
LINE
  8
0C
  5
73B
 10
238.713391
 20
255.981504
 30
0.0
 11
238.713391
 21
248.726152
 31
0.0
  0
ARC
  8
0D
  5
73C
 10
234.809743
 20
249.975891
 30
0.0
 40
3.002806
 50
335.376
 51
204.624
  0
LINE
  8
0C
  5
73D
 10
231.106282
 20
253.278978
 30
0.0
 11
231.106282
 21
248.726152
 31
0.0
  0
LINE
  8
0C
  5
73E
 10
238.613298
 20
253.278978
 30
0.0
 11
238.613298
 21
248.726152
 31
0.0
  0
LINE
  8
0D
  5
73F
 10
233.548564
 20
248.714712
 30
0.0
 11
236.931726
 21
252.100734
 31
0.0
  0
LINE
  8
0C
  5
740
 10
230.053869
 20
235.213523
 30
0.0
 11
230.053869
 21
254.980569
 31
0.0
  0
LINE
  8
0C
  5
741
 10
242.565563
 20
235.213523
 30
0.0
 11
242.565563
 21
254.980569
 31
0.0
  0
LINE
  8
0C
  5
742
 10
245.619846
 20
235.213523
 30
0.0
 11
245.619846
 21
254.980569
 31
0.0
  0
CIRCLE
  8
0D
  5
743
 10
250.22415
 20
234.761672
 30
0.0
 40
3.002806
  0
CIRCLE
  8
0D
  5
744
 10
250.22415
 20
226.654094
 30
0.0
 40
3.002806
  0
LINE
  8
0D
  5
745
 10
248.962971
 20
227.915273
 30
0.0
 11
251.485328
 21
225.392915
 31
0.0
  0
LINE
  8
0D
  5
746
 10
248.099307
 20
224.532111
 30
0.0
 11
252.346133
 21
228.778937
 31
0.0
  0
LINE
  8
0C
  5
747
 10
246.921062
 20
230.457649
 30
0.0
 11
253.527237
 21
230.457649
 31
0.0
  0
LINE
  8
0C
  5
748
 10
246.921062
 20
222.850539
 30
0.0
 11
253.527237
 21
222.850539
 31
0.0
  0
LINE
  8
0D
  5
749
 10
248.962971
 20
236.02285
 30
0.0
 11
251.485328
 21
233.500493
 31
0.0
  0
LINE
  8
0D
  5
74A
 10
248.099307
 20
232.639688
 30
0.0
 11
252.346133
 21
236.886515
 31
0.0
  0
LINE
  8
0C
  5
74B
 10
246.921062
 20
238.565227
 30
0.0
 11
253.527237
 21
238.565227
 31
0.0
  0
LINE
  8
0C
  5
74C
 10
246.921062
 20
230.958117
 30
0.0
 11
253.527237
 21
230.958117
 31
0.0
  0
LINE
  8
0C
  5
74D
 10
246.420595
 20
238.064759
 30
0.0
 11
246.420595
 21
231.458585
 31
0.0
  0
ARC
  8
0C
  5
74E
 10
229.905159
 20
227.95531
 30
0.0
 40
1.000935
 50
0.0
 51
90.0
  0
ARC
  8
0C
  5
74F
 10
229.304598
 20
224.952504
 30
0.0
 40
0.500468
 50
0.0
 51
90.0
  0
LINE
  8
0C
  5
750
 10
246.420595
 20
229.957181
 30
0.0
 11
246.420595
 21
223.351007
 31
0.0
  0
ARC
  8
0C
  5
751
 10
246.921062
 20
223.351007
 30
0.0
 40
0.500468
 50
180.0
 51
270.0
  0
ARC
  8
0C
  5
752
 10
245.319566
 20
234.212587
 30
0.0
 40
1.000935
 50
0.0
 51
90.0
  0
ARC
  8
0C
  5
753
 10
246.921062
 20
229.957181
 30
0.0
 40
0.500468
 50
90.0
 51
180.0
  0
ARC
  8
0C
  5
754
 10
246.921062
 20
231.458585
 30
0.0
 40
0.500468
 50
180.0
 51
270.0
  0
CIRCLE
  8
0D
  5
755
 10
236.311146
 20
242.720539
 30
0.0
 40
4.50421
  0
LINE
  8
0D
  5
756
 10
239.494121
 20
245.903514
 30
0.0
 11
233.125312
 21
239.534704
 31
0.0
  0
LINE
  8
0C
  5
757
 10
230.806001
 20
248.726152
 30
0.0
 11
241.816291
 21
248.726152
 31
0.0
  0
LINE
  8
0C
  5
758
 10
230.806001
 20
236.714926
 30
0.0
 11
241.816291
 21
236.714926
 31
0.0
  0
LINE
  8
0C
  5
759
 10
242.565563
 20
248.726152
 30
0.0
 11
230.053869
 21
248.726152
 31
0.0
  0
LINE
  8
0C
  5
75A
 10
230.305533
 20
248.225684
 30
0.0
 11
230.305533
 21
237.215394
 31
0.0
  0
LINE
  8
0D
  5
75B
 10
234.417948
 20
244.610877
 30
0.0
 11
238.201484
 21
240.827341
 31
0.0
  0
ARC
  8
0C
  5
75C
 10
230.806001
 20
237.215394
 30
0.0
 40
0.500468
 50
180.0
 51
270.0
  0
LINE
  8
0D
  5
75D
 10
233.548564
 20
251.23707
 30
0.0
 11
236.070922
 21
248.714712
 31
0.0
  0
ARC
  8
0C
  5
75E
 10
230.806001
 20
248.225684
 30
0.0
 40
0.500468
 50
90.0
 51
180.0
  0
LINE
  8
0C
  5
75F
 10
246.320501
 20
237.964665
 30
0.0
 11
246.320501
 21
244.971214
 31
0.0
  0
LINE
  8
0C
  5
760
 10
242.316759
 20
248.225684
 30
0.0
 11
242.316759
 21
237.215394
 31
0.0
  0
ARC
  8
0C
  5
761
 10
241.816291
 20
237.215394
 30
0.0
 40
0.500468
 50
270.0
 51
0.0
  0
ARC
  8
0C
  5
762
 10
246.921062
 20
238.064759
 30
0.0
 40
0.500468
 50
90.0
 51
180.0
  0
LINE
  8
0C
  5
763
 10
247.821904
 20
239.466068
 30
0.0
 11
247.149848
 21
241.968407
 31
0.0
  0
LINE
  8
0C
  5
764
 10
247.821904
 20
238.565227
 30
0.0
 11
247.821904
 21
239.466068
 31
0.0
  0
LINE
  8
0C
  5
765
 10
247.149848
 20
241.968407
 30
0.0
 11
246.320501
 21
241.968407
 31
0.0
  0
ARC
  8
0C
  5
766
 10
241.816291
 20
248.225684
 30
0.0
 40
0.500468
 50
0.0
 51
90.0
  0
LINE
  8
0C
  5
767
 10
245.619846
 20
248.225684
 30
0.0
 11
246.249006
 21
248.225684
 31
0.0
  0
ARC
  8
0C
  5
768
 10
245.319566
 20
244.971214
 30
0.0
 40
1.000935
 50
0.0
 51
72.5423
  0
LINE
  8
0C
  5
769
 10
254.027704
 20
238.064759
 30
0.0
 11
254.027704
 21
231.458585
 31
0.0
  0
LINE
  8
0C
  5
76A
 10
254.027704
 20
229.957181
 30
0.0
 11
254.027704
 21
223.351007
 31
0.0
  0
ARC
  8
0C
  5
76B
 10
253.527237
 20
223.351007
 30
0.0
 40
0.500468
 50
270.0
 51
0.0
  0
ARC
  8
0C
  5
76C
 10
253.527237
 20
229.957181
 30
0.0
 40
0.500468
 50
0.0
 51
90.0
  0
ARC
  8
0C
  5
76D
 10
253.527237
 20
231.458585
 30
0.0
 40
0.500468
 50
270.0
 51
0.0
  0
LINE
  8
0D
  6
PHANTOM
  5
76E
 10
256.830324
 20
242.969343
 30
0.0
 11
269.342018
 21
242.969343
 31
0.0
  0
LINE
  8
0C
  5
76F
 10
254.273649
 20
242.414538
 30
0.0
 11
254.679742
 21
242.823492
 31
0.0
  0
ARC
  8
0C
  5
770
 10
253.527237
 20
238.064759
 30
0.0
 40
0.500468
 50
0.0
 51
90.0
  0
ARC
  8
0C
  5
771
 10
254.628266
 20
242.062781
 30
0.0
 40
0.500468
 50
135.0
 51
180.0
  0
LINE
  8
0C
  5
772
 10
252.626395
 20
238.565227
 30
0.0
 11
252.626395
 21
239.466068
 31
0.0
  0
LINE
  8
0C
  5
773
 10
252.626395
 20
239.466068
 30
0.0
 11
253.295592
 21
241.968407
 31
0.0
  0
LINE
  8
0C
  5
774
 10
253.295592
 20
241.968407
 30
0.0
 11
254.127798
 21
241.968407
 31
0.0
  0
ARC
  8
0C
  5
775
 10
256.329856
 20
242.468875
 30
0.0
 40
0.500468
 50
0.0
 51
90.0
  0
ARC
  8
0C
  5
776
 10
255.03436
 20
242.468875
 30
0.0
 40
0.500468
 50
90.0
 51
135.0
  0
LINE
  8
0C
  5
777
 10
256.329856
 20
242.969343
 30
0.0
 11
255.03436
 21
242.969343
 31
0.0
  0
LINE
  8
0B
  5
778
 10
240.151879
 20
255.981504
 30
0.0
 11
253.827517
 21
255.981504
 31
0.0
  0
LINE
  8
FF
  5
779
 10
236.751558
 20
252.266604
 30
0.0
 11
244.452184
 21
256.302089
 31
0.0
  0
LINE
  8
FF
  5
77A
 10
241.402762
 20
259.61204
 30
0.0
 11
236.751558
 21
252.266604
 31
0.0
  0
ARC
  8
0B
  5
77B
 10
239.213859
 20
256.481972
 30
0.0
 40
0.500468
 50
90.0
 51
180.0
  0
LINE
  8
0B
  5
77C
 10
235.073911
 20
254.980556
 30
0.0
 11
230.906095
 21
254.980569
 31
0.0
  0
LINE
  8
0C
  5
77D
 10
231.606749
 20
253.779446
 30
0.0
 11
238.11283
 21
253.779446
 31
0.0
  0
ARC
  8
0B
  5
77E
 10
229.905159
 20
255.981504
 30
0.0
 40
1.000935
 50
0.0
 51
90.0
  0
LINE
  8
0B
  5
77F
 10
230.906095
 20
254.980569
 30
0.0
 11
230.906095
 21
255.981504
 31
0.0
  0
ARC
  8
0C
  5
780
 10
231.606749
 20
253.278978
 30
0.0
 40
0.500468
 50
90.0
 51
180.0
  0
ARC
  8
0C
  5
781
 10
229.052934
 20
254.980569
 30
0.0
 40
1.000935
 50
0.0
 51
90.0
  0
LINE
  8
0B
  5
782
 10
238.713391
 20
256.481972
 30
0.0
 11
238.713391
 21
255.981504
 31
0.0
  0
LINE
  8
0C
  5
783
 10
235.073911
 20
254.980556
 30
0.0
 11
238.713391
 21
254.980569
 31
0.0
  0
ARC
  8
0B
  5
784
 10
237.312082
 20
252.978698
 30
0.0
 40
3.002806
 50
90.0
 51
138.19
  0
LINE
  8
0B
  5
785
 10
237.312082
 20
255.981504
 30
0.0
 11
238.713391
 21
255.981504
 31
0.0
  0
ARC
  8
0C
  5
786
 10
238.11283
 20
253.278978
 30
0.0
 40
0.500468
 50
0.0
 51
90.0
  0
LINE
  8
0C
  5
787
 10
243.566499
 20
255.981504
 30
0.0
 11
244.618911
 21
255.981504
 31
0.0
  0
LINE
  8
0B
  5
788
 10
239.213859
 20
256.98244
 30
0.0
 11
239.577056
 21
256.98244
 31
0.0
  0
ARC
  8
0B
  5
789
 10
239.577056
 20
256.481972
 30
0.0
 40
0.500468
 50
7.95748
 51
90.0
  0
LINE
  8
0B
  5
78A
 10
240.074664
 20
256.550607
 30
0.0
 11
240.154122
 21
255.981504
 31
0.0
  0
ARC
  8
0C
  5
78B
 10
243.566499
 20
250.476359
 30
0.0
 40
3.503274
 50
139.995
 51
146.325
  0
LINE
  8
0C
  5
78C
 10
240.883992
 20
252.729894
 30
0.0
 11
242.565563
 21
252.729894
 31
0.0
  0
ARC
  8
0C
  5
78D
 10
243.566499
 20
254.980569
 30
0.0
 40
1.000935
 50
90.0
 51
180.0
  0
LINE
  8
0C
  5
78E
 10
245.619846
 20
252.729894
 30
0.0
 11
246.249006
 21
252.729894
 31
0.0
  0
ARC
  8
0C
  5
78F
 10
244.618911
 20
254.980569
 30
0.0
 40
1.000935
 50
0.0
 51
90.0
  0
ARC
  8
0B
  5
790
 10
253.827517
 20
252.978698
 30
0.0
 40
3.002806
 50
0.0
 51
90.0
  0
LINE
  8
34
  6
PHANTOM
  5
791
 10
348.367305
 20
172.903858
 30
0.0
 11
348.367305
 21
252.978698
 31
0.0
  0
LINE
  8
34
  6
PHANTOM
  5
792
 10
351.370111
 20
169.901052
 30
0.0
 11
385.401918
 21
169.901052
 31
0.0
  0
ARC
  8
34
  6
PHANTOM
  5
793
 10
351.370111
 20
172.903858
 30
0.0
 40
3.002806
 50
180.0
 51
270.0
  0
LINE
  8
38
  6
CENTER
  5
794
 10
362.880869
 20
179.281247
 30
0.0
 11
362.880869
 21
170.584548
 31
0.0
  0
LINE
  8
38
  6
CENTER
  5
795
 10
360.378531
 20
179.255509
 30
0.0
 11
360.378531
 21
170.796174
 31
0.0
  0
ARC
  8
33
  5
796
 10
361.63113
 20
175.406197
 30
0.0
 40
3.503274
 50
139.995
 51
220.005
  0
ARC
  8
33
  5
797
 10
361.63113
 20
175.406197
 30
0.0
 40
3.503274
 50
319.995
 51
40.0052
  0
LINE
  8
38
  6
CENTER
  5
798
 10
367.931304
 20
175.406197
 30
0.0
 11
354.950601
 21
175.406197
 31
0.0
  0
LINE
  8
33
  5
799
 10
364.313637
 20
173.155522
 30
0.0
 11
358.945763
 21
173.155522
 31
0.0
  0
LINE
  8
33
  5
79A
 10
364.313637
 20
177.659732
 30
0.0
 11
358.945763
 21
177.659732
 31
0.0
  0
LINE
  8
FF
  5
79B
 10
364.313637
 20
177.659732
 30
0.0
 11
366.195396
 21
182.364128
 31
0.0
  0
LINE
  8
FF
  5
79C
 10
364.313637
 20
177.659732
 30
0.0
 11
367.568107
 21
181.543361
 31
0.0
  0
TEXT
  8
FF
  5
79D
 10
370.692391
 20
196.974927
 30
0.0
 40
5.004677
  1
2
  0
CIRCLE
  8
FF
  5
79E
 10
372.309682
 20
199.371452
 30
0.0
 40
3.002806
  0
DIMENSION
  8
FF
  5
79F
  2
*D6
 10
325.660368
 20
247.97402
 30
0.0
 11
321.493668
 21
252.47823
 31
0.0
  1
9
 13
365.183021
 23
256.98244
 33
0.0
 14
347.443584
 24
247.97402
 34
0.0
 50
270.0
  3
FSTD1
  0
LINE
  8
38
  6
CENTER
  5
7A0
 10
360.424288
 20
247.97402
 30
0.0
 11
347.443584
 21
247.97402
 31
0.0
  0
LINE
  8
34
  6
PHANTOM
  5
7A1
 10
351.370111
 20
255.981504
 30
0.0
 11
365.04289
 21
255.981504
 31
0.0
  0
LINE
  8
33
  5
7A2
 10
351.438747
 20
250.227555
 30
0.0
 11
356.806621
 21
250.227555
 31
0.0
  0
LINE
  8
33
  5
7A3
 10
351.438747
 20
245.723345
 30
0.0
 11
356.806621
 21
245.723345
 31
0.0
  0
ARC
  8
33
  5
7A4
 10
354.124114
 20
247.97402
 30
0.0
 40
3.503274
 50
139.995
 51
220.005
  0
ARC
  8
34
  6
PHANTOM
  5
7A5
 10
351.370111
 20
252.978698
 30
0.0
 40
3.002806
 50
90.0
 51
180.0
  0
LINE
  8
38
  6
CENTER
  5
7A6
 10
352.871514
 20
251.823332
 30
0.0
 11
352.871514
 21
243.363997
 31
0.0
  0
LINE
  8
38
  6
CENTER
  5
7A7
 10
355.373853
 20
251.84907
 30
0.0
 11
355.373853
 21
243.152371
 31
0.0
  0
CIRCLE
  8
FF
  5
7A8
 10
375.43546
 20
232.816997
 30
0.0
 40
3.002806
  0
LINE
  8
FF
  5
7A9
 10
356.806621
 20
245.723345
 30
0.0
 11
360.69883
 21
242.477454
 31
0.0
  0
LINE
  8
FF
  5
7AA
 10
356.806621
 20
245.723345
 30
0.0
 11
359.491988
 21
241.425042
 31
0.0
  0
ARC
  8
33
  5
7AB
 10
354.124114
 20
247.97402
 30
0.0
 40
3.503274
 50
319.995
 51
40.0052
  0
TEXT
  8
FF
  5
7AC
 10
374.312172
 20
230.420471
 30
0.0
 40
5.004677
  1
1
 41
1.538462
  0
LINE
  8
34
  6
PHANTOM
  5
7AD
 10
365.183021
 20
256.98244
 30
0.0
 11
365.04289
 21
255.981504
 31
0.0
  0
LINE
  8
FF
  5
7AE
 10
279.929055
 20
292.0495
 30
0.0
 11
312.410656
 21
292.0495
 31
0.0
  0
TEXT
  8
FF
  5
7AF
 10
278.888082
 20
301.109396
 30
0.0
 40
7.006548
  1
コイル端子
 41
0.833333
  0
TEXT
  8
FF
  5
7B0
 10
229.806703
 20
303.71663
 30
0.0
 40
5.004677
  1
※２
 41
0.833333
  0
TEXT
  8
FF
  5
7B1
 10
283.057694
 20
295.178138
 30
0.0
 40
5.004677
  1
M3.5
 41
1.181776
  0
DIMENSION
  8
FF
  5
7B2
  2
*D14
 10
444.637281
 20
256.98244
 30
0.0
 11
440.470581
 21
273.64914
 31
0.0
  1
6.5
 13
415.47574
 23
250.476359
 33
0.0
 14
405.620815
 24
256.98244
 34
0.0
 50
90.0
  3
FSTD2
  0
LINE
  8
34
  6
PHANTOM
  5
7B3
 10
422.436531
 20
172.903858
 30
0.0
 11
422.436531
 21
252.978698
 31
0.0
  0
LINE
  8
38
  6
CENTER
  5
7B4
 10
422.982756
 20
177.908536
 30
0.0
 11
410.002053
 21
177.908536
 31
0.0
  0
LINE
  8
33
  5
7B5
 10
419.365089
 20
180.16207
 30
0.0
 11
413.997215
 21
180.16207
 31
0.0
  0
LINE
  8
33
  5
7B6
 10
419.365089
 20
175.657861
 30
0.0
 11
413.997215
 21
175.657861
 31
0.0
  0
ARC
  8
33
  5
7B7
 10
416.682582
 20
177.908536
 30
0.0
 40
3.503274
 50
139.995
 51
220.005
  0
LINE
  8
FF
  5
7B8
 10
413.997215
 20
180.16207
 30
0.0
 11
411.311848
 21
184.457513
 31
0.0
  0
LINE
  8
FF
  5
7B9
 10
413.997215
 20
180.16207
 30
0.0
 11
410.105006
 21
183.405101
 31
0.0
  0
LINE
  8
38
  6
CENTER
  5
7BA
 10
417.932322
 20
181.783586
 30
0.0
 11
417.932322
 21
173.086886
 31
0.0
  0
LINE
  8
38
  6
CENTER
  5
7BB
 10
415.429983
 20
181.757847
 30
0.0
 11
415.429983
 21
173.298513
 31
0.0
  0
ARC
  8
33
  5
7BC
 10
416.682582
 20
177.908536
 30
0.0
 40
3.503274
 50
319.995
 51
40.0052
  0
ARC
  8
34
  6
PHANTOM
  5
7BD
 10
419.433725
 20
172.903858
 30
0.0
 40
3.002806
 50
270.0
 51
0.0
  0
LINE
  8
38
  6
CENTER
  5
7BE
 10
410.425305
 20
254.351409
 30
0.0
 11
410.425305
 21
245.65471
 31
0.0
  0
LINE
  8
38
  6
CENTER
  5
7BF
 10
407.922967
 20
254.325671
 30
0.0
 11
407.922967
 21
245.866336
 31
0.0
  0
ARC
  8
33
  5
7C0
 10
409.175566
 20
250.476359
 30
0.0
 40
3.503274
 50
139.995
 51
220.005
  0
ARC
  8
33
  5
7C1
 10
409.175566
 20
250.476359
 30
0.0
 40
3.503274
 50
319.995
 51
40.0052
  0
LINE
  8
38
  6
CENTER
  5
7C2
 10
415.47574
 20
250.476359
 30
0.0
 11
402.495037
 21
250.476359
 31
0.0
  0
LINE
  8
FF
  5
7C3
 10
406.490199
 20
248.225684
 30
0.0
 11
403.235729
 21
244.339194
 31
0.0
  0
LINE
  8
FF
  5
7C4
 10
406.490199
 20
248.225684
 30
0.0
 11
404.6113
 21
243.518427
 31
0.0
  0
LINE
  8
33
  5
7C5
 10
406.490199
 20
248.225684
 30
0.0
 11
411.858073
 21
248.225684
 31
0.0
  0
LINE
  8
34
  6
PHANTOM
  5
7C6
 10
405.760946
 20
255.981504
 30
0.0
 11
419.433725
 21
255.981504
 31
0.0
  0
LINE
  8
33
  5
7C7
 10
406.490199
 20
252.729894
 30
0.0
 11
411.858073
 21
252.729894
 31
0.0
  0
LINE
  8
34
  6
PHANTOM
  5
7C8
 10
404.820067
 20
256.98244
 30
0.0
 11
405.186123
 21
256.98244
 31
0.0
  0
LINE
  8
34
  6
PHANTOM
  5
7C9
 10
405.620815
 20
256.98244
 30
0.0
 11
405.760946
 21
255.981504
 31
0.0
  0
ARC
  8
34
  6
PHANTOM
  5
7CA
 10
419.433725
 20
252.978698
 30
0.0
 40
3.002806
 50
0.0
 51
90.0
  0
DIMENSION
  8
FF
  5
ABE
  2
*D7
 10
108.697018
 20
301.758574
 30
0.0
 11
55.747531
 21
305.925274
 31
0.0
  1
106
 13
2.798043
 23
226.453907
 33
0.0
 14
108.697018
 24
216.444552
 34
0.0
  3
FSTD1
  0
TEXT
  8
FF
  5
B43
 10
281.65397
 20
149.348068
 30
0.0
 40
7.0
  1
２－Ｍ４ 取付穴
 41
0.8333
  0
LINE
  8
FF
  5
B4D
 10
354.426104
 20
169.891313
 30
0.0
 11
358.947663
 21
173.154101
 31
0.0
  0
LINE
  8
FF
  5
B4E
 10
358.947663
 20
173.154101
 30
0.0
 11
355.728714
 21
168.601229
 31
0.0
  0
LINE
  8
FF
  5
B4F
 10
358.947663
 20
173.154101
 30
0.0
 11
355.077409
 21
169.246271
 31
0.0
  0
LINE
  8
FF
  5
B50
 10
355.077409
 20
169.246271
 30
0.0
 11
334.341526
 21
148.309061
 31
0.0
  0
LINE
  8
FF
  5
B51
 10
334.341526
 20
148.309061
 30
0.0
 11
277.239013
 21
148.309061
 31
0.0
  0
LINE
  8
14
  5
E11
 10
12.807398
 20
214.870109
 30
0.0
 11
12.807398
 21
210.964836
 31
0.0
  0
TEXT
  8
FF
  5
E65
 10
36.038043
 20
-13.371351
 30
0.0
 40
8.0
  1
Type
  0
ARC
  8
FF
  5
E66
 10
19.112449
 20
-7.835677
 30
0.0
 40
6.691933
 50
98.442625
 51
137.3304
1001
ACAD
1000
ASC_BOUNDS
1002
{
1070
    19
1002
}
  0
POLYLINE
  8
FF
  5
E67
 66
     1
 10
0.0
 20
0.0
 30
0.0
 70
   128
  0
VERTEX
  8
FF
  5
EDB
 10
18.772036
 20
-1.927433
 30
0.0
  0
VERTEX
  8
FF
  5
EDC
 10
17.739285
 20
-2.07617
 30
0.0
  0
VERTEX
  8
FF
  5
EDD
 10
16.725182
 20
-2.436682
 30
0.0
  0
VERTEX
  8
FF
  5
EDE
 10
15.762537
 20
-2.997304
 30
0.0
  0
VERTEX
  8
FF
  5
EDF
 10
14.882496
 20
-3.739898
 30
0.0
  0
VERTEX
  8
FF
  5
EE0
 10
14.113533
 20
-4.640437
 30
0.0
  0
VERTEX
  8
FF
  5
EE1
 10
13.480527
 20
-5.669786
 30
0.0
  0
VERTEX
  8
FF
  5
EE2
 10
13.003959
 20
-6.79464
 30
0.0
  0
SEQEND
  8
FF
  5
EE3
  0
LINE
  8
FF
  5
E68
 10
14.585498
 20
-5.955351
 30
0.0
 11
23.276124
 21
-5.955351
 31
0.0
  0
LINE
  8
FF
  5
E69
 10
14.402246
 20
-6.819351
 30
0.0
 11
24.038043
 21
-6.819351
 31
0.0
  0
ARC
  8
FF
  5
E6A
 10
17.211006
 20
-8.343701
 30
0.0
 40
4.506129
 50
186.002385
 51
276.412304
1001
ACAD
1000
ASC_BOUNDS
1002
{
1070
    19
1002
}
  0
ARC
  8
FF
  5
E6B
 10
17.005117
 20
-8.571372
 30
0.0
 40
5.04
 50
182.729155
 51
279.960292
1001
ACAD
1000
ASC_BOUNDS
1002
{
1070
    19
1002
}
  0
ARC
  8
FF
  5
E6C
 10
7.048683
 20
-3.471351
 30
0.0
 40
2.1
 50
90.0
 51
168.003101
  0
LINE
  8
FF
  5
E6D
 10
2.798043
 20
-13.371351
 30
0.0
 11
6.417086
 21
-13.371351
 31
0.0
  0
LINE
  8
FF
  5
E6E
 10
2.798043
 20
-13.371351
 30
0.0
 11
4.99455
 21
-3.034847
 31
0.0
  0
POLYLINE
  8
FF
  5
E6F
 66
     1
 10
0.0
 20
0.0
 30
0.0
 70
   128
  0
VERTEX
  8
FF
  5
EE4
 10
13.003959
 20
-6.79464
 30
0.0
  0
VERTEX
  8
FF
  5
EE5
 10
12.777979
 20
-7.822636
 30
0.0
  0
VERTEX
  8
FF
  5
EE6
 10
12.729581
 20
-8.826561
 30
0.0
  0
SEQEND
  8
FF
  5
EE7
  0
LINE
  8
FF
  5
E70
 10
7.386086
 20
-8.811351
 30
0.0
 11
11.970833
 21
-8.811351
 31
0.0
  0
LINE
  8
FF
  5
E71
 10
6.417086
 20
-13.371351
 30
0.0
 11
7.386086
 21
-8.811351
 31
0.0
  0
LINE
  8
FF
  5
E72
 10
7.048683
 20
-1.371351
 30
0.0
 11
14.588043
 21
-1.371351
 31
0.0
  0
LINE
  8
FF
  5
E73
 10
7.992986
 20
-5.955351
 30
0.0
 11
12.511712
 21
-5.955351
 31
0.0
  0
LINE
  8
FF
  5
E74
 10
8.800184
 20
-4.443351
 30
0.0
 11
13.338013
 21
-4.443351
 31
0.0
  0
ARC
  8
FF
  5
E75
 10
8.800184
 20
-5.043351
 30
0.0
 40
0.6
 50
90.0
 51
168.003101
  0
LINE
  8
FF
  5
E76
 10
7.992986
 20
-5.955351
 30
0.0
 11
8.213288
 21
-4.918635
 31
0.0
  0
LINE
  8
FF
  5
E77
 10
14.588043
 20
-1.371351
 30
0.0
 11
14.192043
 21
-3.300088
 31
0.0
  0
LINE
  8
FF
  5
E78
 10
14.585498
 20
-5.955351
 30
0.0
 11
14.402246
 21
-6.819351
 31
0.0
  0
ARC
  8
FF
  5
E79
 10
19.255687
 20
-8.659119
 30
0.0
 40
7.26578
 50
144.533818
 51
158.153358
  0
LINE
  8
FF
  5
E7A
 10
23.630043
 20
-8.571351
 30
0.0
 11
22.814521
 21
-8.571351
 31
0.0
  0
ARC
  8
FF
  5
E7B
 10
16.723547
 20
-6.382851
 30
0.0
 40
7.244944
 50
279.159834
 51
342.417868
1001
ACAD
1000
ASC_BOUNDS
1002
{
1070
    19
1002
}
  0
ARC
  8
FF
  5
E7C
 10
16.512321
 20
-6.194088
 30
0.0
 40
6.735659
 50
280.279158
 51
339.332945
1001
ACAD
1000
ASC_BOUNDS
1002
{
1070
    19
1002
}
  0
ARC
  8
FF
  5
E7D
 10
19.045795
 20
-6.125326
 30
0.0
 40
4.993958
 50
1.499529
 51
100.57959
1001
ACAD
1000
ASC_BOUNDS
1002
{
1070
    19
1002
}
  0
ARC
  8
FF
  5
E7E
 10
19.0264
 20
-6.175233
 30
0.0
 40
4.255409
 50
2.961866
 51
93.426847
  0
LINE
  8
FF
  5
E7F
 10
24.038043
 20
-6.819351
 30
0.0
 11
24.038043
 21
-5.994641
 31
0.0
  0
TEXT
  8
FF
  5
E81
 10
76.038043
 20
-27.771351
 30
0.0
 40
8.0
  1
SC-N2 , SC-N2/U , SC-N2H
  0
TEXT
  8
FF
  5
E82
 10
76.038043
 20
-13.371351
 30
0.0
 40
8.0
  1
SC-N1 , SC-N1/U , SC-N1H
  0
TEXT
  8
FF
  6
CONTINUOUS
  5
E83
 10
367.865958
 20
-27.479418
 30
0.0
 40
4.0
  1
SC-N1
  0
LINE
  8
FF
  5
E84
 10
317.136769
 20
-37.371351
 30
0.0
 11
469.136769
 21
-37.371351
 31
0.0
  0
LINE
  8
FF
  5
E85
 10
317.136769
 20
-29.371351
 30
0.0
 11
469.136769
 21
-29.371351
 31
0.0
  0
LINE
  8
FF
  5
E86
 10
317.136769
 20
-21.371351
 30
0.0
 11
469.136769
 21
-21.371351
 31
0.0
  0
LINE
  8
FF
  5
E87
 10
317.136769
 20
-13.371351
 30
0.0
 11
469.136769
 21
-13.371351
 31
0.0
  0
TEXT
  8
FF
  6
CONTINUOUS
  5
E88
 10
378.915213
 20
-11.481864
 30
0.0
 40
4.0
  1
ﾌｧｲﾙ名
  0
LINE
  8
FF
  5
E89
 10
317.136769
 20
-5.371351
 30
0.0
 11
469.136769
 21
-5.371351
 31
0.0
  0
TEXT
  8
FF
  6
CONTINUOUS
  5
E8B
 10
337.98081
 20
-27.479418
 30
0.0
 40
4.0
  1
2005-12
  0
LINE
  8
FF
  5
E8D
 10
333.136769
 20
-5.371351
 30
0.0
 11
333.136769
 21
-37.371351
 31
0.0
  0
LINE
  8
FF
  5
E8E
 10
317.136769
 20
-5.371351
 30
0.0
 11
317.136769
 21
-37.371351
 31
0.0
  0
TEXT
  8
FF
  6
CONTINUOUS
  5
E8F
 10
321.031791
 20
-27.160258
 30
0.0
 40
4.0
  1
変更
  0
TEXT
  8
FF
  6
CONTINUOUS
  5
E90
 10
321.031791
 20
-19.603259
 30
0.0
 40
4.0
  1
作成
  0
LINE
  8
FF
  5
E91
 10
365.136769
 20
-5.371351
 30
0.0
 11
365.136769
 21
-37.371351
 31
0.0
  0
TEXT
  8
FF
  6
CONTINUOUS
  5
E92
 10
344.28077
 20
-11.481864
 30
0.0
 40
4.0
  1
日付
  0
TEXT
  8
FF
  6
CONTINUOUS
  5
E95
 10
419.011504
 20
-11.481864
 30
0.0
 40
4.0
  1
図面番号
  0
LINE
  8
FF
  5
E96
 10
405.136769
 20
-5.371351
 30
0.0
 11
405.136769
 21
-37.371351
 31
0.0
  0
LINE
  8
FF
  5
E97
 10
469.136769
 20
-5.371351
 30
0.0
 11
469.136769
 21
-37.371351
 31
0.0
  0
LINE
  8
FF
  5
E98
 10
453.136769
 20
-5.371351
 30
0.0
 11
453.136769
 21
-37.371351
 31
0.0
  0
TEXT
  8
FF
  6
CONTINUOUS
  5
E9B
 10
457.311134
 20
-11.481864
 30
0.0
 40
4.0
  1
変更
  0
ENDSEC
  0
EOF
