  0
SECTION
  2
HEADER
  9
$ACADVER
  1
AC1009
  9
$INSBASE
 10
0.0
 20
0.0
 30
0.0
  9
$EXTMIN
 10
-17.667784
 20
-69.161687
 30
0.0
  9
$EXTMAX
 10
504.159198
 20
345.101213
 30
0.0
  9
$LIMMIN
 10
-10.789138
 20
-10.060888
  9
$LIMMAX
 10
499.896579
 20
363.584276
  9
$ORTHOMODE
 70
     1
  9
$REGENMODE
 70
     1
  9
$FILLMODE
 70
     1
  9
$QTEXTMODE
 70
     0
  9
$MIRRTEXT
 70
     1
  9
$DRAGMODE
 70
     2
  9
$LTSCALE
 40
0.4
  9
$OSMODE
 70
     1
  9
$ATTMODE
 70
     1
  9
$TEXTSIZE
 40
7.8
  9
$TRACEWID
 40
1.0
  9
$TEXTSTYLE
  7
STANDARD
  9
$CLAYER
  8
FF
  9
$CELTYPE
  6
BYLAYER
  9
$CECOLOR
 62
   256
  9
$DIMSCALE
 40
1.0
  9
$DIMASZ
 40
5.0
  9
$DIMEXO
 40
1.6667
  9
$DIMDLI
 40
0.38
  9
$DIMRND
 40
0.0
  9
$DIMDLE
 40
0.0
  9
$DIMEXE
 40
1.6667
  9
$DIMTP
 40
0.0
  9
$DIMTM
 40
0.0
  9
$DIMTXT
 40
5.0
  9
$DIMCEN
 40
0.09
  9
$DIMTSZ
 40
0.0
  9
$DIMTOL
 70
     0
  9
$DIMLIM
 70
     0
  9
$DIMTIH
 70
     0
  9
$DIMTOH
 70
     0
  9
$DIMSE1
 70
     0
  9
$DIMSE2
 70
     0
  9
$DIMTAD
 70
     1
  9
$DIMZIN
 70
     8
  9
$DIMBLK
  1

  9
$DIMASO
 70
     1
  9
$DIMSHO
 70
     1
  9
$DIMPOST
  1

  9
$DIMAPOST
  1

  9
$DIMALT
 70
     0
  9
$DIMALTD
 70
     4
  9
$DIMALTF
 40
0.0394
  9
$DIMLFAC
 40
1.0
  9
$DIMTOFL
 70
     1
  9
$DIMTVP
 40
0.0
  9
$DIMTIX
 70
     0
  9
$DIMSOXD
 70
     0
  9
$DIMSAH
 70
     1
  9
$DIMBLK1
  1
_OPEN
  9
$DIMBLK2
  1
_OPEN
  9
$DIMSTYLE
  2
FSTD2
  9
$DIMCLRD
 70
     0
  9
$DIMCLRE
 70
     0
  9
$DIMCLRT
 70
     0
  9
$DIMTFAC
 40
1.0
  9
$DIMGAP
 40
1.6667
  9
$LUNITS
 70
     2
  9
$LUPREC
 70
     4
  9
$SKETCHINC
 40
1.0
  9
$FILLETRAD
 40
10.0
  9
$AUNITS
 70
     0
  9
$AUPREC
 70
     0
  9
$MENU
  1
acad
  9
$ELEVATION
 40
0.0
  9
$PELEVATION
 40
0.0
  9
$THICKNESS
 40
0.0
  9
$LIMCHECK
 70
     0
  9
$BLIPMODE
 70
     0
  9
$CHAMFERA
 40
10.0
  9
$CHAMFERB
 40
10.0
  9
$SKPOLY
 70
     0
  9
$TDCREATE
 40
2452132.421877893
  9
$TDUPDATE
 40
2453733.510316308
  9
$TDINDWG
 40
0.0099327315
  9
$TDUSRTIMER
 40
0.0099327315
  9
$USRTIMER
 70
     1
  9
$ANGBASE
 50
0.0
  9
$ANGDIR
 70
     0
  9
$PDMODE
 70
     0
  9
$PDSIZE
 40
0.0
  9
$PLINEWID
 40
0.0
  9
$COORDS
 70
     1
  9
$SPLFRAME
 70
     0
  9
$SPLINETYPE
 70
     6
  9
$SPLINESEGS
 70
     8
  9
$ATTDIA
 70
     0
  9
$ATTREQ
 70
     1
  9
$HANDLING
 70
     1
  9
$HANDSEED
  5
E5C
  9
$SURFTAB1
 70
     6
  9
$SURFTAB2
 70
     6
  9
$SURFTYPE
 70
     6
  9
$SURFU
 70
     6
  9
$SURFV
 70
     6
  9
$UCSNAME
  2

  9
$UCSORG
 10
0.0
 20
0.0
 30
0.0
  9
$UCSXDIR
 10
1.0
 20
0.0
 30
0.0
  9
$UCSYDIR
 10
0.0
 20
1.0
 30
0.0
  9
$PUCSNAME
  2

  9
$PUCSORG
 10
0.0
 20
0.0
 30
0.0
  9
$PUCSXDIR
 10
1.0
 20
0.0
 30
0.0
  9
$PUCSYDIR
 10
0.0
 20
1.0
 30
0.0
  9
$USERI1
 70
     0
  9
$USERI2
 70
     0
  9
$USERI3
 70
     0
  9
$USERI4
 70
     0
  9
$USERI5
 70
     0
  9
$USERR1
 40
0.0
  9
$USERR2
 40
0.0
  9
$USERR3
 40
0.0
  9
$USERR4
 40
0.0
  9
$USERR5
 40
0.0
  9
$WORLDVIEW
 70
     1
  9
$SHADEDGE
 70
     3
  9
$SHADEDIF
 70
    70
  9
$TILEMODE
 70
     1
  9
$MAXACTVP
 70
    16
  9
$PINSBASE
 10
0.0
 20
0.0
 30
0.0
  9
$PLIMCHECK
 70
     0
  9
$PEXTMIN
 10
1.000000E+20
 20
1.000000E+20
 30
1.000000E+20
  9
$PEXTMAX
 10
-1.000000E+20
 20
-1.000000E+20
 30
-1.000000E+20
  9
$PLIMMIN
 10
0.0
 20
0.0
  9
$PLIMMAX
 10
420.0
 20
297.0
  9
$UNITMODE
 70
     0
  9
$VISRETAIN
 70
     1
  9
$PLINEGEN
 70
     0
  9
$PSLTSCALE
 70
     1
  9
$TREEDEPTH
 70
  3020
  9
$DWGCODEPAGE
  3
dos932
  0
ENDSEC
  0
SECTION
  2
TABLES
  0
TABLE
  2
VPORT
 70
     2
  0
VPORT
  2
*ACTIVE
 70
     0
 10
0.0
 20
0.0
 11
1.0
 21
1.0
 12
243.237119
 22
183.525057
 13
0.0
 23
0.0
 14
10.0
 24
10.0
 15
10.0
 25
10.0
 16
0.0
 26
0.0
 36
1.0
 17
0.0
 27
0.0
 37
0.0
 40
509.047599
 41
1.475202
 42
50.0
 43
0.0
 44
0.0
 50
0.0
 51
0.0
 71
     0
 72
   100
 73
     1
 74
     1
 75
     0
 76
     0
 77
     0
 78
     0
  0
ENDTAB
  0
TABLE
  2
LTYPE
 70
     4
  0
LTYPE
  2
CONTINUOUS
 70
    64
  3
Solid line
 72
    65
 73
     0
 40
0.0
  0
LTYPE
  2
DASHED
 70
    64
  3
DASHED
 72
    65
 73
     2
 40
0.75
 49
0.5
 49
-0.25
  0
LTYPE
  2
CENTER
 70
    64
  3
Center ____ _ ____ _ ____ _ ____ _ ____ _ ____
 72
    65
 73
     4
 40
2.0
 49
1.25
 49
-0.25
 49
0.25
 49
-0.25
  0
LTYPE
  2
PHANTOM
 70
    64
  3
Phantom ______  __  __  ______  __  __  ______
 72
    65
 73
     6
 40
2.5
 49
1.25
 49
-0.25
 49
0.25
 49
-0.25
 49
0.25
 49
-0.25
  0
ENDTAB
  0
TABLE
  2
LAYER
 70
    15
  0
LAYER
  2
0
 70
    64
 62
     7
  6
CONTINUOUS
  0
LAYER
  2
0B
 70
    64
 62
     6
  6
CONTINUOUS
  0
LAYER
  2
0D
 70
    64
 62
     2
  6
CONTINUOUS
  0
LAYER
  2
FF
 70
    64
 62
     4
  6
CONTINUOUS
  0
LAYER
  2
DEFPOINTS
 70
    64
 62
     7
  6
CONTINUOUS
  0
LAYER
  2
33
 70
    64
 62
     6
  6
CONTINUOUS
  0
LAYER
  2
34
 70
    64
 62
     3
  6
CONTINUOUS
  0
LAYER
  2
38
 70
    64
 62
     6
  6
CENTER
  0
LAYER
  2
15
 70
    64
 62
     6
  6
CONTINUOUS
  0
LAYER
  2
16
 70
    64
 62
     3
  6
CONTINUOUS
  0
LAYER
  2
17
 70
    64
 62
     2
  6
CONTINUOUS
  0
LAYER
  2
1A
 70
    64
 62
     6
  6
CENTER
  0
LAYER
  2
0C
 70
    64
 62
     3
  6
CONTINUOUS
  0
LAYER
  2
10
 70
    64
 62
     6
  6
CENTER
  0
LAYER
  2
14
 70
    64
 62
     7
  6
CONTINUOUS
  0
ENDTAB
  0
TABLE
  2
STYLE
 70
     1
  0
STYLE
  2
STANDARD
 70
    64
 40
0.0
 41
1.0
 50
0.0
 71
     0
 42
7.8
  3
txt.shx
  4
bigfont.shx
  0
ENDTAB
  0
TABLE
  2
VIEW
 70
     0
  0
ENDTAB
  0
TABLE
  2
UCS
 70
     0
  0
ENDTAB
  0
TABLE
  2
APPID
 70
     1
  0
APPID
  2
ACAD
 70
    64
  0
ENDTAB
  0
TABLE
  2
DIMSTYLE
 70
     3
  0
DIMSTYLE
  2
FSTD1
 70
    64
  3

  4

  5

  6
_OPEN
  7
_OPEN
 40
1.0
 41
5.0
 42
1.6667
 43
0.38
 44
1.6667
 45
0.0
 46
0.0
 47
0.0
 48
0.0
140
5.0
141
0.09
142
0.0
143
0.0394
144
1.0
145
0.0
146
1.0
147
1.6667
 71
     0
 72
     0
 73
     0
 74
     0
 75
     0
 76
     0
 77
     1
 78
     8
170
     0
171
     4
172
     1
173
     1
174
     0
175
     0
176
     0
177
     0
178
     0
  0
DIMSTYLE
  2
FSTD2
 70
    64
  3

  4

  5

  6
_OPEN
  7
_OPEN
 40
1.0
 41
5.0
 42
1.6667
 43
0.38
 44
1.6667
 45
0.0
 46
0.0
 47
0.0
 48
0.0
140
5.0
141
0.09
142
0.0
143
0.0394
144
1.0
145
0.0
146
1.0
147
1.6667
 71
     0
 72
     0
 73
     0
 74
     0
 75
     0
 76
     0
 77
     1
 78
     8
170
     0
171
     4
172
     1
173
     1
174
     0
175
     0
176
     0
177
     0
178
     0
  0
DIMSTYLE
  2
FSTD3
 70
    64
  3

  4

  5

  6
_OPEN
  7
_OPEN
 40
1.0
 41
5.0
 42
1.6667
 43
0.38
 44
1.6667
 45
0.0
 46
0.0
 47
0.0
 48
0.0
140
5.0
141
0.09
142
0.0
143
0.0394
144
1.0
145
0.0
146
1.0
147
-1.6667
 71
     0
 72
     0
 73
     0
 74
     0
 75
     0
 76
     0
 77
     1
 78
     8
170
     0
171
     4
172
     1
173
     1
174
     0
175
     0
176
     0
177
     0
178
     0
  0
ENDTAB
  0
ENDSEC
  0
SECTION
  2
BLOCKS
  0
BLOCK
  8
0
  5
107
  2
_OPEN
 70
    64
 10
0.0
 20
0.0
 30
0.0
  3
_OPEN
  0
LINE
  8
0
  6
BYBLOCK
 62
     0
  5
104
 10
-1.0
 20
0.166667
 30
0.0
 11
0.0
 21
0.0
 31
0.0
  0
LINE
  8
0
  6
BYBLOCK
 62
     0
  5
105
 10
0.0
 20
0.0
 30
0.0
 11
-1.0
 21
-0.166667
 31
0.0
  0
LINE
  8
0
  6
BYBLOCK
 62
     0
  5
106
 10
0.0
 20
0.0
 30
0.0
 11
-1.0
 21
0.0
 31
0.0
  0
ENDBLK
  8
0
  5
108
  0
BLOCK
  8
0
  5
CD5
  2
*D1
 70
    65
 10
0.0
 20
0.0
 30
0.0
  3
*D1
  0
LINE
  8
0
  6
BYBLOCK
 62
     0
  5
CD6
 10
296.943143
 20
274.04696
 30
0.0
 11
296.943143
 21
326.864103
 31
0.0
  0
LINE
  8
0
  6
BYBLOCK
 62
     0
  5
CD7
 10
209.943143
 20
274.04696
 30
0.0
 11
209.943143
 21
326.864103
 31
0.0
  0
LINE
  8
0
  6
BYBLOCK
 62
     0
  5
CD8
 10
291.943143
 20
325.197403
 30
0.0
 11
214.943143
 21
325.197403
 31
0.0
  0
INSERT
  8
0
  6
BYBLOCK
 62
     0
  5
CD9
  2
_OPEN
 10
296.943143
 20
325.197403
 30
0.0
 41
5.0
 42
5.0
 43
5.0
  0
INSERT
  8
0
  6
BYBLOCK
 62
     0
  5
CDA
  2
_OPEN
 10
209.943143
 20
325.197403
 30
0.0
 41
5.0
 42
5.0
 50
180.0
 43
5.0
  0
TEXT
  8
0
  6
BYBLOCK
 62
     0
  5
CDB
 10
249.276477
 20
326.864103
 30
0.0
 40
5.0
  1
88
  0
POINT
  8
DEFPOINTS
  6
BYBLOCK
 62
     0
  5
CDC
 10
296.943143
 20
272.38026
 30
0.0
  0
POINT
  8
DEFPOINTS
  6
BYBLOCK
 62
     0
  5
CDD
 10
209.943143
 20
272.38026
 30
0.0
  0
POINT
  8
DEFPOINTS
  6
BYBLOCK
 62
     0
  5
CDE
 10
209.943143
 20
325.197403
 30
0.0
  0
ENDBLK
  8
0
  5
CDF
  0
BLOCK
  8
0
  5
CCA
  2
*D2
 70
    65
 10
0.0
 20
0.0
 30
0.0
  3
*D2
  0
LINE
  8
0
  6
BYBLOCK
 62
     0
  5
CCB
 10
309.443143
 20
253.04696
 30
0.0
 11
309.443143
 21
339.324103
 31
0.0
  0
LINE
  8
0
  6
BYBLOCK
 62
     0
  5
CCC
 10
197.442857
 20
253.04696
 30
0.0
 11
197.442857
 21
339.324103
 31
0.0
  0
LINE
  8
0
  6
BYBLOCK
 62
     0
  5
CCD
 10
304.443143
 20
337.657403
 30
0.0
 11
202.442857
 21
337.657403
 31
0.0
  0
INSERT
  8
0
  6
BYBLOCK
 62
     0
  5
CCE
  2
_OPEN
 10
309.443143
 20
337.657403
 30
0.0
 41
5.0
 42
5.0
 43
5.0
  0
INSERT
  8
0
  6
BYBLOCK
 62
     0
  5
CCF
  2
_OPEN
 10
197.442857
 20
337.657403
 30
0.0
 41
5.0
 42
5.0
 50
180.0
 43
5.0
  0
TEXT
  8
0
  6
BYBLOCK
 62
     0
  5
CD0
 10
245.109667
 20
339.324103
 30
0.0
 40
5.0
  1
(112)
  0
POINT
  8
DEFPOINTS
  6
BYBLOCK
 62
     0
  5
CD1
 10
309.443143
 20
251.38026
 30
0.0
  0
POINT
  8
DEFPOINTS
  6
BYBLOCK
 62
     0
  5
CD2
 10
197.442857
 20
251.38026
 30
0.0
  0
POINT
  8
DEFPOINTS
  6
BYBLOCK
 62
     0
  5
CD3
 10
197.442857
 20
337.657403
 30
0.0
  0
ENDBLK
  8
0
  5
CD4
  0
BLOCK
  8
0
  5
C9C
  2
*D3
 70
    65
 10
0.0
 20
0.0
 30
0.0
  3
*D3
  0
LINE
  8
0
  6
BYBLOCK
 62
     0
  5
C9D
 10
124.699715
 20
226.54696
 30
0.0
 11
124.699715
 21
326.989817
 31
0.0
  0
LINE
  8
0
  6
BYBLOCK
 62
     0
  5
C9E
 10
14.0
 20
271.998389
 30
0.0
 11
14.0
 21
326.989817
 31
0.0
  0
LINE
  8
0
  6
BYBLOCK
 62
     0
  5
C9F
 10
119.699715
 20
325.323117
 30
0.0
 11
19.0
 21
325.323117
 31
0.0
  0
INSERT
  8
0
  6
BYBLOCK
 62
     0
  5
CA0
  2
_OPEN
 10
124.699715
 20
325.323117
 30
0.0
 41
5.0
 42
5.0
 43
5.0
  0
INSERT
  8
0
  6
BYBLOCK
 62
     0
  5
CA1
  2
_OPEN
 10
14.0
 20
325.323117
 30
0.0
 41
5.0
 42
5.0
 50
180.0
 43
5.0
  0
TEXT
  8
0
  6
BYBLOCK
 62
     0
  5
CA2
 10
65.183191
 20
326.989817
 30
0.0
 40
5.0
  1
111
  0
POINT
  8
DEFPOINTS
  6
BYBLOCK
 62
     0
  5
CA3
 10
124.699715
 20
224.88026
 30
0.0
  0
POINT
  8
DEFPOINTS
  6
BYBLOCK
 62
     0
  5
CA4
 10
14.0
 20
270.331689
 30
0.0
  0
POINT
  8
DEFPOINTS
  6
BYBLOCK
 62
     0
  5
CA5
 10
14.0
 20
325.323117
 30
0.0
  0
ENDBLK
  8
0
  5
CA6
  0
BLOCK
  8
0
  5
C91
  2
*D4
 70
    65
 10
0.0
 20
0.0
 30
0.0
  3
*D4
  0
LINE
  8
0
  6
BYBLOCK
 62
     0
  5
C92
 10
124.699715
 20
226.54696
 30
0.0
 11
124.699715
 21
339.535532
 31
0.0
  0
LINE
  8
0
  6
BYBLOCK
 62
     0
  5
C93
 10
3.6
 20
236.54696
 30
0.0
 11
3.6
 21
339.535532
 31
0.0
  0
LINE
  8
0
  6
BYBLOCK
 62
     0
  5
C94
 10
119.699715
 20
337.868832
 30
0.0
 11
8.6
 21
337.868832
 31
0.0
  0
INSERT
  8
0
  6
BYBLOCK
 62
     0
  5
C95
  2
_OPEN
 10
124.699715
 20
337.868832
 30
0.0
 41
5.0
 42
5.0
 43
5.0
  0
INSERT
  8
0
  6
BYBLOCK
 62
     0
  5
C96
  2
_OPEN
 10
3.6
 20
337.868832
 30
0.0
 41
5.0
 42
5.0
 50
180.0
 43
5.0
  0
TEXT
  8
0
  6
BYBLOCK
 62
     0
  5
C97
 10
59.149857
 20
339.535532
 30
0.0
 40
5.0
  1
121
  0
POINT
  8
DEFPOINTS
  6
BYBLOCK
 62
     0
  5
C98
 10
124.699715
 20
224.88026
 30
0.0
  0
POINT
  8
DEFPOINTS
  6
BYBLOCK
 62
     0
  5
C99
 10
3.6
 20
234.88026
 30
0.0
  0
POINT
  8
DEFPOINTS
  6
BYBLOCK
 62
     0
  5
C9A
 10
3.6
 20
337.868832
 30
0.0
  0
ENDBLK
  8
0
  5
C9B
  0
BLOCK
  8
0
  5
CBF
  2
*D5
 70
    65
 10
0.0
 20
0.0
 30
0.0
  3
*D5
  0
LINE
  8
0
  6
BYBLOCK
 62
     0
  5
CC0
 10
152.0
 20
225.04696
 30
0.0
 11
152.0
 21
326.989817
 31
0.0
  0
LINE
  8
0
  6
BYBLOCK
 62
     0
  5
CC1
 10
124.699715
 20
226.54696
 30
0.0
 11
124.699715
 21
326.989817
 31
0.0
  0
LINE
  8
0
  6
BYBLOCK
 62
     0
  5
CC2
 10
147.0
 20
325.323117
 30
0.0
 11
129.699715
 21
325.323117
 31
0.0
  0
INSERT
  8
0
  6
BYBLOCK
 62
     0
  5
CC3
  2
_OPEN
 10
152.0
 20
325.323117
 30
0.0
 41
5.0
 42
5.0
 43
5.0
  0
INSERT
  8
0
  6
BYBLOCK
 62
     0
  5
CC4
  2
_OPEN
 10
124.699715
 20
325.323117
 30
0.0
 41
5.0
 42
5.0
 50
180.0
 43
5.0
  0
TEXT
  8
0
  6
BYBLOCK
 62
     0
  5
CC5
 10
130.849857
 20
326.989817
 30
0.0
 40
5.0
  1
(28)
  0
POINT
  8
DEFPOINTS
  6
BYBLOCK
 62
     0
  5
CC6
 10
152.0
 20
223.38026
 30
0.0
  0
POINT
  8
DEFPOINTS
  6
BYBLOCK
 62
     0
  5
CC7
 10
124.699715
 20
224.88026
 30
0.0
  0
POINT
  8
DEFPOINTS
  6
BYBLOCK
 62
     0
  5
CC8
 10
124.699715
 20
325.323117
 30
0.0
  0
ENDBLK
  8
0
  5
CC9
  0
BLOCK
  8
0
  5
CF8
  2
*D6
 70
    65
 10
0.0
 20
0.0
 30
0.0
  3
*D6
  0
LINE
  8
0
  6
BYBLOCK
 62
     0
  5
CF9
 10
297.609843
 20
165.38026
 30
0.0
 11
334.344129
 21
165.38026
 31
0.0
  0
LINE
  8
0
  6
BYBLOCK
 62
     0
  5
CFA
 10
267.209843
 20
274.88026
 30
0.0
 11
334.344129
 21
274.88026
 31
0.0
  0
LINE
  8
0
  6
BYBLOCK
 62
     0
  5
CFB
 10
332.677429
 20
170.38026
 30
0.0
 11
332.677429
 21
269.88026
 31
0.0
  0
INSERT
  8
0
  6
BYBLOCK
 62
     0
  5
CFC
  2
_OPEN
 10
332.677429
 20
165.38026
 30
0.0
 41
5.0
 42
5.0
 50
270.0
 43
5.0
  0
INSERT
  8
0
  6
BYBLOCK
 62
     0
  5
CFD
  2
_OPEN
 10
332.677429
 20
274.88026
 30
0.0
 41
5.0
 42
5.0
 50
90.0
 43
5.0
  0
TEXT
  8
0
  6
BYBLOCK
 62
     0
  5
CFE
 10
331.010729
 20
215.546927
 30
0.0
 40
5.0
  1
110
 50
90.0
  0
POINT
  8
DEFPOINTS
  6
BYBLOCK
 62
     0
  5
CFF
 10
295.943143
 20
165.38026
 30
0.0
  0
POINT
  8
DEFPOINTS
  6
BYBLOCK
 62
     0
  5
D00
 10
265.543143
 20
274.88026
 30
0.0
  0
POINT
  8
DEFPOINTS
  6
BYBLOCK
 62
     0
  5
D01
 10
332.677429
 20
274.88026
 30
0.0
  0
ENDBLK
  8
0
  5
D02
  0
BLOCK
  8
0
  5
CED
  2
*D7
 70
    65
 10
0.0
 20
0.0
 30
0.0
  3
*D7
  0
LINE
  8
0
  6
BYBLOCK
 62
     0
  5
CEE
 10
277.609843
 20
180.38026
 30
0.0
 11
323.558415
 21
180.38026
 31
0.0
  0
LINE
  8
0
  6
BYBLOCK
 62
     0
  5
CEF
 10
277.609843
 20
258.38026
 30
0.0
 11
323.558415
 21
258.38026
 31
0.0
  0
LINE
  8
0
  6
BYBLOCK
 62
     0
  5
CF0
 10
321.891715
 20
185.38026
 30
0.0
 11
321.891715
 21
253.38026
 31
0.0
  0
INSERT
  8
0
  6
BYBLOCK
 62
     0
  5
CF1
  2
_OPEN
 10
321.891715
 20
180.38026
 30
0.0
 41
5.0
 42
5.0
 50
270.0
 43
5.0
  0
INSERT
  8
0
  6
BYBLOCK
 62
     0
  5
CF2
  2
_OPEN
 10
321.891715
 20
258.38026
 30
0.0
 41
5.0
 42
5.0
 50
90.0
 43
5.0
  0
TEXT
  8
0
  6
BYBLOCK
 62
     0
  5
CF3
 10
320.225015
 20
215.213594
 30
0.0
 40
5.0
  1
78
 50
90.0
  0
POINT
  8
DEFPOINTS
  6
BYBLOCK
 62
     0
  5
CF4
 10
275.943143
 20
180.38026
 30
0.0
  0
POINT
  8
DEFPOINTS
  6
BYBLOCK
 62
     0
  5
CF5
 10
275.943143
 20
258.38026
 30
0.0
  0
POINT
  8
DEFPOINTS
  6
BYBLOCK
 62
     0
  5
CF6
 10
321.891715
 20
258.38026
 30
0.0
  0
ENDBLK
  8
0
  5
CF7
  0
BLOCK
  8
0
  5
D7C
  2
*D8
 70
    65
 10
0.0
 20
0.0
 30
0.0
  3
*D8
  0
LINE
  8
0
  6
BYBLOCK
 62
     0
  5
D7D
 10
443.955557
 20
274.88026
 30
0.0
 11
484.904129
 21
274.88026
 31
0.0
  0
LINE
  8
0
  6
BYBLOCK
 62
     0
  5
D7E
 10
462.575557
 20
256.88026
 30
0.0
 11
484.904129
 21
256.88026
 31
0.0
  0
LINE
  8
0
  6
BYBLOCK
 62
     0
  5
D7F
 10
483.237429
 20
269.88026
 30
0.0
 11
483.237429
 21
261.88026
 31
0.0
  0
INSERT
  8
0
  6
BYBLOCK
 62
     0
  5
D80
  2
_OPEN
 10
483.237429
 20
274.88026
 30
0.0
 41
5.0
 42
5.0
 50
90.0
 43
5.0
  0
INSERT
  8
0
  6
BYBLOCK
 62
     0
  5
D81
  2
_OPEN
 10
483.237429
 20
256.88026
 30
0.0
 41
5.0
 42
5.0
 50
270.0
 43
5.0
  0
TEXT
  8
0
  6
BYBLOCK
 62
     0
  5
D82
 10
481.570729
 20
262.546927
 30
0.0
 40
5.0
  1
18
 50
90.0
  0
POINT
  8
DEFPOINTS
  6
BYBLOCK
 62
     0
  5
D83
 10
442.288857
 20
274.88026
 30
0.0
  0
POINT
  8
DEFPOINTS
  6
BYBLOCK
 62
     0
  5
D84
 10
460.908857
 20
256.88026
 30
0.0
  0
POINT
  8
DEFPOINTS
  6
BYBLOCK
 62
     0
  5
D85
 10
483.237429
 20
256.88026
 30
0.0
  0
ENDBLK
  8
0
  5
D86
  0
BLOCK
  8
0
  5
CA7
  2
*D9
 70
    65
 10
0.0
 20
0.0
 30
0.0
  3
*D9
  0
LINE
  8
0
  6
BYBLOCK
 62
     0
  5
CA8
 10
86.599715
 20
270.04696
 30
0.0
 11
86.599715
 21
313.884103
 31
0.0
  0
LINE
  8
0
  6
BYBLOCK
 62
     0
  5
CA9
 10
14.0
 20
271.998389
 30
0.0
 11
14.0
 21
313.884103
 31
0.0
  0
LINE
  8
0
  6
BYBLOCK
 62
     0
  5
CAA
 10
81.599715
 20
312.217403
 30
0.0
 11
19.0
 21
312.217403
 31
0.0
  0
INSERT
  8
0
  6
BYBLOCK
 62
     0
  5
CAB
  2
_OPEN
 10
86.599715
 20
312.217403
 30
0.0
 41
5.0
 42
5.0
 43
5.0
  0
INSERT
  8
0
  6
BYBLOCK
 62
     0
  5
CAC
  2
_OPEN
 10
14.0
 20
312.217403
 30
0.0
 41
5.0
 42
5.0
 50
180.0
 43
5.0
  0
TEXT
  8
0
  6
BYBLOCK
 62
     0
  5
CAD
 10
42.799857
 20
313.884103
 30
0.0
 40
5.0
  1
72.5
  0
POINT
  8
DEFPOINTS
  6
BYBLOCK
 62
     0
  5
CAE
 10
86.599715
 20
268.38026
 30
0.0
  0
POINT
  8
DEFPOINTS
  6
BYBLOCK
 62
     0
  5
CAF
 10
14.0
 20
270.331689
 30
0.0
  0
POINT
  8
DEFPOINTS
  6
BYBLOCK
 62
     0
  5
CB0
 10
14.0
 20
312.217403
 30
0.0
  0
ENDBLK
  8
0
  5
CB1
  0
BLOCK
  8
0
  5
CB2
  2
*D10
 70
    65
 10
0.0
 20
0.0
 30
0.0
  3
*D10
  0
LINE
  8
0
  6
BYBLOCK
 62
     0
  5
CB3
 10
14.0
 20
271.998389
 30
0.0
 11
14.0
 21
301.929817
 31
0.0
  0
LINE
  8
0
  6
BYBLOCK
 62
     0
  5
CB4
 10
24.5
 20
276.04696
 30
0.0
 11
24.5
 21
301.929817
 31
0.0
  0
LINE
  8
0
  6
BYBLOCK
 62
     0
  5
CB5
 10
9.0
 20
300.263117
 30
0.0
 11
4.0
 21
300.263117
 31
0.0
  0
LINE
  8
0
  6
BYBLOCK
 62
     0
  5
CB6
 10
29.5
 20
300.263117
 30
0.0
 11
50.3334
 21
300.263117
 31
0.0
  0
LINE
  8
0
  6
BYBLOCK
 62
     0
  5
CB7
 10
14.0
 20
300.263117
 30
0.0
 11
24.5
 21
300.263117
 31
0.0
  0
INSERT
  8
0
  6
BYBLOCK
 62
     0
  5
CB8
  2
_OPEN
 10
14.0
 20
300.263117
 30
0.0
 41
5.0
 42
5.0
 43
5.0
  0
INSERT
  8
0
  6
BYBLOCK
 62
     0
  5
CB9
  2
_OPEN
 10
24.5
 20
300.263117
 30
0.0
 41
5.0
 42
5.0
 50
180.0
 43
5.0
  0
TEXT
  8
0
  6
BYBLOCK
 62
     0
  5
CBA
 10
36.1667
 20
301.929817
 30
0.0
 40
5.0
  1
10.5
  0
POINT
  8
DEFPOINTS
  6
BYBLOCK
 62
     0
  5
CBB
 10
14.0
 20
270.331689
 30
0.0
  0
POINT
  8
DEFPOINTS
  6
BYBLOCK
 62
     0
  5
CBC
 10
24.5
 20
274.38026
 30
0.0
  0
POINT
  8
DEFPOINTS
  6
BYBLOCK
 62
     0
  5
CBD
 10
24.5
 20
300.263117
 30
0.0
  0
ENDBLK
  8
0
  5
CBE
  0
BLOCK
  8
0
  5
D03
  2
*D11
 70
    65
 10
0.0
 20
0.0
 30
0.0
  3
*D11
  0
LINE
  8
0
  6
BYBLOCK
 62
     0
  5
D04
 10
253.443143
 20
176.93356
 30
0.0
 11
253.443143
 21
142.302132
 31
0.0
  0
LINE
  8
0
  6
BYBLOCK
 62
     0
  5
D05
 10
273.943143
 20
176.93356
 30
0.0
 11
273.943143
 21
142.302132
 31
0.0
  0
LINE
  8
0
  6
BYBLOCK
 62
     0
  5
D06
 10
258.443143
 20
143.968832
 30
0.0
 11
268.943143
 21
143.968832
 31
0.0
  0
INSERT
  8
0
  6
BYBLOCK
 62
     0
  5
D07
  2
_OPEN
 10
253.443143
 20
143.968832
 30
0.0
 41
5.0
 42
5.0
 50
180.0
 43
5.0
  0
INSERT
  8
0
  6
BYBLOCK
 62
     0
  5
D08
  2
_OPEN
 10
273.943143
 20
143.968832
 30
0.0
 41
5.0
 42
5.0
 43
5.0
  0
TEXT
  8
0
  6
BYBLOCK
 62
     0
  5
D09
 10
256.60981
 20
145.635532
 30
0.0
 40
5.0
  1
20.5
  0
POINT
  8
DEFPOINTS
  6
BYBLOCK
 62
     0
  5
D0A
 10
253.443143
 20
178.60026
 30
0.0
  0
POINT
  8
DEFPOINTS
  6
BYBLOCK
 62
     0
  5
D0B
 10
273.943143
 20
178.60026
 30
0.0
  0
POINT
  8
DEFPOINTS
  6
BYBLOCK
 62
     0
  5
D0C
 10
273.943143
 20
143.968832
 30
0.0
  0
ENDBLK
  8
0
  5
D0D
  0
BLOCK
  8
0
  5
D19
  2
*D12
 70
    65
 10
0.0
 20
0.0
 30
0.0
  3
*D12
  0
LINE
  8
0
  6
BYBLOCK
 62
     0
  5
D1A
 10
439.610729
 20
264.38026
 30
0.0
 11
364.216443
 21
264.38026
 31
0.0
  0
LINE
  8
0
  6
BYBLOCK
 62
     0
  5
D1B
 10
396.362157
 20
274.88026
 30
0.0
 11
364.216443
 21
274.88026
 31
0.0
  0
LINE
  8
0
  6
BYBLOCK
 62
     0
  5
D1C
 10
365.883143
 20
259.38026
 30
0.0
 11
365.883143
 21
254.38026
 31
0.0
  0
LINE
  8
0
  6
BYBLOCK
 62
     0
  5
D1D
 10
365.883143
 20
279.88026
 30
0.0
 11
365.883143
 21
300.71366
 31
0.0
  0
LINE
  8
0
  6
BYBLOCK
 62
     0
  5
D1E
 10
365.883143
 20
264.38026
 30
0.0
 11
365.883143
 21
274.88026
 31
0.0
  0
INSERT
  8
0
  6
BYBLOCK
 62
     0
  5
D1F
  2
_OPEN
 10
365.883143
 20
264.38026
 30
0.0
 41
5.0
 42
5.0
 50
90.0
 43
5.0
  0
INSERT
  8
0
  6
BYBLOCK
 62
     0
  5
D20
  2
_OPEN
 10
365.883143
 20
274.88026
 30
0.0
 41
5.0
 42
5.0
 50
270.0
 43
5.0
  0
TEXT
  8
0
  6
BYBLOCK
 62
     0
  5
D21
 10
364.216443
 20
286.54696
 30
0.0
 40
5.0
  1
10.5
 50
90.0
  0
POINT
  8
DEFPOINTS
  6
BYBLOCK
 62
     0
  5
D22
 10
441.277429
 20
264.38026
 30
0.0
  0
POINT
  8
DEFPOINTS
  6
BYBLOCK
 62
     0
  5
D23
 10
398.028857
 20
274.88026
 30
0.0
  0
POINT
  8
DEFPOINTS
  6
BYBLOCK
 62
     0
  5
D24
 10
365.883143
 20
274.88026
 30
0.0
  0
ENDBLK
  8
0
  5
D25
  0
BLOCK
  8
0
  5
CE0
  2
*D13
 70
    65
 10
0.0
 20
0.0
 30
0.0
  3
*D13
  0
LINE
  8
0
  6
BYBLOCK
 62
     0
  5
CE1
 10
277.609843
 20
258.38026
 30
0.0
 11
323.558415
 21
258.38026
 31
0.0
  0
LINE
  8
0
  6
BYBLOCK
 62
     0
  5
CE2
 10
267.209843
 20
274.88026
 30
0.0
 11
323.558415
 21
274.88026
 31
0.0
  0
LINE
  8
0
  6
BYBLOCK
 62
     0
  5
CE3
 10
321.891715
 20
253.38026
 30
0.0
 11
321.891715
 21
248.38026
 31
0.0
  0
LINE
  8
0
  6
BYBLOCK
 62
     0
  5
CE4
 10
321.891715
 20
279.88026
 30
0.0
 11
321.891715
 21
301.546994
 31
0.0
  0
LINE
  8
0
  6
BYBLOCK
 62
     0
  5
CE5
 10
321.891715
 20
258.38026
 30
0.0
 11
321.891715
 21
274.88026
 31
0.0
  0
INSERT
  8
0
  6
BYBLOCK
 62
     0
  5
CE6
  2
_OPEN
 10
321.891715
 20
258.38026
 30
0.0
 41
5.0
 42
5.0
 50
90.0
 43
5.0
  0
INSERT
  8
0
  6
BYBLOCK
 62
     0
  5
CE7
  2
_OPEN
 10
321.891715
 20
274.88026
 30
0.0
 41
5.0
 42
5.0
 50
270.0
 43
5.0
  0
TEXT
  8
0
  6
BYBLOCK
 62
     0
  5
CE8
 10
320.225015
 20
286.54696
 30
0.0
 40
5.0
  1
16.5
 50
90.0
  0
POINT
  8
DEFPOINTS
  6
BYBLOCK
 62
     0
  5
CE9
 10
275.943143
 20
258.38026
 30
0.0
  0
POINT
  8
DEFPOINTS
  6
BYBLOCK
 62
     0
  5
CEA
 10
265.543143
 20
274.88026
 30
0.0
  0
POINT
  8
DEFPOINTS
  6
BYBLOCK
 62
     0
  5
CEB
 10
321.891715
 20
274.88026
 30
0.0
  0
ENDBLK
  8
0
  5
CEC
  0
BLOCK
  8
0
  5
D0E
  2
*D14
 70
    65
 10
0.0
 20
0.0
 30
0.0
  3
*D14
  0
LINE
  8
0
  6
BYBLOCK
 62
     0
  5
D0F
 10
224.543143
 20
164.71356
 30
0.0
 11
224.543143
 21
142.302132
 31
0.0
  0
LINE
  8
0
  6
BYBLOCK
 62
     0
  5
D10
 10
241.343143
 20
164.71356
 30
0.0
 11
241.343143
 21
142.302132
 31
0.0
  0
LINE
  8
0
  6
BYBLOCK
 62
     0
  5
D11
 10
229.543143
 20
143.968832
 30
0.0
 11
236.343143
 21
143.968832
 31
0.0
  0
INSERT
  8
0
  6
BYBLOCK
 62
     0
  5
D12
  2
_OPEN
 10
224.543143
 20
143.968832
 30
0.0
 41
5.0
 42
5.0
 50
180.0
 43
5.0
  0
INSERT
  8
0
  6
BYBLOCK
 62
     0
  5
D13
  2
_OPEN
 10
241.343143
 20
143.968832
 30
0.0
 41
5.0
 42
5.0
 43
5.0
  0
TEXT
  8
0
  6
BYBLOCK
 62
     0
  5
D14
 10
226.276477
 20
145.635532
 30
0.0
 40
5.0
  1
16.8
  0
POINT
  8
DEFPOINTS
  6
BYBLOCK
 62
     0
  5
D15
 10
224.543143
 20
166.38026
 30
0.0
  0
POINT
  8
DEFPOINTS
  6
BYBLOCK
 62
     0
  5
D16
 10
241.343143
 20
166.38026
 30
0.0
  0
POINT
  8
DEFPOINTS
  6
BYBLOCK
 62
     0
  5
D17
 10
241.343143
 20
143.968832
 30
0.0
  0
ENDBLK
  8
0
  5
D18
  0
BLOCK
  8
0
  5
D5E
  2
*D15
 70
    65
 10
0.0
 20
0.0
 30
0.0
  3
*D15
  0
LINE
  8
0
  6
BYBLOCK
 62
     0
  5
D5F
 10
450.160286
 20
256.884989
 30
0.0
 11
450.160286
 21
127.976417
 31
0.0
  0
LINE
  8
0
  6
BYBLOCK
 62
     0
  5
D60
 10
390.160286
 20
166.884989
 30
0.0
 11
390.160286
 21
127.976417
 31
0.0
  0
LINE
  8
0
  6
BYBLOCK
 62
     0
  5
D61
 10
445.160286
 20
129.643117
 30
0.0
 11
395.160286
 21
129.643117
 31
0.0
  0
INSERT
  8
0
  6
BYBLOCK
 62
     0
  5
D62
  2
_OPEN
 10
450.160286
 20
129.643117
 30
0.0
 41
5.0
 42
5.0
 43
5.0
  0
INSERT
  8
0
  6
BYBLOCK
 62
     0
  5
D63
  2
_OPEN
 10
390.160286
 20
129.643117
 30
0.0
 41
5.0
 42
5.0
 50
180.0
 43
5.0
  0
TEXT
  8
0
  6
BYBLOCK
 62
     0
  5
D64
 10
405.076953
 20
132.976517
 30
0.0
 40
5.0
  1
(55～)60
  0
LINE
  8
0
  6
BYBLOCK
 62
     0
  5
D65
 10
403.410253
 20
131.309817
 30
0.0
 11
436.910319
 21
131.309817
 31
0.0
  0
LINE
  8
0
  6
BYBLOCK
 62
     0
  5
D66
 10
436.910319
 20
131.309817
 30
0.0
 11
436.910319
 21
139.643217
 31
0.0
  0
LINE
  8
0
  6
BYBLOCK
 62
     0
  5
D67
 10
436.910319
 20
139.643217
 30
0.0
 11
403.410253
 21
139.643217
 31
0.0
  0
LINE
  8
0
  6
BYBLOCK
 62
     0
  5
D68
 10
403.410253
 20
139.643217
 30
0.0
 11
403.410253
 21
131.309817
 31
0.0
  0
POINT
  8
DEFPOINTS
  6
BYBLOCK
 62
     0
  5
D69
 10
450.160286
 20
258.551689
 30
0.0
  0
POINT
  8
DEFPOINTS
  6
BYBLOCK
 62
     0
  5
D6A
 10
390.160286
 20
168.551689
 30
0.0
  0
POINT
  8
DEFPOINTS
  6
BYBLOCK
 62
     0
  5
D6B
 10
390.160286
 20
129.643117
 30
0.0
  0
ENDBLK
  8
0
  5
D6C
  0
BLOCK
  8
0
  5
D26
  2
*D16
 70
    65
 10
0.0
 20
0.0
 30
0.0
  3
*D16
  0
LINE
  8
0
  6
BYBLOCK
 62
     0
  5
D27
 10
439.610729
 20
264.38026
 30
0.0
 11
364.216443
 21
264.38026
 31
0.0
  0
LINE
  8
0
  6
BYBLOCK
 62
     0
  5
D28
 10
382.110729
 20
174.38026
 30
0.0
 11
364.216443
 21
174.38026
 31
0.0
  0
LINE
  8
0
  6
BYBLOCK
 62
     0
  5
D29
 10
365.883143
 20
259.38026
 30
0.0
 11
365.883143
 21
179.38026
 31
0.0
  0
INSERT
  8
0
  6
BYBLOCK
 62
     0
  5
D2A
  2
_OPEN
 10
365.883143
 20
264.38026
 30
0.0
 41
5.0
 42
5.0
 50
90.0
 43
5.0
  0
INSERT
  8
0
  6
BYBLOCK
 62
     0
  5
D2B
  2
_OPEN
 10
365.883143
 20
174.38026
 30
0.0
 41
5.0
 42
5.0
 50
270.0
 43
5.0
  0
TEXT
  8
0
  6
BYBLOCK
 62
     0
  5
D2C
 10
362.549743
 20
215.63026
 30
0.0
 40
5.0
  1
90
 50
90.0
  0
LINE
  8
0
  6
BYBLOCK
 62
     0
  5
D2D
 10
364.216443
 20
213.96356
 30
0.0
 11
364.216443
 21
224.79696
 31
0.0
  0
LINE
  8
0
  6
BYBLOCK
 62
     0
  5
D2E
 10
364.216443
 20
224.79696
 30
0.0
 11
355.883043
 21
224.79696
 31
0.0
  0
LINE
  8
0
  6
BYBLOCK
 62
     0
  5
D2F
 10
355.883043
 20
224.79696
 30
0.0
 11
355.883043
 21
213.96356
 31
0.0
  0
LINE
  8
0
  6
BYBLOCK
 62
     0
  5
D30
 10
355.883043
 20
213.96356
 30
0.0
 11
364.216443
 21
213.96356
 31
0.0
  0
POINT
  8
DEFPOINTS
  6
BYBLOCK
 62
     0
  5
D31
 10
441.277429
 20
264.38026
 30
0.0
  0
POINT
  8
DEFPOINTS
  6
BYBLOCK
 62
     0
  5
D32
 10
383.777429
 20
174.38026
 30
0.0
  0
POINT
  8
DEFPOINTS
  6
BYBLOCK
 62
     0
  5
D33
 10
365.883143
 20
174.38026
 30
0.0
  0
ENDBLK
  8
0
  5
D34
  0
BLOCK
  8
0
  5
D35
  2
*D17
 70
    65
 10
0.0
 20
0.0
 30
0.0
  3
*D17
  0
LINE
  8
0
  6
BYBLOCK
 62
     0
  5
D36
 10
455.160286
 20
264.298389
 30
0.0
 11
455.160286
 21
312.015532
 31
0.0
  0
LINE
  8
0
  6
BYBLOCK
 62
     0
  5
D37
 10
385.160286
 20
189.298389
 30
0.0
 11
385.160286
 21
312.015532
 31
0.0
  0
LINE
  8
0
  6
BYBLOCK
 62
     0
  5
D38
 10
450.160286
 20
310.348832
 30
0.0
 11
390.160286
 21
310.348832
 31
0.0
  0
INSERT
  8
0
  6
BYBLOCK
 62
     0
  5
D39
  2
_OPEN
 10
455.160286
 20
310.348832
 30
0.0
 41
5.0
 42
5.0
 43
5.0
  0
INSERT
  8
0
  6
BYBLOCK
 62
     0
  5
D3A
  2
_OPEN
 10
385.160286
 20
310.348832
 30
0.0
 41
5.0
 42
5.0
 50
180.0
 43
5.0
  0
TEXT
  8
0
  6
BYBLOCK
 62
     0
  5
D3B
 10
416.410286
 20
313.682232
 30
0.0
 40
5.0
  1
70
  0
LINE
  8
0
  6
BYBLOCK
 62
     0
  5
D3C
 10
414.743586
 20
312.015532
 30
0.0
 11
425.576986
 21
312.015532
 31
0.0
  0
LINE
  8
0
  6
BYBLOCK
 62
     0
  5
D3D
 10
425.576986
 20
312.015532
 30
0.0
 11
425.576986
 21
320.348932
 31
0.0
  0
LINE
  8
0
  6
BYBLOCK
 62
     0
  5
D3E
 10
425.576986
 20
320.348932
 30
0.0
 11
414.743586
 21
320.348932
 31
0.0
  0
LINE
  8
0
  6
BYBLOCK
 62
     0
  5
D3F
 10
414.743586
 20
320.348932
 30
0.0
 11
414.743586
 21
312.015532
 31
0.0
  0
POINT
  8
DEFPOINTS
  6
BYBLOCK
 62
     0
  5
D40
 10
455.160286
 20
262.631689
 30
0.0
  0
POINT
  8
DEFPOINTS
  6
BYBLOCK
 62
     0
  5
D41
 10
385.160286
 20
187.631689
 30
0.0
  0
POINT
  8
DEFPOINTS
  6
BYBLOCK
 62
     0
  5
D42
 10
385.160286
 20
310.348832
 30
0.0
  0
ENDBLK
  8
0
  5
D43
  0
BLOCK
  8
0
  5
D6D
  2
*D18
 70
    65
 10
0.0
 20
0.0
 30
0.0
  3
*D18
  0
LINE
  8
0
  6
BYBLOCK
 62
     0
  5
D6E
 10
461.075557
 20
256.88026
 30
0.0
 11
484.904129
 21
256.88026
 31
0.0
  0
LINE
  8
0
  6
BYBLOCK
 62
     0
  5
D6F
 10
392.575557
 20
181.88026
 30
0.0
 11
484.904129
 21
181.88026
 31
0.0
  0
LINE
  8
0
  6
BYBLOCK
 62
     0
  5
D70
 10
483.237429
 20
251.88026
 30
0.0
 11
483.237429
 21
186.88026
 31
0.0
  0
INSERT
  8
0
  6
BYBLOCK
 62
     0
  5
D71
  2
_OPEN
 10
483.237429
 20
256.88026
 30
0.0
 41
5.0
 42
5.0
 50
90.0
 43
5.0
  0
INSERT
  8
0
  6
BYBLOCK
 62
     0
  5
D72
  2
_OPEN
 10
483.237429
 20
181.88026
 30
0.0
 41
5.0
 42
5.0
 50
270.0
 43
5.0
  0
TEXT
  8
0
  6
BYBLOCK
 62
     0
  5
D73
 10
479.904029
 20
215.213594
 30
0.0
 40
5.0
  1
75
 50
90.0
  0
LINE
  8
0
  6
BYBLOCK
 62
     0
  5
D74
 10
481.570729
 20
213.546894
 30
0.0
 11
481.570729
 21
225.213627
 31
0.0
  0
LINE
  8
0
  6
BYBLOCK
 62
     0
  5
D75
 10
481.570729
 20
225.213627
 30
0.0
 11
473.237329
 21
225.213627
 31
0.0
  0
LINE
  8
0
  6
BYBLOCK
 62
     0
  5
D76
 10
473.237329
 20
225.213627
 30
0.0
 11
473.237329
 21
213.546894
 31
0.0
  0
LINE
  8
0
  6
BYBLOCK
 62
     0
  5
D77
 10
473.237329
 20
213.546894
 30
0.0
 11
481.570729
 21
213.546894
 31
0.0
  0
POINT
  8
DEFPOINTS
  6
BYBLOCK
 62
     0
  5
D78
 10
459.408857
 20
256.88026
 30
0.0
  0
POINT
  8
DEFPOINTS
  6
BYBLOCK
 62
     0
  5
D79
 10
390.908857
 20
181.88026
 30
0.0
  0
POINT
  8
DEFPOINTS
  6
BYBLOCK
 62
     0
  5
D7A
 10
483.237429
 20
181.88026
 30
0.0
  0
ENDBLK
  8
0
  5
D7B
  0
ENDSEC
  0
SECTION
  2
ENTITIES
  0
TEXT
  8
FF
  5
463
 10
24.749292
 20
68.674546
 30
0.0
 40
8.571429
  1
※２ ： 補助接点ユニット（サイドオン）を2個取付けた場合
 41
0.833333
  0
TEXT
  8
FF
  5
464
 10
24.749292
 20
91.531689
 30
0.0
 40
8.571429
  1
※１ ： 補助接点ユニット（ヘッドオン）を取付けた場合
 41
0.833333
  0
DIMENSION
  8
FF
  5
465
  2
*D1
 10
209.943143
 20
325.197403
 30
0.0
 11
253.443143
 21
329.364103
 31
0.0
  1
88
 13
296.943143
 23
272.38026
 33
0.0
 14
209.943143
 24
272.38026
 34
0.0
 50
180.0
  3
FSTD1
  0
DIMENSION
  8
FF
  5
468
  2
*D2
 10
197.442857
 20
337.657403
 30
0.0
 11
253.443
 21
341.824103
 31
0.0
  1
(112)
 13
309.443143
 23
251.38026
 33
0.0
 14
197.442857
 24
251.38026
 34
0.0
 50
180.0
  3
FSTD1
  0
LINE
  8
10
  6
CENTER
  5
469
 10
194.324857
 20
219.38026
 30
0.0
 11
310.751715
 21
219.38026
 31
0.0
  0
LINE
  8
0B
  5
46A
 10
243.343143
 20
274.88026
 30
0.0
 11
263.543143
 21
274.88026
 31
0.0
  0
LINE
  8
0C
  5
46B
 10
243.343143
 20
206.58026
 30
0.0
 11
263.543143
 21
206.58026
 31
0.0
  0
LINE
  8
0C
  5
46C
 10
243.343143
 20
235.38026
 30
0.0
 11
263.543143
 21
235.38026
 31
0.0
  0
LINE
  8
0C
  5
46D
 10
221.443143
 20
189.48026
 30
0.0
 11
285.443143
 21
189.48026
 31
0.0
  0
LINE
  8
0C
  5
46E
 10
221.443143
 20
249.28026
 30
0.0
 11
285.443143
 21
249.28026
 31
0.0
  0
ARC
  8
0C
  5
46F
 10
244.043143
 20
272.38026
 30
0.0
 40
1.0
 50
0.0
 51
90.0
  0
ARC
  8
0C
  5
470
 10
244.043143
 20
166.38026
 30
0.0
 40
1.0
 50
270.0
 51
0.0
  0
LINE
  8
0C
  5
471
 10
263.443143
 20
214.131689
 30
0.0
 11
243.443143
 21
214.131689
 31
0.0
  0
LINE
  8
0C
  5
472
 10
263.443143
 20
224.631689
 30
0.0
 11
243.443143
 21
224.631689
 31
0.0
  0
LINE
  8
0C
  5
473
 10
246.443143
 20
207.88026
 30
0.0
 11
243.943143
 21
207.88026
 31
0.0
  0
LINE
  8
0C
  5
474
 10
243.943143
 20
230.88026
 30
0.0
 11
247.943143
 21
230.88026
 31
0.0
  0
LINE
  8
15
  5
475
 10
114.499715
 20
170.58026
 30
0.0
 11
114.499715
 21
189.48026
 31
0.0
  0
TEXT
  8
FF
  5
476
 10
166.088468
 20
171.119218
 30
0.0
 40
7.0
  1
※２
 41
0.833333
  0
LINE
  8
FF
  5
477
 10
136.966572
 20
204.234546
 30
0.0
 11
165.67756
 21
164.522
 31
0.0
  0
ARC
  8
15
  5
478
 10
63.652286
 20
172.10026
 30
0.0
 40
1.28
 50
16.2783
 51
66.0134
  0
LINE
  8
16
  5
479
 10
54.0
 20
166.88026
 30
0.0
 11
54.0
 21
216.98026
 31
0.0
  0
LINE
  8
15
  5
47A
 10
33.6
 20
166.38026
 30
0.0
 11
33.6
 21
178.38026
 31
0.0
  0
LINE
  8
15
  5
47B
 10
14.0
 20
170.431689
 30
0.0
 11
14.0
 21
190.831689
 31
0.0
  0
LINE
  8
15
  5
47C
 10
44.0
 20
166.88026
 30
0.0
 11
44.0
 21
178.38026
 31
0.0
  0
LINE
  8
16
  5
47D
 10
24.5
 20
194.38026
 30
0.0
 11
24.5
 21
166.38026
 31
0.0
  0
LINE
  8
0B
  5
47E
 10
209.943143
 20
168.38026
 30
0.0
 11
209.943143
 21
270.38026
 31
0.0
  0
LINE
  8
17
  6
DASHED
  5
47F
 10
86.599715
 20
191.403117
 30
0.0
 11
86.599715
 21
172.38026
 31
0.0
  0
LINE
  8
17
  6
DASHED
  5
480
 10
83.999715
 20
191.737403
 30
0.0
 11
83.999715
 21
172.38026
 31
0.0
  0
ARC
  8
15
  5
481
 10
64.828572
 20
171.38026
 30
0.0
 40
2.0
 50
90.0
 51
109.138302
  0
LINE
  8
16
  5
482
 10
54.0
 20
166.88026
 30
0.0
 11
54.0
 21
216.88026
 31
0.0
  0
LINE
  8
15
  5
483
 10
71.036
 20
173.38026
 30
0.0
 11
72.782286
 21
166.863117
 31
0.0
  0
LINE
  8
0C
  5
484
 10
241.343143
 20
166.38026
 30
0.0
 11
241.343143
 21
189.48026
 31
0.0
  0
LINE
  8
0C
  5
485
 10
221.143143
 20
166.38026
 30
0.0
 11
221.143143
 21
189.525975
 31
0.0
  0
LINE
  8
0C
  5
486
 10
224.543143
 20
189.48026
 30
0.0
 11
224.543143
 21
166.38026
 31
0.0
  0
LINE
  8
15
  5
488
 10
110.458572
 20
165.38026
 30
0.0
 11
74.714286
 21
165.38026
 31
0.0
  0
ARC
  8
16
  5
4A4
 10
23.5
 20
166.38026
 30
0.0
 40
1.0
 50
270.0
 51
0.0
  0
LINE
  8
15
  5
4A5
 10
32.6
 20
165.38026
 30
0.0
 11
15.0
 21
165.38026
 31
0.0
  0
LINE
  8
15
  5
4A6
 10
14.5
 20
170.131689
 30
0.0
 11
14.5
 21
165.88026
 31
0.0
  0
ARC
  8
15
  5
4A7
 10
15.0
 20
165.88026
 30
0.0
 40
0.5
 50
180.0
 51
270.0
  0
ARC
  8
15
  5
4A8
 10
14.3
 20
170.431689
 30
0.0
 40
0.3
 50
180.0
 51
270.0
  0
LINE
  8
15
  5
4A9
 10
14.3
 20
170.131689
 30
0.0
 11
14.5
 21
170.131689
 31
0.0
  0
ARC
  8
15
  5
4AA
 10
32.6
 20
166.38026
 30
0.0
 40
1.0
 50
270.0
 51
0.0
  0
ARC
  8
16
  5
4AB
 10
64.828572
 20
171.38026
 30
0.0
 40
2.0
 50
109.138302
 51
135.0
  0
ARC
  8
15
  5
4AC
 10
63.652286
 20
167.66026
 30
0.0
 40
1.28
 50
270.0
 51
343.722
  0
LINE
  8
15
  5
4AD
 10
54.0
 20
165.88026
 30
0.0
 11
45.0
 21
165.88026
 31
0.0
  0
ARC
  8
15
  5
4AE
 10
45.0
 20
166.88026
 30
0.0
 40
1.0
 50
180.0
 51
270.0
  0
LINE
  8
15
  6
CONTINUOUS
  5
4AF
 10
54.0
 20
166.88026
 30
0.0
 11
54.0
 21
165.88026
 31
0.0
  0
LINE
  8
15
  6
CONTINUOUS
  5
4B0
 10
61.5
 20
166.38026
 30
0.0
 11
61.5
 21
165.88026
 31
0.0
  0
LINE
  8
16
  5
4B1
 10
61.0
 20
165.88026
 30
0.0
 11
61.0
 21
169.551689
 31
0.0
  0
ARC
  8
15
  5
4B2
 10
55.0
 20
166.88026
 30
0.0
 40
1.0
 50
180.0
 51
270.0
  0
LINE
  8
16
  5
4B3
 10
61.0
 20
169.551689
 30
0.0
 11
61.0
 21
165.88026
 31
0.0
  0
LINE
  8
15
  5
4B4
 10
61.0
 20
165.88026
 30
0.0
 11
55.0
 21
165.88026
 31
0.0
  0
LINE
  8
15
  5
4B5
 10
61.5
 20
165.88026
 30
0.0
 11
61.0
 21
165.88026
 31
0.0
  0
LINE
  8
16
  5
4B6
 10
61.5
 20
168.88026
 30
0.0
 11
62.5
 21
169.88026
 31
0.0
  0
LINE
  8
15
  5
4B7
 10
62.5
 20
166.38026
 30
0.0
 11
61.5
 21
166.38026
 31
0.0
  0
LINE
  8
16
  5
4B8
 10
62.5
 20
171.88026
 30
0.0
 11
62.5
 21
166.38026
 31
0.0
  0
LINE
  8
15
  5
4B9
 10
63.652286
 20
166.38026
 30
0.0
 11
62.5
 21
166.38026
 31
0.0
  0
LINE
  8
16
  5
4BA
 10
61.5
 20
169.88026
 30
0.0
 11
62.5
 21
170.88026
 31
0.0
  0
LINE
  8
16
  5
4BB
 10
61.5
 20
170.88026
 30
0.0
 11
61.5
 21
166.38026
 31
0.0
  0
ARC
  8
16
  5
4BC
 10
63.0
 20
169.551689
 30
0.0
 40
2.0
 50
135.0
 51
180.0
  0
LINE
  8
16
  5
4BD
 10
61.585715
 20
170.965975
 30
0.0
 11
63.414286
 21
172.794546
 31
0.0
  0
ARC
  8
15
  5
4BE
 10
74.714286
 20
167.38026
 30
0.0
 40
2.0
 50
195.0
 51
270.0
  0
ARC
  8
15
  5
4BF
 10
56.05
 20
169.88026
 30
0.0
 40
9.2
 50
343.2
 51
16.8
  0
TEXT
  8
FF
  5
4C0
 10
160.25927
 20
154.334345
 30
0.0
 40
7.0
  1
※１
 41
0.833333
  0
LINE
  8
17
  5
4C1
 10
86.599715
 20
172.38026
 30
0.0
 11
83.999715
 21
172.38026
 31
0.0
  0
LINE
  8
15
  5
4C2
 10
114.232
 20
169.917403
 30
0.0
 11
112.190572
 21
166.38026
 31
0.0
  0
ARC
  8
15
  5
4C3
 10
110.458572
 20
167.38026
 30
0.0
 40
2.0
 50
270.0
 51
330.0
  0
ARC
  8
15
  5
4C4
 10
112.5
 20
170.917403
 30
0.0
 40
2.0
 50
330.0
 51
0.0
  0
LINE
  8
0B
  5
4C5
 10
212.943143
 20
165.38026
 30
0.0
 11
244.043143
 21
165.38026
 31
0.0
  0
ARC
  8
0C
  5
4C6
 10
223.543143
 20
166.38026
 30
0.0
 40
1.0
 50
270.0
 51
0.0
  0
ARC
  8
0B
  5
4C7
 10
212.943143
 20
168.38026
 30
0.0
 40
3.0
 50
180.0
 51
270.0
  0
ARC
  8
0C
  5
4C8
 10
222.143143
 20
166.38026
 30
0.0
 40
1.0
 50
180.0
 51
270.0
  0
LINE
  8
0C
  5
4C9
 10
223.543143
 20
165.38026
 30
0.0
 11
222.143143
 21
165.38026
 31
0.0
  0
LINE
  8
0C
  5
4CA
 10
224.543143
 20
172.38026
 30
0.0
 11
241.343143
 21
172.38026
 31
0.0
  0
ARC
  8
0C
  5
4CB
 10
242.343143
 20
166.38026
 30
0.0
 40
1.0
 50
180.0
 51
270.0
  0
LINE
  8
0C
  5
4CC
 10
244.043143
 20
165.38026
 30
0.0
 11
242.343143
 21
165.38026
 31
0.0
  0
DIMENSION
  8
FF
  5
4CD
  2
*D9
 10
14.0
 20
312.217403
 30
0.0
 11
50.299857
 21
316.384103
 31
0.0
  1
72.5
 13
86.599715
 23
268.38026
 33
0.0
 14
14.0
 24
270.331689
 34
0.0
 50
180.0
  3
FSTD2
  0
DIMENSION
  8
FF
  5
4CE
  2
*D3
 10
14.0
 20
325.323117
 30
0.0
 11
69.349857
 21
329.489817
 31
0.0
  1
111
 13
124.699715
 23
224.88026
 33
0.0
 14
14.0
 24
270.331689
 34
0.0
 50
180.0
  3
FSTD1
  0
DIMENSION
  8
FF
  5
4CF
  2
*D4
 10
3.6
 20
337.868832
 30
0.0
 11
64.149857
 21
342.035532
 31
0.0
  1
121
 13
124.699715
 23
224.88026
 33
0.0
 14
3.6
 24
234.88026
 34
0.0
 50
180.0
  3
FSTD1
  0
TEXT
  8
FF
  5
4D0
 10
72.354035
 20
339.92026
 30
0.0
 40
5.0
  1
（レールの高さ１５の場合）
 41
0.833333
  0
LINE
  8
1A
  6
CENTER
  5
4D1
 10
1.661715
 20
219.38026
 30
0.0
 11
162.062572
 21
219.38026
 31
0.0
  0
LINE
  8
15
  5
4D2
 10
110.458572
 20
273.38026
 30
0.0
 11
74.714286
 21
273.38026
 31
0.0
  0
LINE
  8
16
  5
4D3
 10
100.984
 20
195.38026
 30
0.0
 11
83.5
 21
195.38026
 31
0.0
  0
LINE
  8
16
  5
4D4
 10
100.98
 20
243.38026
 30
0.0
 11
83.5
 21
243.38026
 31
0.0
  0
DIMENSION
  8
FF
  5
4D5
  2
*D10
 10
24.5
 20
300.263117
 30
0.0
 11
42.4167
 21
304.429817
 31
0.0
  1
10.5
 13
14.0
 23
270.331689
 33
0.0
 14
24.5
 24
274.38026
 34
0.0
  3
FSTD2
  0
LINE
  8
17
  6
PHANTOM
  5
4D6
 10
3.6
 20
232.88026
 30
0.0
 11
17.6
 21
232.88026
 31
0.0
  0
LINE
  8
17
  6
PHANTOM
  5
4D7
 10
3.6
 20
205.88026
 30
0.0
 11
17.6
 21
205.88026
 31
0.0
  0
LINE
  8
17
  6
PHANTOM
  5
4D8
 10
3.6
 20
232.88026
 30
0.0
 11
3.6
 21
205.88026
 31
0.0
  0
LINE
  8
17
  6
PHANTOM
  5
4D9
 10
4.6
 20
231.88026
 30
0.0
 11
4.6
 21
206.88026
 31
0.0
  0
LINE
  8
16
  5
4DA
 10
54.0
 20
221.78026
 30
0.0
 11
54.0
 21
263.38026
 31
0.0
  0
LINE
  8
15
  5
4DB
 10
18.6
 20
236.98026
 30
0.0
 11
18.6
 21
201.78026
 31
0.0
  0
LINE
  8
16
  5
4DC
 10
54.0
 20
263.38026
 30
0.0
 11
54.0
 21
221.88026
 31
0.0
  0
LINE
  8
16
  6
CONTINUOUS
  5
4DD
 10
43.0
 20
179.38026
 30
0.0
 11
45.5
 21
179.38026
 31
0.0
  0
ARC
  8
15
  5
4DE
 10
43.0
 20
178.38026
 30
0.0
 40
1.0
 50
0.0
 51
90.0
  0
LINE
  8
16
  5
4DF
 10
48.0
 20
203.531689
 30
0.0
 11
32.0
 21
203.131689
 31
0.0
  0
LINE
  8
16
  5
4E0
 10
48.0
 20
205.631689
 30
0.0
 11
18.6
 21
205.631689
 31
0.0
  0
LINE
  8
16
  5
4E1
 10
54.0
 20
195.38026
 30
0.0
 11
25.5
 21
195.38026
 31
0.0
  0
LINE
  8
16
  5
4E2
 10
16.959715
 20
204.165975
 30
0.0
 11
14.499715
 21
201.017403
 31
0.0
  0
LINE
  8
15
  5
4E3
 10
18.6
 20
202.88026
 30
0.0
 11
18.6
 21
201.78026
 31
0.0
  0
LINE
  8
15
  5
4E4
 10
14.5
 20
200.58026
 30
0.0
 11
14.5
 21
191.131689
 31
0.0
  0
ARC
  8
15
  5
4E5
 10
14.3
 20
190.831689
 30
0.0
 40
0.3
 50
90.0
 51
180.0
  0
LINE
  8
15
  5
4E6
 10
14.3
 20
191.131689
 30
0.0
 11
14.5
 21
191.131689
 31
0.0
  0
ARC
  8
15
  5
4E7
 10
17.765143
 20
196.794546
 30
0.0
 40
5.0
 50
94.1876
 51
130.771
  0
LINE
  8
15
  5
4E8
 10
18.6
 20
201.78026
 30
0.0
 11
17.4
 21
201.78026
 31
0.0
  0
LINE
  8
16
  5
4E9
 10
14.499715
 20
200.58026
 30
0.0
 11
14.499715
 21
201.017403
 31
0.0
  0
ARC
  8
15
  5
4EA
 10
34.6
 20
178.38026
 30
0.0
 40
1.0
 50
90.0
 51
180.0
  0
LINE
  8
16
  5
4EB
 10
34.6
 20
179.38026
 30
0.0
 11
25.5
 21
179.38026
 31
0.0
  0
ARC
  8
16
  5
4EC
 10
25.5
 20
178.38026
 30
0.0
 40
1.0
 50
90.0
 51
180.0
  0
LINE
  8
15
  6
CONTINUOUS
  5
4ED
 10
34.6
 20
179.38026
 30
0.0
 11
43.0
 21
179.38026
 31
0.0
  0
ARC
  8
16
  5
4EE
 10
25.5
 20
194.38026
 30
0.0
 40
1.0
 50
90.0
 51
180.0
  0
LINE
  8
16
  5
4EF
 10
18.6
 20
203.131689
 30
0.0
 11
32.0
 21
203.131689
 31
0.0
  0
LINE
  8
17
  6
PHANTOM
  5
4F0
 10
4.6
 20
206.88026
 30
0.0
 11
18.6
 21
206.88026
 31
0.0
  0
LINE
  8
17
  5
4F1
 10
18.6
 20
206.88026
 30
0.0
 11
18.6
 21
203.005975
 31
0.0
  0
LINE
  8
17
  5
4F2
 10
17.6
 20
205.88026
 30
0.0
 11
17.6
 21
203.58026
 31
0.0
  0
ARC
  8
16
  5
4F3
 10
17.196286
 20
203.98026
 30
0.0
 40
0.3
 50
90.0
 51
142.0
  0
ARC
  8
17
  5
4F4
 10
17.929143
 20
203.18026
 30
0.0
 40
0.3
 50
184.086
 51
270.0
  0
LINE
  8
17
  5
4F5
 10
17.55
 20
204.28026
 30
0.0
 11
17.63
 21
203.16026
 31
0.0
  0
LINE
  8
17
  5
4F6
 10
18.6
 20
202.88026
 30
0.0
 11
17.929143
 21
202.88026
 31
0.0
  0
LINE
  8
16
  5
4F7
 10
17.55
 20
204.28026
 30
0.0
 11
17.196286
 21
204.28026
 31
0.0
  0
LINE
  8
16
  5
4F8
 10
39.0
 20
205.631689
 30
0.0
 11
39.0
 21
203.305975
 31
0.0
  0
ARC
  8
16
  5
4F9
 10
52.1
 20
204.38026
 30
0.0
 40
2.099997
 50
180.0
 51
270.0
  0
LINE
  8
16
  5
4FA
 10
69.732572
 20
175.38026
 30
0.0
 11
54.0
 21
175.38026
 31
0.0
  0
LINE
  8
16
  5
4FB
 10
80.984
 20
189.38026
 30
0.0
 11
62.5
 21
189.38026
 31
0.0
  0
LINE
  8
16
  5
4FC
 10
46.5
 20
194.38026
 30
0.0
 11
46.5
 21
176.954546
 31
0.0
  0
LINE
  8
16
  5
4FD
 10
54.0
 20
175.38026
 30
0.0
 11
47.412857
 21
175.957403
 31
0.0
  0
ARC
  8
16
  5
4FE
 10
47.5
 20
176.954546
 30
0.0
 40
1.0
 50
180.0
 51
265.0
  0
ARC
  8
16
  5
4FF
 10
45.5
 20
178.38026
 30
0.0
 40
1.0
 50
0.0
 51
90.0
  0
ARC
  8
16
  5
500
 10
45.5
 20
194.38026
 30
0.0
 40
1.0
 50
0.0
 51
90.0
  0
LINE
  8
16
  5
501
 10
61.5
 20
195.38026
 30
0.0
 11
61.5
 21
190.38026
 31
0.0
  0
ARC
  8
16
  5
502
 10
62.5
 20
190.38026
 30
0.0
 40
1.0
 50
180.0
 51
270.0
  0
LINE
  8
16
  5
503
 10
61.5
 20
195.38026
 30
0.0
 11
54.0
 21
195.38026
 31
0.0
  0
LINE
  8
15
  5
504
 10
71.036
 20
173.38026
 30
0.0
 11
64.828572
 21
173.38026
 31
0.0
  0
LINE
  8
16
  6
CONTINUOUS
  5
505
 10
71.036
 20
173.38026
 30
0.0
 11
70.698498
 21
174.639079
 31
0.0
  0
ARC
  8
16
  5
506
 10
69.732572
 20
174.38026
 30
0.0
 40
1.0
 50
15.0
 51
90.0
  0
LINE
  8
16
  5
507
 10
83.5
 20
195.38026
 30
0.0
 11
83.5
 21
194.734546
 31
0.0
  0
ARC
  8
16
  5
508
 10
81.5
 20
194.734546
 30
0.0
 40
2.0
 50
340.0
 51
0.0
  0
ARC
  8
16
  5
509
 10
80.984
 20
190.38026
 30
0.0
 40
1.0
 50
270.0
 51
345.0
  0
LINE
  8
16
  5
50A
 10
83.379429
 20
194.048832
 30
0.0
 11
81.95
 21
190.123117
 31
0.0
  0
LINE
  8
16
  5
50B
 10
68.7
 20
216.88026
 30
0.0
 11
54.0
 21
216.88026
 31
0.0
  0
LINE
  8
16
  5
50C
 10
68.7
 20
221.88026
 30
0.0
 11
54.0
 21
221.88026
 31
0.0
  0
LINE
  8
16
  5
50D
 10
54.0
 20
202.28026
 30
0.0
 11
52.1
 21
202.28026
 31
0.0
  0
LINE
  8
16
  5
50E
 10
54.0
 20
206.48026
 30
0.0
 11
52.1
 21
206.48026
 31
0.0
  0
LINE
  8
16
  5
50F
 10
48.0
 20
203.531689
 30
0.0
 11
48.0
 21
205.631689
 31
0.0
  0
ARC
  8
16
  5
510
 10
52.1
 20
204.38026
 30
0.0
 40
2.099997
 50
90.0
 51
180.0
  0
ARC
  8
16
  5
511
 10
55.0
 20
218.48026
 30
0.0
 40
1.5
 50
270.0
 51
0.0
  0
ARC
  8
16
  5
512
 10
55.0
 20
220.28026
 30
0.0
 40
1.5
 50
0.0
 51
90.0
  0
LINE
  8
16
  5
513
 10
56.5
 20
218.48026
 30
0.0
 11
56.5
 21
220.28026
 31
0.0
  0
LINE
  8
16
  5
514
 10
55.0
 20
221.78026
 30
0.0
 11
54.0
 21
221.78026
 31
0.0
  0
LINE
  8
16
  5
515
 10
55.0
 20
216.98026
 30
0.0
 11
54.0
 21
216.98026
 31
0.0
  0
ARC
  8
16
  5
516
 10
68.7
 20
221.38026
 30
0.0
 40
0.5
 50
0.0
 51
90.0
  0
ARC
  8
16
  5
517
 10
68.7
 20
217.38026
 30
0.0
 40
0.5
 50
270.0
 51
0.0
  0
LINE
  8
16
  5
518
 10
69.2
 20
221.38026
 30
0.0
 11
69.2
 21
217.38026
 31
0.0
  0
LINE
  8
16
  6
CONTINUOUS
  5
519
 10
43.0
 20
261.28026
 30
0.0
 11
45.5
 21
261.28026
 31
0.0
  0
ARC
  8
15
  5
51A
 10
43.0
 20
262.28026
 30
0.0
 40
1.0
 50
270.0
 51
0.0
  0
LINE
  8
16
  5
51B
 10
48.0
 20
235.231689
 30
0.0
 11
32.0
 21
235.631689
 31
0.0
  0
LINE
  8
16
  5
51C
 10
48.0
 20
233.131689
 30
0.0
 11
18.6
 21
233.131689
 31
0.0
  0
LINE
  8
16
  5
51D
 10
54.0
 20
243.38026
 30
0.0
 11
25.5
 21
243.38026
 31
0.0
  0
LINE
  8
16
  6
CONTINUOUS
  5
51E
 10
24.5
 20
261.28026
 30
0.0
 11
24.5
 21
244.38026
 31
0.0
  0
LINE
  8
15
  5
51F
 10
14.0
 20
268.331689
 30
0.0
 11
14.0
 21
247.931689
 31
0.0
  0
LINE
  8
16
  5
520
 10
18.6
 20
235.631689
 30
0.0
 11
32.0
 21
235.631689
 31
0.0
  0
LINE
  8
15
  5
521
 10
14.5
 20
236.98026
 30
0.0
 11
14.5
 21
247.631689
 31
0.0
  0
LINE
  8
17
  6
PHANTOM
  5
522
 10
4.6
 20
231.88026
 30
0.0
 11
18.6
 21
231.88026
 31
0.0
  0
LINE
  8
16
  6
CONTINUOUS
  5
523
 10
14.5
 20
236.98026
 30
0.0
 11
14.5
 21
234.48026
 31
0.0
  0
LINE
  8
17
  5
524
 10
17.6
 20
236.38026
 30
0.0
 11
17.6
 21
232.88026
 31
0.0
  0
ARC
  8
16
  5
525
 10
17.05
 20
235.914546
 30
0.0
 40
0.5
 50
330.0
 51
0.0
  0
LINE
  8
16
  5
526
 10
14.5
 20
234.48026
 30
0.0
 11
16.799429
 21
234.48026
 31
0.0
  0
LINE
  8
16
  5
527
 10
17.482857
 20
235.665975
 30
0.0
 11
16.799429
 21
234.48026
 31
0.0
  0
LINE
  8
16
  5
528
 10
17.55
 20
235.914546
 30
0.0
 11
17.55
 21
236.38026
 31
0.0
  0
LINE
  8
17
  5
529
 10
17.55
 20
236.38026
 30
0.0
 11
18.6
 21
236.38026
 31
0.0
  0
LINE
  8
15
  5
52A
 10
14.5
 20
236.98026
 30
0.0
 11
18.6
 21
236.98026
 31
0.0
  0
ARC
  8
15
  5
52B
 10
14.3
 20
247.931689
 30
0.0
 40
0.3
 50
180.0
 51
270.0
  0
LINE
  8
15
  5
52C
 10
14.3
 20
247.631689
 30
0.0
 11
14.5
 21
247.631689
 31
0.0
  0
ARC
  8
16
  5
52D
 10
25.5
 20
244.38026
 30
0.0
 40
1.0
 50
180.0
 51
270.0
  0
LINE
  8
16
  5
52E
 10
39.0
 20
233.131689
 30
0.0
 11
39.0
 21
235.457403
 31
0.0
  0
ARC
  8
15
  5
52F
 10
23.5
 20
272.38026
 30
0.0
 40
1.0
 50
0.0
 51
90.0
  0
LINE
  8
15
  5
530
 10
23.5
 20
273.38026
 30
0.0
 11
15.757143
 21
273.38026
 31
0.0
  0
ARC
  8
15
  5
531
 10
15.757143
 20
272.88026
 30
0.0
 40
0.5
 50
90.0
 51
170.0
  0
ARC
  8
15
  5
532
 10
14.3
 20
268.331689
 30
0.0
 40
0.3
 50
90.0
 51
180.0
  0
LINE
  8
15
  5
533
 10
14.5
 20
268.631689
 30
0.0
 11
15.264572
 21
272.968832
 31
0.0
  0
LINE
  8
15
  5
534
 10
14.3
 20
268.631689
 30
0.0
 11
14.5
 21
268.631689
 31
0.0
  0
LINE
  8
15
  5
535
 10
43.0
 20
261.28026
 30
0.0
 11
24.5
 21
261.28026
 31
0.0
  0
LINE
  8
15
  5
536
 10
24.5
 20
272.38026
 30
0.0
 11
24.5
 21
261.28026
 31
0.0
  0
LINE
  8
16
  5
537
 10
46.5
 20
271.38026
 30
0.0
 11
46.5
 21
244.38026
 31
0.0
  0
LINE
  8
16
  5
538
 10
80.98
 20
249.38026
 30
0.0
 11
62.5
 21
249.38026
 31
0.0
  0
LINE
  8
16
  5
539
 10
61.5
 20
248.38026
 30
0.0
 11
61.5
 21
243.38026
 31
0.0
  0
LINE
  8
16
  5
53A
 10
54.0
 20
232.28026
 30
0.0
 11
52.1
 21
232.28026
 31
0.0
  0
LINE
  8
16
  5
53B
 10
54.0
 20
236.48026
 30
0.0
 11
52.1
 21
236.48026
 31
0.0
  0
LINE
  8
16
  5
53C
 10
48.0
 20
235.231689
 30
0.0
 11
48.0
 21
233.131689
 31
0.0
  0
ARC
  8
16
  5
53D
 10
52.1
 20
234.38026
 30
0.0
 40
2.099997
 50
90.0
 51
270.0
  0
ARC
  8
16
  5
53E
 10
45.5
 20
244.38026
 30
0.0
 40
1.0
 50
270.0
 51
0.0
  0
LINE
  8
16
  5
53F
 10
61.5
 20
243.38026
 30
0.0
 11
54.0
 21
243.38026
 31
0.0
  0
ARC
  8
16
  5
540
 10
62.5
 20
248.38026
 30
0.0
 40
1.0
 50
90.0
 51
180.0
  0
LINE
  8
16
  5
541
 10
83.379429
 20
244.711689
 30
0.0
 11
81.919715
 21
248.723117
 31
0.0
  0
ARC
  8
16
  5
542
 10
81.5
 20
244.028832
 30
0.0
 40
2.0
 50
0.0
 51
20.0
  0
LINE
  8
16
  5
543
 10
83.5
 20
244.028832
 30
0.0
 11
83.5
 21
243.38026
 31
0.0
  0
ARC
  8
16
  5
544
 10
80.98
 20
248.38026
 30
0.0
 40
1.0
 50
20.0
 51
90.0
  0
LINE
  8
15
  5
545
 10
66.562857
 20
274.88026
 30
0.0
 11
53.5
 21
274.88026
 31
0.0
  0
LINE
  8
16
  5
546
 10
69.732572
 20
263.38026
 30
0.0
 11
54.0
 21
263.38026
 31
0.0
  0
LINE
  8
16
  5
547
 10
52.5
 20
273.88026
 30
0.0
 11
52.5
 21
272.38026
 31
0.0
  0
LINE
  8
15
  5
548
 10
44.0
 20
273.88026
 30
0.0
 11
44.0
 21
262.28026
 31
0.0
  0
LINE
  8
16
  5
549
 10
54.0
 20
263.38026
 30
0.0
 11
47.412857
 21
262.805975
 31
0.0
  0
ARC
  8
16
  5
54A
 10
47.5
 20
261.808832
 30
0.0
 40
1.0
 50
95.0001
 51
180.0
  0
ARC
  8
16
  5
54B
 10
45.5
 20
262.28026
 30
0.0
 40
1.0
 50
270.0
 51
0.0
  0
LINE
  8
16
  5
54C
 10
52.5
 20
272.38026
 30
0.0
 11
47.5
 21
272.38026
 31
0.0
  0
ARC
  8
16
  5
54D
 10
47.5
 20
271.38026
 30
0.0
 40
1.0
 50
90.0
 51
180.0
  0
LINE
  8
15
  5
54E
 10
54.0
 20
274.88026
 30
0.0
 11
45.0
 21
274.88026
 31
0.0
  0
ARC
  8
15
  5
54F
 10
45.0
 20
273.88026
 30
0.0
 40
1.0
 50
90.0
 51
180.0
  0
ARC
  8
16
  5
550
 10
53.5
 20
273.88026
 30
0.0
 40
1.0
 50
90.0
 51
180.0
  0
LINE
  8
15
  5
551
 10
68.614
 20
265.38026
 30
0.0
 11
67.555429
 21
274.003117
 31
0.0
  0
ARC
  8
15
  5
552
 10
74.714286
 20
271.38026
 30
0.0
 40
2.0
 50
90.0
 51
165.0
  0
LINE
  8
15
  5
553
 10
71.035396
 20
265.38026
 30
0.0
 11
72.782286
 21
271.90026
 31
0.0
  0
LINE
  8
15
  5
554
 10
71.036
 20
265.38026
 30
0.0
 11
68.614
 21
265.38026
 31
0.0
  0
LINE
  8
16
  6
CONTINUOUS
  5
555
 10
68.614
 20
265.38026
 30
0.0
 11
68.7
 21
264.68026
 31
0.0
  0
LINE
  8
16
  5
556
 10
68.7
 20
263.38026
 30
0.0
 11
68.7
 21
264.68026
 31
0.0
  0
ARC
  8
16
  5
557
 10
69.732572
 20
264.38026
 30
0.0
 40
1.0
 50
270.0
 51
345.0
  0
LINE
  8
16
  5
558
 10
70.698572
 20
264.123117
 30
0.0
 11
71.035396
 21
265.38026
 31
0.0
  0
ARC
  8
15
  5
559
 10
66.562857
 20
273.88026
 30
0.0
 40
1.0
 50
6.99999
 51
90.0
  0
LINE
  8
FF
  5
55A
 10
230.206
 20
262.574546
 30
0.0
 11
190.417715
 21
308.02026
 31
0.0
  0
DIMENSION
  8
FF
  5
55B
  2
*D5
 10
124.699715
 20
325.323117
 30
0.0
 11
138.349857
 21
329.489817
 31
0.0
  1
(28)
 13
152.0
 23
223.38026
 33
0.0
 14
124.699715
 24
224.88026
 34
0.0
 50
180.0
  3
FSTD1
  0
TEXT
  8
FF
  5
55C
 10
162.711143
 20
278.28026
 30
0.0
 40
7.0
  1
補助端子
 41
0.833333
  0
LINE
  8
16
  6
CONTINUOUS
  5
55D
 10
114.5
 20
249.28026
 30
0.0
 11
114.5
 21
227.58026
 31
0.0
  0
LINE
  8
17
  6
PHANTOM
  5
55E
 10
147.271715
 20
238.594546
 30
0.0
 11
147.271715
 21
228.431689
 31
0.0
  0
ARC
  8
16
  5
55F
 10
123.75
 20
230.58026
 30
0.0
 40
0.3
 50
0.0
 51
90.0
  0
LINE
  8
16
  5
560
 10
121.05
 20
229.88026
 30
0.0
 11
122.05
 21
230.88026
 31
0.0
  0
LINE
  8
15
  5
561
 10
118.7
 20
189.98026
 30
0.0
 11
118.7
 21
248.78026
 31
0.0
  0
LINE
  8
16
  5
562
 10
114.9
 20
249.28026
 30
0.0
 11
114.9
 21
226.38026
 31
0.0
  0
LINE
  8
16
  5
563
 10
103.5
 20
238.028832
 30
0.0
 11
103.5
 21
200.734546
 31
0.0
  0
LINE
  8
17
  6
PHANTOM
  5
564
 10
125.072857
 20
201.631689
 30
0.0
 11
120.55
 21
201.631689
 31
0.0
  0
ARC
  8
16
  5
565
 10
123.75
 20
208.18026
 30
0.0
 40
0.3
 50
270.0
 51
0.0
  0
LINE
  8
16
  5
566
 10
123.05
 20
214.18026
 30
0.0
 11
124.05
 21
213.18026
 31
0.0
  0
LINE
  8
16
  5
567
 10
123.05
 20
224.58026
 30
0.0
 11
124.05
 21
225.58026
 31
0.0
  0
ARC
  8
16
  5
568
 10
123.699715
 20
222.88026
 30
0.0
 40
1.0
 50
0.0
 51
90.0
  0
ARC
  8
16
  5
569
 10
123.699715
 20
215.88026
 30
0.0
 40
1.0
 50
270.0
 51
0.0
  0
LINE
  8
17
  6
PHANTOM
  5
56A
 10
119.05
 20
203.131689
 30
0.0
 11
120.55
 21
201.631689
 31
0.0
  0
LINE
  8
16
  5
56B
 10
114.9
 20
212.38026
 30
0.0
 11
114.9
 21
189.48026
 31
0.0
  0
LINE
  8
16
  5
56C
 10
114.499715
 20
189.48026
 30
0.0
 11
114.5
 21
211.18026
 31
0.0
  0
POLYLINE
  8
17
  5
56D
 66
     1
 10
0.0
 20
0.0
 30
0.0
  0
VERTEX
  8
17
  5
E27
 10
86.599715
 20
191.403117
 30
0.0
  0
VERTEX
  8
17
  5
E28
 10
86.539543
 20
191.436832
 30
0.0
  0
VERTEX
  8
17
  5
E29
 10
86.458
 20
191.491689
 30
0.0
  0
VERTEX
  8
17
  5
E2A
 10
86.337315
 20
191.578546
 30
0.0
  0
VERTEX
  8
17
  5
E2B
 10
86.174286
 20
191.668832
 30
0.0
  0
VERTEX
  8
17
  5
E2C
 10
85.974229
 20
191.720546
 30
0.0
  0
VERTEX
  8
17
  5
E2D
 10
85.762286
 20
191.68026
 30
0.0
  0
VERTEX
  8
17
  5
E2E
 10
85.5624
 20
191.52226
 30
0.0
  0
VERTEX
  8
17
  5
E2F
 10
85.373715
 20
191.34026
 30
0.0
  0
VERTEX
  8
17
  5
E30
 10
85.190857
 20
191.236832
 30
0.0
  0
VERTEX
  8
17
  5
E31
 10
85.015143
 20
191.231689
 30
0.0
  0
VERTEX
  8
17
  5
E32
 10
84.847486
 20
191.315689
 30
0.0
  0
VERTEX
  8
17
  5
E33
 10
84.680286
 20
191.451689
 30
0.0
  0
VERTEX
  8
17
  5
E34
 10
84.508972
 20
191.595975
 30
0.0
  0
VERTEX
  8
17
  5
E35
 10
84.349143
 20
191.708832
 30
0.0
  0
VERTEX
  8
17
  5
E36
 10
84.218143
 20
191.762546
 30
0.0
  0
VERTEX
  8
17
  5
E37
 10
84.119715
 20
191.771689
 30
0.0
  0
VERTEX
  8
17
  5
E38
 10
84.051457
 20
191.759403
 30
0.0
  0
VERTEX
  8
17
  5
E39
 10
83.999715
 20
191.737403
 30
0.0
  0
SEQEND
  8
17
  5
E3A
  0
ARC
  8
16
  5
582
 10
100.984
 20
196.38026
 30
0.0
 40
1.0
 50
270.0
 51
345.0
  0
ARC
  8
16
  5
583
 10
101.5
 20
200.734546
 30
0.0
 40
2.0
 50
340.0
 51
0.0
  0
LINE
  8
16
  5
584
 10
103.379429
 20
200.048832
 30
0.0
 11
101.95
 21
196.123117
 31
0.0
  0
ARC
  8
15
  5
585
 10
118.2
 20
189.98026
 30
0.0
 40
0.5
 50
270.0
 51
0.0
  0
LINE
  8
15
  5
586
 10
114.5
 20
189.48026
 30
0.0
 11
118.2
 21
189.48026
 31
0.0
  0
LINE
  8
16
  5
587
 10
112.9
 20
224.38026
 30
0.0
 11
103.5
 21
224.38026
 31
0.0
  0
LINE
  8
16
  5
588
 10
112.9
 20
214.38026
 30
0.0
 11
103.5
 21
214.38026
 31
0.0
  0
ARC
  8
16
  5
589
 10
112.9
 20
212.38026
 30
0.0
 40
2.0
 50
0.0
 51
90.0
  0
LINE
  8
16
  5
58A
 10
121.05
 20
214.18026
 30
0.0
 11
121.05
 21
207.88026
 31
0.0
  0
LINE
  8
16
  5
58B
 10
123.75
 20
207.88026
 30
0.0
 11
118.7
 21
207.88026
 31
0.0
  0
LINE
  8
17
  6
PHANTOM
  5
58C
 10
119.05
 20
203.131689
 30
0.0
 11
119.05
 21
207.88026
 31
0.0
  0
LINE
  8
16
  5
58D
 10
118.7
 20
214.18026
 30
0.0
 11
123.05
 21
214.18026
 31
0.0
  0
LINE
  8
16
  5
58E
 10
118.7
 20
214.38026
 30
0.0
 11
118.949715
 21
214.38026
 31
0.0
  0
LINE
  8
16
  5
58F
 10
114.5
 20
211.18026
 30
0.0
 11
114.5
 21
213.58026
 31
0.0
  0
ARC
  8
16
  5
590
 10
118.949715
 20
214.88026
 30
0.0
 40
0.5
 50
270.0
 51
0.0
  0
LINE
  8
16
  5
591
 10
119.449715
 20
214.88026
 30
0.0
 11
123.699715
 21
214.88026
 31
0.0
  0
ARC
  8
16
  5
592
 10
112.9
 20
226.38026
 30
0.0
 40
2.0
 50
270.0
 51
0.0
  0
LINE
  8
16
  5
593
 10
118.7
 20
221.131689
 30
0.0
 11
106.2
 21
221.131689
 31
0.0
  0
LINE
  8
16
  5
594
 10
118.7
 20
217.631689
 30
0.0
 11
106.2
 21
217.631689
 31
0.0
  0
ARC
  8
16
  5
595
 10
106.2
 20
217.931689
 30
0.0
 40
0.3
 50
180.0
 51
270.0
  0
ARC
  8
16
  5
596
 10
106.2
 20
220.831689
 30
0.0
 40
0.3
 50
90.0
 51
180.0
  0
LINE
  8
16
  5
597
 10
105.9
 20
220.831689
 30
0.0
 11
105.9
 21
217.931689
 31
0.0
  0
LINE
  8
16
  5
598
 10
121.05
 20
225.88026
 30
0.0
 11
118.7
 21
225.88026
 31
0.0
  0
LINE
  8
16
  5
599
 10
123.05
 20
224.58026
 30
0.0
 11
118.7
 21
224.58026
 31
0.0
  0
LINE
  8
16
  5
59A
 10
118.7
 20
224.38026
 30
0.0
 11
118.949715
 21
224.38026
 31
0.0
  0
LINE
  8
16
  5
59B
 10
114.5
 20
225.18026
 30
0.0
 11
114.5
 21
227.58026
 31
0.0
  0
LINE
  8
16
  5
59C
 10
121.05
 20
229.88026
 30
0.0
 11
121.05
 21
225.88026
 31
0.0
  0
ARC
  8
16
  5
59D
 10
118.949715
 20
223.88026
 30
0.0
 40
0.5
 50
0.0
 51
90.0
  0
LINE
  8
16
  5
59E
 10
119.449715
 20
223.88026
 30
0.0
 11
123.699715
 21
223.88026
 31
0.0
  0
ARC
  8
17
  6
PHANTOM
  5
59F
 10
125.55
 20
201.78026
 30
0.0
 40
0.5
 50
90.0
 51
180.0
  0
LINE
  8
17
  6
PHANTOM
  5
5A0
 10
127.071715
 20
200.165975
 30
0.0
 11
127.071715
 21
202.28026
 31
0.0
  0
LINE
  8
17
  6
PHANTOM
  5
5A1
 10
147.271715
 20
200.165975
 30
0.0
 11
147.271715
 21
210.331689
 31
0.0
  0
ARC
  8
17
  6
PHANTOM
  5
5A2
 10
143.432286
 20
196.98026
 30
0.0
 40
2.0
 50
270.0
 51
330.0
  0
LINE
  8
17
  6
PHANTOM
  5
5A3
 10
143.432286
 20
194.98026
 30
0.0
 11
133.071715
 21
194.98026
 31
0.0
  0
ARC
  8
17
  6
PHANTOM
  5
5A4
 10
130.543715
 20
197.617403
 30
0.0
 40
2.0
 50
210.0
 51
257.0
  0
ARC
  8
17
  6
PHANTOM
  5
5A5
 10
129.071715
 20
200.165975
 30
0.0
 40
2.0
 50
180.0
 51
210.0
  0
LINE
  8
17
  6
PHANTOM
  5
5A6
 10
127.339715
 20
199.165975
 30
0.0
 11
128.811715
 21
196.617403
 31
0.0
  0
LINE
  8
17
  6
PHANTOM
  5
5A7
 10
125.05
 20
201.631689
 30
0.0
 11
125.05
 21
201.78026
 31
0.0
  0
LINE
  8
17
  6
PHANTOM
  5
5A8
 10
130.093715
 20
195.668832
 30
0.0
 11
133.071715
 21
194.98026
 31
0.0
  0
ARC
  8
17
  6
PHANTOM
  5
5A9
 10
145.271715
 20
200.165975
 30
0.0
 40
2.0
 50
330.0
 51
0.000005
  0
LINE
  8
17
  6
PHANTOM
  5
5AA
 10
147.003715
 20
199.165975
 30
0.0
 11
145.164286
 21
195.98026
 31
0.0
  0
LINE
  8
16
  5
5AB
 10
124.699715
 20
215.88026
 30
0.0
 11
124.699715
 21
222.88026
 31
0.0
  0
LINE
  8
16
  5
5AC
 10
124.05
 20
208.18026
 30
0.0
 11
124.05
 21
213.18026
 31
0.0
  0
LINE
  8
17
  6
PHANTOM
  5
5AD
 10
127.071715
 20
202.28026
 30
0.0
 11
125.55
 21
202.28026
 31
0.0
  0
LINE
  8
16
  5
5AE
 10
124.05
 20
230.58026
 30
0.0
 11
124.05
 21
225.58026
 31
0.0
  0
LINE
  8
17
  6
PHANTOM
  5
5AF
 10
149.349715
 20
210.631689
 30
0.0
 11
149.349715
 21
228.131689
 31
0.0
  0
LINE
  8
17
  6
PHANTOM
  5
5B0
 10
149.049715
 20
210.331689
 30
0.0
 11
147.271715
 21
210.331689
 31
0.0
  0
ARC
  8
17
  6
PHANTOM
  5
5B1
 10
149.049715
 20
210.631689
 30
0.0
 40
0.3
 50
270.0
 51
0.0
  0
LINE
  8
17
  5
5B2
 10
152.0
 20
221.38026
 30
0.0
 11
152.0
 21
217.38026
 31
0.0
  0
LINE
  8
17
  5
5B3
 10
149.349715
 20
221.38026
 30
0.0
 11
152.0
 21
221.38026
 31
0.0
  0
LINE
  8
17
  5
5B4
 10
149.349715
 20
217.38026
 30
0.0
 11
152.0
 21
217.38026
 31
0.0
  0
LINE
  8
17
  6
PHANTOM
  5
5B5
 10
149.049715
 20
228.431689
 30
0.0
 11
147.271715
 21
228.431689
 31
0.0
  0
ARC
  8
17
  6
PHANTOM
  5
5B6
 10
149.049715
 20
228.131689
 30
0.0
 40
0.3
 50
0.0
 51
90.0
  0
LINE
  8
17
  6
PHANTOM
  5
5B7
 10
127.05
 20
237.131689
 30
0.0
 11
120.55
 21
237.131689
 31
0.0
  0
LINE
  8
17
  6
DASHED
  5
5B8
 10
83.999715
 20
247.023117
 30
0.0
 11
83.999715
 21
266.38026
 31
0.0
  0
LINE
  8
17
  6
DASHED
  5
5B9
 10
86.599715
 20
247.357403
 30
0.0
 11
86.599715
 21
266.38026
 31
0.0
  0
LINE
  8
15
  5
5BA
 10
114.5
 20
249.28026
 30
0.0
 11
114.5
 21
267.845975
 31
0.0
  0
ARC
  8
16
  5
5BB
 10
100.98
 20
242.38026
 30
0.0
 40
1.0
 50
20.0
 51
90.0
  0
ARC
  8
16
  5
5BC
 10
101.5
 20
238.028832
 30
0.0
 40
2.0
 50
0.0
 51
20.0
  0
LINE
  8
16
  5
5BD
 10
103.379429
 20
238.711689
 30
0.0
 11
101.919715
 21
242.723117
 31
0.0
  0
POLYLINE
  8
17
  5
5BE
 66
     1
 10
0.0
 20
0.0
 30
0.0
  0
VERTEX
  8
17
  5
E3B
 10
86.599715
 20
247.357403
 30
0.0
  0
VERTEX
  8
17
  5
E3C
 10
86.539543
 20
247.325403
 30
0.0
  0
VERTEX
  8
17
  5
E3D
 10
86.458
 20
247.271689
 30
0.0
  0
VERTEX
  8
17
  5
E3E
 10
86.337315
 20
247.184832
 30
0.0
  0
VERTEX
  8
17
  5
E3F
 10
86.174286
 20
247.094546
 30
0.0
  0
VERTEX
  8
17
  5
E40
 10
85.974229
 20
247.042832
 30
0.0
  0
VERTEX
  8
17
  5
E41
 10
85.762286
 20
247.083117
 30
0.0
  0
VERTEX
  8
17
  5
E42
 10
85.5624
 20
247.241403
 30
0.0
  0
VERTEX
  8
17
  5
E43
 10
85.373715
 20
247.423117
 30
0.0
  0
VERTEX
  8
17
  5
E44
 10
85.190857
 20
247.524832
 30
0.0
  0
VERTEX
  8
17
  5
E45
 10
85.015143
 20
247.528832
 30
0.0
  0
VERTEX
  8
17
  5
E46
 10
84.847486
 20
247.445975
 30
0.0
  0
VERTEX
  8
17
  5
E47
 10
84.680286
 20
247.311689
 30
0.0
  0
VERTEX
  8
17
  5
E48
 10
84.508972
 20
247.167975
 30
0.0
  0
VERTEX
  8
17
  5
E49
 10
84.349143
 20
247.054546
 30
0.0
  0
VERTEX
  8
17
  5
E4A
 10
84.218143
 20
246.999403
 30
0.0
  0
VERTEX
  8
17
  5
E4B
 10
84.119715
 20
246.988832
 30
0.0
  0
VERTEX
  8
17
  5
E4C
 10
84.051457
 20
247.000832
 30
0.0
  0
VERTEX
  8
17
  5
E4D
 10
83.999715
 20
247.023117
 30
0.0
  0
SEQEND
  8
17
  5
E4E
  0
LINE
  8
17
  5
5D3
 10
122.35
 20
241.631689
 30
0.0
 11
122.35
 21
237.131689
 31
0.0
  0
LINE
  8
17
  5
5D4
 10
120.85
 20
240.631689
 30
0.0
 11
120.85
 21
237.131689
 31
0.0
  0
LINE
  8
16
  5
5D5
 10
123.75
 20
230.88026
 30
0.0
 11
118.7
 21
230.88026
 31
0.0
  0
LINE
  8
17
  6
PHANTOM
  5
5D6
 10
119.05
 20
235.631689
 30
0.0
 11
120.55
 21
237.131689
 31
0.0
  0
LINE
  8
17
  6
PHANTOM
  5
5D8
 10
119.05
 20
230.88026
 30
0.0
 11
119.05
 21
235.631689
 31
0.0
  0
LINE
  8
17
  5
5D9
 10
122.35
 20
241.631689
 30
0.0
 11
121.85
 21
241.631689
 31
0.0
  0
LINE
  8
17
  5
5DA
 10
121.85
 20
241.631689
 30
0.0
 11
120.85
 21
240.631689
 31
0.0
  0
ARC
  8
15
  5
5DB
 10
118.2
 20
248.78026
 30
0.0
 40
0.5
 50
0.0
 51
90.0
  0
LINE
  8
15
  5
5DC
 10
114.5
 20
249.28026
 30
0.0
 11
118.2
 21
249.28026
 31
0.0
  0
LINE
  8
17
  6
DASHED
  5
5DD
 10
86.599715
 20
266.38026
 30
0.0
 11
83.999715
 21
266.38026
 31
0.0
  0
LINE
  8
17
  5
5DE
 10
86.599715
 20
265.88026
 30
0.0
 11
86.599715
 21
266.38026
 31
0.0
  0
LINE
  8
17
  5
5DF
 10
86.599715
 20
266.38026
 30
0.0
 11
83.999715
 21
266.38026
 31
0.0
  0
LINE
  8
15
  5
5E0
 10
114.232
 20
268.845975
 30
0.0
 11
112.190572
 21
272.38026
 31
0.0
  0
ARC
  8
15
  5
5E1
 10
110.458572
 20
271.38026
 30
0.0
 40
2.0
 50
30.0
 51
90.0
  0
ARC
  8
15
  5
5E2
 10
112.5
 20
267.845975
 30
0.0
 40
2.0
 50
0.0
 51
30.0
  0
ARC
  8
17
  6
PHANTOM
  5
5E3
 10
143.432286
 20
241.78026
 30
0.0
 40
2.0
 50
29.9999
 51
90.0
  0
LINE
  8
17
  6
PHANTOM
  5
5E4
 10
143.432286
 20
243.78026
 30
0.0
 11
133.071715
 21
243.78026
 31
0.0
  0
LINE
  8
17
  6
PHANTOM
  5
5E5
 10
127.05
 20
238.594546
 30
0.0
 11
127.05
 21
237.131689
 31
0.0
  0
ARC
  8
17
  6
PHANTOM
  5
5E6
 10
130.543715
 20
241.145975
 30
0.0
 40
2.0
 50
103.0
 51
150.0
  0
ARC
  8
17
  6
PHANTOM
  5
5E7
 10
129.05
 20
238.594546
 30
0.0
 40
2.0
 50
150.0
 51
180.0
  0
LINE
  8
17
  6
PHANTOM
  5
5E8
 10
127.317715
 20
239.594546
 30
0.0
 11
128.811715
 21
242.145975
 31
0.0
  0
LINE
  8
17
  6
PHANTOM
  5
5E9
 10
130.093715
 20
243.094546
 30
0.0
 11
133.071715
 21
243.78026
 31
0.0
  0
ARC
  8
17
  6
PHANTOM
  5
5EA
 10
145.25
 20
238.594546
 30
0.0
 40
2.0
 50
0.0
 51
29.9999
  0
LINE
  8
17
  6
PHANTOM
  5
5EB
 10
147.003715
 20
239.594546
 30
0.0
 11
145.164286
 21
242.78026
 31
0.0
  0
LINE
  8
0D
  6
PHANTOM
  5
5EC
 10
197.442857
 20
249.38026
 30
0.0
 11
197.442857
 21
189.38026
 31
0.0
  0
LINE
  8
0C
  5
5ED
 10
242.343143
 20
207.58026
 30
0.0
 11
242.343143
 21
234.38026
 31
0.0
  0
LINE
  8
0C
  5
5EE
 10
220.443143
 20
190.48026
 30
0.0
 11
220.443143
 21
248.28026
 31
0.0
  0
CIRCLE
  8
0D
  5
5EF
 10
216.543143
 20
233.08026
 30
0.0
 40
3.0
  0
LINE
  8
0D
  5
5F0
 10
220.343143
 20
236.38026
 30
0.0
 11
220.343143
 21
229.78026
 31
0.0
  0
LINE
  8
0D
  5
5F1
 10
212.743143
 20
236.38026
 30
0.0
 11
212.743143
 21
229.78026
 31
0.0
  0
ARC
  8
0C
  5
5F2
 10
243.943143
 20
230.38026
 30
0.0
 40
0.5
 50
90.0
 51
180.0
  0
LINE
  8
0D
  5
5F3
 10
209.943143
 20
189.88026
 30
0.0
 11
209.943143
 21
248.88026
 31
0.0
  0
LINE
  8
0D
  5
5F4
 10
212.643143
 20
227.78026
 30
0.0
 11
212.643143
 21
248.474546
 31
0.0
  0
LINE
  8
FF
  5
5F5
 10
204.648036
 20
209.009142
 30
0.0
 11
177.160829
 21
181.460276
 31
0.0
  0
LINE
  8
0D
  6
PHANTOM
  5
5F6
 10
209.943143
 20
189.38026
 30
0.0
 11
197.442857
 21
189.38026
 31
0.0
  0
ARC
  8
0D
  5
5F7
 10
213.243143
 20
202.38026
 30
0.0
 40
0.5
 50
180.0
 51
270.0
  0
ARC
  8
0D
  5
5F8
 10
219.843143
 20
202.38026
 30
0.0
 40
0.5
 50
270.0
 51
0.0
  0
LINE
  8
0D
  5
5F9
 10
212.643143
 20
210.98026
 30
0.0
 11
212.643143
 21
190.288832
 31
0.0
  0
CIRCLE
  8
0D
  5
5FA
 10
218.443143
 20
181.88026
 30
0.0
 40
2.25
  0
CIRCLE
  8
0D
  5
5FB
 10
216.543143
 20
197.58026
 30
0.0
 40
3.0
  0
LINE
  8
0D
  5
5FC
 10
219.843143
 20
201.38026
 30
0.0
 11
213.243143
 21
201.38026
 31
0.0
  0
LINE
  8
0D
  5
5FD
 10
219.843143
 20
193.78026
 30
0.0
 11
213.243143
 21
193.78026
 31
0.0
  0
LINE
  8
0D
  5
5FE
 10
219.843143
 20
201.88026
 30
0.0
 11
213.243143
 21
201.88026
 31
0.0
  0
LINE
  8
0D
  5
5FF
 10
214.143143
 20
192.88026
 30
0.0
 11
213.471715
 21
190.38026
 31
0.0
  0
LINE
  8
0D
  5
600
 10
212.743143
 20
200.88026
 30
0.0
 11
212.743143
 21
194.28026
 31
0.0
  0
ARC
  8
0D
  5
601
 10
213.243143
 20
194.28026
 30
0.0
 40
0.5
 50
180.0
 51
270.0
  0
ARC
  8
0D
  5
602
 10
210.443143
 20
189.88026
 30
0.0
 40
0.5
 50
180.0
 51
270.0
  0
ARC
  8
0D
  5
603
 10
212.143143
 20
190.288832
 30
0.0
 40
0.5
 50
315.0
 51
0.0
  0
ARC
  8
0D
  5
604
 10
211.734572
 20
189.88026
 30
0.0
 40
0.5
 50
270.0
 51
315.0
  0
LINE
  8
0D
  5
605
 10
210.443143
 20
189.38026
 30
0.0
 11
211.734572
 21
189.38026
 31
0.0
  0
LINE
  8
0D
  5
606
 10
213.471715
 20
190.38026
 30
0.0
 11
212.643143
 21
190.38026
 31
0.0
  0
LINE
  8
0D
  5
607
 10
212.497429
 20
189.934546
 30
0.0
 11
212.088857
 21
189.528832
 31
0.0
  0
ARC
  8
0D
  5
608
 10
213.243143
 20
200.88026
 30
0.0
 40
0.5
 50
90.0
 51
180.0
  0
LINE
  8
0D
  5
609
 10
220.343143
 20
200.88026
 30
0.0
 11
220.343143
 21
194.28026
 31
0.0
  0
LINE
  8
0D
  5
60A
 10
218.943143
 20
192.88026
 30
0.0
 11
219.611715
 21
190.38026
 31
0.0
  0
LINE
  8
0D
  5
60B
 10
214.143143
 20
193.78026
 30
0.0
 11
214.143143
 21
192.88026
 31
0.0
  0
LINE
  8
0D
  5
60C
 10
218.943143
 20
193.78026
 30
0.0
 11
218.943143
 21
192.88026
 31
0.0
  0
ARC
  8
0C
  5
60D
 10
221.443143
 20
190.48026
 30
0.0
 40
1.0
 50
180.0
 51
270.0
  0
ARC
  8
0D
  5
60E
 10
219.843143
 20
194.28026
 30
0.0
 40
0.5
 50
270.0
 51
0.0
  0
LINE
  8
0D
  5
60F
 10
219.611715
 20
190.38026
 30
0.0
 11
220.443143
 21
190.38026
 31
0.0
  0
LINE
  8
0D
  5
610
 10
218.663143
 20
199.703117
 30
0.0
 11
214.420286
 21
195.46026
 31
0.0
  0
LINE
  8
0D
  5
611
 10
217.803143
 20
196.32026
 30
0.0
 11
215.283143
 21
198.84026
 31
0.0
  0
ARC
  8
0D
  5
612
 10
219.843143
 20
200.88026
 30
0.0
 40
0.5
 50
0.0
 51
90.0
  0
CIRCLE
  8
0D
  5
613
 10
232.943143
 20
180.38026
 30
0.0
 40
5.773514
  0
LINE
  8
0D
  5
614
 10
232.943143
 20
174.608832
 30
0.0
 11
237.943143
 21
177.494546
 31
0.0
  0
LINE
  8
0D
  5
615
 10
237.943143
 20
183.268832
 30
0.0
 11
232.943143
 21
186.154546
 31
0.0
  0
LINE
  8
0D
  5
616
 10
234.726
 20
180.38026
 30
0.0
 11
231.160286
 21
180.38026
 31
0.0
  0
LINE
  8
0D
  5
617
 10
227.943143
 20
183.268832
 30
0.0
 11
227.943143
 21
177.494546
 31
0.0
  0
LINE
  8
0D
  5
618
 10
232.943143
 20
182.163117
 30
0.0
 11
232.943143
 21
178.60026
 31
0.0
  0
LINE
  8
0D
  5
619
 10
227.943143
 20
177.494546
 30
0.0
 11
232.943143
 21
174.608832
 31
0.0
  0
LINE
  8
0D
  5
61A
 10
232.943143
 20
186.154546
 30
0.0
 11
227.943143
 21
183.268832
 31
0.0
  0
LINE
  8
0D
  5
61B
 10
237.943143
 20
177.494546
 30
0.0
 11
237.943143
 21
183.268832
 31
0.0
  0
CIRCLE
  8
0D
  5
61C
 10
216.543143
 20
205.68026
 30
0.0
 40
3.0
  0
LINE
  8
0D
  5
61D
 10
219.843143
 20
209.48026
 30
0.0
 11
213.243143
 21
209.48026
 31
0.0
  0
LINE
  8
0D
  5
61E
 10
212.643143
 20
210.98026
 30
0.0
 11
220.443143
 21
210.98026
 31
0.0
  0
ARC
  8
0D
  5
61F
 10
213.243143
 20
208.98026
 30
0.0
 40
0.5
 50
90.0
 51
180.0
  0
LINE
  8
0D
  5
620
 10
212.743143
 20
208.98026
 30
0.0
 11
212.743143
 21
202.38026
 31
0.0
  0
ARC
  8
0D
  5
621
 10
219.843143
 20
208.98026
 30
0.0
 40
0.5
 50
0.0
 51
90.0
  0
LINE
  8
0D
  5
622
 10
218.663143
 20
207.803117
 30
0.0
 11
214.420286
 21
203.56026
 31
0.0
  0
LINE
  8
0D
  5
623
 10
217.803143
 20
204.42026
 30
0.0
 11
215.283143
 21
206.94026
 31
0.0
  0
LINE
  8
0D
  5
624
 10
220.343143
 20
208.98026
 30
0.0
 11
220.343143
 21
202.38026
 31
0.0
  0
LINE
  8
0D
  5
625
 10
219.843143
 20
229.28026
 30
0.0
 11
213.243143
 21
229.28026
 31
0.0
  0
LINE
  8
0D
  5
626
 10
212.643143
 20
227.78026
 30
0.0
 11
220.443143
 21
227.78026
 31
0.0
  0
ARC
  8
0D
  5
627
 10
213.243143
 20
229.78026
 30
0.0
 40
0.5
 50
180.0
 51
270.0
  0
ARC
  8
0D
  5
628
 10
219.843143
 20
229.78026
 30
0.0
 40
0.5
 50
270.0
 51
0.0
  0
LINE
  8
0C
  5
629
 10
243.443143
 20
230.38026
 30
0.0
 11
243.443143
 21
208.38026
 31
0.0
  0
ARC
  8
0C
  5
62A
 10
243.343143
 20
207.58026
 30
0.0
 40
1.0
 50
180.0
 51
270.0
  0
ARC
  8
0C
  5
62B
 10
243.943143
 20
208.38026
 30
0.0
 40
0.5
 50
180.0
 51
270.0
  0
LINE
  8
FF
  5
62C
 10
214.760286
 20
243.594546
 30
0.0
 11
191.864572
 21
268.334546
 31
0.0
  0
LINE
  8
0D
  6
PHANTOM
  5
62D
 10
209.943143
 20
249.38026
 30
0.0
 11
197.442857
 21
249.38026
 31
0.0
  0
LINE
  8
FF
  5
62E
 10
191.864572
 20
268.334546
 30
0.0
 11
163.976
 21
268.334546
 31
0.0
  0
TEXT
  8
FF
  5
62F
 10
164.489429
 20
271.46026
 30
0.0
 40
5.0
  1
M3.5
 41
1.181776
  0
CIRCLE
  8
0D
  5
630
 10
232.943143
 20
258.38026
 30
0.0
 40
5.773514
  0
LINE
  8
0D
  5
631
 10
227.943143
 20
261.268832
 30
0.0
 11
227.943143
 21
255.494546
 31
0.0
  0
LINE
  8
0D
  5
632
 10
237.943143
 20
255.494546
 30
0.0
 11
237.943143
 21
261.268832
 31
0.0
  0
LINE
  8
0D
  5
633
 10
232.943143
 20
260.163117
 30
0.0
 11
232.943143
 21
256.60026
 31
0.0
  0
LINE
  8
0C
  5
634
 10
221.143143
 20
249.234546
 30
0.0
 11
221.143143
 21
272.38026
 31
0.0
  0
LINE
  8
0C
  5
635
 10
224.543143
 20
272.38026
 30
0.0
 11
224.543143
 21
249.28026
 31
0.0
  0
LINE
  8
0C
  5
636
 10
241.343143
 20
249.28026
 30
0.0
 11
241.343143
 21
272.38026
 31
0.0
  0
LINE
  8
FF
  5
637
 10
214.760286
 20
243.594546
 30
0.0
 11
210.712572
 21
251.277117
 31
0.0
  0
LINE
  8
FF
  5
638
 10
207.413629
 20
248.223975
 30
0.0
 11
214.760286
 21
243.594546
 31
0.0
  0
ARC
  8
0D
  5
639
 10
219.843143
 20
244.48026
 30
0.0
 40
0.5
 50
0.0
 51
90.0
  0
ARC
  8
0D
  5
63A
 10
213.243143
 20
244.48026
 30
0.0
 40
0.5
 50
90.0
 51
180.0
  0
LINE
  8
0D
  5
63B
 10
218.943143
 20
244.98026
 30
0.0
 11
218.943143
 21
245.88026
 31
0.0
  0
LINE
  8
0D
  5
63C
 10
214.143143
 20
244.98026
 30
0.0
 11
214.143143
 21
245.88026
 31
0.0
  0
CIRCLE
  8
0D
  5
63D
 10
216.543143
 20
241.18026
 30
0.0
 40
3.0
  0
LINE
  8
0D
  5
63E
 10
219.843143
 20
236.88026
 30
0.0
 11
213.243143
 21
236.88026
 31
0.0
  0
LINE
  8
0D
  5
63F
 10
219.843143
 20
244.98026
 30
0.0
 11
213.243143
 21
244.98026
 31
0.0
  0
LINE
  8
0D
  5
640
 10
219.843143
 20
237.38026
 30
0.0
 11
213.243143
 21
237.38026
 31
0.0
  0
ARC
  8
0D
  5
641
 10
213.243143
 20
237.88026
 30
0.0
 40
0.5
 50
180.0
 51
270.0
  0
ARC
  8
0D
  5
642
 10
213.243143
 20
236.38026
 30
0.0
 40
0.5
 50
90.0
 51
180.0
  0
LINE
  8
0D
  5
643
 10
212.743143
 20
244.48026
 30
0.0
 11
212.743143
 21
237.88026
 31
0.0
  0
ARC
  8
0D
  5
644
 10
219.843143
 20
237.88026
 30
0.0
 40
0.5
 50
270.0
 51
0.0
  0
LINE
  8
0D
  5
645
 10
218.663143
 20
235.203117
 30
0.0
 11
214.420286
 21
230.96026
 31
0.0
  0
LINE
  8
0D
  5
646
 10
217.803143
 20
231.82026
 30
0.0
 11
215.283143
 21
234.34026
 31
0.0
  0
ARC
  8
0D
  5
647
 10
219.843143
 20
236.38026
 30
0.0
 40
0.5
 50
0.0
 51
90.0
  0
LINE
  8
0D
  5
648
 10
218.663143
 20
243.303117
 30
0.0
 11
214.420286
 21
239.06026
 31
0.0
  0
LINE
  8
0D
  5
649
 10
217.803143
 20
239.92026
 30
0.0
 11
215.283143
 21
242.44026
 31
0.0
  0
LINE
  8
0D
  5
64A
 10
220.343143
 20
244.48026
 30
0.0
 11
220.343143
 21
237.88026
 31
0.0
  0
LINE
  8
0D
  5
64B
 10
214.143143
 20
245.88026
 30
0.0
 11
213.471715
 21
248.38026
 31
0.0
  0
ARC
  8
0D
  5
64C
 10
210.443143
 20
248.88026
 30
0.0
 40
0.5
 50
90.0
 51
180.0
  0
ARC
  8
0D
  5
64D
 10
211.734572
 20
248.88026
 30
0.0
 40
0.5
 50
45.0
 51
90.0
  0
ARC
  8
0D
  5
64E
 10
212.143143
 20
248.474546
 30
0.0
 40
0.5
 50
0.0
 51
45.0
  0
LINE
  8
0D
  5
64F
 10
213.471715
 20
248.38026
 30
0.0
 11
212.643143
 21
248.38026
 31
0.0
  0
LINE
  8
0D
  5
650
 10
210.443143
 20
249.38026
 30
0.0
 11
211.734572
 21
249.38026
 31
0.0
  0
LINE
  8
0D
  5
651
 10
212.497429
 20
248.828832
 30
0.0
 11
212.088857
 21
249.234546
 31
0.0
  0
LINE
  8
0D
  5
652
 10
218.943143
 20
245.88026
 30
0.0
 11
219.611715
 21
248.38026
 31
0.0
  0
ARC
  8
0C
  5
653
 10
221.443143
 20
248.28026
 30
0.0
 40
1.0
 50
90.0
 51
180.0
  0
LINE
  8
0D
  5
654
 10
219.611715
 20
248.38026
 30
0.0
 11
220.443143
 21
248.38026
 31
0.0
  0
ARC
  8
0C
  5
655
 10
243.343143
 20
234.38026
 30
0.0
 40
1.0
 50
90.0
 51
180.0
  0
LINE
  8
0D
  5
656
 10
232.943143
 20
252.608832
 30
0.0
 11
237.943143
 21
255.494546
 31
0.0
  0
LINE
  8
0D
  5
657
 10
231.160286
 20
258.38026
 30
0.0
 11
234.726
 21
258.38026
 31
0.0
  0
LINE
  8
0D
  5
658
 10
227.943143
 20
255.494546
 30
0.0
 11
232.943143
 21
252.608832
 31
0.0
  0
LINE
  8
FF
  5
659
 10
222.989715
 20
267.404832
 30
0.0
 11
230.206
 21
262.574546
 31
0.0
  0
LINE
  8
0B
  5
65A
 10
212.943143
 20
273.38026
 30
0.0
 11
233.103143
 21
273.38026
 31
0.0
  0
ARC
  8
0C
  5
65B
 10
223.543143
 20
272.38026
 30
0.0
 40
1.0
 50
0.0
 51
90.0
  0
ARC
  8
0B
  5
65C
 10
212.943143
 20
270.38026
 30
0.0
 40
3.0
 50
90.0
 51
180.0
  0
ARC
  8
0C
  5
65D
 10
222.143143
 20
272.38026
 30
0.0
 40
1.0
 50
90.0
 51
180.0
  0
LINE
  8
0C
  5
65E
 10
223.543143
 20
273.38026
 30
0.0
 11
222.143143
 21
273.38026
 31
0.0
  0
LINE
  8
0B
  6
CONTINUOUS
  5
65F
 10
234.543143
 20
273.88026
 30
0.0
 11
234.543143
 21
273.38026
 31
0.0
  0
LINE
  8
0B
  6
CONTINUOUS
  5
660
 10
233.182243
 20
273.949475
 30
0.0
 11
233.103143
 21
273.38026
 31
0.0
  0
LINE
  8
0B
  5
661
 10
242.343143
 20
273.38026
 30
0.0
 11
242.343143
 21
273.88026
 31
0.0
  0
LINE
  8
0D
  5
662
 10
237.943143
 20
261.268832
 30
0.0
 11
232.943143
 21
264.154546
 31
0.0
  0
LINE
  8
0C
  5
663
 10
224.543143
 20
266.38026
 30
0.0
 11
241.343143
 21
266.38026
 31
0.0
  0
LINE
  8
FF
  5
664
 10
230.206
 20
262.574546
 30
0.0
 11
226.371715
 21
270.365975
 31
0.0
  0
LINE
  8
0C
  5
665
 10
233.103143
 20
273.38026
 30
0.0
 11
232.126
 21
266.38026
 31
0.0
  0
LINE
  8
0D
  5
666
 10
232.943143
 20
264.154546
 30
0.0
 11
227.943143
 21
261.268832
 31
0.0
  0
LINE
  8
0C
  5
667
 10
234.543143
 20
273.38026
 30
0.0
 11
234.543143
 21
266.38026
 31
0.0
  0
ARC
  8
0D
  5
668
 10
238.443143
 20
268.88026
 30
0.0
 40
3.0
 50
14.8357
 51
236.443
  0
ARC
  8
0D
  5
669
 10
238.443143
 20
268.88026
 30
0.0
 40
3.0
 50
303.557
 51
345.164
  0
LINE
  8
0C
  5
66A
 10
234.643143
 20
272.18026
 30
0.0
 11
234.643143
 21
266.38026
 31
0.0
  0
LINE
  8
0B
  6
CONTINUOUS
  5
66B
 10
237.869283
 20
272.680257
 30
0.0
 11
241.388305
 21
272.677388
 31
0.0
  0
LINE
  8
0D
  5
66C
 10
240.563143
 20
271.003117
 30
0.0
 11
236.320286
 21
266.76026
 31
0.0
  0
LINE
  8
0D
  5
66D
 10
239.703143
 20
267.62026
 30
0.0
 11
237.183143
 21
270.14026
 31
0.0
  0
ARC
  8
0B
  5
66E
 10
235.943143
 20
270.38026
 30
0.0
 40
3.0
 50
50.0554
 51
90.0
  0
LINE
  8
0B
  5
66F
 10
234.543143
 20
273.38026
 30
0.0
 11
235.943143
 21
273.38026
 31
0.0
  0
ARC
  8
0C
  5
670
 10
235.143143
 20
272.18026
 30
0.0
 40
0.5
 50
90.0
 51
180.0
  0
LINE
  8
0C
  5
671
 10
237.869283
 20
272.680257
 30
0.0
 11
235.143143
 21
272.68026
 31
0.0
  0
ARC
  8
0C
  5
672
 10
242.343143
 20
272.38026
 30
0.0
 40
1.0
 50
162.665934
 51
180.0
  0
ARC
  8
0B
  5
673
 10
242.343143
 20
272.38026
 30
0.0
 40
1.0
 50
90.0
 51
162.71486
  0
LINE
  8
0C
  5
674
 10
244.043143
 20
273.38026
 30
0.0
 11
242.343143
 21
273.38026
 31
0.0
  0
ARC
  8
0B
  5
675
 10
234.043143
 20
273.88026
 30
0.0
 40
0.5
 50
0.0
 51
90.0
  0
ARC
  8
0B
  5
676
 10
233.677429
 20
273.88026
 30
0.0
 40
0.5
 50
90.0
 51
172.043
  0
LINE
  8
0B
  5
677
 10
234.043143
 20
274.38026
 30
0.0
 11
233.683143
 21
274.38026
 31
0.0
  0
ARC
  8
0B
  5
678
 10
243.343143
 20
273.88026
 30
0.0
 40
1.0
 50
90.0
 51
180.0
  0
TEXT
  8
FF
  5
679
 10
151.175103
 20
328.896669
 30
0.0
 40
5.0
  1
※１
 41
0.833333
  0
LINE
  8
FF
  5
67A
 10
190.417715
 20
308.02026
 30
0.0
 11
166.445715
 21
308.02026
 31
0.0
  0
TEXT
  8
FF
  5
67B
 10
166.959429
 20
311.145975
 30
0.0
 40
5.0
  1
M6
 41
1.019651
  0
TEXT
  8
FF
  5
67C
 10
165.603429
 20
318.063117
 30
0.0
 40
7.0
  1
主端子
 41
0.833333
  0
DIMENSION
  8
FF
  6
CONTINUOUS
  5
67D
  2
*D11
 10
273.943143
 20
143.968832
 30
0.0
 11
263.693143
 21
148.135532
 31
0.0
  1
20.5
 13
253.443143
 23
178.60026
 33
0.0
 14
273.943143
 24
178.60026
 34
0.0
  3
FSTD2
  0
DIMENSION
  8
FF
  5
67E
  2
*D6
 10
332.677429
 20
274.88026
 30
0.0
 11
328.510729
 21
220.13026
 31
0.0
  1
110
 13
295.943143
 23
165.38026
 33
0.0
 14
265.543143
 24
274.88026
 34
0.0
 50
90.0
  3
FSTD1
  0
DIMENSION
  8
FF
  5
67F
  2
*D15
 10
390.160286
 20
129.643117
 30
0.0
 11
420.160286
 21
135.476517
 31
0.0
  1
(55～)60
 13
450.160286
 23
258.551689
 33
0.0
 14
390.160286
 24
168.551689
 34
0.0
 50
180.0
  3
FSTD3
  0
LINE
  8
33
  6
CENTER
  5
680
 10
392.660286
 20
170.551689
 30
0.0
 11
392.660286
 21
178.108832
 31
0.0
  0
LINE
  8
33
  6
CENTER
  5
681
 10
390.160286
 20
170.551689
 30
0.0
 11
390.160286
 21
178.108832
 31
0.0
  0
LINE
  8
38
  6
CENTER
  5
682
 10
420.160286
 20
280.848832
 30
0.0
 11
420.160286
 21
154.551689
 31
0.0
  0
LINE
  8
10
  6
CENTER
  5
683
 10
253.443143
 20
283.463117
 30
0.0
 11
253.443143
 21
151.56026
 31
0.0
  0
LINE
  8
34
  6
PHANTOM
  5
684
 10
463.660286
 20
168.38026
 30
0.0
 11
463.660286
 21
270.38026
 31
0.0
  0
LINE
  8
34
  6
PHANTOM
  5
685
 10
376.660286
 20
168.38026
 30
0.0
 11
376.660286
 21
270.38026
 31
0.0
  0
ARC
  8
33
  5
686
 10
391.408857
 20
174.38026
 30
0.0
 40
3.5
 50
139.995
 51
220.005
  0
ARC
  8
33
  5
687
 10
391.408857
 20
174.38026
 30
0.0
 40
3.5
 50
319.995
 51
40.0052
  0
LINE
  8
0B
  5
688
 10
296.943143
 20
168.38026
 30
0.0
 11
296.943143
 21
270.38026
 31
0.0
  0
LINE
  8
0C
  5
689
 10
265.543143
 20
166.38026
 30
0.0
 11
265.543143
 21
189.48026
 31
0.0
  0
LINE
  8
0C
  5
68A
 10
245.043143
 20
166.38026
 30
0.0
 11
245.043143
 21
189.48026
 31
0.0
  0
LINE
  8
0C
  5
68B
 10
261.843143
 20
166.38026
 30
0.0
 11
261.843143
 21
189.48026
 31
0.0
  0
LINE
  8
0C
  5
68C
 10
282.343143
 20
189.48026
 30
0.0
 11
282.343143
 21
166.38026
 31
0.0
  0
LINE
  8
0C
  5
68D
 10
285.743143
 20
166.38026
 30
0.0
 11
285.743143
 21
189.525975
 31
0.0
  0
TEXT
  8
FF
  5
68E
 10
354.483143
 20
91.531689
 30
0.0
 40
8.571429
  1
１　・・・７０×７５
 41
0.833333
  0
TEXT
  8
FF
  5
68F
 10
334.483143
 20
54.388832
 30
0.0
 40
8.571429
  1
・取付ねじ：２－Ｍ４
 41
0.833333
  0
TEXT
  8
FF
  5
690
 10
354.483143
 20
68.674546
 30
0.0
 40
8.571429
  1
２　・・・（５５～）６０×９０
 41
0.833333
  0
TEXT
  8
FF
  5
691
 10
334.483143
 20
102.96026
 30
0.0
 40
8.571429
  1
・取付寸法：１，２の取付けが可能
 41
0.833333
  0
TEXT
  8
FF
  5
692
 10
334.483143
 20
40.103117
 30
0.0
 40
8.571429
  1
・対角線の取付穴２カ所で取付けて
 41
0.833333
  0
TEXT
  8
FF
  5
693
 10
351.626
 20
80.103117
 30
0.0
 40
8.571429
  1
（ＳＣ－２ＳＮ，３Ｎ形と互換性有）
 41
0.833333
  0
CIRCLE
  8
FF
  5
694
 10
406.437049
 20
107.023117
 30
0.0
 40
4.823429
  0
LINE
  8
34
  6
PHANTOM
  5
695
 10
379.660286
 20
165.38026
 30
0.0
 11
420.160286
 21
165.38026
 31
0.0
  0
TEXT
  8
FF
  5
696
 10
325.912572
 20
34.388832
 30
0.0
 40
71.428571
  1
(
 41
0.11262
  0
TEXT
  8
FF
  5
697
 10
334.483143
 20
28.674546
 30
0.0
 40
8.571429
  1
　下さい。
 41
0.833333
  0
LINE
  8
0B
  5
698
 10
262.843143
 20
165.38026
 30
0.0
 11
293.943143
 21
165.38026
 31
0.0
  0
LINE
  8
0C
  5
699
 10
283.343143
 20
165.38026
 30
0.0
 11
284.743143
 21
165.38026
 31
0.0
  0
LINE
  8
0C
  5
69A
 10
262.843143
 20
165.38026
 30
0.0
 11
264.543143
 21
165.38026
 31
0.0
  0
LINE
  8
0C
  5
69B
 10
261.843143
 20
172.38026
 30
0.0
 11
245.043143
 21
172.38026
 31
0.0
  0
LINE
  8
0B
  5
69C
 10
244.908857
 20
165.88026
 30
0.0
 11
261.977429
 21
165.88026
 31
0.0
  0
ARC
  8
0C
  5
69D
 10
262.843143
 20
166.38026
 30
0.0
 40
1.0
 50
180.0
 51
270.0
  0
LINE
  8
0C
  5
69E
 10
265.543143
 20
172.38026
 30
0.0
 11
282.343143
 21
172.38026
 31
0.0
  0
ARC
  8
0C
  5
69F
 10
264.543143
 20
166.38026
 30
0.0
 40
1.0
 50
270.0
 51
0.0
  0
ARC
  8
0C
  5
6A0
 10
283.343143
 20
166.38026
 30
0.0
 40
1.0
 50
180.0
 51
270.0
  0
ARC
  8
0B
  5
6A1
 10
293.943143
 20
168.38026
 30
0.0
 40
3.0
 50
270.0
 51
0.0
  0
ARC
  8
0C
  5
6A2
 10
284.743143
 20
166.38026
 30
0.0
 40
1.0
 50
270.0
 51
0.0
  0
CIRCLE
  8
FF
  5
6A3
 10
357.760214
 20
72.765975
 30
0.0
 40
4.285714
  0
CIRCLE
  8
FF
  5
6A4
 10
357.760214
 20
95.64026
 30
0.0
 40
4.285714
  0
CIRCLE
  8
FF
  5
6A5
 10
389.450717
 20
107.023117
 30
0.0
 40
4.617681
  0
ARC
  8
34
  6
PHANTOM
  5
6A6
 10
379.660286
 20
168.38026
 30
0.0
 40
3.0
 50
180.0
 51
270.0
  0
LINE
  8
33
  5
6A7
 10
394.088857
 20
172.131689
 30
0.0
 11
388.728857
 21
172.131689
 31
0.0
  0
TEXT
  8
FF
  5
6A8
 10
494.863328
 20
34.388832
 30
0.0
 40
71.428571
  1
)
 41
0.11262
  0
LINE
  8
34
  6
PHANTOM
  5
6A9
 10
420.160286
 20
165.38026
 30
0.0
 11
460.660286
 21
165.38026
 31
0.0
  0
ARC
  8
34
  6
PHANTOM
  5
6AA
 10
460.660286
 20
168.38026
 30
0.0
 40
3.0
 50
270.0
 51
0.0
  0
TEXT
  8
FF
  5
6AB
 10
400.132509
 20
328.377403
 30
0.0
 40
7.0
  1
取付穴寸法図
 41
0.833333
 72
     4
 11
420.160286
 21
331.877403
 31
0.0
  0
DIMENSION
  8
FF
  5
6AC
  2
*D16
 10
365.883143
 20
174.38026
 30
0.0
 11
360.049743
 21
219.38026
 31
0.0
  1
90
 13
441.277429
 23
264.38026
 33
0.0
 14
383.777429
 24
174.38026
 34
0.0
 50
270.0
  3
FSTD3
  0
DIMENSION
  8
FF
  5
6AD
  2
*D17
 10
385.160286
 20
310.348832
 30
0.0
 11
420.160286
 21
316.182232
 31
0.0
  1
70
 13
455.160286
 23
262.631689
 33
0.0
 14
385.160286
 24
187.631689
 34
0.0
 50
180.0
  3
FSTD3
  0
DIMENSION
  8
FF
  5
6AE
  2
*D12
 10
365.883143
 20
274.88026
 30
0.0
 11
361.716443
 21
292.79696
 31
0.0
  1
10.5
 13
441.277429
 23
264.38026
 33
0.0
 14
398.028857
 24
274.88026
 34
0.0
 50
90.0
  3
FSTD2
  0
DIMENSION
  8
FF
  5
6AF
  2
*D18
 10
483.237429
 20
181.88026
 30
0.0
 11
477.404029
 21
219.38026
 31
0.0
  1
75
 13
459.408857
 23
256.88026
 33
0.0
 14
390.908857
 24
181.88026
 34
0.0
 50
270.0
  3
FSTD3
  0
LINE
  8
38
  6
CENTER
  5
6B0
 10
372.408857
 20
219.38026
 30
0.0
 11
466.657429
 21
219.38026
 31
0.0
  0
CIRCLE
  8
FF
  5
6B1
 10
402.617429
 20
208.043117
 30
0.0
 40
3.543189
  0
LINE
  8
34
  6
PHANTOM
  5
6B2
 10
440.288857
 20
274.88026
 30
0.0
 11
400.028857
 21
274.88026
 31
0.0
  0
LINE
  8
FF
  5
6B3
 10
446.326
 20
262.288832
 30
0.0
 11
393.991715
 21
176.471689
 31
0.0
  0
LINE
  8
FF
  5
6B4
 10
453.620286
 20
255.24026
 30
0.0
 11
386.697429
 21
183.523117
 31
0.0
  0
LINE
  8
FF
  5
6B5
 10
271.080286
 20
270.308832
 30
0.0
 11
322.474572
 21
312.691689
 31
0.0
  0
DIMENSION
  8
FF
  5
6B6
  2
*D13
 10
321.891715
 20
274.88026
 30
0.0
 11
317.725015
 21
293.213627
 31
0.0
  1
16.5
 13
275.943143
 23
258.38026
 33
0.0
 14
265.543143
 24
274.88026
 34
0.0
 50
90.0
  3
FSTD2
  0
LINE
  8
0D
  6
PHANTOM
  5
6B7
 10
309.443143
 20
249.38026
 30
0.0
 11
309.443143
 21
189.38026
 31
0.0
  0
DIMENSION
  8
FF
  5
6B8
  2
*D7
 10
321.891715
 20
258.38026
 30
0.0
 11
317.725015
 21
219.38026
 31
0.0
  1
78
 13
275.943143
 23
180.38026
 33
0.0
 14
275.943143
 24
258.38026
 34
0.0
 50
90.0
  3
FSTD1
  0
LINE
  8
0C
  5
6B9
 10
286.443143
 20
190.48026
 30
0.0
 11
286.443143
 21
248.28026
 31
0.0
  0
LINE
  8
0C
  5
6BA
 10
264.543143
 20
207.58026
 30
0.0
 11
264.543143
 21
234.38026
 31
0.0
  0
CIRCLE
  8
0D
  5
6BB
 10
290.343143
 20
233.08026
 30
0.0
 40
3.0
  0
LINE
  8
0D
  5
6BC
 10
294.143143
 20
236.38026
 30
0.0
 11
294.143143
 21
229.78026
 31
0.0
  0
LINE
  8
0D
  5
6BD
 10
286.543143
 20
236.38026
 30
0.0
 11
286.543143
 21
229.78026
 31
0.0
  0
ARC
  8
0C
  5
6BE
 10
262.943143
 20
230.38026
 30
0.0
 40
0.5
 50
0.0
 51
90.0
  0
ARC
  8
0C
  5
6BF
 10
258.943143
 20
230.38026
 30
0.0
 40
0.5
 50
90.0
 51
180.0
  0
ARC
  8
0C
  5
6C0
 10
247.943143
 20
230.38026
 30
0.0
 40
0.5
 50
0.0
 51
90.0
  0
LINE
  8
0D
  5
6C1
 10
296.943143
 20
189.88026
 30
0.0
 11
296.943143
 21
248.88026
 31
0.0
  0
LINE
  8
0D
  5
6C2
 10
294.243143
 20
227.78026
 30
0.0
 11
294.243143
 21
248.474546
 31
0.0
  0
CIRCLE
  8
0D
  5
6C3
 10
253.443143
 20
180.38026
 30
0.0
 40
5.773514
  0
LINE
  8
0D
  5
6C4
 10
253.443143
 20
174.608832
 30
0.0
 11
258.443143
 21
177.494546
 31
0.0
  0
LINE
  8
0D
  5
6C5
 10
258.443143
 20
183.268832
 30
0.0
 11
253.443143
 21
186.154546
 31
0.0
  0
LINE
  8
0D
  5
6C6
 10
255.226
 20
180.38026
 30
0.0
 11
251.660286
 21
180.38026
 31
0.0
  0
LINE
  8
0D
  5
6C7
 10
248.443143
 20
183.268832
 30
0.0
 11
248.443143
 21
177.494546
 31
0.0
  0
LINE
  8
0D
  5
6C8
 10
253.443143
 20
182.163117
 30
0.0
 11
253.443143
 21
178.60026
 31
0.0
  0
LINE
  8
0D
  5
6C9
 10
248.443143
 20
177.494546
 30
0.0
 11
253.443143
 21
174.608832
 31
0.0
  0
LINE
  8
0D
  5
6CA
 10
253.443143
 20
186.154546
 30
0.0
 11
248.443143
 21
183.268832
 31
0.0
  0
LINE
  8
0D
  5
6CB
 10
258.443143
 20
177.494546
 30
0.0
 11
258.443143
 21
183.268832
 31
0.0
  0
CIRCLE
  8
0D
  5
6CC
 10
273.943143
 20
180.38026
 30
0.0
 40
5.773514
  0
LINE
  8
0D
  5
6CD
 10
278.943143
 20
183.268832
 30
0.0
 11
273.943143
 21
186.154546
 31
0.0
  0
LINE
  8
0D
  5
6CE
 10
273.943143
 20
174.608832
 30
0.0
 11
278.943143
 21
177.494546
 31
0.0
  0
LINE
  8
0D
  5
6CF
 10
275.726
 20
180.38026
 30
0.0
 11
272.160286
 21
180.38026
 31
0.0
  0
LINE
  8
0D
  5
6D0
 10
268.943143
 20
183.268832
 30
0.0
 11
268.943143
 21
177.494546
 31
0.0
  0
LINE
  8
0D
  5
6D1
 10
273.943143
 20
182.163117
 30
0.0
 11
273.943143
 21
178.60026
 31
0.0
  0
LINE
  8
0D
  5
6D2
 10
268.943143
 20
177.494546
 30
0.0
 11
273.943143
 21
174.608832
 31
0.0
  0
LINE
  8
0D
  5
6D3
 10
273.943143
 20
186.154546
 30
0.0
 11
268.943143
 21
183.268832
 31
0.0
  0
LINE
  8
0D
  5
6D4
 10
278.943143
 20
177.494546
 30
0.0
 11
278.943143
 21
183.268832
 31
0.0
  0
ARC
  8
0C
  5
6D5
 10
263.543143
 20
207.58026
 30
0.0
 40
1.0
 50
270.0
 51
0.0
  0
LINE
  8
0C
  5
6D6
 10
251.191715
 20
224.631689
 30
0.0
 11
251.191715
 21
216.08026
 31
0.0
  0
LINE
  8
0C
  5
6D7
 10
255.691715
 20
224.631689
 30
0.0
 11
255.691715
 21
216.08026
 31
0.0
  0
LINE
  8
0C
  5
6D8
 10
263.443143
 20
230.38026
 30
0.0
 11
263.443143
 21
208.38026
 31
0.0
  0
LINE
  8
0C
  5
6D9
 10
245.191715
 20
214.131689
 30
0.0
 11
245.191715
 21
224.631689
 31
0.0
  0
LINE
  8
0C
  5
6DA
 10
261.691715
 20
214.131689
 30
0.0
 11
261.691715
 21
224.631689
 31
0.0
  0
LINE
  8
0C
  5
6DB
 10
255.691715
 20
216.08026
 30
0.0
 11
251.191715
 21
216.08026
 31
0.0
  0
LINE
  8
0C
  5
6DC
 10
246.943143
 20
212.38026
 30
0.0
 11
259.943143
 21
212.38026
 31
0.0
  0
LINE
  8
0C
  5
6DD
 10
246.943143
 20
208.38026
 30
0.0
 11
246.943143
 21
212.38026
 31
0.0
  0
ARC
  8
0C
  5
6DE
 10
246.443143
 20
208.38026
 30
0.0
 40
0.5
 50
270.0
 51
0.0
  0
LINE
  8
0C
  5
6DF
 10
259.943143
 20
208.38026
 30
0.0
 11
259.943143
 21
212.38026
 31
0.0
  0
ARC
  8
0C
  5
6E0
 10
260.443143
 20
208.38026
 30
0.0
 40
0.5
 50
180.0
 51
270.0
  0
ARC
  8
0C
  5
6E1
 10
262.943143
 20
208.38026
 30
0.0
 40
0.5
 50
270.0
 51
0.0
  0
LINE
  8
0C
  5
6E2
 10
262.943143
 20
207.88026
 30
0.0
 11
260.443143
 21
207.88026
 31
0.0
  0
LINE
  8
0C
  5
6E3
 10
248.443143
 20
226.88026
 30
0.0
 11
258.443143
 21
226.88026
 31
0.0
  0
LINE
  8
0C
  5
6E4
 10
248.443143
 20
224.631689
 30
0.0
 11
248.443143
 21
230.38026
 31
0.0
  0
LINE
  8
0C
  5
6E5
 10
258.443143
 20
224.631689
 30
0.0
 11
258.443143
 21
230.38026
 31
0.0
  0
ARC
  8
0D
  5
6E6
 10
287.043143
 20
202.38026
 30
0.0
 40
0.5
 50
180.0
 51
270.0
  0
ARC
  8
0D
  5
6E7
 10
293.643143
 20
202.38026
 30
0.0
 40
0.5
 50
270.0
 51
0.0
  0
LINE
  8
0D
  5
6E8
 10
294.243143
 20
210.98026
 30
0.0
 11
294.243143
 21
190.288832
 31
0.0
  0
LINE
  8
0D
  6
PHANTOM
  5
6E9
 10
296.943143
 20
189.38026
 30
0.0
 11
309.443143
 21
189.38026
 31
0.0
  0
ARC
  8
0D
  5
6EA
 10
294.743143
 20
190.288832
 30
0.0
 40
0.5
 50
180.0
 51
225.0
  0
CIRCLE
  8
0D
  5
6EB
 10
290.343143
 20
197.58026
 30
0.0
 40
3.0
  0
LINE
  8
0D
  5
6EC
 10
294.143143
 20
200.88026
 30
0.0
 11
294.143143
 21
194.28026
 31
0.0
  0
LINE
  8
0D
  5
6ED
 10
286.543143
 20
200.88026
 30
0.0
 11
286.543143
 21
194.28026
 31
0.0
  0
LINE
  8
0D
  5
6EE
 10
293.643143
 20
193.78026
 30
0.0
 11
287.043143
 21
193.78026
 31
0.0
  0
ARC
  8
0C
  5
6EF
 10
285.443143
 20
190.48026
 30
0.0
 40
1.0
 50
270.0
 51
0.0
  0
ARC
  8
0D
  5
6F0
 10
287.043143
 20
194.28026
 30
0.0
 40
0.5
 50
180.0
 51
270.0
  0
LINE
  8
0D
  5
6F1
 10
287.943143
 20
193.78026
 30
0.0
 11
287.943143
 21
192.88026
 31
0.0
  0
LINE
  8
0D
  5
6F2
 10
287.943143
 20
192.88026
 30
0.0
 11
287.271715
 21
190.38026
 31
0.0
  0
LINE
  8
0D
  5
6F3
 10
287.271715
 20
190.38026
 30
0.0
 11
286.443143
 21
190.38026
 31
0.0
  0
ARC
  8
0D
  5
6F4
 10
293.643143
 20
194.28026
 30
0.0
 40
0.5
 50
270.0
 51
0.0
  0
LINE
  8
0D
  5
6F5
 10
292.743143
 20
193.78026
 30
0.0
 11
292.743143
 21
192.88026
 31
0.0
  0
LINE
  8
0D
  5
6F6
 10
292.743143
 20
192.88026
 30
0.0
 11
293.411715
 21
190.38026
 31
0.0
  0
LINE
  8
0D
  5
6F7
 10
293.411715
 20
190.38026
 30
0.0
 11
294.243143
 21
190.38026
 31
0.0
  0
LINE
  8
0D
  5
6F8
 10
293.643143
 20
201.88026
 30
0.0
 11
287.043143
 21
201.88026
 31
0.0
  0
LINE
  8
0D
  5
6F9
 10
292.463143
 20
199.703117
 30
0.0
 11
288.220286
 21
195.46026
 31
0.0
  0
LINE
  8
0D
  5
6FA
 10
291.603143
 20
196.32026
 30
0.0
 11
289.083143
 21
198.84026
 31
0.0
  0
LINE
  8
0D
  5
6FB
 10
293.643143
 20
201.38026
 30
0.0
 11
287.043143
 21
201.38026
 31
0.0
  0
ARC
  8
0D
  5
6FC
 10
287.043143
 20
200.88026
 30
0.0
 40
0.5
 50
90.0
 51
180.0
  0
ARC
  8
0D
  5
6FD
 10
293.643143
 20
200.88026
 30
0.0
 40
0.5
 50
0.0
 51
90.0
  0
ARC
  8
0D
  5
6FE
 10
296.443143
 20
189.88026
 30
0.0
 40
0.5
 50
270.0
 51
0.0
  0
ARC
  8
0D
  5
6FF
 10
295.148857
 20
189.88026
 30
0.0
 40
0.5
 50
225.0
 51
270.0
  0
LINE
  8
0D
  5
700
 10
296.443143
 20
189.38026
 30
0.0
 11
295.148857
 21
189.38026
 31
0.0
  0
LINE
  8
0D
  5
701
 10
294.797429
 20
189.528832
 30
0.0
 11
294.388857
 21
189.934546
 31
0.0
  0
ARC
  8
0D
  5
702
 10
293.643143
 20
208.98026
 30
0.0
 40
0.5
 50
0.0
 51
90.0
  0
ARC
  8
0D
  5
703
 10
287.043143
 20
208.98026
 30
0.0
 40
0.5
 50
90.0
 51
180.0
  0
CIRCLE
  8
0D
  5
704
 10
290.343143
 20
205.68026
 30
0.0
 40
3.0
  0
LINE
  8
0D
  5
705
 10
292.463143
 20
207.803117
 30
0.0
 11
288.220286
 21
203.56026
 31
0.0
  0
LINE
  8
0D
  5
706
 10
291.603143
 20
204.42026
 30
0.0
 11
289.083143
 21
206.94026
 31
0.0
  0
LINE
  8
0D
  5
707
 10
286.543143
 20
208.98026
 30
0.0
 11
286.543143
 21
202.38026
 31
0.0
  0
LINE
  8
0D
  5
708
 10
294.143143
 20
208.98026
 30
0.0
 11
294.143143
 21
202.38026
 31
0.0
  0
LINE
  8
0D
  5
709
 10
293.643143
 20
209.48026
 30
0.0
 11
287.043143
 21
209.48026
 31
0.0
  0
LINE
  8
0D
  5
70A
 10
294.243143
 20
210.98026
 30
0.0
 11
286.443143
 21
210.98026
 31
0.0
  0
LINE
  8
0D
  5
70B
 10
293.643143
 20
229.28026
 30
0.0
 11
287.043143
 21
229.28026
 31
0.0
  0
LINE
  8
0D
  5
70C
 10
294.243143
 20
227.78026
 30
0.0
 11
286.443143
 21
227.78026
 31
0.0
  0
ARC
  8
0D
  5
70D
 10
287.043143
 20
229.78026
 30
0.0
 40
0.5
 50
180.0
 51
270.0
  0
ARC
  8
0D
  5
70E
 10
293.643143
 20
229.78026
 30
0.0
 40
0.5
 50
270.0
 51
0.0
  0
LINE
  8
0B
  5
70F
 10
293.943143
 20
273.38026
 30
0.0
 11
273.783143
 21
273.38026
 31
0.0
  0
LINE
  8
0C
  5
710
 10
283.343143
 20
273.38026
 30
0.0
 11
284.743143
 21
273.38026
 31
0.0
  0
CIRCLE
  8
0D
  5
711
 10
273.943143
 20
258.38026
 30
0.0
 40
5.773514
  0
CIRCLE
  8
0D
  5
712
 10
253.443143
 20
258.38026
 30
0.0
 40
5.773514
  0
LINE
  8
0D
  5
713
 10
268.943143
 20
261.268832
 30
0.0
 11
268.943143
 21
255.494546
 31
0.0
  0
LINE
  8
0D
  5
714
 10
278.943143
 20
255.494546
 30
0.0
 11
278.943143
 21
261.268832
 31
0.0
  0
LINE
  8
0D
  5
715
 10
258.443143
 20
255.494546
 30
0.0
 11
258.443143
 21
261.268832
 31
0.0
  0
LINE
  8
0D
  5
716
 10
248.443143
 20
261.268832
 30
0.0
 11
248.443143
 21
255.494546
 31
0.0
  0
LINE
  8
0D
  5
717
 10
253.443143
 20
260.163117
 30
0.0
 11
253.443143
 21
256.60026
 31
0.0
  0
LINE
  8
0D
  5
718
 10
273.943143
 20
260.163117
 30
0.0
 11
273.943143
 21
256.60026
 31
0.0
  0
LINE
  8
0C
  5
719
 10
261.843143
 20
272.38026
 30
0.0
 11
261.843143
 21
249.28026
 31
0.0
  0
LINE
  8
0C
  5
71A
 10
265.543143
 20
249.28026
 30
0.0
 11
265.543143
 21
272.38026
 31
0.0
  0
LINE
  8
0C
  5
71B
 10
245.043143
 20
272.38026
 30
0.0
 11
245.043143
 21
249.28026
 31
0.0
  0
LINE
  8
0C
  5
71C
 10
282.343143
 20
272.38026
 30
0.0
 11
282.343143
 21
249.28026
 31
0.0
  0
ARC
  8
0C
  5
71D
 10
263.543143
 20
234.38026
 30
0.0
 40
1.0
 50
0.0
 51
90.0
  0
LINE
  8
0C
  5
71E
 10
251.943143
 20
234.38026
 30
0.0
 11
254.943143
 21
234.38026
 31
0.0
  0
LINE
  8
0C
  5
71F
 10
251.943143
 20
231.88026
 30
0.0
 11
254.943143
 21
231.88026
 31
0.0
  0
LINE
  8
0C
  5
720
 10
251.943143
 20
234.38026
 30
0.0
 11
251.943143
 21
231.88026
 31
0.0
  0
LINE
  8
0C
  5
721
 10
258.943143
 20
230.88026
 30
0.0
 11
262.943143
 21
230.88026
 31
0.0
  0
LINE
  8
0C
  5
722
 10
254.943143
 20
234.38026
 30
0.0
 11
254.943143
 21
231.88026
 31
0.0
  0
LINE
  8
0D
  5
723
 10
253.443143
 20
252.608832
 30
0.0
 11
258.443143
 21
255.494546
 31
0.0
  0
LINE
  8
0D
  5
724
 10
251.660286
 20
258.38026
 30
0.0
 11
255.226
 21
258.38026
 31
0.0
  0
LINE
  8
0D
  5
725
 10
248.443143
 20
255.494546
 30
0.0
 11
253.443143
 21
252.608832
 31
0.0
  0
LINE
  8
0D
  5
726
 10
273.943143
 20
252.608832
 30
0.0
 11
278.943143
 21
255.494546
 31
0.0
  0
LINE
  8
0D
  5
727
 10
275.726
 20
258.38026
 30
0.0
 11
272.160286
 21
258.38026
 31
0.0
  0
LINE
  8
0D
  5
728
 10
268.943143
 20
255.494546
 30
0.0
 11
273.943143
 21
252.608832
 31
0.0
  0
ARC
  8
0B
  5
729
 10
263.543143
 20
273.88026
 30
0.0
 40
1.0
 50
0.0
 51
90.0
  0
LINE
  8
0C
  5
72A
 10
262.843143
 20
273.38026
 30
0.0
 11
264.543143
 21
273.38026
 31
0.0
  0
LINE
  8
0D
  5
72B
 10
258.443143
 20
261.268832
 30
0.0
 11
253.443143
 21
264.154546
 31
0.0
  0
LINE
  8
0C
  5
72C
 10
245.043143
 20
266.38026
 30
0.0
 11
261.843143
 21
266.38026
 31
0.0
  0
LINE
  8
0D
  5
72D
 10
253.443143
 20
264.154546
 30
0.0
 11
248.443143
 21
261.268832
 31
0.0
  0
ARC
  8
0C
  5
72E
 10
262.843143
 20
272.38026
 30
0.0
 40
1.0
 50
90.0
 51
180.0
  0
LINE
  8
FF
  5
72F
 10
271.080286
 20
270.308832
 30
0.0
 11
278.981429
 21
273.911403
 31
0.0
  0
LINE
  8
FF
  5
730
 10
276.121429
 20
277.379403
 30
0.0
 11
271.080286
 21
270.308832
 31
0.0
  0
LINE
  8
0B
  6
CONTINUOUS
  5
731
 10
273.783143
 20
273.38026
 30
0.0
 11
273.704043
 21
273.949479
 31
0.0
  0
LINE
  8
0B
  6
CONTINUOUS
  5
732
 10
272.343143
 20
273.38026
 30
0.0
 11
272.343143
 21
273.88026
 31
0.0
  0
LINE
  8
0B
  5
733
 10
264.543143
 20
273.38026
 30
0.0
 11
264.543143
 21
273.88026
 31
0.0
  0
LINE
  8
0C
  5
734
 10
273.783143
 20
273.38026
 30
0.0
 11
274.760286
 21
266.38026
 31
0.0
  0
LINE
  8
0D
  5
735
 10
278.943143
 20
261.268832
 30
0.0
 11
273.943143
 21
264.154546
 31
0.0
  0
LINE
  8
0C
  5
736
 10
282.343143
 20
266.38026
 30
0.0
 11
265.543143
 21
266.38026
 31
0.0
  0
LINE
  8
0C
  5
737
 10
272.343143
 20
273.38026
 30
0.0
 11
272.343143
 21
266.38026
 31
0.0
  0
ARC
  8
0D
  5
738
 10
268.443143
 20
268.88026
 30
0.0
 40
3.0
 50
303.557
 51
165.164
  0
ARC
  8
0D
  5
739
 10
268.443143
 20
268.88026
 30
0.0
 40
3.0
 50
194.836
 51
236.443
  0
LINE
  8
0C
  5
73A
 10
272.243143
 20
272.18026
 30
0.0
 11
272.243143
 21
266.38026
 31
0.0
  0
LINE
  8
0D
  5
73B
 10
273.943143
 20
264.154546
 30
0.0
 11
268.943143
 21
261.268832
 31
0.0
  0
ARC
  8
0B
  5
73C
 10
270.943143
 20
270.38026
 30
0.0
 40
3.0
 50
90.0
 51
129.945
  0
LINE
  8
0D
  5
73D
 10
270.563143
 20
271.003117
 30
0.0
 11
266.343143
 21
266.78026
 31
0.0
  0
LINE
  8
0D
  5
73E
 10
269.703143
 20
267.62026
 30
0.0
 11
267.183143
 21
270.14026
 31
0.0
  0
LINE
  8
0C
  5
73F
 10
271.743143
 20
272.68026
 30
0.0
 11
269.016987
 21
272.680244
 31
0.0
  0
ARC
  8
0B
  5
740
 10
264.543143
 20
272.38026
 30
0.0
 40
1.0
 50
17.456604
 51
90.0
  0
LINE
  8
0B
  6
CONTINUOUS
  5
741
 10
269.016987
 20
272.680244
 30
0.0
 11
265.486308
 21
272.680244
 31
0.0
  0
ARC
  8
0C
  5
742
 10
264.543143
 20
272.38026
 30
0.0
 40
1.0
 50
0.0
 51
17.456604
  0
LINE
  8
0B
  5
743
 10
272.343143
 20
273.38026
 30
0.0
 11
270.943143
 21
273.38026
 31
0.0
  0
ARC
  8
0C
  5
744
 10
271.743143
 20
272.18026
 30
0.0
 40
0.5
 50
0.0
 51
90.0
  0
ARC
  8
0C
  5
745
 10
283.343143
 20
272.38026
 30
0.0
 40
1.0
 50
90.0
 51
180.0
  0
ARC
  8
0B
  5
746
 10
273.208857
 20
273.88026
 30
0.0
 40
0.5
 50
7.95748
 51
90.0
  0
ARC
  8
0B
  5
747
 10
272.843143
 20
273.88026
 30
0.0
 40
0.5
 50
90.0
 51
180.0
  0
LINE
  8
0B
  5
748
 10
272.843143
 20
274.38026
 30
0.0
 11
273.203143
 21
274.38026
 31
0.0
  0
LINE
  8
0C
  5
749
 10
285.743143
 20
249.234546
 30
0.0
 11
285.743143
 21
272.38026
 31
0.0
  0
LINE
  8
0D
  6
PHANTOM
  5
74A
 10
296.943143
 20
249.38026
 30
0.0
 11
309.443143
 21
249.38026
 31
0.0
  0
ARC
  8
0D
  5
74B
 10
293.643143
 20
244.48026
 30
0.0
 40
0.5
 50
0.0
 51
90.0
  0
ARC
  8
0D
  5
74C
 10
287.043143
 20
244.48026
 30
0.0
 40
0.5
 50
90.0
 51
180.0
  0
LINE
  8
0D
  5
74D
 10
292.743143
 20
244.98026
 30
0.0
 11
292.743143
 21
245.88026
 31
0.0
  0
LINE
  8
0D
  5
74E
 10
287.943143
 20
244.98026
 30
0.0
 11
287.943143
 21
245.88026
 31
0.0
  0
ARC
  8
0D
  5
74F
 10
287.043143
 20
237.88026
 30
0.0
 40
0.5
 50
180.0
 51
270.0
  0
ARC
  8
0D
  5
750
 10
293.643143
 20
237.88026
 30
0.0
 40
0.5
 50
270.0
 51
0.0
  0
LINE
  8
0D
  5
751
 10
293.643143
 20
237.38026
 30
0.0
 11
287.043143
 21
237.38026
 31
0.0
  0
LINE
  8
0D
  5
752
 10
292.463143
 20
235.203117
 30
0.0
 11
288.220286
 21
230.96026
 31
0.0
  0
LINE
  8
0D
  5
753
 10
291.603143
 20
231.82026
 30
0.0
 11
289.083143
 21
234.34026
 31
0.0
  0
LINE
  8
0D
  5
754
 10
293.643143
 20
236.88026
 30
0.0
 11
287.043143
 21
236.88026
 31
0.0
  0
ARC
  8
0D
  5
755
 10
287.043143
 20
236.38026
 30
0.0
 40
0.5
 50
90.0
 51
180.0
  0
ARC
  8
0D
  5
756
 10
293.643143
 20
236.38026
 30
0.0
 40
0.5
 50
0.0
 51
90.0
  0
CIRCLE
  8
0D
  5
757
 10
290.343143
 20
241.18026
 30
0.0
 40
3.0
  0
LINE
  8
0D
  5
758
 10
292.463143
 20
243.303117
 30
0.0
 11
288.220286
 21
239.06026
 31
0.0
  0
LINE
  8
0D
  5
759
 10
291.603143
 20
239.92026
 30
0.0
 11
289.083143
 21
242.44026
 31
0.0
  0
LINE
  8
0D
  5
75A
 10
293.643143
 20
244.98026
 30
0.0
 11
287.043143
 21
244.98026
 31
0.0
  0
LINE
  8
0D
  5
75B
 10
286.543143
 20
244.48026
 30
0.0
 11
286.543143
 21
237.88026
 31
0.0
  0
LINE
  8
0D
  5
75C
 10
294.143143
 20
244.48026
 30
0.0
 11
294.143143
 21
237.88026
 31
0.0
  0
ARC
  8
0D
  5
75D
 10
294.743143
 20
248.474546
 30
0.0
 40
0.5
 50
135.0
 51
180.0
  0
ARC
  8
0C
  5
75E
 10
285.443143
 20
248.28026
 30
0.0
 40
1.0
 50
0.0
 51
90.0
  0
LINE
  8
0D
  5
75F
 10
287.271715
 20
248.38026
 30
0.0
 11
286.443143
 21
248.38026
 31
0.0
  0
LINE
  8
0D
  5
760
 10
287.943143
 20
245.88026
 30
0.0
 11
287.271715
 21
248.38026
 31
0.0
  0
LINE
  8
0D
  5
761
 10
292.743143
 20
245.88026
 30
0.0
 11
293.411715
 21
248.38026
 31
0.0
  0
LINE
  8
0D
  5
762
 10
293.411715
 20
248.38026
 30
0.0
 11
294.243143
 21
248.38026
 31
0.0
  0
CIRCLE
  8
0D
  5
763
 10
288.443143
 20
256.88026
 30
0.0
 40
2.25
  0
ARC
  8
0D
  5
764
 10
295.148857
 20
248.88026
 30
0.0
 40
0.5
 50
90.0
 51
135.0
  0
ARC
  8
0D
  5
765
 10
296.443143
 20
248.88026
 30
0.0
 40
0.5
 50
0.0
 51
90.0
  0
LINE
  8
0D
  5
766
 10
296.443143
 20
249.38026
 30
0.0
 11
295.148857
 21
249.38026
 31
0.0
  0
LINE
  8
0D
  5
767
 10
294.797429
 20
249.234546
 30
0.0
 11
294.388857
 21
248.828832
 31
0.0
  0
ARC
  8
0B
  5
768
 10
293.943143
 20
270.38026
 30
0.0
 40
3.0
 50
0.0
 51
90.0
  0
ARC
  8
0C
  5
769
 10
284.743143
 20
272.38026
 30
0.0
 40
1.0
 50
0.0
 51
90.0
  0
LINE
  8
33
  5
76A
 10
386.746
 20
181.88026
 30
0.0
 11
383.571715
 21
181.88026
 31
0.0
  0
CIRCLE
  8
33
  5
76B
 10
385.160286
 20
181.88026
 30
0.0
 40
2.25
  0
LINE
  8
33
  5
76C
 10
381.983143
 20
181.88026
 30
0.0
 11
381.408857
 21
181.88026
 31
0.0
  0
LINE
  8
FF
  5
76D
 10
386.697429
 20
183.523117
 30
0.0
 11
389.523143
 21
187.725975
 31
0.0
  0
LINE
  8
FF
  5
76F
 10
393.991715
 20
176.471689
 30
0.0
 11
395.911715
 21
181.157403
 31
0.0
  0
LINE
  8
FF
  5
770
 10
393.991715
 20
176.471689
 30
0.0
 11
397.277429
 21
180.323117
 31
0.0
  0
LINE
  8
33
  5
771
 10
385.160286
 20
183.468832
 30
0.0
 11
385.160286
 21
180.294546
 31
0.0
  0
LINE
  8
33
  5
773
 10
394.088857
 20
176.631689
 30
0.0
 11
388.728857
 21
176.631689
 31
0.0
  0
LINE
  8
33
  6
CENTER
  5
774
 10
385.777429
 20
174.38026
 30
0.0
 11
396.354564
 21
174.38026
 31
0.0
  0
LINE
  8
33
  5
775
 10
385.160286
 20
178.705975
 30
0.0
 11
385.160286
 21
178.131689
 31
0.0
  0
LINE
  8
FF
  5
776
 10
386.697429
 20
183.523117
 30
0.0
 11
390.691715
 21
186.634546
 31
0.0
  0
LINE
  8
33
  5
777
 10
385.160286
 20
185.631689
 30
0.0
 11
385.160286
 21
185.057403
 31
0.0
  0
LINE
  8
33
  5
778
 10
388.908857
 20
181.88026
 30
0.0
 11
388.334572
 21
181.88026
 31
0.0
  0
TEXT
  8
FF
  5
779
 10
401.397095
 20
205.648832
 30
0.0
 40
5.0
  1
1
 41
1.538462
  0
LINE
  8
34
  6
PHANTOM
  5
77A
 10
379.660286
 20
273.38026
 30
0.0
 11
399.820286
 21
273.38026
 31
0.0
  0
ARC
  8
34
  6
PHANTOM
  5
77B
 10
379.660286
 20
270.38026
 30
0.0
 40
3.0
 50
90.0
 51
180.0
  0
LINE
  8
34
  6
PHANTOM
  5
77C
 10
400.028857
 20
274.88026
 30
0.0
 11
399.820286
 21
273.38026
 31
0.0
  0
LINE
  8
FF
  5
77D
 10
322.474572
 20
312.691689
 30
0.0
 11
350.363143
 21
312.691689
 31
0.0
  0
TEXT
  8
FF
  5
77E
 10
321.788857
 20
321.877403
 30
0.0
 40
7.0
  1
コイル端子
 41
0.833333
  0
TEXT
  8
FF
  5
77F
 10
267.088017
 20
340.434546
 30
0.0
 40
5.0
  1
※２
 41
0.833333
  0
TEXT
  8
FF
  5
780
 10
325.600286
 20
315.817403
 30
0.0
 40
5.0
  1
M3.5
 41
1.181776
  0
DIMENSION
  8
FF
  5
781
  2
*D8
 10
483.237429
 20
256.88026
 30
0.0
 11
479.070729
 21
265.88026
 31
0.0
  1
18
 13
442.288857
 23
274.88026
 33
0.0
 14
460.908857
 24
256.88026
 34
0.0
 50
270.0
  3
FSTD1
  0
CIRCLE
  8
FF
  5
782
 10
411.800286
 20
195.88026
 30
0.0
 40
3.454327
  0
TEXT
  8
FF
  5
783
 10
410.058043
 20
193.485975
 30
0.0
 40
5.0
  1
2
  0
LINE
  8
FF
  5
785
 10
446.326
 20
262.288832
 30
0.0
 11
444.406
 21
257.605975
 31
0.0
  0
LINE
  8
FF
  5
786
 10
446.326
 20
262.288832
 30
0.0
 11
443.040286
 21
258.437403
 31
0.0
  0
LINE
  8
34
  6
PHANTOM
  5
787
 10
460.660286
 20
273.38026
 30
0.0
 11
440.497429
 21
273.38026
 31
0.0
  0
LINE
  8
34
  6
PHANTOM
  5
788
 10
440.288857
 20
274.88026
 30
0.0
 11
440.497429
 21
273.38026
 31
0.0
  0
LINE
  8
33
  5
789
 10
456.746
 20
256.88026
 30
0.0
 11
453.571715
 21
256.88026
 31
0.0
  0
CIRCLE
  8
33
  5
78A
 10
455.160286
 20
256.88026
 30
0.0
 40
2.25
  0
LINE
  8
FF
  5
78B
 10
453.620286
 20
255.24026
 30
0.0
 11
450.794572
 21
251.037403
 31
0.0
  0
LINE
  8
FF
  5
78C
 10
453.620286
 20
255.24026
 30
0.0
 11
449.626
 21
252.128832
 31
0.0
  0
LINE
  8
33
  5
78D
 10
451.983143
 20
256.88026
 30
0.0
 11
451.408857
 21
256.88026
 31
0.0
  0
LINE
  8
33
  5
78E
 10
455.160286
 20
253.705975
 30
0.0
 11
455.160286
 21
253.131689
 31
0.0
  0
LINE
  8
33
  5
78F
 10
455.160286
 20
258.468832
 30
0.0
 11
455.160286
 21
255.294546
 31
0.0
  0
LINE
  8
33
  5
790
 10
458.908857
 20
256.88026
 30
0.0
 11
458.334572
 21
256.88026
 31
0.0
  0
ARC
  8
34
  6
PHANTOM
  5
791
 10
460.660286
 20
270.38026
 30
0.0
 40
3.0
 50
0.0
 51
90.0
  0
LINE
  8
33
  6
CENTER
  5
792
 10
450.160286
 20
260.551689
 30
0.0
 11
450.160286
 21
268.108832
 31
0.0
  0
LINE
  8
33
  6
CENTER
  5
793
 10
447.660286
 20
260.551689
 30
0.0
 11
447.660286
 21
268.108832
 31
0.0
  0
ARC
  8
33
  5
794
 10
448.908857
 20
264.38026
 30
0.0
 40
3.5
 50
319.995
 51
40.0052
  0
ARC
  8
33
  5
795
 10
448.908857
 20
264.38026
 30
0.0
 40
3.5
 50
139.995
 51
220.005
  0
LINE
  8
33
  5
797
 10
446.228857
 20
262.131689
 30
0.0
 11
451.588857
 21
262.131689
 31
0.0
  0
LINE
  8
33
  6
CENTER
  5
798
 10
444.019057
 20
264.38026
 30
0.0
 11
454.137429
 21
264.38026
 31
0.0
  0
LINE
  8
33
  5
799
 10
446.228857
 20
266.631689
 30
0.0
 11
451.588857
 21
266.631689
 31
0.0
  0
LINE
  8
33
  5
79A
 10
455.160286
 20
260.631689
 30
0.0
 11
455.160286
 21
260.057403
 31
0.0
  0
TEXT
  8
FF
  5
A65
 10
321.004378
 20
141.024799
 30
0.0
 40
7.0
  1
２－Ｍ４ 取付穴
 41
0.8333
  0
LINE
  8
FF
  5
AB3
 10
384.660178
 20
166.315224
 30
0.0
 11
388.727898
 21
172.13027
 31
0.0
  0
LINE
  8
FF
  5
AB4
 10
388.727898
 20
172.13027
 30
0.0
 11
386.766016
 21
165.31029
 31
0.0
  0
LINE
  8
FF
  5
AB5
 10
388.727898
 20
172.13027
 30
0.0
 11
385.713097
 21
165.812757
 31
0.0
  0
LINE
  8
FF
  5
AB6
 10
385.713097
 20
165.812757
 30
0.0
 11
373.314451
 21
139.831409
 31
0.0
  0
LINE
  8
FF
  5
AB7
 10
373.314451
 20
139.831409
 30
0.0
 11
319.931918
 21
139.831409
 31
0.0
  0
DIMENSION
  8
FF
  5
AD4
  2
*D14
 10
241.343143
 20
143.968832
 30
0.0
 11
232.943143
 21
148.135532
 31
0.0
  1
16.8
 13
224.543143
 23
166.38026
 33
0.0
 14
241.343143
 24
166.38026
 34
0.0
  3
FSTD2
  0
LINE
  8
14
  5
D92
 10
14.0
 20
221.262164
 30
0.0
 11
14.0
 21
217.600908
 31
0.0
  0
TEXT
  8
FF
  5
DDE
 10
15.572216
 20
-45.161687
 30
0.0
 40
8.0
  1
Type
  0
LINE
  8
FF
  5
DDF
 10
-13.417144
 20
-33.161687
 30
0.0
 11
-5.877784
 21
-33.161687
 31
0.0
  0
LINE
  8
FF
  5
DE0
 10
-13.079741
 20
-40.601687
 30
0.0
 11
-8.494994
 21
-40.601687
 31
0.0
  0
LINE
  8
FF
  5
DE1
 10
-12.472841
 20
-37.745687
 30
0.0
 11
-7.954115
 21
-37.745687
 31
0.0
  0
LINE
  8
FF
  5
DE2
 10
-11.665643
 20
-36.233687
 30
0.0
 11
-7.127814
 21
-36.233687
 31
0.0
  0
LINE
  8
FF
  5
DE3
 10
-17.667784
 20
-45.161687
 30
0.0
 11
-15.471277
 21
-34.825184
 31
0.0
  0
LINE
  8
FF
  5
DE4
 10
-14.048741
 20
-45.161687
 30
0.0
 11
-13.079741
 21
-40.601687
 31
0.0
  0
LINE
  8
FF
  5
DE5
 10
-17.667784
 20
-45.161687
 30
0.0
 11
-14.048741
 21
-45.161687
 31
0.0
  0
ARC
  8
FF
  5
DE6
 10
-11.665643
 20
-36.833687
 30
0.0
 40
0.6
 50
90.0
 51
168.003101
  0
LINE
  8
FF
  5
DE7
 10
-12.472841
 20
-37.745687
 30
0.0
 11
-12.252539
 21
-36.708972
 31
0.0
  0
ARC
  8
FF
  5
DE8
 10
-13.417144
 20
-35.261687
 30
0.0
 40
2.1
 50
90.0
 51
168.003101
  0
ARC
  8
FF
  5
DE9
 10
-3.74228
 20
-38.173188
 30
0.0
 40
7.244944
 50
279.159834
 51
342.417868
1001
ACAD
1000
ASC_BOUNDS
1002
{
1070
    19
1002
}
  0
ARC
  8
FF
  5
DEA
 10
-3.953507
 20
-37.984425
 30
0.0
 40
6.735659
 50
280.279158
 51
339.332945
1001
ACAD
1000
ASC_BOUNDS
1002
{
1070
    19
1002
}
  0
ARC
  8
FF
  5
DEB
 10
-3.254822
 20
-40.134038
 30
0.0
 40
4.506129
 50
186.002385
 51
276.412304
1001
ACAD
1000
ASC_BOUNDS
1002
{
1070
    19
1002
}
  0
ARC
  8
FF
  5
DEC
 10
-3.460711
 20
-40.361709
 30
0.0
 40
5.04
 50
182.729155
 51
279.960292
1001
ACAD
1000
ASC_BOUNDS
1002
{
1070
    19
1002
}
  0
ARC
  8
FF
  5
DED
 10
-1.420032
 20
-37.915663
 30
0.0
 40
4.993958
 50
1.499529
 51
100.57959
1001
ACAD
1000
ASC_BOUNDS
1002
{
1070
    19
1002
}
  0
ARC
  8
FF
  5
DEE
 10
-1.439428
 20
-37.96557
 30
0.0
 40
4.255409
 50
2.961866
 51
93.426847
  0
LINE
  8
FF
  5
DEF
 10
-5.880329
 20
-37.745687
 30
0.0
 11
2.810297
 21
-37.745687
 31
0.0
  0
LINE
  8
FF
  5
DF0
 10
-6.063581
 20
-38.609687
 30
0.0
 11
3.572216
 21
-38.609687
 31
0.0
  0
POLYLINE
  8
FF
  5
DF1
 66
     1
 10
0.0
 20
0.0
 30
0.0
 70
   128
  0
VERTEX
  8
FF
  5
E4F
 10
-1.693791
 20
-33.71777
 30
0.0
  0
VERTEX
  8
FF
  5
E50
 10
-2.726542
 20
-33.866507
 30
0.0
  0
VERTEX
  8
FF
  5
E51
 10
-3.740645
 20
-34.227018
 30
0.0
  0
VERTEX
  8
FF
  5
E52
 10
-4.70329
 20
-34.787641
 30
0.0
  0
VERTEX
  8
FF
  5
E53
 10
-5.583331
 20
-35.530235
 30
0.0
  0
VERTEX
  8
FF
  5
E54
 10
-6.352294
 20
-36.430774
 30
0.0
  0
VERTEX
  8
FF
  5
E55
 10
-6.9853
 20
-37.460123
 30
0.0
  0
VERTEX
  8
FF
  5
E56
 10
-7.461869
 20
-38.584977
 30
0.0
  0
SEQEND
  8
FF
  5
E57
  0
LINE
  8
FF
  5
DF2
 10
-5.880329
 20
-37.745687
 30
0.0
 11
-6.063581
 21
-38.609687
 31
0.0
  0
ARC
  8
FF
  5
DF3
 10
-1.21014
 20
-40.449455
 30
0.0
 40
7.26578
 50
144.533818
 51
158.153358
  0
POLYLINE
  8
FF
  5
DF4
 66
     1
 10
0.0
 20
0.0
 30
0.0
 70
   128
  0
VERTEX
  8
FF
  5
E58
 10
-7.461869
 20
-38.584977
 30
0.0
  0
VERTEX
  8
FF
  5
E59
 10
-7.687848
 20
-39.612973
 30
0.0
  0
VERTEX
  8
FF
  5
E5A
 10
-7.736246
 20
-40.616898
 30
0.0
  0
SEQEND
  8
FF
  5
E5B
  0
ARC
  8
FF
  5
DF5
 10
-1.353378
 20
-39.626013
 30
0.0
 40
6.691933
 50
98.442625
 51
137.3304
1001
ACAD
1000
ASC_BOUNDS
1002
{
1070
    19
1002
}
  0
LINE
  8
FF
  5
DF6
 10
-5.877784
 20
-33.161687
 30
0.0
 11
-6.273784
 21
-35.090424
 31
0.0
  0
LINE
  8
FF
  5
DF7
 10
3.572216
 20
-38.609687
 30
0.0
 11
3.572216
 21
-37.784977
 31
0.0
  0
LINE
  8
FF
  5
DF8
 10
3.164216
 20
-40.361687
 30
0.0
 11
2.348693
 21
-40.361687
 31
0.0
  0
TEXT
  8
FF
  5
DFA
 10
55.572216
 20
-59.561687
 30
0.0
 40
8.0
  1
SC-N3 , SC-N3(H2) , SC-N3/U , SC-N3H
  0
TEXT
  8
FF
  5
DFB
 10
55.572216
 20
-45.161687
 30
0.0
 40
8.0
  1
SC-N2S , SC-N2S(H2) , SC-N2S/U , SC-N2SH
  0
TEXT
  8
FF
  6
CONTINUOUS
  5
DFC
 10
402.888386
 20
-59.269755
 30
0.0
 40
4.0
  1
SC-N2S
  0
LINE
  8
FF
  5
DFD
 10
352.159198
 20
-69.161687
 30
0.0
 11
504.159198
 21
-69.161687
 31
0.0
  0
LINE
  8
FF
  5
DFE
 10
352.159198
 20
-61.161687
 30
0.0
 11
504.159198
 21
-61.161687
 31
0.0
  0
LINE
  8
FF
  5
DFF
 10
352.159198
 20
-53.161687
 30
0.0
 11
504.159198
 21
-53.161687
 31
0.0
  0
LINE
  8
FF
  5
E00
 10
352.159198
 20
-45.161687
 30
0.0
 11
504.159198
 21
-45.161687
 31
0.0
  0
TEXT
  8
FF
  6
CONTINUOUS
  5
E01
 10
413.937641
 20
-43.272201
 30
0.0
 40
4.0
  1
ﾌｧｲﾙ名
  0
LINE
  8
FF
  5
E02
 10
352.159198
 20
-37.161687
 30
0.0
 11
504.159198
 21
-37.161687
 31
0.0
  0
TEXT
  8
FF
  6
CONTINUOUS
  5
E04
 10
373.003239
 20
-59.269755
 30
0.0
 40
4.0
  1
2005-12
  0
LINE
  8
FF
  5
E06
 10
368.159198
 20
-37.161687
 30
0.0
 11
368.159198
 21
-69.161687
 31
0.0
  0
LINE
  8
FF
  5
E07
 10
352.159198
 20
-37.161687
 30
0.0
 11
352.159198
 21
-69.161687
 31
0.0
  0
TEXT
  8
FF
  6
CONTINUOUS
  5
E08
 10
356.05422
 20
-58.950594
 30
0.0
 40
4.0
  1
変更
  0
TEXT
  8
FF
  6
CONTINUOUS
  5
E09
 10
356.05422
 20
-51.393595
 30
0.0
 40
4.0
  1
作成
  0
LINE
  8
FF
  5
E0A
 10
400.159198
 20
-37.161687
 30
0.0
 11
400.159198
 21
-69.161687
 31
0.0
  0
TEXT
  8
FF
  6
CONTINUOUS
  5
E0B
 10
379.303199
 20
-43.272201
 30
0.0
 40
4.0
  1
日付
  0
TEXT
  8
FF
  6
CONTINUOUS
  5
E0E
 10
454.033932
 20
-43.272201
 30
0.0
 40
4.0
  1
図面番号
  0
LINE
  8
FF
  5
E0F
 10
440.159198
 20
-37.161687
 30
0.0
 11
440.159198
 21
-69.161687
 31
0.0
  0
LINE
  8
FF
  5
E11
 10
504.159198
 20
-37.161687
 30
0.0
 11
504.159198
 21
-69.161687
 31
0.0
  0
LINE
  8
FF
  5
E12
 10
488.159198
 20
-37.161687
 30
0.0
 11
488.159198
 21
-69.161687
 31
0.0
  0
TEXT
  8
FF
  6
CONTINUOUS
  5
E14
 10
492.333562
 20
-43.272201
 30
0.0
 40
4.0
  1
変更
  0
ENDSEC
  0
EOF
