  0
SECTION
  2
HEADER
  9
$ACADVER
  1
AC1009
  9
$INSBASE
 10
0.0
 20
0.0
 30
0.0
  9
$EXTMIN
 10
-16.824826
 20
-76.304685
 30
0.0
  9
$EXTMAX
 10
579.60299
 20
348.841394
 30
0.0
  9
$LIMMIN
 10
-42.121809
 20
-89.291524
  9
$LIMMAX
 10
597.105101
 20
374.685332
  9
$ORTHOMODE
 70
     1
  9
$REGENMODE
 70
     1
  9
$FILLMODE
 70
     1
  9
$QTEXTMODE
 70
     0
  9
$MIRRTEXT
 70
     1
  9
$DRAGMODE
 70
     2
  9
$LTSCALE
 40
6.0
  9
$OSMODE
 70
   673
  9
$ATTMODE
 70
     1
  9
$TEXTSIZE
 40
8.0
  9
$TRACEWID
 40
1.0
  9
$TEXTSTYLE
  7
STANDARD
  9
$CLAYER
  8
FF
  9
$CELTYPE
  6
BYLAYER
  9
$CECOLOR
 62
   256
  9
$DIMSCALE
 40
1.0
  9
$DIMASZ
 40
8.0
  9
$DIMEXO
 40
2.6667
  9
$DIMDLI
 40
0.38
  9
$DIMRND
 40
0.0
  9
$DIMDLE
 40
0.0
  9
$DIMEXE
 40
2.6667
  9
$DIMTP
 40
0.0
  9
$DIMTM
 40
0.0
  9
$DIMTXT
 40
8.0
  9
$DIMCEN
 40
0.09
  9
$DIMTSZ
 40
0.0
  9
$DIMTOL
 70
     0
  9
$DIMLIM
 70
     0
  9
$DIMTIH
 70
     0
  9
$DIMTOH
 70
     0
  9
$DIMSE1
 70
     0
  9
$DIMSE2
 70
     0
  9
$DIMTAD
 70
     1
  9
$DIMZIN
 70
     0
  9
$DIMBLK
  1

  9
$DIMASO
 70
     1
  9
$DIMSHO
 70
     1
  9
$DIMPOST
  1

  9
$DIMAPOST
  1

  9
$DIMALT
 70
     0
  9
$DIMALTD
 70
     2
  9
$DIMALTF
 40
25.4
  9
$DIMLFAC
 40
1.0
  9
$DIMTOFL
 70
     1
  9
$DIMTVP
 40
0.0
  9
$DIMTIX
 70
     0
  9
$DIMSOXD
 70
     0
  9
$DIMSAH
 70
     1
  9
$DIMBLK1
  1
_OPEN
  9
$DIMBLK2
  1
_OPEN
  9
$DIMSTYLE
  2
FSTD2
  9
$DIMCLRD
 70
     0
  9
$DIMCLRE
 70
     0
  9
$DIMCLRT
 70
     0
  9
$DIMTFAC
 40
1.0
  9
$DIMGAP
 40
2.6667
  9
$LUNITS
 70
     2
  9
$LUPREC
 70
     4
  9
$SKETCHINC
 40
1.0
  9
$FILLETRAD
 40
10.0
  9
$AUNITS
 70
     0
  9
$AUPREC
 70
     0
  9
$MENU
  1
acad
  9
$ELEVATION
 40
0.0
  9
$PELEVATION
 40
0.0
  9
$THICKNESS
 40
0.0
  9
$LIMCHECK
 70
     0
  9
$BLIPMODE
 70
     0
  9
$CHAMFERA
 40
10.0
  9
$CHAMFERB
 40
10.0
  9
$SKPOLY
 70
     0
  9
$TDCREATE
 40
2452132.384675462
  9
$TDUPDATE
 40
2453726.721331712
  9
$TDINDWG
 40
0.0168603356
  9
$TDUSRTIMER
 40
0.0168603356
  9
$USRTIMER
 70
     1
  9
$ANGBASE
 50
0.0
  9
$ANGDIR
 70
     0
  9
$PDMODE
 70
     0
  9
$PDSIZE
 40
0.0
  9
$PLINEWID
 40
0.0
  9
$COORDS
 70
     1
  9
$SPLFRAME
 70
     0
  9
$SPLINETYPE
 70
     6
  9
$SPLINESEGS
 70
     8
  9
$ATTDIA
 70
     0
  9
$ATTREQ
 70
     1
  9
$HANDLING
 70
     1
  9
$HANDSEED
  5
12B6
  9
$SURFTAB1
 70
     6
  9
$SURFTAB2
 70
     6
  9
$SURFTYPE
 70
     6
  9
$SURFU
 70
     6
  9
$SURFV
 70
     6
  9
$UCSNAME
  2

  9
$UCSORG
 10
0.0
 20
0.0
 30
0.0
  9
$UCSXDIR
 10
1.0
 20
0.0
 30
0.0
  9
$UCSYDIR
 10
0.0
 20
1.0
 30
0.0
  9
$PUCSNAME
  2

  9
$PUCSORG
 10
0.0
 20
0.0
 30
0.0
  9
$PUCSXDIR
 10
1.0
 20
0.0
 30
0.0
  9
$PUCSYDIR
 10
0.0
 20
1.0
 30
0.0
  9
$USERI1
 70
     0
  9
$USERI2
 70
     0
  9
$USERI3
 70
     0
  9
$USERI4
 70
     0
  9
$USERI5
 70
     0
  9
$USERR1
 40
0.0
  9
$USERR2
 40
0.0
  9
$USERR3
 40
0.0
  9
$USERR4
 40
0.0
  9
$USERR5
 40
0.0
  9
$WORLDVIEW
 70
     1
  9
$SHADEDGE
 70
     3
  9
$SHADEDIF
 70
    70
  9
$TILEMODE
 70
     1
  9
$MAXACTVP
 70
    16
  9
$PINSBASE
 10
0.0
 20
0.0
 30
0.0
  9
$PLIMCHECK
 70
     0
  9
$PEXTMIN
 10
1.000000E+20
 20
1.000000E+20
 30
1.000000E+20
  9
$PEXTMAX
 10
-1.000000E+20
 20
-1.000000E+20
 30
-1.000000E+20
  9
$PLIMMIN
 10
0.0
 20
0.0
  9
$PLIMMAX
 10
420.0
 20
297.0
  9
$UNITMODE
 70
     0
  9
$VISRETAIN
 70
     1
  9
$PLINEGEN
 70
     0
  9
$PSLTSCALE
 70
     1
  9
$TREEDEPTH
 70
  3020
  9
$DWGCODEPAGE
  3
dos932
  0
ENDSEC
  0
SECTION
  2
TABLES
  0
TABLE
  2
VPORT
 70
     2
  0
VPORT
  2
*ACTIVE
 70
     0
 10
0.0
 20
0.0
 11
1.0
 21
1.0
 12
357.068434
 22
181.308899
 13
0.0
 23
0.0
 14
10.0
 24
10.0
 15
10.0
 25
10.0
 16
0.0
 26
0.0
 36
1.0
 17
0.0
 27
0.0
 37
0.0
 40
541.200845
 41
1.475202
 42
50.0
 43
0.0
 44
0.0
 50
0.0
 51
0.0
 71
     0
 72
   100
 73
     1
 74
     1
 75
     0
 76
     0
 77
     0
 78
     0
  0
ENDTAB
  0
TABLE
  2
LTYPE
 70
     3
  0
LTYPE
  2
CONTINUOUS
 70
    64
  3
Solid line
 72
    65
 73
     0
 40
0.0
  0
LTYPE
  2
CENTER
 70
    64
  3
CENTER
 72
    65
 73
     4
 40
2.0
 49
1.25
 49
-0.25
 49
0.25
 49
-0.25
  0
LTYPE
  2
PHANTOM
 70
    64
  3
PHANTOM
 72
    65
 73
     6
 40
2.5
 49
1.25
 49
-0.25
 49
0.25
 49
-0.25
 49
0.25
 49
-0.25
  0
ENDTAB
  0
TABLE
  2
LAYER
 70
    14
  0
LAYER
  2
0
 70
    64
 62
     7
  6
CONTINUOUS
  0
LAYER
  2
0D
 70
    64
 62
     2
  6
CONTINUOUS
  0
LAYER
  2
FF
 70
    64
 62
     4
  6
CONTINUOUS
  0
LAYER
  2
DEFPOINTS
 70
    64
 62
     7
  6
CONTINUOUS
  0
LAYER
  2
0B
 70
    64
 62
     6
  6
CONTINUOUS
  0
LAYER
  2
0C
 70
    64
 62
     3
  6
CONTINUOUS
  0
LAYER
  2
10
 70
    64
 62
     6
  6
CENTER
  0
LAYER
  2
15
 70
    64
 62
     6
  6
CONTINUOUS
  0
LAYER
  2
16
 70
    64
 62
     3
  6
CONTINUOUS
  0
LAYER
  2
17
 70
    64
 62
     2
  6
CONTINUOUS
  0
LAYER
  2
1A
 70
    64
 62
     6
  6
CENTER
  0
LAYER
  2
33
 70
    64
 62
     6
  6
CONTINUOUS
  0
LAYER
  2
34
 70
    64
 62
     3
  6
CONTINUOUS
  0
LAYER
  2
38
 70
    64
 62
     6
  6
CENTER
  0
ENDTAB
  0
TABLE
  2
STYLE
 70
     1
  0
STYLE
  2
STANDARD
 70
    64
 40
0.0
 41
1.0
 50
0.0
 71
     0
 42
8.0
  3
txt.shx
  4
bigfont.shx
  0
ENDTAB
  0
TABLE
  2
VIEW
 70
     0
  0
ENDTAB
  0
TABLE
  2
UCS
 70
     0
  0
ENDTAB
  0
TABLE
  2
APPID
 70
     1
  0
APPID
  2
ACAD
 70
    64
  0
ENDTAB
  0
TABLE
  2
DIMSTYLE
 70
     4
  0
DIMSTYLE
  2
STANDARD
 70
     0
  3

  4

  5

  6

  7

 40
1.0
 41
2.5
 42
0.625
 43
3.75
 44
1.25
 45
0.0
 46
0.0
 47
0.0
 48
0.0
140
2.5
141
2.5
142
0.0
143
0.0394
144
1.0
145
0.0
146
1.0
147
0.625
 71
     0
 72
     0
 73
     0
 74
     0
 75
     0
 76
     0
 77
     1
 78
     8
170
     0
171
     4
172
     1
173
     0
174
     0
175
     0
176
     0
177
     0
178
     0
  0
DIMSTYLE
  2
FSTD1
 70
    64
  3

  4

  5

  6
_OPEN
  7
_OPEN
 40
1.0
 41
8.0
 42
2.6667
 43
0.38
 44
2.6667
 45
0.0
 46
0.0
 47
0.0
 48
0.0
140
8.0
141
0.09
142
0.0
143
25.4
144
1.0
145
0.0
146
1.0
147
2.6667
 71
     0
 72
     0
 73
     0
 74
     0
 75
     0
 76
     0
 77
     1
 78
     0
170
     0
171
     2
172
     1
173
     1
174
     0
175
     0
176
     0
177
     0
178
     0
  0
DIMSTYLE
  2
FSTD2
 70
    64
  3

  4

  5

  6
_OPEN
  7
_OPEN
 40
1.0
 41
8.0
 42
2.6667
 43
0.38
 44
2.6667
 45
0.0
 46
0.0
 47
0.0
 48
0.0
140
8.0
141
0.09
142
0.0
143
25.4
144
1.0
145
0.0
146
1.0
147
2.6667
 71
     0
 72
     0
 73
     0
 74
     0
 75
     0
 76
     0
 77
     1
 78
     0
170
     0
171
     2
172
     1
173
     1
174
     0
175
     0
176
     0
177
     0
178
     0
  0
DIMSTYLE
  2
FSTD3
 70
    64
  3

  4

  5

  6
_OPEN
  7
_OPEN
 40
1.0
 41
8.0
 42
2.6667
 43
0.38
 44
2.6667
 45
0.0
 46
0.0
 47
0.0
 48
0.0
140
8.0
141
0.09
142
0.0
143
25.4
144
1.0
145
0.0
146
1.0
147
-2.6667
 71
     0
 72
     0
 73
     0
 74
     0
 75
     0
 76
     0
 77
     1
 78
     0
170
     0
171
     2
172
     1
173
     1
174
     0
175
     0
176
     0
177
     0
178
     0
  0
ENDTAB
  0
ENDSEC
  0
SECTION
  2
BLOCKS
  0
BLOCK
  8
0
  5
CF
  2
_OPEN
 70
    64
 10
0.0
 20
0.0
 30
0.0
  3
_OPEN
  0
LINE
  8
0
  6
BYBLOCK
 62
     0
  5
CC
 10
-1.0
 20
0.166667
 30
0.0
 11
0.0
 21
0.0
 31
0.0
  0
LINE
  8
0
  6
BYBLOCK
 62
     0
  5
CD
 10
0.0
 20
0.0
 30
0.0
 11
-1.0
 21
-0.166667
 31
0.0
  0
LINE
  8
0
  6
BYBLOCK
 62
     0
  5
CE
 10
0.0
 20
0.0
 30
0.0
 11
-1.0
 21
0.0
 31
0.0
  0
ENDBLK
  8
0
  5
D0
  0
BLOCK
  8
0
  5
A22
  2
*D1
 70
    65
 10
0.0
 20
0.0
 30
0.0
  3
*D1
  0
LINE
  8
0
  6
BYBLOCK
 62
     0
  5
A23
 10
305.4708
 20
256.572094
 30
0.0
 11
305.4708
 21
274.980094
 31
0.0
  0
LINE
  8
0
  6
BYBLOCK
 62
     0
  5
A24
 10
273.4708
 20
256.572094
 30
0.0
 11
273.4708
 21
274.980094
 31
0.0
  0
LINE
  8
0
  6
BYBLOCK
 62
     0
  5
A25
 10
297.4708
 20
272.313394
 30
0.0
 11
281.4708
 21
272.313394
 31
0.0
  0
INSERT
  8
0
  6
BYBLOCK
 62
     0
  5
A26
  2
_OPEN
 10
305.4708
 20
272.313394
 30
0.0
 41
8.0
 42
8.0
 43
8.0
  0
INSERT
  8
0
  6
BYBLOCK
 62
     0
  5
A27
  2
_OPEN
 10
273.4708
 20
272.313394
 30
0.0
 41
8.0
 42
8.0
 50
180.0
 43
8.0
  0
TEXT
  8
0
  6
BYBLOCK
 62
     0
  5
A28
 10
282.804133
 20
274.980094
 30
0.0
 40
8.0
  1
32
  0
POINT
  8
DEFPOINTS
  6
BYBLOCK
 62
     0
  5
A29
 10
305.4708
 20
253.905394
 30
0.0
  0
POINT
  8
DEFPOINTS
  6
BYBLOCK
 62
     0
  5
A2A
 10
273.4708
 20
253.905394
 30
0.0
  0
POINT
  8
DEFPOINTS
  6
BYBLOCK
 62
     0
  5
A2B
 10
273.4708
 20
272.313394
 30
0.0
  0
ENDBLK
  8
0
  5
A2C
  0
BLOCK
  8
0
  5
FDB
  2
*D2
 70
    65
 10
0.0
 20
0.0
 30
0.0
  3
*D2
  0
LINE
  8
0
  6
BYBLOCK
 62
     0
  5
FDC
 10
329.4708
 20
233.272094
 30
0.0
 11
329.4708
 21
306.588094
 31
0.0
  0
LINE
  8
0
  6
BYBLOCK
 62
     0
  5
FDD
 10
217.4724
 20
233.272094
 30
0.0
 11
217.4724
 21
306.588094
 31
0.0
  0
LINE
  8
0
  6
BYBLOCK
 62
     0
  5
FDE
 10
321.4708
 20
303.921394
 30
0.0
 11
225.4724
 21
303.921394
 31
0.0
  0
INSERT
  8
0
  6
BYBLOCK
 62
     0
  5
FDF
  2
_OPEN
 10
329.4708
 20
303.921394
 30
0.0
 41
8.0
 42
8.0
 43
8.0
  0
INSERT
  8
0
  6
BYBLOCK
 62
     0
  5
FE0
  2
_OPEN
 10
217.4724
 20
303.921394
 30
0.0
 41
8.0
 42
8.0
 50
180.0
 43
8.0
  0
TEXT
  8
0
  6
BYBLOCK
 62
     0
  5
FE1
 10
260.138267
 20
306.588094
 30
0.0
 40
8.0
  1
(113)
  0
POINT
  8
DEFPOINTS
  6
BYBLOCK
 62
     0
  5
FE2
 10
329.4708
 20
230.605394
 30
0.0
  0
POINT
  8
DEFPOINTS
  6
BYBLOCK
 62
     0
  5
FE3
 10
217.4724
 20
230.605394
 30
0.0
  0
POINT
  8
DEFPOINTS
  6
BYBLOCK
 62
     0
  5
FE4
 10
217.4724
 20
303.921394
 30
0.0
  0
ENDBLK
  8
0
  5
FE5
  0
BLOCK
  8
0
  5
A17
  2
*D3
 70
    65
 10
0.0
 20
0.0
 30
0.0
  3
*D3
  0
LINE
  8
0
  6
BYBLOCK
 62
     0
  5
A18
 10
317.4708
 20
261.572094
 30
0.0
 11
317.4708
 21
291.056094
 31
0.0
  0
LINE
  8
0
  6
BYBLOCK
 62
     0
  5
A19
 10
229.4708
 20
261.572094
 30
0.0
 11
229.4708
 21
291.056094
 31
0.0
  0
LINE
  8
0
  6
BYBLOCK
 62
     0
  5
A1A
 10
309.4708
 20
288.389394
 30
0.0
 11
237.4708
 21
288.389394
 31
0.0
  0
INSERT
  8
0
  6
BYBLOCK
 62
     0
  5
A1B
  2
_OPEN
 10
317.4708
 20
288.389394
 30
0.0
 41
8.0
 42
8.0
 43
8.0
  0
INSERT
  8
0
  6
BYBLOCK
 62
     0
  5
A1C
  2
_OPEN
 10
229.4708
 20
288.389394
 30
0.0
 41
8.0
 42
8.0
 50
180.0
 43
8.0
  0
TEXT
  8
0
  6
BYBLOCK
 62
     0
  5
A1D
 10
266.804133
 20
291.056094
 30
0.0
 40
8.0
  1
88
  0
POINT
  8
DEFPOINTS
  6
BYBLOCK
 62
     0
  5
A1E
 10
317.4708
 20
258.905394
 30
0.0
  0
POINT
  8
DEFPOINTS
  6
BYBLOCK
 62
     0
  5
A1F
 10
229.4708
 20
258.905394
 30
0.0
  0
POINT
  8
DEFPOINTS
  6
BYBLOCK
 62
     0
  5
A20
 10
229.4708
 20
288.389394
 30
0.0
  0
ENDBLK
  8
0
  5
A21
  0
BLOCK
  8
0
  5
A50
  2
*D4
 70
    65
 10
0.0
 20
0.0
 30
0.0
  3
*D4
  0
LINE
  8
0
  6
BYBLOCK
 62
     0
  5
A51
 10
265.4708
 20
129.238694
 30
0.0
 11
265.4708
 21
99.934694
 31
0.0
  0
LINE
  8
0
  6
BYBLOCK
 62
     0
  5
A52
 10
281.4708
 20
129.238694
 30
0.0
 11
281.4708
 21
99.934694
 31
0.0
  0
LINE
  8
0
  6
BYBLOCK
 62
     0
  5
A53
 10
257.4708
 20
102.601394
 30
0.0
 11
249.4708
 21
102.601394
 31
0.0
  0
LINE
  8
0
  6
BYBLOCK
 62
     0
  5
A54
 10
289.4708
 20
102.601394
 30
0.0
 11
313.470867
 21
102.601394
 31
0.0
  0
LINE
  8
0
  6
BYBLOCK
 62
     0
  5
A55
 10
265.4708
 20
102.601394
 30
0.0
 11
281.4708
 21
102.601394
 31
0.0
  0
INSERT
  8
0
  6
BYBLOCK
 62
     0
  5
A56
  2
_OPEN
 10
265.4708
 20
102.601394
 30
0.0
 41
8.0
 42
8.0
 43
8.0
  0
INSERT
  8
0
  6
BYBLOCK
 62
     0
  5
A57
  2
_OPEN
 10
281.4708
 20
102.601394
 30
0.0
 41
8.0
 42
8.0
 50
180.0
 43
8.0
  0
TEXT
  8
0
  6
BYBLOCK
 62
     0
  5
A58
 10
300.1375
 20
105.268094
 30
0.0
 40
8.0
  1
16
  0
POINT
  8
DEFPOINTS
  6
BYBLOCK
 62
     0
  5
A59
 10
265.4708
 20
131.905394
 30
0.0
  0
POINT
  8
DEFPOINTS
  6
BYBLOCK
 62
     0
  5
A5A
 10
281.4708
 20
131.905394
 30
0.0
  0
POINT
  8
DEFPOINTS
  6
BYBLOCK
 62
     0
  5
A5B
 10
281.4708
 20
102.601394
 30
0.0
  0
ENDBLK
  8
0
  5
A5C
  0
BLOCK
  8
0
  5
9EB
  2
*D5
 70
    65
 10
0.0
 20
0.0
 30
0.0
  3
*D5
  0
LINE
  8
0
  6
BYBLOCK
 62
     0
  5
9EC
 10
136.3576
 20
238.072094
 30
0.0
 11
136.3576
 21
306.588094
 31
0.0
  0
LINE
  8
0
  6
BYBLOCK
 62
     0
  5
9ED
 10
4.6576
 20
263.372094
 30
0.0
 11
4.6576
 21
306.588094
 31
0.0
  0
LINE
  8
0
  6
BYBLOCK
 62
     0
  5
9EE
 10
128.3576
 20
303.921394
 30
0.0
 11
12.6576
 21
303.921394
 31
0.0
  0
INSERT
  8
0
  6
BYBLOCK
 62
     0
  5
9EF
  2
_OPEN
 10
136.3576
 20
303.921394
 30
0.0
 41
8.0
 42
8.0
 43
8.0
  0
INSERT
  8
0
  6
BYBLOCK
 62
     0
  5
9F0
  2
_OPEN
 10
4.6576
 20
303.921394
 30
0.0
 41
8.0
 42
8.0
 50
180.0
 43
8.0
  0
TEXT
  8
0
  6
BYBLOCK
 62
     0
  5
9F1
 10
61.174267
 20
306.588094
 30
0.0
 40
8.0
  1
132
  0
POINT
  8
DEFPOINTS
  6
BYBLOCK
 62
     0
  5
9F2
 10
136.3576
 20
235.405394
 30
0.0
  0
POINT
  8
DEFPOINTS
  6
BYBLOCK
 62
     0
  5
9F3
 10
4.6576
 20
260.705394
 30
0.0
  0
POINT
  8
DEFPOINTS
  6
BYBLOCK
 62
     0
  5
9F4
 10
4.6576
 20
303.921394
 30
0.0
  0
ENDBLK
  8
0
  5
9F5
  0
BLOCK
  8
0
  5
9F6
  2
*D6
 70
    65
 10
0.0
 20
0.0
 30
0.0
  3
*D6
  0
LINE
  8
0
  6
BYBLOCK
 62
     0
  5
9F7
 10
93.7576
 20
264.572094
 30
0.0
 11
93.7576
 21
291.056094
 31
0.0
  0
LINE
  8
0
  6
BYBLOCK
 62
     0
  5
9F8
 10
4.6576
 20
263.372094
 30
0.0
 11
4.6576
 21
291.056094
 31
0.0
  0
LINE
  8
0
  6
BYBLOCK
 62
     0
  5
9F9
 10
85.7576
 20
288.389394
 30
0.0
 11
12.6576
 21
288.389394
 31
0.0
  0
INSERT
  8
0
  6
BYBLOCK
 62
     0
  5
9FA
  2
_OPEN
 10
93.7576
 20
288.389394
 30
0.0
 41
8.0
 42
8.0
 43
8.0
  0
INSERT
  8
0
  6
BYBLOCK
 62
     0
  5
9FB
  2
_OPEN
 10
4.6576
 20
288.389394
 30
0.0
 41
8.0
 42
8.0
 50
180.0
 43
8.0
  0
TEXT
  8
0
  6
BYBLOCK
 62
     0
  5
9FC
 10
42.540933
 20
291.056094
 30
0.0
 40
8.0
  1
89
  0
POINT
  8
DEFPOINTS
  6
BYBLOCK
 62
     0
  5
9FD
 10
93.7576
 20
261.905394
 30
0.0
  0
POINT
  8
DEFPOINTS
  6
BYBLOCK
 62
     0
  5
9FE
 10
4.6576
 20
260.705394
 30
0.0
  0
POINT
  8
DEFPOINTS
  6
BYBLOCK
 62
     0
  5
9FF
 10
4.6576
 20
288.389394
 30
0.0
  0
ENDBLK
  8
0
  5
A00
  0
BLOCK
  8
0
  5
A3A
  2
*D7
 70
    65
 10
0.0
 20
0.0
 30
0.0
  3
*D7
  0
LINE
  8
0
  6
BYBLOCK
 62
     0
  5
A3B
 10
310.1375
 20
251.905394
 30
0.0
 11
353.6815
 21
251.905394
 31
0.0
  0
LINE
  8
0
  6
BYBLOCK
 62
     0
  5
A3C
 10
310.1375
 20
140.905394
 30
0.0
 11
353.6815
 21
140.905394
 31
0.0
  0
LINE
  8
0
  6
BYBLOCK
 62
     0
  5
A3D
 10
351.0148
 20
243.905394
 30
0.0
 11
351.0148
 21
148.905394
 31
0.0
  0
INSERT
  8
0
  6
BYBLOCK
 62
     0
  5
A3E
  2
_OPEN
 10
351.0148
 20
251.905394
 30
0.0
 41
8.0
 42
8.0
 50
90.0
 43
8.0
  0
INSERT
  8
0
  6
BYBLOCK
 62
     0
  5
A3F
  2
_OPEN
 10
351.0148
 20
140.905394
 30
0.0
 41
8.0
 42
8.0
 50
270.0
 43
8.0
  0
TEXT
  8
0
  6
BYBLOCK
 62
     0
  5
A40
 10
348.3481
 20
189.738728
 30
0.0
 40
8.0
  1
111
 50
90.0
  0
POINT
  8
DEFPOINTS
  6
BYBLOCK
 62
     0
  5
A41
 10
307.4708
 20
251.905394
 30
0.0
  0
POINT
  8
DEFPOINTS
  6
BYBLOCK
 62
     0
  5
A42
 10
307.4708
 20
140.905394
 30
0.0
  0
POINT
  8
DEFPOINTS
  6
BYBLOCK
 62
     0
  5
A43
 10
351.0148
 20
140.905394
 30
0.0
  0
ENDBLK
  8
0
  5
A44
  0
BLOCK
  8
0
  5
A45
  2
*D8
 70
    65
 10
0.0
 20
0.0
 30
0.0
  3
*D8
  0
LINE
  8
0
  6
BYBLOCK
 62
     0
  5
A46
 10
317.1375
 20
132.905394
 30
0.0
 11
369.4135
 21
132.905394
 31
0.0
  0
LINE
  8
0
  6
BYBLOCK
 62
     0
  5
A47
 10
317.1375
 20
259.905394
 30
0.0
 11
369.4135
 21
259.905394
 31
0.0
  0
LINE
  8
0
  6
BYBLOCK
 62
     0
  5
A48
 10
366.7468
 20
140.905394
 30
0.0
 11
366.7468
 21
251.905394
 31
0.0
  0
INSERT
  8
0
  6
BYBLOCK
 62
     0
  5
A49
  2
_OPEN
 10
366.7468
 20
132.905394
 30
0.0
 41
8.0
 42
8.0
 50
270.0
 43
8.0
  0
INSERT
  8
0
  6
BYBLOCK
 62
     0
  5
A4A
  2
_OPEN
 10
366.7468
 20
259.905394
 30
0.0
 41
8.0
 42
8.0
 50
90.0
 43
8.0
  0
TEXT
  8
0
  6
BYBLOCK
 62
     0
  5
A4B
 10
364.0801
 20
187.072061
 30
0.0
 40
8.0
  1
127
 50
90.0
  0
POINT
  8
DEFPOINTS
  6
BYBLOCK
 62
     0
  5
A4C
 10
314.4708
 20
132.905394
 30
0.0
  0
POINT
  8
DEFPOINTS
  6
BYBLOCK
 62
     0
  5
A4D
 10
314.4708
 20
259.905394
 30
0.0
  0
POINT
  8
DEFPOINTS
  6
BYBLOCK
 62
     0
  5
A4E
 10
366.7468
 20
259.905394
 30
0.0
  0
ENDBLK
  8
0
  5
A4F
  0
BLOCK
  8
0
  5
A2D
  2
*D9
 70
    65
 10
0.0
 20
0.0
 30
0.0
  3
*D9
  0
LINE
  8
0
  6
BYBLOCK
 62
     0
  5
A2E
 10
310.1375
 20
251.905394
 30
0.0
 11
353.6775
 21
251.905394
 31
0.0
  0
LINE
  8
0
  6
BYBLOCK
 62
     0
  5
A2F
 10
317.1375
 20
259.905394
 30
0.0
 11
353.6775
 21
259.905394
 31
0.0
  0
LINE
  8
0
  6
BYBLOCK
 62
     0
  5
A30
 10
351.0108
 20
243.905394
 30
0.0
 11
351.0108
 21
235.905394
 31
0.0
  0
LINE
  8
0
  6
BYBLOCK
 62
     0
  5
A31
 10
351.0108
 20
267.905394
 30
0.0
 11
351.0108
 21
286.572128
 31
0.0
  0
LINE
  8
0
  6
BYBLOCK
 62
     0
  5
A32
 10
351.0108
 20
251.905394
 30
0.0
 11
351.0108
 21
259.905394
 31
0.0
  0
INSERT
  8
0
  6
BYBLOCK
 62
     0
  5
A33
  2
_OPEN
 10
351.0108
 20
251.905394
 30
0.0
 41
8.0
 42
8.0
 50
90.0
 43
8.0
  0
INSERT
  8
0
  6
BYBLOCK
 62
     0
  5
A34
  2
_OPEN
 10
351.0108
 20
259.905394
 30
0.0
 41
8.0
 42
8.0
 50
270.0
 43
8.0
  0
TEXT
  8
0
  6
BYBLOCK
 62
     0
  5
A35
 10
348.3441
 20
278.572094
 30
0.0
 40
8.0
  1
8
 50
90.0
  0
POINT
  8
DEFPOINTS
  6
BYBLOCK
 62
     0
  5
A36
 10
307.4708
 20
251.905394
 30
0.0
  0
POINT
  8
DEFPOINTS
  6
BYBLOCK
 62
     0
  5
A37
 10
314.4708
 20
259.905394
 30
0.0
  0
POINT
  8
DEFPOINTS
  6
BYBLOCK
 62
     0
  5
A38
 10
351.0108
 20
259.905394
 30
0.0
  0
ENDBLK
  8
0
  5
A39
  0
BLOCK
  8
0
  5
A6C
  2
*D10
 70
    65
 10
0.0
 20
0.0
 30
0.0
  3
*D10
  0
LINE
  8
0
  6
BYBLOCK
 62
     0
  5
A6D
 10
527.3015
 20
233.905394
 30
0.0
 11
565.2655
 21
233.905394
 31
0.0
  0
LINE
  8
0
  6
BYBLOCK
 62
     0
  5
A6E
 10
531.3015
 20
259.905394
 30
0.0
 11
565.2655
 21
259.905394
 31
0.0
  0
LINE
  8
0
  6
BYBLOCK
 62
     0
  5
A6F
 10
562.5988
 20
241.905394
 30
0.0
 11
562.5988
 21
251.905394
 31
0.0
  0
INSERT
  8
0
  6
BYBLOCK
 62
     0
  5
A70
  2
_OPEN
 10
562.5988
 20
233.905394
 30
0.0
 41
8.0
 42
8.0
 50
270.0
 43
8.0
  0
INSERT
  8
0
  6
BYBLOCK
 62
     0
  5
A71
  2
_OPEN
 10
562.5988
 20
259.905394
 30
0.0
 41
8.0
 42
8.0
 50
90.0
 43
8.0
  0
TEXT
  8
0
  6
BYBLOCK
 62
     0
  5
A72
 10
559.9321
 20
240.238728
 30
0.0
 40
8.0
  1
26
 50
90.0
  0
POINT
  8
DEFPOINTS
  6
BYBLOCK
 62
     0
  5
A73
 10
524.6348
 20
233.905394
 30
0.0
  0
POINT
  8
DEFPOINTS
  6
BYBLOCK
 62
     0
  5
A74
 10
528.6348
 20
259.905394
 30
0.0
  0
POINT
  8
DEFPOINTS
  6
BYBLOCK
 62
     0
  5
A75
 10
562.5988
 20
259.905394
 30
0.0
  0
ENDBLK
  8
0
  5
A76
  0
BLOCK
  8
0
  5
A86
  2
*D11
 70
    65
 10
0.0
 20
0.0
 30
0.0
  3
*D11
  0
LINE
  8
0
  6
BYBLOCK
 62
     0
  5
A87
 10
37.3576
 20
262.572094
 30
0.0
 11
37.3576
 21
274.820094
 31
0.0
  0
LINE
  8
0
  6
BYBLOCK
 62
     0
  5
A88
 10
4.6576
 20
263.372094
 30
0.0
 11
4.6576
 21
274.820094
 31
0.0
  0
LINE
  8
0
  6
BYBLOCK
 62
     0
  5
A89
 10
29.3576
 20
272.153394
 30
0.0
 11
12.6576
 21
272.153394
 31
0.0
  0
INSERT
  8
0
  6
BYBLOCK
 62
     0
  5
A8A
  2
_OPEN
 10
37.3576
 20
272.153394
 30
0.0
 41
8.0
 42
8.0
 43
8.0
  0
INSERT
  8
0
  6
BYBLOCK
 62
     0
  5
A8B
  2
_OPEN
 10
4.6576
 20
272.153394
 30
0.0
 41
8.0
 42
8.0
 50
180.0
 43
8.0
  0
TEXT
  8
0
  6
BYBLOCK
 62
     0
  5
A8C
 10
9.0076
 20
274.820094
 30
0.0
 40
8.0
  1
32.7
  0
POINT
  8
DEFPOINTS
  6
BYBLOCK
 62
     0
  5
A8D
 10
37.3576
 20
259.905394
 30
0.0
  0
POINT
  8
DEFPOINTS
  6
BYBLOCK
 62
     0
  5
A8E
 10
4.6576
 20
260.705394
 30
0.0
  0
POINT
  8
DEFPOINTS
  6
BYBLOCK
 62
     0
  5
A8F
 10
4.6576
 20
272.153394
 30
0.0
  0
ENDBLK
  8
0
  5
A90
  0
BLOCK
  8
0
  5
A5D
  2
*D12
 70
    65
 10
0.0
 20
0.0
 30
0.0
  3
*D12
  0
LINE
  8
0
  6
BYBLOCK
 62
     0
  5
A5E
 10
522.6348
 20
242.472094
 30
0.0
 11
522.6348
 21
303.236094
 31
0.0
  0
LINE
  8
0
  6
BYBLOCK
 62
     0
  5
A5F
 10
452.6348
 20
167.472094
 30
0.0
 11
452.6348
 21
303.236094
 31
0.0
  0
LINE
  8
0
  6
BYBLOCK
 62
     0
  5
A60
 10
514.6348
 20
300.569394
 30
0.0
 11
460.6348
 21
300.569394
 31
0.0
  0
INSERT
  8
0
  6
BYBLOCK
 62
     0
  5
A61
  2
_OPEN
 10
522.6348
 20
300.569394
 30
0.0
 41
8.0
 42
8.0
 43
8.0
  0
INSERT
  8
0
  6
BYBLOCK
 62
     0
  5
A62
  2
_OPEN
 10
452.6348
 20
300.569394
 30
0.0
 41
8.0
 42
8.0
 50
180.0
 43
8.0
  0
TEXT
  8
0
  6
BYBLOCK
 62
     0
  5
A63
 10
481.6348
 20
305.902794
 30
0.0
 40
8.0
  1
70
  0
LINE
  8
0
  6
BYBLOCK
 62
     0
  5
A64
 10
478.9681
 20
303.236094
 30
0.0
 11
496.3015
 21
303.236094
 31
0.0
  0
LINE
  8
0
  6
BYBLOCK
 62
     0
  5
A65
 10
496.3015
 20
303.236094
 30
0.0
 11
496.3015
 21
316.569494
 31
0.0
  0
LINE
  8
0
  6
BYBLOCK
 62
     0
  5
A66
 10
496.3015
 20
316.569494
 30
0.0
 11
478.9681
 21
316.569494
 31
0.0
  0
LINE
  8
0
  6
BYBLOCK
 62
     0
  5
A67
 10
478.9681
 20
316.569494
 30
0.0
 11
478.9681
 21
303.236094
 31
0.0
  0
POINT
  8
DEFPOINTS
  6
BYBLOCK
 62
     0
  5
A68
 10
522.6348
 20
239.805394
 30
0.0
  0
POINT
  8
DEFPOINTS
  6
BYBLOCK
 62
     0
  5
A69
 10
452.6348
 20
164.805394
 30
0.0
  0
POINT
  8
DEFPOINTS
  6
BYBLOCK
 62
     0
  5
A6A
 10
452.6348
 20
300.569394
 30
0.0
  0
ENDBLK
  8
0
  5
A6B
  0
BLOCK
  8
0
  5
A77
  2
*D13
 70
    65
 10
0.0
 20
0.0
 30
0.0
  3
*D13
  0
LINE
  8
0
  6
BYBLOCK
 62
     0
  5
A78
 10
531.2015
 20
233.905394
 30
0.0
 11
565.2655
 21
233.905394
 31
0.0
  0
LINE
  8
0
  6
BYBLOCK
 62
     0
  5
A79
 10
461.2015
 20
158.905394
 30
0.0
 11
565.2655
 21
158.905394
 31
0.0
  0
LINE
  8
0
  6
BYBLOCK
 62
     0
  5
A7A
 10
562.5988
 20
225.905394
 30
0.0
 11
562.5988
 21
166.905394
 31
0.0
  0
INSERT
  8
0
  6
BYBLOCK
 62
     0
  5
A7B
  2
_OPEN
 10
562.5988
 20
233.905394
 30
0.0
 41
8.0
 42
8.0
 50
90.0
 43
8.0
  0
INSERT
  8
0
  6
BYBLOCK
 62
     0
  5
A7C
  2
_OPEN
 10
562.5988
 20
158.905394
 30
0.0
 41
8.0
 42
8.0
 50
270.0
 43
8.0
  0
TEXT
  8
0
  6
BYBLOCK
 62
     0
  5
A7D
 10
557.2654
 20
189.738728
 30
0.0
 40
8.0
  1
75
 50
90.0
  0
LINE
  8
0
  6
BYBLOCK
 62
     0
  5
A7E
 10
559.9321
 20
187.072028
 30
0.0
 11
559.9321
 21
205.738761
 31
0.0
  0
LINE
  8
0
  6
BYBLOCK
 62
     0
  5
A7F
 10
559.9321
 20
205.738761
 30
0.0
 11
546.5987
 21
205.738761
 31
0.0
  0
LINE
  8
0
  6
BYBLOCK
 62
     0
  5
A80
 10
546.5987
 20
205.738761
 30
0.0
 11
546.5987
 21
187.072028
 31
0.0
  0
LINE
  8
0
  6
BYBLOCK
 62
     0
  5
A81
 10
546.5987
 20
187.072028
 30
0.0
 11
559.9321
 21
187.072028
 31
0.0
  0
POINT
  8
DEFPOINTS
  6
BYBLOCK
 62
     0
  5
A82
 10
528.5348
 20
233.905394
 30
0.0
  0
POINT
  8
DEFPOINTS
  6
BYBLOCK
 62
     0
  5
A83
 10
458.5348
 20
158.905394
 30
0.0
  0
POINT
  8
DEFPOINTS
  6
BYBLOCK
 62
     0
  5
A84
 10
562.5988
 20
158.905394
 30
0.0
  0
ENDBLK
  8
0
  5
A85
  0
ENDSEC
  0
SECTION
  2
ENTITIES
  0
LINE
  8
10
  6
CENTER
  5
42F
 10
212.09
 20
196.405394
 30
0.0
 11
332.0268
 21
196.405394
 31
0.0
  0
DIMENSION
  8
FF
  5
430
  2
*D1
 10
273.4708
 20
272.313394
 30
0.0
 11
289.4708
 21
278.980094
 31
0.0
  1
32
 13
305.4708
 23
253.905394
 33
0.0
 14
273.4708
 24
253.905394
 34
0.0
 50
180.0
  3
FSTD1
  0
DIMENSION
  8
FF
  5
431
  2
*D2
 10
217.4724
 20
303.921394
 30
0.0
 11
273.4716
 21
310.588094
 31
0.0
  1
(113)
 13
329.4708
 23
230.605394
 33
0.0
 14
217.4724
 24
230.605394
 34
0.0
 50
180.0
  3
FSTD1
  0
DIMENSION
  8
FF
  5
432
  2
*D3
 10
229.4708
 20
288.389394
 30
0.0
 11
273.4708
 21
295.056094
 31
0.0
  1
88
 13
317.4708
 23
258.905394
 33
0.0
 14
229.4708
 24
258.905394
 34
0.0
 50
180.0
  3
FSTD1
  0
DIMENSION
  8
FF
  5
433
  2
*D4
 10
281.4708
 20
102.601394
 30
0.0
 11
305.470833
 21
109.268094
 31
0.0
  1
16
 13
265.4708
 23
131.905394
 33
0.0
 14
281.4708
 24
131.905394
 34
0.0
  3
FSTD1
  0
LINE
  8
0C
  5
434
 10
245.9708
 20
228.405394
 30
0.0
 11
300.9708
 21
228.405394
 31
0.0
  0
LINE
  8
0C
  5
435
 10
245.9708
 20
164.405394
 30
0.0
 11
300.9708
 21
164.405394
 31
0.0
  0
LINE
  8
0C
  5
436
 10
240.9708
 20
159.405394
 30
0.0
 11
305.9708
 21
159.405394
 31
0.0
  0
LINE
  8
0C
  5
437
 10
240.9708
 20
233.405394
 30
0.0
 11
305.9708
 21
233.405394
 31
0.0
  0
LINE
  8
0C
  5
438
 10
242.9708
 20
154.405394
 30
0.0
 11
303.9708
 21
154.405394
 31
0.0
  0
LINE
  8
0C
  5
439
 10
242.9708
 20
238.405394
 30
0.0
 11
303.9708
 21
238.405394
 31
0.0
  0
ARC
  8
0C
  5
43A
 10
285.1708
 20
242.913394
 30
0.0
 40
1.0
 50
210.0
 51
330.0
  0
ARC
  8
0C
  5
43B
 10
285.1708
 20
149.897394
 30
0.0
 40
1.0
 50
30.0
 51
150.0
  0
LINE
  8
0B
  5
43C
 10
297.4708
 20
133.905394
 30
0.0
 11
281.4708
 21
133.905394
 31
0.0
  0
LINE
  8
0C
  5
43D
 10
296.8628
 20
149.405394
 30
0.0
 11
280.9708
 21
149.405394
 31
0.0
  0
LINE
  8
0C
  5
43E
 10
296.4708
 20
245.305394
 30
0.0
 11
280.5348
 21
245.305394
 31
0.0
  0
LINE
  8
0C
  5
43F
 10
296.8628
 20
243.405394
 30
0.0
 11
279.4388
 21
243.405394
 31
0.0
  0
LINE
  8
0B
  5
440
 10
281.4708
 20
133.905394
 30
0.0
 11
297.4708
 21
133.905394
 31
0.0
  0
LINE
  8
0B
  5
441
 10
281.4708
 20
258.905394
 30
0.0
 11
297.4708
 21
258.905394
 31
0.0
  0
LINE
  8
0C
  5
442
 10
280.8828
 20
245.905394
 30
0.0
 11
285.9708
 21
245.905394
 31
0.0
  0
LINE
  8
10
  6
CENTER
  5
443
 10
273.4708
 20
121.293394
 30
0.0
 11
273.4708
 21
264.021394
 31
0.0
  0
LINE
  8
0C
  5
444
 10
231.5708
 20
186.905394
 30
0.0
 11
231.5708
 21
164.705394
 31
0.0
  0
LINE
  8
0C
  5
445
 10
229.4708
 20
196.405394
 30
0.0
 11
229.4708
 21
164.705394
 31
0.0
  0
LINE
  8
0D
  6
PHANTOM
  5
446
 10
217.4724
 20
228.605394
 30
0.0
 11
217.4724
 21
164.205394
 31
0.0
  0
LINE
  8
16
  5
447
 10
51.371386
 20
172.405394
 30
0.0
 11
51.371386
 21
167.741394
 31
0.0
  0
LINE
  8
16
  5
448
 10
23.971386
 20
165.205394
 30
0.0
 11
23.971386
 21
196.405394
 31
0.0
  0
LINE
  8
0C
  5
449
 10
239.3708
 20
185.573394
 30
0.0
 11
239.3708
 21
164.705394
 31
0.0
  0
LINE
  8
0C
  5
44A
 10
245.9708
 20
228.405394
 30
0.0
 11
245.9708
 21
164.405394
 31
0.0
  0
LINE
  8
0C
  5
44B
 10
240.9708
 20
156.405394
 30
0.0
 11
240.9708
 21
236.405394
 31
0.0
  0
LINE
  8
15
  5
44C
 10
121.871386
 20
159.405394
 30
0.0
 11
121.871386
 21
196.405394
 31
0.0
  0
LINE
  8
16
  5
44D
 10
116.871386
 20
154.405394
 30
0.0
 11
116.871386
 21
196.405394
 31
0.0
  0
LINE
  8
0C
  5
44E
 10
240.9708
 20
156.405394
 30
0.0
 11
240.9708
 21
183.905394
 31
0.0
  0
LINE
  8
16
  5
44F
 10
79.771386
 20
186.905394
 30
0.0
 11
79.771386
 21
152.905394
 31
0.0
  0
LINE
  8
16
  5
450
 10
116.871386
 20
154.405394
 30
0.0
 11
116.871386
 21
238.405394
 31
0.0
  0
LINE
  8
16
  5
451
 10
79.771386
 20
186.905394
 30
0.0
 11
79.771386
 21
153.405394
 31
0.0
  0
LINE
  8
16
  5
452
 10
22.871386
 20
175.905394
 30
0.0
 11
22.871386
 21
152.405394
 31
0.0
  0
LINE
  8
16
  5
453
 10
72.871386
 20
238.405394
 30
0.0
 11
72.871386
 21
154.405394
 31
0.0
  0
LINE
  8
16
  5
454
 10
11.671386
 20
227.105394
 30
0.0
 11
11.671386
 21
133.905394
 31
0.0
  0
LINE
  8
0B
  5
455
 10
229.4708
 20
256.905394
 30
0.0
 11
229.4708
 21
135.905394
 31
0.0
  0
LINE
  8
0C
  5
456
 10
240.9708
 20
181.905394
 30
0.0
 11
240.9708
 21
156.405394
 31
0.0
  0
CIRCLE
  8
0D
  5
457
 10
235.4708
 20
172.905394
 30
0.0
 40
3.0
  0
LINE
  8
0D
  5
458
 10
239.2708
 20
176.205394
 30
0.0
 11
239.2708
 21
169.605394
 31
0.0
  0
LINE
  8
0D
  5
459
 10
231.6708
 20
176.205394
 30
0.0
 11
231.6708
 21
169.605394
 31
0.0
  0
LINE
  8
0B
  5
45A
 10
229.4708
 20
256.905394
 30
0.0
 11
229.4708
 21
135.905394
 31
0.0
  0
LINE
  8
15
  5
45B
 10
-9.328614
 20
224.905394
 30
0.0
 11
-9.328614
 21
167.905394
 31
0.0
  0
LINE
  8
16
  5
45C
 10
11.671386
 20
133.905394
 30
0.0
 11
11.671386
 21
196.405394
 31
0.0
  0
LINE
  8
16
  6
CONTINUOUS
  5
45E
 10
79.771386
 20
154.405394
 30
0.0
 11
95.699786
 21
154.405394
 31
0.0
  0
TEXT
  8
FF
  5
45F
 10
3.9856
 20
54.441394
 30
0.0
 40
12.0
  1
※１　サイドオン補助接点ユニット２個取付けた場合
 41
0.833333
  0
LINE
  8
15
  5
460
 10
89.042986
 20
149.405394
 30
0.0
 11
79.271386
 21
149.405394
 31
0.0
  0
LINE
  8
15
  5
47D
 10
11.671386
 20
133.905394
 30
0.0
 11
-9.328614
 21
133.905394
 31
0.0
  0
LINE
  8
16
  6
CONTINUOUS
  5
47E
 10
-9.328614
 20
167.905394
 30
0.0
 11
-9.328614
 21
134.105394
 31
0.0
  0
LINE
  8
15
  5
47F
 10
-9.828614
 20
167.905394
 30
0.0
 11
-9.828614
 21
134.105394
 31
0.0
  0
LINE
  8
15
  6
CONTINUOUS
  5
480
 10
-9.328614
 20
134.105394
 30
0.0
 11
-9.328614
 21
133.905394
 31
0.0
  0
LINE
  8
15
  5
481
 10
-9.328614
 20
134.105394
 30
0.0
 11
-9.828614
 21
134.105394
 31
0.0
  0
LINE
  8
16
  5
482
 10
-9.828614
 20
151.905394
 30
0.0
 11
-9.328614
 21
151.905394
 31
0.0
  0
LINE
  8
15
  5
483
 10
-9.828614
 20
167.905394
 30
0.0
 11
-9.328614
 21
167.905394
 31
0.0
  0
LINE
  8
16
  5
484
 10
48.484586
 20
164.205394
 30
0.0
 11
24.971386
 21
164.205394
 31
0.0
  0
LINE
  8
15
  5
485
 10
63.956986
 20
148.405394
 30
0.0
 11
34.871386
 21
148.405394
 31
0.0
  0
LINE
  8
15
  5
486
 10
33.871386
 20
134.905394
 30
0.0
 11
33.871386
 21
147.405394
 31
0.0
  0
LINE
  8
15
  5
487
 10
32.871386
 20
133.905394
 30
0.0
 11
11.671386
 21
133.905394
 31
0.0
  0
LINE
  8
16
  5
488
 10
16.971386
 20
133.905394
 30
0.0
 11
11.671386
 21
133.905394
 31
0.0
  0
ARC
  8
15
  5
489
 10
32.871386
 20
134.905394
 30
0.0
 40
1.0
 50
270.0
 51
0.0
  0
LINE
  8
16
  5
48C
 10
23.871386
 20
151.405394
 30
0.0
 11
32.871386
 21
151.405394
 31
0.0
  0
ARC
  8
16
  5
48D
 10
23.871386
 20
152.405394
 30
0.0
 40
1.0
 50
180.0
 51
270.0
  0
LINE
  8
16
  6
CONTINUOUS
  5
48E
 10
33.871386
 20
147.405394
 30
0.0
 11
33.871386
 21
150.405394
 31
0.0
  0
ARC
  8
15
  5
48F
 10
34.871386
 20
147.405394
 30
0.0
 40
1.0
 50
90.0
 51
180.0
  0
ARC
  8
16
  5
490
 10
32.871386
 20
150.405394
 30
0.0
 40
1.0
 50
0.0
 51
90.0
  0
ARC
  8
16
  5
491
 10
24.971386
 20
165.205394
 30
0.0
 40
1.0
 50
180.0
 51
270.0
  0
LINE
  8
15
  5
492
 10
65.771386
 20
143.905394
 30
0.0
 11
65.771386
 21
137.905394
 31
0.0
  0
LINE
  8
15
  5
493
 10
85.921386
 20
135.133394
 30
0.0
 11
85.921386
 21
146.681394
 31
0.0
  0
LINE
  8
16
  5
494
 10
81.771386
 20
146.681394
 30
0.0
 11
81.771386
 21
135.133394
 31
0.0
  0
LINE
  8
16
  5
495
 10
80.271386
 20
142.157394
 30
0.0
 11
81.771386
 21
140.657394
 31
0.0
  0
LINE
  8
16
  5
496
 10
81.771386
 20
135.133394
 30
0.0
 11
81.771386
 21
146.681394
 31
0.0
  0
LINE
  8
16
  5
497
 10
80.271386
 20
147.005394
 30
0.0
 11
80.271386
 21
134.805394
 31
0.0
  0
LINE
  8
16
  5
498
 10
80.271386
 20
134.805394
 30
0.0
 11
80.271386
 21
147.005394
 31
0.0
  0
LINE
  8
16
  5
499
 10
79.271386
 20
147.405394
 30
0.0
 11
79.271386
 21
134.405394
 31
0.0
  0
LINE
  8
16
  5
49A
 10
75.271386
 20
145.405394
 30
0.0
 11
75.271386
 21
136.405394
 31
0.0
  0
LINE
  8
16
  5
49B
 10
73.771386
 20
143.905394
 30
0.0
 11
73.771386
 21
137.905394
 31
0.0
  0
ARC
  8
15
  5
49C
 10
74.771386
 20
136.405394
 30
0.0
 40
0.5
 50
0.0
 51
90.0
  0
LINE
  8
15
  5
49D
 10
65.771386
 20
137.905394
 30
0.0
 11
73.771386
 21
137.905394
 31
0.0
  0
LINE
  8
15
  6
CONTINUOUS
  5
49E
 10
73.771386
 20
137.905394
 30
0.0
 11
73.771386
 21
136.905394
 31
0.0
  0
LINE
  8
15
  5
49F
 10
74.771386
 20
136.905394
 30
0.0
 11
73.771386
 21
136.905394
 31
0.0
  0
LINE
  8
15
  6
CONTINUOUS
  5
4A0
 10
79.271386
 20
134.405394
 30
0.0
 11
79.271386
 21
132.905394
 31
0.0
  0
LINE
  8
15
  6
CONTINUOUS
  5
4A1
 10
75.271386
 20
136.405394
 30
0.0
 11
75.271386
 21
132.905394
 31
0.0
  0
LINE
  8
15
  5
4A2
 10
79.271386
 20
132.905394
 30
0.0
 11
75.271386
 21
132.905394
 31
0.0
  0
LINE
  8
16
  5
4A3
 10
80.271386
 20
141.157394
 30
0.0
 11
81.771386
 21
139.657394
 31
0.0
  0
LINE
  8
15
  5
4A4
 10
80.271386
 20
134.805394
 30
0.0
 11
81.771386
 21
134.805394
 31
0.0
  0
LINE
  8
15
  6
CONTINUOUS
  5
4A5
 10
80.271386
 20
134.405394
 30
0.0
 11
80.271386
 21
134.805394
 31
0.0
  0
LINE
  8
15
  5
4A6
 10
79.271386
 20
134.405394
 30
0.0
 11
80.271386
 21
134.405394
 31
0.0
  0
LINE
  8
15
  6
CONTINUOUS
  5
4A7
 10
81.771386
 20
135.133394
 30
0.0
 11
81.771386
 21
134.805394
 31
0.0
  0
LINE
  8
16
  5
4A8
 10
85.921386
 20
137.905394
 30
0.0
 11
81.771386
 21
137.905394
 31
0.0
  0
LINE
  8
15
  5
4A9
 10
81.771386
 20
135.133394
 30
0.0
 11
85.921386
 21
135.133394
 31
0.0
  0
ARC
  8
16
  5
4AA
 10
49.371386
 20
167.741394
 30
0.0
 40
2.0
 50
330.0
 51
0.000003
  0
ARC
  8
16
  5
4AB
 10
48.484586
 20
166.205394
 30
0.0
 40
2.0
 50
270.0
 51
330.0
  0
LINE
  8
16
  5
4AC
 10
51.103386
 20
166.741394
 30
0.0
 11
50.216586
 21
165.205394
 31
0.0
  0
ARC
  8
15
  5
4AD
 10
74.771386
 20
145.405394
 30
0.0
 40
0.5
 50
270.0
 51
0.0
  0
ARC
  8
16
  5
4AE
 10
75.171386
 20
150.405394
 30
0.0
 40
1.0
 50
270.0
 51
0.0
  0
LINE
  8
16
  5
4AF
 10
70.785386
 20
154.405394
 30
0.0
 11
79.771386
 21
154.405394
 31
0.0
  0
LINE
  8
15
  6
CONTINUOUS
  5
4B0
 10
65.371386
 20
149.405394
 30
0.0
 11
64.664093
 21
148.698287
 31
0.0
  0
LINE
  8
15
  5
4B1
 10
73.771386
 20
143.905394
 30
0.0
 11
65.771386
 21
143.905394
 31
0.0
  0
ARC
  8
15
  5
4B2
 10
63.956986
 20
149.405394
 30
0.0
 40
1.0
 50
270.0
 51
315.0
  0
LINE
  8
15
  6
CONTINUOUS
  5
4B3
 10
73.771386
 20
143.905394
 30
0.0
 11
73.771386
 21
144.905394
 31
0.0
  0
LINE
  8
15
  5
4B4
 10
73.771386
 20
144.905394
 30
0.0
 11
74.771386
 21
144.905394
 31
0.0
  0
LINE
  8
15
  5
4B5
 10
65.371386
 20
149.405394
 30
0.0
 11
75.171386
 21
149.405394
 31
0.0
  0
LINE
  8
16
  5
4B6
 10
70.078186
 20
154.113394
 30
0.0
 11
65.371386
 21
149.405394
 31
0.0
  0
ARC
  8
16
  5
4B7
 10
70.785386
 20
153.405394
 30
0.0
 40
1.0
 50
90.0
 51
135.0
  0
LINE
  8
15
  6
CONTINUOUS
  5
4B8
 10
79.271386
 20
147.405394
 30
0.0
 11
79.271386
 21
149.405394
 31
0.0
  0
LINE
  8
15
  6
CONTINUOUS
  5
4B9
 10
75.271386
 20
145.405394
 30
0.0
 11
75.260102
 21
149.409337
 31
0.0
  0
LINE
  8
15
  5
4BA
 10
81.771386
 20
147.005394
 30
0.0
 11
80.271386
 21
147.005394
 31
0.0
  0
LINE
  8
15
  6
CONTINUOUS
  5
4BB
 10
80.271386
 20
147.005394
 30
0.0
 11
80.271386
 21
147.405394
 31
0.0
  0
LINE
  8
15
  5
4BC
 10
80.271386
 20
147.405394
 30
0.0
 11
79.271386
 21
147.405394
 31
0.0
  0
LINE
  8
15
  6
CONTINUOUS
  5
4BD
 10
81.771386
 20
146.681394
 30
0.0
 11
81.771386
 21
147.005394
 31
0.0
  0
LINE
  8
16
  5
4BE
 10
85.921386
 20
143.905394
 30
0.0
 11
81.771386
 21
143.905394
 31
0.0
  0
LINE
  8
15
  5
4BF
 10
85.921386
 20
146.681394
 30
0.0
 11
81.771386
 21
146.681394
 31
0.0
  0
ARC
  8
16
  5
4C0
 10
79.271386
 20
152.905394
 30
0.0
 40
0.5
 50
270.0
 51
0.0
  0
LINE
  8
15
  5
4C1
 10
79.271386
 20
153.405394
 30
0.0
 11
79.271386
 21
149.405394
 31
0.0
  0
LINE
  8
16
  5
4C2
 10
79.771386
 20
153.405394
 30
0.0
 11
76.171386
 21
153.405394
 31
0.0
  0
LINE
  8
16
  5
4C3
 10
76.171386
 20
153.405394
 30
0.0
 11
76.171386
 21
150.405394
 31
0.0
  0
LINE
  8
15
  5
4C4
 10
95.699786
 20
154.405394
 30
0.0
 11
116.871386
 21
154.405394
 31
0.0
  0
LINE
  8
15
  5
4C5
 10
90.456986
 20
149.993394
 30
0.0
 11
94.285386
 21
153.821394
 31
0.0
  0
ARC
  8
15
  5
4C6
 10
89.042986
 20
151.405394
 30
0.0
 40
2.0
 50
270.0
 51
315.0
  0
ARC
  8
15
  5
4C7
 10
95.699786
 20
152.405394
 30
0.0
 40
2.0
 50
90.0
 51
135.0
  0
LINE
  8
15
  5
4C8
 10
121.871386
 20
159.405394
 30
0.0
 11
120.630986
 21
154.777394
 31
0.0
  0
ARC
  8
15
  5
4C9
 10
120.147786
 20
154.905394
 30
0.0
 40
0.5
 50
270.0
 51
345.0
  0
LINE
  8
15
  5
4CA
 10
116.871386
 20
154.405394
 30
0.0
 11
120.147786
 21
154.405394
 31
0.0
  0
LINE
  8
10
  5
4CB
 10
240.0588
 20
158.905394
 30
0.0
 11
236.8868
 21
158.905394
 31
0.0
  0
LINE
  8
0C
  5
4CC
 10
239.3708
 20
167.105394
 30
0.0
 11
235.4708
 21
167.105394
 31
0.0
  0
CIRCLE
  8
0D
  5
4CD
 10
241.4708
 20
140.905394
 30
0.0
 40
5.77352
  0
LINE
  8
0D
  5
4CE
 10
241.4708
 20
146.681394
 30
0.0
 11
236.4708
 21
143.793394
 31
0.0
  0
LINE
  8
0D
  5
4CF
 10
236.4708
 20
138.017394
 30
0.0
 11
241.4708
 21
135.133394
 31
0.0
  0
LINE
  8
0C
  5
4D0
 10
241.4028
 20
155.169394
 30
0.0
 11
237.7628
 21
152.005394
 31
0.0
  0
LINE
  8
0B
  5
4D1
 10
234.4708
 20
132.905394
 30
0.0
 11
248.4708
 21
132.905394
 31
0.0
  0
CIRCLE
  8
0D
  5
4D2
 10
238.4708
 20
158.905394
 30
0.0
 40
2.4
  0
ARC
  8
0D
  5
4D3
 10
238.7708
 20
169.605394
 30
0.0
 40
0.5
 50
270.0
 51
0.0
  0
LINE
  8
0D
  5
4D4
 10
236.4708
 20
143.793394
 30
0.0
 11
236.4708
 21
138.017394
 31
0.0
  0
LINE
  8
0C
  5
4D5
 10
233.4708
 20
133.905394
 30
0.0
 11
233.4708
 21
145.877394
 31
0.0
  0
ARC
  8
0B
  5
4D6
 10
231.4708
 20
135.905394
 30
0.0
 40
2.0
 50
180.0
 51
270.0
  0
ARC
  8
0B
  5
4D7
 10
231.4708
 20
135.905394
 30
0.0
 40
2.0
 50
180.0
 51
270.0
  0
LINE
  8
0B
  5
4D8
 10
233.4708
 20
133.905394
 30
0.0
 11
231.4708
 21
133.905394
 31
0.0
  0
LINE
  8
0B
  5
4D9
 10
231.4708
 20
133.905394
 30
0.0
 11
233.4708
 21
133.905394
 31
0.0
  0
LINE
  8
0B
  5
4DA
 10
234.4708
 20
132.905394
 30
0.0
 11
233.4708
 21
133.905394
 31
0.0
  0
LINE
  8
0C
  5
4DB
 10
233.4708
 20
145.877394
 30
0.0
 11
237.7628
 21
152.005394
 31
0.0
  0
LINE
  8
0C
  5
4DC
 10
237.3428
 20
151.405394
 30
0.0
 11
230.4708
 21
151.405394
 31
0.0
  0
ARC
  8
0C
  5
4DD
 10
230.4708
 20
150.405394
 30
0.0
 40
1.0
 50
90.0
 51
180.0
  0
LINE
  8
10
  5
4DE
 10
238.4708
 20
155.729394
 30
0.0
 11
238.4708
 21
155.005394
 31
0.0
  0
LINE
  8
0D
  6
PHANTOM
  5
4DF
 10
217.4724
 20
164.205394
 30
0.0
 11
229.4708
 21
164.205394
 31
0.0
  0
LINE
  8
10
  5
4E0
 10
238.4708
 20
160.493394
 30
0.0
 11
238.4708
 21
157.317394
 31
0.0
  0
LINE
  8
10
  5
4E1
 10
238.4708
 20
162.805394
 30
0.0
 11
238.4708
 21
162.081394
 31
0.0
  0
LINE
  8
10
  5
4E2
 10
235.2988
 20
158.905394
 30
0.0
 11
234.5708
 21
158.905394
 31
0.0
  0
LINE
  8
0C
  5
4E3
 10
231.5708
 20
167.105394
 30
0.0
 11
235.4708
 21
167.105394
 31
0.0
  0
LINE
  8
0D
  5
4E4
 10
238.7708
 20
169.105394
 30
0.0
 11
232.1708
 21
169.105394
 31
0.0
  0
ARC
  8
0C
  5
4E5
 10
229.9708
 20
164.705394
 30
0.0
 40
0.5
 50
180.0
 51
270.0
  0
ARC
  8
0C
  5
4E6
 10
231.0708
 20
164.705394
 30
0.0
 40
0.5
 50
270.0
 51
0.0
  0
LINE
  8
0C
  5
4E7
 10
229.9708
 20
164.205394
 30
0.0
 11
231.0708
 21
164.205394
 31
0.0
  0
ARC
  8
0D
  5
4E8
 10
232.1708
 20
169.605394
 30
0.0
 40
0.5
 50
180.0
 51
270.0
  0
CIRCLE
  8
0D
  5
4E9
 10
273.4708
 20
140.905394
 30
0.0
 40
5.77352
  0
LINE
  8
0D
  5
4EA
 10
278.4708
 20
138.017394
 30
0.0
 11
278.4708
 21
143.793394
 31
0.0
  0
LINE
  8
0D
  5
4EB
 10
268.4708
 20
143.793394
 30
0.0
 11
268.4708
 21
138.017394
 31
0.0
  0
LINE
  8
0D
  5
4EC
 10
246.4708
 20
138.017394
 30
0.0
 11
246.4708
 21
143.793394
 31
0.0
  0
LINE
  8
0C
  5
4ED
 10
249.4708
 20
133.905394
 30
0.0
 11
249.4708
 21
148.537394
 31
0.0
  0
LINE
  8
0C
  5
4EE
 10
265.4708
 20
145.881394
 30
0.0
 11
265.4708
 21
133.905394
 31
0.0
  0
LINE
  8
0C
  5
4EF
 10
281.4708
 20
133.905394
 30
0.0
 11
281.4708
 21
145.881394
 31
0.0
  0
LINE
  8
0C
  5
4F0
 10
259.6708
 20
147.205394
 30
0.0
 11
259.6708
 21
134.905394
 31
0.0
  0
LINE
  8
0C
  5
4F1
 10
253.0708
 20
147.205394
 30
0.0
 11
253.0708
 21
134.905394
 31
0.0
  0
LINE
  8
0B
  5
4F2
 10
265.4708
 20
133.905394
 30
0.0
 11
249.4708
 21
133.905394
 31
0.0
  0
LINE
  8
0B
  5
4F3
 10
249.4708
 20
133.905394
 30
0.0
 11
265.4708
 21
133.905394
 31
0.0
  0
LINE
  8
0B
  5
4F4
 10
249.4708
 20
133.905394
 30
0.0
 11
248.4708
 21
132.905394
 31
0.0
  0
LINE
  8
0D
  5
4F5
 10
241.4708
 20
135.133394
 30
0.0
 11
246.4708
 21
138.017394
 31
0.0
  0
ARC
  8
0C
  5
4F6
 10
252.0708
 20
134.905394
 30
0.0
 40
1.0
 50
270.0
 51
0.0
  0
ARC
  8
0C
  5
4F7
 10
260.6708
 20
134.905394
 30
0.0
 40
1.0
 50
180.0
 51
270.0
  0
LINE
  8
0D
  5
4F8
 10
273.4708
 20
135.133394
 30
0.0
 11
278.4708
 21
138.017394
 31
0.0
  0
LINE
  8
0B
  5
4F9
 10
266.4708
 20
132.905394
 30
0.0
 11
280.4708
 21
132.905394
 31
0.0
  0
LINE
  8
0B
  5
4FA
 10
265.4708
 20
133.905394
 30
0.0
 11
266.4708
 21
132.905394
 31
0.0
  0
LINE
  8
0D
  5
4FB
 10
268.4708
 20
138.017394
 30
0.0
 11
273.4708
 21
135.133394
 31
0.0
  0
LINE
  8
0B
  5
4FC
 10
280.4708
 20
132.905394
 30
0.0
 11
281.4708
 21
133.905394
 31
0.0
  0
ARC
  8
0C
  5
4FD
 10
261.7708
 20
149.897394
 30
0.0
 40
1.0
 50
30.0
 51
150.0
  0
LINE
  8
0C
  5
4FE
 10
265.9708
 20
149.405394
 30
0.0
 11
250.0788
 21
149.405394
 31
0.0
  0
ARC
  8
0C
  5
4FF
 10
242.9708
 20
156.405394
 30
0.0
 40
2.0
 50
180.0
 51
270.0
  0
ARC
  8
0C
  5
500
 10
242.9708
 20
156.405394
 30
0.0
 40
2.0
 50
180.0
 51
270.0
  0
ARC
  8
0C
  5
501
 10
242.9708
 20
156.405394
 30
0.0
 40
2.0
 50
180.0
 51
270.0
  0
LINE
  8
0C
  5
502
 10
257.0708
 20
154.405394
 30
0.0
 11
242.9708
 21
154.405394
 31
0.0
  0
LINE
  8
0C
  5
503
 10
253.5828
 20
154.405394
 30
0.0
 11
249.4708
 21
148.537394
 31
0.0
  0
LINE
  8
0C
  5
504
 10
256.9188
 20
154.405394
 30
0.0
 11
242.9708
 21
154.405394
 31
0.0
  0
LINE
  8
0D
  5
505
 10
246.4708
 20
143.793394
 30
0.0
 11
241.4708
 21
146.681394
 31
0.0
  0
LINE
  8
0C
  5
506
 10
253.5708
 20
144.405394
 30
0.0
 11
259.1708
 21
144.405394
 31
0.0
  0
LINE
  8
0C
  5
507
 10
253.5708
 20
147.705394
 30
0.0
 11
259.1708
 21
147.705394
 31
0.0
  0
ARC
  8
0C
  5
508
 10
253.5708
 20
144.905394
 30
0.0
 40
0.5
 50
180.0
 51
270.0
  0
ARC
  8
0C
  5
509
 10
253.5708
 20
147.205394
 30
0.0
 40
0.5
 50
90.0
 51
180.0
  0
ARC
  8
0C
  5
50A
 10
259.1708
 20
144.905394
 30
0.0
 40
0.5
 50
270.0
 51
0.0
  0
ARC
  8
0C
  5
50B
 10
259.1708
 20
147.205394
 30
0.0
 40
0.5
 50
0.0
 51
90.0
  0
ARC
  8
0C
  5
50C
 10
259.8708
 20
150.205394
 30
0.0
 40
0.8
 50
180.0
 51
330.0
  0
ARC
  8
0C
  5
50D
 10
257.0708
 20
152.405394
 30
0.0
 40
2.0
 50
0.0
 51
90.0
  0
LINE
  8
0C
  5
50E
 10
260.5668
 20
149.805394
 30
0.0
 11
260.9068
 21
150.397394
 31
0.0
  0
LINE
  8
0C
  5
50F
 10
259.0708
 20
150.205394
 30
0.0
 11
259.0708
 21
152.405394
 31
0.0
  0
LINE
  8
10
  5
510
 10
242.3708
 20
158.905394
 30
0.0
 11
241.6468
 21
158.905394
 31
0.0
  0
ARC
  8
0C
  5
511
 10
239.8708
 20
164.705394
 30
0.0
 40
0.5
 50
180.0
 51
270.0
  0
LINE
  8
0C
  5
512
 10
239.8708
 20
164.205394
 30
0.0
 11
240.9708
 21
164.205394
 31
0.0
  0
LINE
  8
0C
  5
513
 10
280.4708
 20
154.405394
 30
0.0
 11
266.4708
 21
154.405394
 31
0.0
  0
LINE
  8
0D
  5
514
 10
278.4708
 20
143.793394
 30
0.0
 11
273.4708
 21
146.681394
 31
0.0
  0
LINE
  8
0C
  5
515
 10
268.3708
 20
150.905394
 30
0.0
 11
265.4708
 21
145.881394
 31
0.0
  0
LINE
  8
0C
  5
516
 10
266.9468
 20
148.433394
 30
0.0
 11
265.9708
 21
149.405394
 31
0.0
  0
LINE
  8
0D
  5
517
 10
273.4708
 20
146.681394
 30
0.0
 11
268.4708
 21
143.793394
 31
0.0
  0
ARC
  8
0C
  5
518
 10
263.6708
 20
150.205394
 30
0.0
 40
0.8
 50
210.0
 51
0.353878
  0
ARC
  8
0C
  5
519
 10
266.4708
 20
152.405394
 30
0.0
 40
2.0
 50
90.0
 51
180.0
  0
LINE
  8
0C
  5
51A
 10
262.9788
 20
149.805394
 30
0.0
 11
262.6388
 21
150.397394
 31
0.0
  0
LINE
  8
0C
  5
51B
 10
264.4708
 20
150.201394
 30
0.0
 11
264.4708
 21
152.405394
 31
0.0
  0
LINE
  8
0C
  5
51C
 10
268.3708
 20
154.405394
 30
0.0
 11
268.3708
 21
150.905394
 31
0.0
  0
LINE
  8
0C
  5
51D
 10
278.5708
 20
150.905394
 30
0.0
 11
281.4708
 21
145.881394
 31
0.0
  0
LINE
  8
0C
  5
51E
 10
279.9988
 20
148.433394
 30
0.0
 11
280.9708
 21
149.405394
 31
0.0
  0
LINE
  8
0C
  5
51F
 10
278.5708
 20
150.905394
 30
0.0
 11
278.5708
 21
154.405394
 31
0.0
  0
ARC
  8
0C
  5
520
 10
283.2708
 20
150.205394
 30
0.0
 40
0.8
 50
179.646
 51
330.0
  0
ARC
  8
0C
  5
521
 10
280.4708
 20
152.405394
 30
0.0
 40
2.0
 50
0.0
 51
90.0
  0
LINE
  8
0C
  5
522
 10
283.9668
 20
149.805394
 30
0.0
 11
284.3068
 21
150.397394
 31
0.0
  0
LINE
  8
0C
  5
523
 10
282.4708
 20
150.201394
 30
0.0
 11
282.4708
 21
152.405394
 31
0.0
  0
LINE
  8
1A
  6
CENTER
  5
524
 10
132.304586
 20
196.405394
 30
0.0
 11
-14.339414
 21
196.405394
 31
0.0
  0
DIMENSION
  8
FF
  5
525
  2
*D5
 10
-9.828614
 20
303.921394
 30
0.0
 11
56.021386
 21
310.588094
 31
0.0
 12
-14.486214
 22
0.0
 32
0.0
  1
132
 13
121.871386
 23
235.405394
 33
0.0
 14
-9.828614
 24
260.705394
 34
0.0
 50
180.0
  3
FSTD1
  0
LINE
  8
15
  5
526
 10
89.042986
 20
243.405394
 30
0.0
 11
79.271386
 21
243.405394
 31
0.0
  0
LINE
  8
16
  5
527
 10
116.871386
 20
186.905394
 30
0.0
 11
83.571386
 21
186.905394
 31
0.0
  0
LINE
  8
16
  5
528
 10
116.871386
 20
205.905394
 30
0.0
 11
83.571386
 21
205.905394
 31
0.0
  0
LINE
  8
16
  5
529
 10
95.699786
 20
238.405394
 30
0.0
 11
79.771386
 21
238.405394
 31
0.0
  0
DIMENSION
  8
FF
  5
52A
  2
*D6
 10
-9.828614
 20
288.389394
 30
0.0
 11
34.721386
 21
295.056094
 31
0.0
 12
-14.486214
 22
0.0
 32
0.0
  1
89
 13
79.271386
 23
261.905394
 33
0.0
 14
-9.828614
 24
260.705394
 34
0.0
 50
180.0
  3
FSTD1
  0
DIMENSION
  8
FF
  5
52B
  2
*D11
 10
-9.828614
 20
272.153394
 30
0.0
 11
6.521386
 21
278.820094
 31
0.0
 12
-14.486214
 22
0.0
 32
0.0
  1
32.7
 13
22.871386
 23
259.905394
 33
0.0
 14
-9.828614
 24
260.705394
 34
0.0
 50
180.0
  3
FSTD2
  0
LINE
  8
15
  5
52C
 10
37.971386
 20
258.905394
 30
0.0
 11
-9.328614
 21
258.905394
 31
0.0
  0
LINE
  8
16
  6
CONTINUOUS
  5
52D
 10
-9.328614
 20
224.905394
 30
0.0
 11
-9.328614
 21
258.705394
 31
0.0
  0
LINE
  8
15
  5
52E
 10
-9.828614
 20
258.705394
 30
0.0
 11
-9.828614
 21
224.905394
 31
0.0
  0
LINE
  8
15
  5
52F
 10
-9.828614
 20
224.905394
 30
0.0
 11
-9.328614
 21
224.905394
 31
0.0
  0
LINE
  8
16
  5
530
 10
-9.828614
 20
242.905394
 30
0.0
 11
-9.328614
 21
242.905394
 31
0.0
  0
LINE
  8
15
  6
CONTINUOUS
  5
531
 10
-9.328614
 20
258.705394
 30
0.0
 11
-9.328614
 21
258.905394
 31
0.0
  0
LINE
  8
15
  5
532
 10
-9.328614
 20
258.705394
 30
0.0
 11
-9.828614
 21
258.705394
 31
0.0
  0
LINE
  8
16
  5
533
 10
79.771386
 20
239.905394
 30
0.0
 11
79.771386
 21
205.905394
 31
0.0
  0
LINE
  8
16
  5
534
 10
79.771386
 20
239.405394
 30
0.0
 11
79.771386
 21
205.905394
 31
0.0
  0
LINE
  8
16
  5
535
 10
22.871386
 20
257.905394
 30
0.0
 11
22.871386
 21
216.905394
 31
0.0
  0
LINE
  8
16
  5
536
 10
11.671386
 20
258.905394
 30
0.0
 11
11.671386
 21
227.105394
 31
0.0
  0
LINE
  8
16
  5
537
 10
11.671386
 20
196.405394
 30
0.0
 11
11.671386
 21
258.905394
 31
0.0
  0
CIRCLE
  8
17
  5
538
 10
42.171386
 20
210.657394
 30
0.0
 40
1.9
  0
CIRCLE
  8
17
  5
539
 10
42.171386
 20
182.157394
 30
0.0
 40
1.9
  0
CIRCLE
  8
17
  5
53A
 10
42.171386
 20
210.657394
 30
0.0
 40
3.5
  0
CIRCLE
  8
17
  5
53B
 10
42.171386
 20
182.157394
 30
0.0
 40
3.5
  0
LINE
  8
16
  5
53C
 10
48.484586
 20
228.605394
 30
0.0
 11
24.971386
 21
228.605394
 31
0.0
  0
LINE
  8
16
  5
53D
 10
23.971386
 20
227.605394
 30
0.0
 11
23.971386
 21
196.405394
 31
0.0
  0
LINE
  8
16
  5
53E
 10
22.871386
 20
202.405394
 30
0.0
 11
22.871386
 21
190.405394
 31
0.0
  0
LINE
  8
16
  5
53F
 10
21.871386
 20
190.405394
 30
0.0
 11
21.871386
 21
175.905394
 31
0.0
  0
LINE
  8
16
  5
540
 10
22.871386
 20
175.905394
 30
0.0
 11
21.871386
 21
175.905394
 31
0.0
  0
LINE
  8
16
  5
541
 10
22.871386
 20
190.405394
 30
0.0
 11
21.871386
 21
190.405394
 31
0.0
  0
LINE
  8
16
  5
542
 10
21.871386
 20
216.905394
 30
0.0
 11
21.871386
 21
202.405394
 31
0.0
  0
LINE
  8
16
  5
543
 10
22.871386
 20
202.405394
 30
0.0
 11
21.871386
 21
202.405394
 31
0.0
  0
LINE
  8
16
  5
544
 10
22.871386
 20
216.905394
 30
0.0
 11
21.871386
 21
216.905394
 31
0.0
  0
ARC
  8
16
  5
545
 10
24.971386
 20
227.605394
 30
0.0
 40
1.0
 50
90.0
 51
180.0
  0
LINE
  8
16
  5
546
 10
71.371386
 20
219.405394
 30
0.0
 11
71.371386
 21
196.405394
 31
0.0
  0
LINE
  8
16
  5
547
 10
83.571386
 20
205.905394
 30
0.0
 11
83.571386
 21
186.905394
 31
0.0
  0
LINE
  8
16
  5
548
 10
83.571386
 20
205.905394
 30
0.0
 11
83.571386
 21
186.905394
 31
0.0
  0
LINE
  8
16
  5
549
 10
76.571386
 20
201.905394
 30
0.0
 11
76.571386
 21
198.405394
 31
0.0
  0
LINE
  8
16
  5
54A
 10
71.371386
 20
192.705394
 30
0.0
 11
44.171386
 21
192.705394
 31
0.0
  0
LINE
  8
16
  5
54B
 10
71.371386
 20
200.105394
 30
0.0
 11
44.171386
 21
200.105394
 31
0.0
  0
LINE
  8
16
  5
54C
 10
70.371386
 20
172.405394
 30
0.0
 11
51.371386
 21
172.405394
 31
0.0
  0
LINE
  8
16
  5
54D
 10
44.171386
 20
196.405394
 30
0.0
 11
44.171386
 21
192.705394
 31
0.0
  0
LINE
  8
16
  5
54E
 10
44.171386
 20
196.405394
 30
0.0
 11
44.171386
 21
200.105394
 31
0.0
  0
LINE
  8
16
  5
54F
 10
71.371386
 20
173.405394
 30
0.0
 11
71.371386
 21
196.405394
 31
0.0
  0
ARC
  8
16
  5
550
 10
70.371386
 20
173.405394
 30
0.0
 40
1.0
 50
270.0
 51
0.000003
  0
LINE
  8
16
  5
551
 10
76.571386
 20
190.405394
 30
0.0
 11
72.871386
 21
190.405394
 31
0.0
  0
LINE
  8
16
  5
552
 10
73.871386
 20
186.905394
 30
0.0
 11
83.571386
 21
186.905394
 31
0.0
  0
ARC
  8
16
  5
553
 10
73.871386
 20
187.905394
 30
0.0
 40
1.0
 50
180.0
 51
270.0
  0
LINE
  8
16
  5
554
 10
76.571386
 20
190.405394
 30
0.0
 11
76.571386
 21
194.405394
 31
0.0
  0
ARC
  8
16
  5
555
 10
77.071386
 20
195.905394
 30
0.0
 40
1.0
 50
270.0
 51
0.0
  0
ARC
  8
16
  5
556
 10
77.071386
 20
194.405394
 30
0.0
 40
0.5
 50
90.0
 51
180.0
  0
ARC
  8
16
  5
557
 10
77.071386
 20
196.905394
 30
0.0
 40
1.0
 50
0.0
 51
90.0
  0
ARC
  8
16
  5
558
 10
77.071386
 20
198.405394
 30
0.0
 40
0.5
 50
180.0
 51
270.0
  0
LINE
  8
16
  5
559
 10
78.071386
 20
195.905394
 30
0.0
 11
78.071386
 21
196.905394
 31
0.0
  0
LINE
  8
16
  5
55A
 10
70.371386
 20
220.405394
 30
0.0
 11
51.371386
 21
220.405394
 31
0.0
  0
LINE
  8
16
  5
55B
 10
51.371386
 20
220.405394
 30
0.0
 11
51.371386
 21
225.069394
 31
0.0
  0
ARC
  8
16
  5
55C
 10
48.484586
 20
226.605394
 30
0.0
 40
2.0
 50
30.0
 51
90.0
  0
ARC
  8
16
  5
55D
 10
49.371386
 20
225.069394
 30
0.0
 40
2.0
 50
0.0
 51
30.0
  0
LINE
  8
16
  5
55E
 10
51.103386
 20
226.069394
 30
0.0
 11
50.216586
 21
227.605394
 31
0.0
  0
LINE
  8
16
  5
55F
 10
76.071386
 20
202.405394
 30
0.0
 11
72.871386
 21
202.405394
 31
0.0
  0
LINE
  8
16
  5
560
 10
73.871386
 20
205.905394
 30
0.0
 11
83.571386
 21
205.905394
 31
0.0
  0
ARC
  8
16
  5
561
 10
73.871386
 20
204.905394
 30
0.0
 40
1.0
 50
90.0
 51
180.0
  0
ARC
  8
16
  5
562
 10
76.071386
 20
201.905394
 30
0.0
 40
0.5
 50
0.0
 51
90.0
  0
ARC
  8
16
  5
563
 10
70.371386
 20
219.405394
 30
0.0
 40
1.0
 50
0.0
 51
90.0
  0
LINE
  8
15
  6
CONTINUOUS
  5
564
 10
40.521386
 20
243.405394
 30
0.0
 11
75.171386
 21
243.405394
 31
0.0
  0
LINE
  8
15
  5
565
 10
42.071386
 20
243.405394
 30
0.0
 11
38.971386
 21
243.405394
 31
0.0
  0
LINE
  8
16
  5
566
 10
37.971386
 20
258.905394
 30
0.0
 11
11.671386
 21
258.905394
 31
0.0
  0
LINE
  8
15
  5
567
 10
38.971386
 20
257.905394
 30
0.0
 11
38.971386
 21
244.405394
 31
0.0
  0
LINE
  8
16
  5
568
 10
23.871386
 20
243.405394
 30
0.0
 11
40.521386
 21
243.405394
 31
0.0
  0
ARC
  8
16
  5
569
 10
17.921386
 20
235.405394
 30
0.0
 40
9.2
 50
343.2
 51
16.8
  0
LINE
  8
16
  5
56A
 10
23.371386
 20
239.405394
 30
0.0
 11
23.371386
 21
231.405394
 31
0.0
  0
LINE
  8
16
  5
56B
 10
23.371386
 20
231.905394
 30
0.0
 11
23.371386
 21
238.905394
 31
0.0
  0
LINE
  8
16
  5
56C
 10
24.371386
 20
238.905394
 30
0.0
 11
24.371386
 21
231.905394
 31
0.0
  0
LINE
  8
16
  5
56D
 10
22.871386
 20
231.405394
 30
0.0
 11
22.871386
 21
239.405394
 31
0.0
  0
LINE
  8
16
  5
56E
 10
24.371386
 20
231.905394
 30
0.0
 11
24.371386
 21
238.905394
 31
0.0
  0
LINE
  8
16
  5
56F
 10
24.371386
 20
231.905394
 30
0.0
 11
23.371386
 21
231.905394
 31
0.0
  0
LINE
  8
16
  5
570
 10
23.371386
 20
234.405394
 30
0.0
 11
24.371386
 21
235.405394
 31
0.0
  0
LINE
  8
16
  5
571
 10
23.371386
 20
235.405394
 30
0.0
 11
24.371386
 21
236.405394
 31
0.0
  0
LINE
  8
16
  5
572
 10
23.371386
 20
231.405394
 30
0.0
 11
22.871386
 21
231.405394
 31
0.0
  0
ARC
  8
16
  5
573
 10
25.523786
 20
233.185394
 30
0.0
 40
1.28
 50
270.0
 51
343.722
  0
LINE
  8
16
  5
574
 10
25.523786
 20
231.905394
 30
0.0
 11
24.371386
 21
231.905394
 31
0.0
  0
LINE
  8
16
  5
575
 10
23.371386
 20
238.905394
 30
0.0
 11
24.371386
 21
238.905394
 31
0.0
  0
ARC
  8
16
  5
576
 10
23.871386
 20
244.405394
 30
0.0
 40
1.0
 50
180.0
 51
270.0
  0
LINE
  8
16
  5
577
 10
22.871386
 20
239.405394
 30
0.0
 11
23.371386
 21
239.405394
 31
0.0
  0
ARC
  8
16
  5
578
 10
25.523786
 20
237.625394
 30
0.0
 40
1.28
 50
16.2783
 51
90.0
  0
LINE
  8
16
  5
579
 10
24.371386
 20
238.905394
 30
0.0
 11
25.523786
 21
238.905394
 31
0.0
  0
ARC
  8
15
  5
57A
 10
39.971386
 20
244.405394
 30
0.0
 40
1.0
 50
180.0
 51
270.0
  0
ARC
  8
16
  5
57B
 10
21.871386
 20
257.905394
 30
0.0
 40
1.0
 50
0.0
 51
90.0
  0
LINE
  8
15
  5
57C
 10
38.971386
 20
257.905394
 30
0.0
 11
38.971386
 21
245.905394
 31
0.0
  0
ARC
  8
15
  5
57D
 10
37.971386
 20
257.905394
 30
0.0
 40
1.0
 50
0.0
 51
90.0
  0
ARC
  8
15
  5
57E
 10
37.971386
 20
257.905394
 30
0.0
 40
1.0
 50
0.0
 51
90.0
  0
LINE
  8
15
  6
CONTINUOUS
  5
57F
 10
79.271386
 20
259.905394
 30
0.0
 11
79.271386
 21
258.405394
 31
0.0
  0
LINE
  8
15
  5
580
 10
75.271386
 20
256.405394
 30
0.0
 11
75.271386
 21
259.905394
 31
0.0
  0
LINE
  8
15
  6
CONTINUOUS
  5
581
 10
75.271386
 20
247.405394
 30
0.0
 11
75.267673
 21
243.400748
 31
0.0
  0
LINE
  8
15
  6
CONTINUOUS
  5
582
 10
79.271386
 20
245.405394
 30
0.0
 11
79.271386
 21
243.405394
 31
0.0
  0
ARC
  8
16
  5
583
 10
75.171386
 20
242.405394
 30
0.0
 40
1.0
 50
0.0
 51
90.0
  0
LINE
  8
16
  5
584
 10
70.785386
 20
238.405394
 30
0.0
 11
79.771386
 21
238.405394
 31
0.0
  0
LINE
  8
16
  5
585
 10
70.078186
 20
238.697394
 30
0.0
 11
65.664186
 21
243.113394
 31
0.0
  0
ARC
  8
16
  5
586
 10
64.956986
 20
242.405394
 30
0.0
 40
1.0
 50
45.0
 51
90.0
  0
ARC
  8
16
  5
587
 10
70.785386
 20
239.405394
 30
0.0
 40
1.0
 50
225.0
 51
270.0
  0
ARC
  8
16
  5
588
 10
79.271386
 20
239.905394
 30
0.0
 40
0.5
 50
0.0
 51
90.0
  0
LINE
  8
16
  5
589
 10
79.271386
 20
239.405394
 30
0.0
 11
79.271386
 21
243.405394
 31
0.0
  0
LINE
  8
16
  5
58A
 10
79.771386
 20
239.405394
 30
0.0
 11
76.171386
 21
239.405394
 31
0.0
  0
LINE
  8
16
  5
58B
 10
76.171386
 20
239.405394
 30
0.0
 11
76.171386
 21
242.405394
 31
0.0
  0
ARC
  8
15
  5
58C
 10
74.771386
 20
247.405394
 30
0.0
 40
0.5
 50
0.0
 51
90.0
  0
ARC
  8
15
  5
58D
 10
74.771386
 20
256.405394
 30
0.0
 40
0.5
 50
270.0
 51
0.0
  0
LINE
  8
15
  5
58E
 10
65.771386
 20
248.905394
 30
0.0
 11
65.771386
 21
254.905394
 31
0.0
  0
LINE
  8
16
  5
58F
 10
73.771386
 20
248.905394
 30
0.0
 11
73.771386
 21
254.905394
 31
0.0
  0
LINE
  8
15
  5
590
 10
73.771386
 20
248.905394
 30
0.0
 11
65.771386
 21
248.905394
 31
0.0
  0
LINE
  8
15
  6
CONTINUOUS
  5
591
 10
73.771386
 20
248.905394
 30
0.0
 11
73.771386
 21
247.905394
 31
0.0
  0
LINE
  8
15
  5
592
 10
73.771386
 20
247.905394
 30
0.0
 11
74.771386
 21
247.905394
 31
0.0
  0
LINE
  8
15
  5
593
 10
65.771386
 20
254.905394
 30
0.0
 11
73.771386
 21
254.905394
 31
0.0
  0
LINE
  8
15
  6
CONTINUOUS
  5
594
 10
73.771386
 20
254.905394
 30
0.0
 11
73.771386
 21
255.905394
 31
0.0
  0
LINE
  8
15
  5
595
 10
74.771386
 20
255.905394
 30
0.0
 11
73.771386
 21
255.905394
 31
0.0
  0
LINE
  8
16
  6
CONTINUOUS
  5
596
 10
75.271386
 20
256.405394
 30
0.0
 11
75.271386
 21
247.405394
 31
0.0
  0
LINE
  8
15
  5
597
 10
85.921386
 20
257.681394
 30
0.0
 11
85.921386
 21
246.133394
 31
0.0
  0
LINE
  8
16
  5
598
 10
79.271386
 20
245.405394
 30
0.0
 11
79.271386
 21
258.405394
 31
0.0
  0
LINE
  8
16
  5
599
 10
80.271386
 20
258.005394
 30
0.0
 11
80.271386
 21
245.805394
 31
0.0
  0
LINE
  8
16
  5
59A
 10
80.271386
 20
245.805394
 30
0.0
 11
80.271386
 21
258.005394
 31
0.0
  0
LINE
  8
16
  5
59B
 10
81.771386
 20
257.681394
 30
0.0
 11
81.771386
 21
246.133394
 31
0.0
  0
LINE
  8
16
  5
59C
 10
80.271386
 20
250.657394
 30
0.0
 11
81.771386
 21
252.157394
 31
0.0
  0
LINE
  8
16
  5
59D
 10
80.271386
 20
251.657394
 30
0.0
 11
81.771386
 21
253.157394
 31
0.0
  0
LINE
  8
16
  5
59E
 10
81.771386
 20
246.133394
 30
0.0
 11
81.771386
 21
257.681394
 31
0.0
  0
LINE
  8
15
  5
59F
 10
81.771386
 20
245.805394
 30
0.0
 11
80.271386
 21
245.805394
 31
0.0
  0
LINE
  8
15
  6
CONTINUOUS
  5
5A0
 10
80.271386
 20
245.805394
 30
0.0
 11
80.271386
 21
245.405394
 31
0.0
  0
LINE
  8
15
  5
5A1
 10
80.271386
 20
245.405394
 30
0.0
 11
79.271386
 21
245.405394
 31
0.0
  0
LINE
  8
15
  6
CONTINUOUS
  5
5A2
 10
81.771386
 20
246.133394
 30
0.0
 11
81.771386
 21
245.805394
 31
0.0
  0
LINE
  8
15
  5
5A3
 10
85.921386
 20
246.133394
 30
0.0
 11
81.771386
 21
246.133394
 31
0.0
  0
LINE
  8
16
  5
5A4
 10
85.921386
 20
248.905394
 30
0.0
 11
81.771386
 21
248.905394
 31
0.0
  0
LINE
  8
15
  5
5A5
 10
80.271386
 20
258.005394
 30
0.0
 11
81.771386
 21
258.005394
 31
0.0
  0
LINE
  8
15
  6
CONTINUOUS
  5
5A6
 10
80.271386
 20
258.405394
 30
0.0
 11
80.271386
 21
258.005394
 31
0.0
  0
LINE
  8
15
  5
5A7
 10
79.271386
 20
258.405394
 30
0.0
 11
80.271386
 21
258.405394
 31
0.0
  0
LINE
  8
15
  6
CONTINUOUS
  5
5A8
 10
81.771386
 20
258.005394
 30
0.0
 11
81.771386
 21
257.681394
 31
0.0
  0
LINE
  8
15
  5
5A9
 10
81.771386
 20
257.681394
 30
0.0
 11
85.921386
 21
257.681394
 31
0.0
  0
LINE
  8
16
  5
5AA
 10
85.921386
 20
254.905394
 30
0.0
 11
81.771386
 21
254.905394
 31
0.0
  0
LINE
  8
15
  5
5AB
 10
79.271386
 20
259.905394
 30
0.0
 11
75.271386
 21
259.905394
 31
0.0
  0
LINE
  8
FF
  5
5AC
 10
237.5908
 20
256.177394
 30
0.0
 11
202.268
 21
292.441394
 31
0.0
  0
LINE
  8
FF
  5
5AD
 10
201.4948
 20
240.933394
 30
0.0
 11
168.5508
 21
240.933394
 31
0.0
  0
TEXT
  8
FF
  5
5AE
 10
166.428
 20
252.913394
 30
0.0
 40
8.0
  1
補助端子
 41
0.833333
  0
LINE
  8
15
  5
5AF
 10
121.871386
 20
233.405394
 30
0.0
 11
121.871386
 21
196.405394
 31
0.0
  0
LINE
  8
16
  5
5B0
 10
116.871386
 20
238.405394
 30
0.0
 11
116.871386
 21
196.405394
 31
0.0
  0
LINE
  8
15
  6
CONTINUOUS
  5
5B1
 10
95.699786
 20
238.405394
 30
0.0
 11
116.871386
 21
238.405394
 31
0.0
  0
LINE
  8
15
  5
5B2
 10
90.456986
 20
242.821394
 30
0.0
 11
94.285386
 21
238.993394
 31
0.0
  0
ARC
  8
15
  5
5B3
 10
89.042986
 20
241.405394
 30
0.0
 40
2.0
 50
45.0
 51
90.0
  0
ARC
  8
15
  5
5B4
 10
95.699786
 20
240.405394
 30
0.0
 40
2.0
 50
225.0
 51
270.0
  0
LINE
  8
15
  5
5B5
 10
121.871386
 20
233.405394
 30
0.0
 11
120.630986
 21
238.037394
 31
0.0
  0
ARC
  8
15
  5
5B6
 10
120.147786
 20
237.905394
 30
0.0
 40
0.5
 50
15.0
 51
90.0
  0
LINE
  8
15
  5
5B7
 10
116.871386
 20
238.405394
 30
0.0
 11
120.147786
 21
238.405394
 31
0.0
  0
TEXT
  8
FF
  5
5B8
 10
168.6448
 20
244.685394
 30
0.0
 40
6.0
  1
M3.5
 41
1.181776
  0
LINE
  8
FF
  5
5B9
 10
233.5308
 20
222.193394
 30
0.0
 11
201.4948
 21
240.933394
 31
0.0
  0
LINE
  8
FF
  5
5BA
 10
233.5308
 20
222.193394
 30
0.0
 11
224.9844
 21
230.837794
 31
0.0
  0
LINE
  8
0C
  5
5BB
 10
240.9708
 20
208.905394
 30
0.0
 11
240.9708
 21
236.405394
 31
0.0
  0
LINE
  8
0C
  5
5BC
 10
240.9708
 20
236.405394
 30
0.0
 11
240.9708
 21
210.905394
 31
0.0
  0
LINE
  8
0C
  5
5BD
 10
239.3708
 20
225.705394
 30
0.0
 11
235.4708
 21
225.705394
 31
0.0
  0
ARC
  8
0C
  5
5BE
 10
235.9708
 20
210.905394
 30
0.0
 40
5.0
 50
270.0
 51
0.0
  0
ARC
  8
0C
  5
5BF
 10
235.9708
 20
181.905394
 30
0.0
 40
5.0
 50
0.0
 51
90.0
  0
CIRCLE
  8
0D
  5
5C0
 10
235.9708
 20
196.405394
 30
0.0
 40
4.0
  0
LINE
  8
0D
  5
5C1
 10
239.9428
 20
196.905394
 30
0.0
 11
236.9708
 21
196.905394
 31
0.0
  0
LINE
  8
0D
  5
5C2
 10
239.9428
 20
195.905394
 30
0.0
 11
236.9708
 21
195.905394
 31
0.0
  0
ARC
  8
0C
  5
5C3
 10
235.9708
 20
210.905394
 30
0.0
 40
5.0
 50
270.0
 51
0.0
  0
ARC
  8
0C
  5
5C4
 10
235.9708
 20
181.905394
 30
0.0
 40
5.0
 50
0.0
 51
90.0
  0
ARC
  8
0D
  5
5C5
 10
238.7708
 20
179.105394
 30
0.0
 40
0.5
 50
270.0
 51
0.0
  0
ARC
  8
0D
  5
5C6
 10
238.7708
 20
176.205394
 30
0.0
 40
0.5
 50
0.0
 51
90.0
  0
ARC
  8
0D
  5
5C7
 10
238.7708
 20
223.205394
 30
0.0
 40
0.5
 50
0.0
 51
90.0
  0
ARC
  8
0D
  5
5C8
 10
238.7708
 20
216.605394
 30
0.0
 40
0.5
 50
270.0
 51
0.0
  0
ARC
  8
0D
  5
5C9
 10
238.7708
 20
213.705394
 30
0.0
 40
0.5
 50
0.0
 51
90.0
  0
LINE
  8
0C
  5
5CA
 10
229.4708
 20
196.405394
 30
0.0
 11
229.4708
 21
228.105394
 31
0.0
  0
LINE
  8
0C
  5
5CB
 10
229.4708
 20
188.905394
 30
0.0
 11
229.4708
 21
203.905394
 31
0.0
  0
ARC
  8
0D
  5
5CC
 10
232.1708
 20
185.705394
 30
0.0
 40
0.5
 50
90.0
 51
180.0
  0
LINE
  8
0D
  5
5CD
 10
238.7708
 20
176.705394
 30
0.0
 11
232.1708
 21
176.705394
 31
0.0
  0
ARC
  8
0D
  5
5CE
 10
232.1708
 20
176.205394
 30
0.0
 40
0.5
 50
90.0
 51
180.0
  0
LINE
  8
0D
  5
5CF
 10
236.7308
 20
171.645394
 30
0.0
 11
234.2108
 21
174.165394
 31
0.0
  0
LINE
  8
0D
  5
5D0
 10
236.7308
 20
174.165394
 30
0.0
 11
234.2108
 21
171.645394
 31
0.0
  0
CIRCLE
  8
0D
  5
5D1
 10
235.4708
 20
182.405394
 30
0.0
 40
3.0
  0
LINE
  8
0D
  5
5D2
 10
238.7708
 20
178.605394
 30
0.0
 11
232.1708
 21
178.605394
 31
0.0
  0
ARC
  8
0D
  5
5D3
 10
232.1708
 20
179.105394
 30
0.0
 40
0.5
 50
180.0
 51
270.0
  0
LINE
  8
0D
  5
5D4
 10
231.6708
 20
185.705394
 30
0.0
 11
231.6708
 21
179.105394
 31
0.0
  0
LINE
  8
0D
  5
5D5
 10
236.7308
 20
181.145394
 30
0.0
 11
234.2108
 21
183.665394
 31
0.0
  0
LINE
  8
0D
  5
5D6
 10
236.7308
 20
183.665394
 30
0.0
 11
234.2108
 21
181.145394
 31
0.0
  0
LINE
  8
0C
  5
5D7
 10
231.4708
 20
186.905394
 30
0.0
 11
235.9708
 21
186.905394
 31
0.0
  0
LINE
  8
0D
  5
5D8
 10
238.5228
 20
186.205394
 30
0.0
 11
232.1708
 21
186.205394
 31
0.0
  0
ARC
  8
0C
  5
5D9
 10
231.4708
 20
188.905394
 30
0.0
 40
2.0
 50
180.0
 51
270.0
  0
LINE
  8
0D
  5
5DA
 10
234.9708
 20
196.905394
 30
0.0
 11
232.0028
 21
196.905394
 31
0.0
  0
LINE
  8
0D
  5
5DB
 10
234.9708
 20
195.905394
 30
0.0
 11
232.0028
 21
195.905394
 31
0.0
  0
ARC
  8
0D
  5
5DC
 10
236.9708
 20
197.405394
 30
0.0
 40
0.5
 50
180.0
 51
270.0
  0
ARC
  8
0D
  5
5DD
 10
236.9708
 20
195.405394
 30
0.0
 40
0.5
 50
90.0
 51
180.0
  0
ARC
  8
0D
  5
5DE
 10
234.9708
 20
195.405394
 30
0.0
 40
0.5
 50
0.0
 51
90.0
  0
ARC
  8
0D
  5
5DF
 10
234.9708
 20
197.405394
 30
0.0
 40
0.5
 50
270.0
 51
0.0
  0
LINE
  8
0D
  5
5E0
 10
235.4708
 20
198.905394
 30
0.0
 11
235.4708
 21
197.405394
 31
0.0
  0
LINE
  8
0D
  5
5E1
 10
236.4708
 20
198.905394
 30
0.0
 11
236.4708
 21
197.405394
 31
0.0
  0
LINE
  8
0D
  5
5E2
 10
235.4708
 20
198.905394
 30
0.0
 11
236.4708
 21
198.905394
 31
0.0
  0
LINE
  8
0D
  5
5E3
 10
235.4708
 20
193.905394
 30
0.0
 11
236.4708
 21
193.905394
 31
0.0
  0
LINE
  8
0D
  5
5E4
 10
236.4708
 20
195.405394
 30
0.0
 11
236.4708
 21
193.905394
 31
0.0
  0
LINE
  8
0D
  5
5E5
 10
235.4708
 20
195.405394
 30
0.0
 11
235.4708
 21
193.905394
 31
0.0
  0
LINE
  8
0C
  5
5E6
 10
231.5708
 20
205.905394
 30
0.0
 11
231.5708
 21
228.105394
 31
0.0
  0
CIRCLE
  8
0D
  5
5E7
 10
235.4708
 20
210.405394
 30
0.0
 40
3.0
  0
LINE
  8
0D
  5
5E8
 10
231.6708
 20
213.705394
 30
0.0
 11
231.6708
 21
207.105394
 31
0.0
  0
LINE
  8
0C
  5
5E9
 10
231.4708
 20
205.905394
 30
0.0
 11
235.9708
 21
205.905394
 31
0.0
  0
LINE
  8
0D
  5
5EA
 10
238.5228
 20
206.605394
 30
0.0
 11
232.1708
 21
206.605394
 31
0.0
  0
ARC
  8
0C
  5
5EB
 10
231.4708
 20
203.905394
 30
0.0
 40
2.0
 50
90.0
 51
180.0
  0
ARC
  8
0D
  5
5EC
 10
232.1708
 20
207.105394
 30
0.0
 40
0.5
 50
180.0
 51
270.0
  0
LINE
  8
0D
  5
5ED
 10
238.7708
 20
214.205394
 30
0.0
 11
232.1708
 21
214.205394
 31
0.0
  0
ARC
  8
0D
  5
5EE
 10
232.1708
 20
213.705394
 30
0.0
 40
0.5
 50
90.0
 51
180.0
  0
LINE
  8
0D
  5
5EF
 10
236.7308
 20
209.145394
 30
0.0
 11
234.2108
 21
211.665394
 31
0.0
  0
LINE
  8
0D
  5
5F0
 10
236.7308
 20
211.665394
 30
0.0
 11
234.2108
 21
209.145394
 31
0.0
  0
LINE
  8
FF
  5
5F1
 10
221.8072
 20
225.406594
 30
0.0
 11
233.5308
 21
222.193394
 31
0.0
  0
LINE
  8
0D
  6
PHANTOM
  5
5F2
 10
217.4724
 20
228.605394
 30
0.0
 11
229.4708
 21
228.605394
 31
0.0
  0
CIRCLE
  8
0D
  5
5F3
 10
235.4708
 20
219.905394
 30
0.0
 40
3.0
  0
LINE
  8
0D
  5
5F4
 10
231.6708
 20
223.205394
 30
0.0
 11
231.6708
 21
216.605394
 31
0.0
  0
LINE
  8
0D
  5
5F5
 10
238.7708
 20
216.105394
 30
0.0
 11
232.1708
 21
216.105394
 31
0.0
  0
ARC
  8
0D
  5
5F6
 10
232.1708
 20
216.605394
 30
0.0
 40
0.5
 50
180.0
 51
270.0
  0
LINE
  8
0D
  5
5F7
 10
236.7308
 20
221.165394
 30
0.0
 11
234.2108
 21
218.645394
 31
0.0
  0
LINE
  8
0D
  5
5F8
 10
236.7308
 20
218.645394
 30
0.0
 11
234.2108
 21
221.165394
 31
0.0
  0
LINE
  8
0C
  5
5F9
 10
231.5708
 20
225.705394
 30
0.0
 11
235.4708
 21
225.705394
 31
0.0
  0
LINE
  8
0D
  5
5FA
 10
238.7708
 20
223.705394
 30
0.0
 11
232.1708
 21
223.705394
 31
0.0
  0
ARC
  8
0C
  5
5FB
 10
231.0708
 20
228.105394
 30
0.0
 40
0.5
 50
0.0
 51
90.0
  0
ARC
  8
0C
  5
5FC
 10
229.9708
 20
228.105394
 30
0.0
 40
0.5
 50
90.0
 51
180.0
  0
LINE
  8
0C
  5
5FD
 10
229.9708
 20
228.605394
 30
0.0
 11
231.0708
 21
228.605394
 31
0.0
  0
ARC
  8
0D
  5
5FE
 10
232.1708
 20
223.205394
 30
0.0
 40
0.5
 50
90.0
 51
180.0
  0
LINE
  8
0C
  5
5FF
 10
282.4708
 20
189.405394
 30
0.0
 11
282.4708
 21
203.405394
 31
0.0
  0
LINE
  8
0C
  5
600
 10
264.4708
 20
189.405394
 30
0.0
 11
264.4708
 21
203.405394
 31
0.0
  0
LINE
  8
0C
  5
601
 10
240.9708
 20
183.905394
 30
0.0
 11
240.9708
 21
208.905394
 31
0.0
  0
LINE
  8
0D
  5
602
 10
239.2708
 20
185.661394
 30
0.0
 11
239.2708
 21
179.105394
 31
0.0
  0
LINE
  8
0C
  5
603
 10
282.4708
 20
189.405394
 30
0.0
 11
264.4708
 21
189.405394
 31
0.0
  0
LINE
  8
0C
  5
604
 10
239.3708
 20
207.241394
 30
0.0
 11
239.3708
 21
228.105394
 31
0.0
  0
LINE
  8
0D
  5
605
 10
239.2708
 20
213.705394
 30
0.0
 11
239.2708
 21
207.105394
 31
0.0
  0
LINE
  8
0D
  5
606
 10
239.2708
 20
223.205394
 30
0.0
 11
239.2708
 21
216.605394
 31
0.0
  0
ARC
  8
0C
  5
607
 10
239.8708
 20
228.105394
 30
0.0
 40
0.5
 50
90.0
 51
180.0
  0
LINE
  8
0C
  5
608
 10
240.9708
 20
228.605394
 30
0.0
 11
239.8708
 21
228.605394
 31
0.0
  0
LINE
  8
0C
  5
609
 10
282.4708
 20
203.405394
 30
0.0
 11
264.4708
 21
203.405394
 31
0.0
  0
CIRCLE
  8
0D
  5
60A
 10
241.4708
 20
251.905394
 30
0.0
 40
5.77352
  0
LINE
  8
0D
  5
60B
 10
241.4708
 20
257.681394
 30
0.0
 11
236.4708
 21
254.793394
 31
0.0
  0
LINE
  8
0D
  5
60C
 10
236.4708
 20
249.017394
 30
0.0
 11
241.4708
 21
246.133394
 31
0.0
  0
LINE
  8
0B
  5
60D
 10
234.4708
 20
259.905394
 30
0.0
 11
248.4708
 21
259.905394
 31
0.0
  0
LINE
  8
0C
  5
60E
 10
241.4028
 20
237.645394
 30
0.0
 11
237.7628
 21
240.805394
 31
0.0
  0
LINE
  8
FF
  5
60F
 10
237.5908
 20
256.177394
 30
0.0
 11
231.6516
 21
266.783794
 31
0.0
  0
LINE
  8
FF
  5
610
 10
227.144
 20
262.393394
 30
0.0
 11
237.5908
 21
256.177394
 31
0.0
  0
LINE
  8
0B
  5
611
 10
234.4708
 20
259.905394
 30
0.0
 11
233.4708
 21
258.905394
 31
0.0
  0
LINE
  8
0C
  5
612
 10
233.4708
 20
246.937394
 30
0.0
 11
237.7628
 21
240.805394
 31
0.0
  0
CIRCLE
  8
0D
  5
613
 10
234.4708
 20
235.405394
 30
0.0
 40
3.5
  0
CIRCLE
  8
0D
  5
614
 10
234.4708
 20
235.405394
 30
0.0
 40
4.0
  0
LINE
  8
0D
  5
615
 10
235.9428
 20
236.877394
 30
0.0
 11
233.0028
 21
233.937394
 31
0.0
  0
LINE
  8
0D
  5
616
 10
233.0028
 20
236.877394
 30
0.0
 11
235.9428
 21
233.937394
 31
0.0
  0
LINE
  8
0D
  5
617
 10
236.4708
 20
254.793394
 30
0.0
 11
236.4708
 21
249.017394
 31
0.0
  0
LINE
  8
0C
  5
618
 10
233.4708
 20
258.905394
 30
0.0
 11
233.4708
 21
246.937394
 31
0.0
  0
LINE
  8
0B
  5
619
 10
233.4708
 20
258.905394
 30
0.0
 11
231.4708
 21
258.905394
 31
0.0
  0
LINE
  8
0B
  5
61A
 10
231.4708
 20
258.905394
 30
0.0
 11
233.4708
 21
258.905394
 31
0.0
  0
ARC
  8
0B
  5
61B
 10
231.4708
 20
256.905394
 30
0.0
 40
2.0
 50
90.0
 51
180.0
  0
ARC
  8
0B
  5
61C
 10
231.4708
 20
256.905394
 30
0.0
 40
2.0
 50
90.0
 51
180.0
  0
LINE
  8
0B
  5
61E
 10
265.4708
 20
258.905394
 30
0.0
 11
266.4708
 21
259.905394
 31
0.0
  0
LINE
  8
0B
  5
61F
 10
280.4708
 20
259.905394
 30
0.0
 11
281.4708
 21
258.905394
 31
0.0
  0
LINE
  8
0B
  5
620
 10
249.4708
 20
258.905394
 30
0.0
 11
248.4708
 21
259.905394
 31
0.0
  0
ARC
  8
0C
  5
621
 10
261.7708
 20
242.913394
 30
0.0
 40
1.0
 50
210.0
 51
330.0
  0
LINE
  8
0C
  5
622
 10
266.4108
 20
245.305394
 30
0.0
 11
250.4708
 21
245.305394
 31
0.0
  0
LINE
  8
0C
  5
623
 10
267.5068
 20
243.405394
 30
0.0
 11
250.0788
 21
243.405394
 31
0.0
  0
LINE
  8
0C
  5
624
 10
260.9708
 20
245.905394
 30
0.0
 11
266.0628
 21
245.905394
 31
0.0
  0
LINE
  8
0B
  5
625
 10
249.4708
 20
258.905394
 30
0.0
 11
265.4708
 21
258.905394
 31
0.0
  0
LINE
  8
0C
  5
626
 10
249.4708
 20
258.905394
 30
0.0
 11
249.4708
 21
244.273394
 31
0.0
  0
LINE
  8
0C
  5
627
 10
257.0708
 20
238.405394
 30
0.0
 11
242.9708
 21
238.405394
 31
0.0
  0
LINE
  8
0C
  5
628
 10
253.5828
 20
238.405394
 30
0.0
 11
249.4708
 21
244.273394
 31
0.0
  0
LINE
  8
0C
  5
629
 10
256.9188
 20
238.405394
 30
0.0
 11
242.9708
 21
238.405394
 31
0.0
  0
ARC
  8
0C
  5
62A
 10
242.9708
 20
236.405394
 30
0.0
 40
2.0
 50
90.0
 51
180.0
  0
ARC
  8
0C
  5
62B
 10
242.9708
 20
236.405394
 30
0.0
 40
2.0
 50
90.0
 51
180.0
  0
ARC
  8
0C
  5
62C
 10
242.9708
 20
236.405394
 30
0.0
 40
2.0
 50
90.0
 51
180.0
  0
LINE
  8
0C
  5
62D
 10
239.9708
 20
233.033394
 30
0.0
 11
239.9708
 21
238.777394
 31
0.0
  0
ARC
  8
0C
  5
62E
 10
247.9708
 20
235.905394
 30
0.0
 40
8.5
 50
199.75
 51
214.56
  0
ARC
  8
0C
  5
62F
 10
259.8708
 20
242.605394
 30
0.0
 40
0.8
 50
30.0
 51
180.0
  0
ARC
  8
0C
  5
630
 10
257.0708
 20
240.405394
 30
0.0
 40
2.0
 50
270.0
 51
0.0
  0
LINE
  8
0C
  5
631
 10
260.5668
 20
243.005394
 30
0.0
 11
260.9068
 21
242.413394
 31
0.0
  0
LINE
  8
0C
  5
632
 10
259.0708
 20
242.605394
 30
0.0
 11
259.0708
 21
240.405394
 31
0.0
  0
LINE
  8
0D
  5
633
 10
246.4708
 20
249.017394
 30
0.0
 11
246.4708
 21
254.793394
 31
0.0
  0
LINE
  8
0C
  5
634
 10
250.4708
 20
258.905394
 30
0.0
 11
250.4708
 21
245.305394
 31
0.0
  0
LINE
  8
0D
  5
635
 10
241.4708
 20
246.133394
 30
0.0
 11
246.4708
 21
249.017394
 31
0.0
  0
LINE
  8
0D
  5
636
 10
246.4708
 20
254.793394
 30
0.0
 11
241.4708
 21
257.681394
 31
0.0
  0
LINE
  8
0B
  5
637
 10
250.4708
 20
258.905394
 30
0.0
 11
249.4708
 21
258.905394
 31
0.0
  0
CIRCLE
  8
0D
  5
638
 10
257.4708
 20
252.605394
 30
0.0
 40
3.0
  0
LINE
  8
0D
  5
639
 10
256.2108
 20
253.865394
 30
0.0
 11
258.7308
 21
251.345394
 31
0.0
  0
LINE
  8
0D
  5
63A
 10
256.2108
 20
251.345394
 30
0.0
 11
258.7308
 21
253.865394
 31
0.0
  0
LINE
  8
0D
  5
63B
 10
253.6708
 20
255.905394
 30
0.0
 11
253.6708
 21
249.305394
 31
0.0
  0
LINE
  8
0D
  5
63C
 10
261.2708
 20
255.905394
 30
0.0
 11
261.2708
 21
249.305394
 31
0.0
  0
LINE
  8
0C
  5
63D
 10
250.8708
 20
258.905394
 30
0.0
 11
250.8708
 21
246.905394
 31
0.0
  0
LINE
  8
0C
  5
63E
 10
255.9708
 20
247.305394
 30
0.0
 11
258.9708
 21
247.305394
 31
0.0
  0
LINE
  8
0D
  5
63F
 10
254.1708
 20
248.805394
 30
0.0
 11
260.7708
 21
248.805394
 31
0.0
  0
LINE
  8
0C
  5
640
 10
255.9708
 20
245.905394
 30
0.0
 11
258.9708
 21
245.905394
 31
0.0
  0
LINE
  8
0C
  5
641
 10
253.9708
 20
248.805394
 30
0.0
 11
253.9708
 21
245.305394
 31
0.0
  0
LINE
  8
0C
  5
642
 10
255.9708
 20
247.305394
 30
0.0
 11
255.9708
 21
245.305394
 31
0.0
  0
ARC
  8
0D
  5
643
 10
254.1708
 20
249.305394
 30
0.0
 40
0.5
 50
180.0
 51
270.0
  0
ARC
  8
0C
  5
644
 10
251.8708
 20
246.905394
 30
0.0
 40
1.0
 50
180.0
 51
270.0
  0
LINE
  8
0C
  5
645
 10
255.9708
 20
245.905394
 30
0.0
 11
255.9708
 21
245.305394
 31
0.0
  0
LINE
  8
0C
  5
646
 10
251.8708
 20
245.905394
 30
0.0
 11
253.9708
 21
245.905394
 31
0.0
  0
LINE
  8
0C
  5
647
 10
260.9708
 20
248.805394
 30
0.0
 11
260.9708
 21
245.305394
 31
0.0
  0
LINE
  8
0C
  5
648
 10
258.9708
 20
247.305394
 30
0.0
 11
258.9708
 21
245.305394
 31
0.0
  0
ARC
  8
0D
  5
649
 10
260.7708
 20
249.305394
 30
0.0
 40
0.5
 50
270.0
 51
0.0
  0
LINE
  8
0C
  5
64A
 10
258.9708
 20
245.905394
 30
0.0
 11
258.9708
 21
245.305394
 31
0.0
  0
LINE
  8
0D
  5
64B
 10
254.1708
 20
256.405394
 30
0.0
 11
260.7708
 21
256.405394
 31
0.0
  0
ARC
  8
0D
  5
64C
 10
254.1708
 20
255.905394
 30
0.0
 40
0.5
 50
90.0
 51
180.0
  0
ARC
  8
0D
  5
64D
 10
260.7708
 20
255.905394
 30
0.0
 40
0.5
 50
0.0
 51
90.0
  0
LINE
  8
0C
  5
64E
 10
278.5708
 20
241.905394
 30
0.0
 11
281.4708
 21
246.929394
 31
0.0
  0
LINE
  8
0C
  5
64F
 10
268.3708
 20
241.905394
 30
0.0
 11
265.4708
 21
246.929394
 31
0.0
  0
LINE
  8
0C
  5
650
 10
280.4708
 20
238.405394
 30
0.0
 11
266.4708
 21
238.405394
 31
0.0
  0
ARC
  8
0C
  5
651
 10
263.6708
 20
242.605394
 30
0.0
 40
0.8
 50
359.646
 51
150.0
  0
ARC
  8
0C
  5
652
 10
266.4708
 20
240.405394
 30
0.0
 40
2.0
 50
180.0
 51
270.0
  0
LINE
  8
0C
  5
653
 10
262.9788
 20
243.005394
 30
0.0
 11
262.6388
 21
242.413394
 31
0.0
  0
LINE
  8
0C
  5
654
 10
264.4708
 20
242.609394
 30
0.0
 11
264.4708
 21
240.405394
 31
0.0
  0
LINE
  8
0C
  5
655
 10
268.3708
 20
238.405394
 30
0.0
 11
268.3708
 21
241.905394
 31
0.0
  0
LINE
  8
0C
  5
656
 10
278.5708
 20
241.905394
 30
0.0
 11
278.5708
 21
238.405394
 31
0.0
  0
ARC
  8
0C
  5
657
 10
283.2708
 20
242.605394
 30
0.0
 40
0.8
 50
30.0
 51
180.354
  0
ARC
  8
0C
  5
658
 10
280.4708
 20
240.405394
 30
0.0
 40
2.0
 50
270.0
 51
0.0
  0
LINE
  8
0C
  5
659
 10
283.9668
 20
243.005394
 30
0.0
 11
284.3068
 21
242.413394
 31
0.0
  0
LINE
  8
0C
  5
65A
 10
282.4708
 20
242.609394
 30
0.0
 11
282.4708
 21
240.405394
 31
0.0
  0
CIRCLE
  8
0D
  5
65B
 10
273.4708
 20
251.905394
 30
0.0
 40
5.77352
  0
LINE
  8
0D
  5
65C
 10
278.4708
 20
254.793394
 30
0.0
 11
273.4708
 21
257.681394
 31
0.0
  0
LINE
  8
0D
  5
65D
 10
273.4708
 20
246.133394
 30
0.0
 11
278.4708
 21
249.017394
 31
0.0
  0
LINE
  8
0D
  5
65E
 10
268.4708
 20
254.793394
 30
0.0
 11
268.4708
 21
249.017394
 31
0.0
  0
LINE
  8
0C
  5
65F
 10
265.4708
 20
246.929394
 30
0.0
 11
265.4708
 21
258.905394
 31
0.0
  0
LINE
  8
0D
  5
660
 10
268.4708
 20
249.017394
 30
0.0
 11
273.4708
 21
246.133394
 31
0.0
  0
LINE
  8
0D
  5
661
 10
273.4708
 20
257.681394
 30
0.0
 11
268.4708
 21
254.793394
 31
0.0
  0
LINE
  8
0D
  5
662
 10
278.4708
 20
249.017394
 30
0.0
 11
278.4708
 21
254.793394
 31
0.0
  0
LINE
  8
0C
  5
663
 10
281.4708
 20
258.905394
 30
0.0
 11
281.4708
 21
246.929394
 31
0.0
  0
LINE
  8
0B
  5
664
 10
266.4708
 20
259.905394
 30
0.0
 11
280.4708
 21
259.905394
 31
0.0
  0
LINE
  8
FF
  5
665
 10
202.268
 20
292.441394
 30
0.0
 11
179.224
 21
292.441394
 31
0.0
  0
TEXT
  8
FF
  5
666
 10
177.2356
 20
303.681394
 30
0.0
 40
8.0
  1
主端子
 41
0.833333
  0
TEXT
  8
FF
  5
667
 10
179.318
 20
296.189394
 30
0.0
 40
6.0
  1
M6
 41
1.0696
  0
LINE
  8
38
  6
CENTER
  5
668
 10
501.97229
 20
263.601394
 30
0.0
 11
501.97229
 21
130.001394
 31
0.0
  0
DIMENSION
  8
FF
  5
669
  2
*D7
 10
351.0148
 20
140.905394
 30
0.0
 11
344.3481
 21
196.405394
 31
0.0
  1
111
 13
307.4708
 23
251.905394
 33
0.0
 14
307.4708
 24
140.905394
 34
0.0
 50
270.0
  3
FSTD1
  0
DIMENSION
  8
FF
  5
66A
  2
*D12
 10
466.97229
 20
300.569394
 30
0.0
 11
501.97229
 21
309.902794
 31
0.0
 12
14.33749
 22
0.0
 32
0.0
  1
70
 13
536.97229
 23
239.805394
 33
0.0
 14
466.97229
 24
164.805394
 34
0.0
 50
180.0
  3
FSTD3
  0
DIMENSION
  8
FF
  5
66B
  2
*D13
 10
576.93629
 20
158.905394
 30
0.0
 11
567.60289
 21
196.405394
 31
0.0
 12
14.33749
 22
0.0
 32
0.0
  1
75
 13
542.87229
 23
233.905394
 33
0.0
 14
472.87229
 24
158.905394
 34
0.0
 50
270.0
  3
FSTD3
  0
DIMENSION
  8
FF
  5
66C
  2
*D8
 10
366.7468
 20
259.905394
 30
0.0
 11
360.0801
 21
196.405394
 31
0.0
  1
127
 13
314.4708
 23
132.905394
 33
0.0
 14
314.4708
 24
259.905394
 34
0.0
 50
90.0
  3
FSTD1
  0
LINE
  8
0D
  6
PHANTOM
  5
66D
 10
329.4708
 20
228.605394
 30
0.0
 11
329.4708
 21
164.205394
 31
0.0
  0
LINE
  8
0C
  5
66E
 10
317.4708
 20
196.405394
 30
0.0
 11
317.4708
 21
164.705394
 31
0.0
  0
LINE
  8
0C
  5
66F
 10
315.3708
 20
186.905394
 30
0.0
 11
315.3708
 21
164.705394
 31
0.0
  0
LINE
  8
0C
  5
670
 10
307.5708
 20
185.573394
 30
0.0
 11
307.5708
 21
164.705394
 31
0.0
  0
LINE
  8
0C
  5
671
 10
300.9708
 20
228.405394
 30
0.0
 11
300.9708
 21
164.405394
 31
0.0
  0
LINE
  8
0C
  5
672
 10
305.9708
 20
156.405394
 30
0.0
 11
305.9708
 21
236.405394
 31
0.0
  0
LINE
  8
0C
  5
673
 10
305.9708
 20
156.405394
 30
0.0
 11
305.9708
 21
183.905394
 31
0.0
  0
LINE
  8
0B
  5
674
 10
317.4708
 20
256.905394
 30
0.0
 11
317.4708
 21
135.905394
 31
0.0
  0
LINE
  8
0C
  5
675
 10
305.9708
 20
181.905394
 30
0.0
 11
305.9708
 21
156.405394
 31
0.0
  0
CIRCLE
  8
0D
  5
676
 10
311.4708
 20
172.905394
 30
0.0
 40
3.0
  0
LINE
  8
0D
  5
677
 10
315.2708
 20
176.205394
 30
0.0
 11
315.2708
 21
169.605394
 31
0.0
  0
LINE
  8
0D
  5
678
 10
307.6708
 20
176.205394
 30
0.0
 11
307.6708
 21
169.605394
 31
0.0
  0
LINE
  8
34
  6
PHANTOM
  5
679
 10
545.97229
 20
256.905394
 30
0.0
 11
545.97229
 21
135.905394
 31
0.0
  0
LINE
  8
34
  6
PHANTOM
  5
67A
 10
457.97229
 20
256.905394
 30
0.0
 11
457.97229
 21
135.905394
 31
0.0
  0
LINE
  8
0B
  5
67B
 10
317.4708
 20
256.905394
 30
0.0
 11
317.4708
 21
135.905394
 31
0.0
  0
LINE
  8
34
  6
PHANTOM
  5
67C
 10
477.97229
 20
133.905394
 30
0.0
 11
493.97229
 21
133.905394
 31
0.0
  0
CIRCLE
  8
0D
  5
67D
 10
305.4708
 20
140.905394
 30
0.0
 40
5.77352
  0
LINE
  8
0D
  5
67E
 10
310.4708
 20
138.017394
 30
0.0
 11
310.4708
 21
143.793394
 31
0.0
  0
LINE
  8
0D
  5
67F
 10
300.4708
 20
143.793394
 30
0.0
 11
300.4708
 21
138.017394
 31
0.0
  0
LINE
  8
0C
  5
680
 10
313.4708
 20
133.905394
 30
0.0
 11
313.4708
 21
145.877394
 31
0.0
  0
LINE
  8
0C
  5
681
 10
297.4708
 20
133.905394
 30
0.0
 11
297.4708
 21
148.537394
 31
0.0
  0
LINE
  8
0C
  5
682
 10
287.2708
 20
147.205394
 30
0.0
 11
287.2708
 21
134.905394
 31
0.0
  0
LINE
  8
0C
  5
683
 10
293.8708
 20
147.205394
 30
0.0
 11
293.8708
 21
134.905394
 31
0.0
  0
LINE
  8
0D
  5
684
 10
305.4708
 20
135.133394
 30
0.0
 11
310.4708
 21
138.017394
 31
0.0
  0
LINE
  8
0B
  5
685
 10
312.4708
 20
132.905394
 30
0.0
 11
298.4708
 21
132.905394
 31
0.0
  0
ARC
  8
0C
  5
686
 10
294.8708
 20
134.905394
 30
0.0
 40
1.0
 50
180.0
 51
270.0
  0
ARC
  8
0C
  5
687
 10
286.2708
 20
134.905394
 30
0.0
 40
1.0
 50
270.0
 51
0.0
  0
LINE
  8
0B
  5
688
 10
297.4708
 20
133.905394
 30
0.0
 11
298.4708
 21
132.905394
 31
0.0
  0
LINE
  8
0D
  5
689
 10
300.4708
 20
138.017394
 30
0.0
 11
305.4708
 21
135.133394
 31
0.0
  0
ARC
  8
0B
  5
68A
 10
315.4708
 20
135.905394
 30
0.0
 40
2.0
 50
270.0
 51
0.0
  0
ARC
  8
0B
  5
68B
 10
315.4708
 20
135.905394
 30
0.0
 40
2.0
 50
270.0
 51
0.0
  0
LINE
  8
0B
  5
68C
 10
315.4708
 20
133.905394
 30
0.0
 11
313.4708
 21
133.905394
 31
0.0
  0
LINE
  8
0B
  5
68D
 10
313.4708
 20
133.905394
 30
0.0
 11
315.4708
 21
133.905394
 31
0.0
  0
LINE
  8
0B
  5
68E
 10
312.4708
 20
132.905394
 30
0.0
 11
313.4708
 21
133.905394
 31
0.0
  0
LINE
  8
0C
  5
68F
 10
307.5708
 20
167.105394
 30
0.0
 11
311.4708
 21
167.105394
 31
0.0
  0
LINE
  8
0D
  5
690
 10
310.4708
 20
143.793394
 30
0.0
 11
305.4708
 21
146.681394
 31
0.0
  0
LINE
  8
0C
  5
691
 10
305.5428
 20
155.169394
 30
0.0
 11
309.1788
 21
152.005394
 31
0.0
  0
ARC
  8
0D
  5
692
 10
308.1708
 20
169.605394
 30
0.0
 40
0.5
 50
180.0
 51
270.0
  0
ARC
  8
0C
  5
693
 10
303.9708
 20
156.405394
 30
0.0
 40
2.0
 50
270.0
 51
0.0
  0
ARC
  8
0C
  5
694
 10
303.9708
 20
156.405394
 30
0.0
 40
2.0
 50
270.0
 51
0.0
  0
ARC
  8
0C
  5
695
 10
303.9708
 20
156.405394
 30
0.0
 40
2.0
 50
270.0
 51
0.0
  0
LINE
  8
0C
  5
696
 10
306.9708
 20
159.777394
 30
0.0
 11
306.9708
 21
154.033394
 31
0.0
  0
LINE
  8
0C
  5
697
 10
303.9708
 20
154.405394
 30
0.0
 11
289.8708
 21
154.405394
 31
0.0
  0
LINE
  8
0C
  5
698
 10
293.3628
 20
154.405394
 30
0.0
 11
297.4708
 21
148.537394
 31
0.0
  0
LINE
  8
0C
  5
699
 10
303.9708
 20
154.405394
 30
0.0
 11
290.0268
 21
154.405394
 31
0.0
  0
LINE
  8
0C
  5
69A
 10
293.3708
 20
144.405394
 30
0.0
 11
287.7708
 21
144.405394
 31
0.0
  0
LINE
  8
0C
  5
69B
 10
293.3708
 20
147.705394
 30
0.0
 11
287.7708
 21
147.705394
 31
0.0
  0
ARC
  8
0C
  5
69C
 10
287.7708
 20
147.205394
 30
0.0
 40
0.5
 50
90.0
 51
180.0
  0
ARC
  8
0C
  5
69D
 10
287.7708
 20
144.905394
 30
0.0
 40
0.5
 50
180.0
 51
270.0
  0
ARC
  8
0C
  5
69E
 10
293.3708
 20
147.205394
 30
0.0
 40
0.5
 50
0.0
 51
90.0
  0
ARC
  8
0C
  5
69F
 10
293.3708
 20
144.905394
 30
0.0
 40
0.5
 50
270.0
 51
0.0
  0
ARC
  8
0C
  5
6A0
 10
287.0708
 20
150.205394
 30
0.0
 40
0.8
 50
210.0
 51
0.0
  0
ARC
  8
0C
  5
6A1
 10
289.8708
 20
152.405394
 30
0.0
 40
2.0
 50
90.0
 51
180.0
  0
LINE
  8
0C
  5
6A2
 10
286.3788
 20
149.805394
 30
0.0
 11
286.0388
 21
150.397394
 31
0.0
  0
LINE
  8
0C
  5
6A3
 10
287.8708
 20
150.205394
 30
0.0
 11
287.8708
 21
152.405394
 31
0.0
  0
LINE
  8
0D
  5
6A4
 10
305.4708
 20
146.681394
 30
0.0
 11
300.4708
 21
143.793394
 31
0.0
  0
ARC
  8
0C
  5
6A5
 10
298.9708
 20
156.905394
 30
0.0
 40
8.5
 50
339.66
 51
340.25
  0
ARC
  8
0C
  5
6A6
 10
298.9708
 20
156.905394
 30
0.0
 40
8.5
 50
19.7499
 51
34.5603
  0
ARC
  8
0C
  5
6A7
 10
307.0708
 20
164.705394
 30
0.0
 40
0.5
 50
270.0
 51
0.0
  0
LINE
  8
0C
  5
6A8
 10
307.0708
 20
164.205394
 30
0.0
 11
305.9708
 21
164.205394
 31
0.0
  0
CIRCLE
  8
0D
  5
6A9
 10
312.4708
 20
157.405394
 30
0.0
 40
4.0
  0
CIRCLE
  8
0D
  5
6AA
 10
312.4708
 20
157.405394
 30
0.0
 40
3.5
  0
LINE
  8
0D
  5
6AB
 10
311.0028
 20
158.877394
 30
0.0
 11
313.9428
 21
155.937394
 31
0.0
  0
LINE
  8
0D
  5
6AC
 10
313.9428
 20
158.877394
 30
0.0
 11
311.0028
 21
155.937394
 31
0.0
  0
LINE
  8
0C
  5
6AD
 10
313.4708
 20
145.877394
 30
0.0
 11
309.1788
 21
152.005394
 31
0.0
  0
LINE
  8
0C
  5
6AE
 10
309.5988
 20
151.405394
 30
0.0
 11
316.4708
 21
151.405394
 31
0.0
  0
ARC
  8
0C
  5
6AF
 10
316.4708
 20
150.405394
 30
0.0
 40
1.0
 50
0.0
 51
90.0
  0
LINE
  8
0D
  6
PHANTOM
  5
6B0
 10
329.4708
 20
164.205394
 30
0.0
 11
317.4708
 21
164.205394
 31
0.0
  0
LINE
  8
0C
  5
6B1
 10
315.3708
 20
167.105394
 30
0.0
 11
311.4708
 21
167.105394
 31
0.0
  0
LINE
  8
0D
  5
6B2
 10
308.1708
 20
169.105394
 30
0.0
 11
314.7708
 21
169.105394
 31
0.0
  0
ARC
  8
0C
  5
6B3
 10
315.8708
 20
164.705394
 30
0.0
 40
0.5
 50
180.0
 51
270.0
  0
ARC
  8
0C
  5
6B4
 10
316.9708
 20
164.705394
 30
0.0
 40
0.5
 50
270.0
 51
0.0
  0
LINE
  8
0C
  5
6B5
 10
316.9708
 20
164.205394
 30
0.0
 11
315.8708
 21
164.205394
 31
0.0
  0
ARC
  8
0D
  5
6B6
 10
314.7708
 20
169.605394
 30
0.0
 40
0.5
 50
270.0
 51
0.0
  0
LINE
  8
FF
  5
6B7
 10
465.38029
 20
157.109394
 30
0.0
 11
434.20429
 21
115.513394
 31
0.0
  0
TEXT
  8
FF
  5
6B8
 10
402.196899
 20
116.662425
 30
0.0
 40
8.0
  1
２－Ｍ４
 41
0.833333
  0
LINE
  8
FF
  5
6B9
 10
434.20429
 20
115.513394
 30
0.0
 11
401.793135
 21
115.513394
 31
0.0
  0
TEXT
  8
FF
  5
6BA
 10
402.196899
 20
126.292364
 30
0.0
 40
8.0
  1
取付穴
 41
0.833333
  0
LINE
  8
34
  6
PHANTOM
  5
6BB
 10
459.97229
 20
133.905394
 30
0.0
 11
461.97229
 21
133.905394
 31
0.0
  0
ARC
  8
34
  6
PHANTOM
  5
6BC
 10
459.97229
 20
135.905394
 30
0.0
 40
2.0
 50
180.0
 51
270.0
  0
LINE
  8
34
  6
PHANTOM
  5
6BD
 10
462.97229
 20
132.905394
 30
0.0
 11
476.97229
 21
132.905394
 31
0.0
  0
LINE
  8
34
  6
PHANTOM
  5
6BE
 10
462.97229
 20
132.905394
 30
0.0
 11
461.97229
 21
133.905394
 31
0.0
  0
LINE
  8
34
  6
PHANTOM
  5
6BF
 10
477.97229
 20
133.905394
 30
0.0
 11
476.97229
 21
132.905394
 31
0.0
  0
LINE
  8
FF
  5
6C0
 10
465.38029
 20
157.109394
 30
0.0
 11
455.82069
 21
149.600594
 31
0.0
  0
LINE
  8
FF
  5
6C1
 10
460.85589
 20
145.826594
 30
0.0
 11
465.38029
 21
157.109394
 31
0.0
  0
LINE
  8
38
  5
6C2
 10
466.97229
 20
155.729394
 30
0.0
 11
466.97229
 21
155.005394
 31
0.0
  0
LINE
  8
38
  5
6C3
 10
468.56029
 20
158.905394
 30
0.0
 11
465.38429
 21
158.905394
 31
0.0
  0
CIRCLE
  8
33
  5
6C4
 10
466.97229
 20
158.905394
 30
0.0
 40
2.4
  0
LINE
  8
38
  5
6C5
 10
463.79629
 20
158.905394
 30
0.0
 11
463.07229
 21
158.905394
 31
0.0
  0
LINE
  8
38
  5
6C6
 10
470.87229
 20
158.905394
 30
0.0
 11
470.14829
 21
158.905394
 31
0.0
  0
LINE
  8
38
  5
6C7
 10
466.97229
 20
160.493394
 30
0.0
 11
466.97229
 21
157.317394
 31
0.0
  0
LINE
  8
38
  5
6C8
 10
466.97229
 20
162.805394
 30
0.0
 11
466.97229
 21
162.081394
 31
0.0
  0
LINE
  8
34
  6
PHANTOM
  5
6C9
 10
540.97229
 20
132.905394
 30
0.0
 11
526.97229
 21
132.905394
 31
0.0
  0
LINE
  8
34
  6
PHANTOM
  5
6CA
 10
494.97229
 20
132.905394
 30
0.0
 11
508.97229
 21
132.905394
 31
0.0
  0
LINE
  8
34
  6
PHANTOM
  5
6CB
 10
493.97229
 20
133.905394
 30
0.0
 11
494.97229
 21
132.905394
 31
0.0
  0
LINE
  8
34
  6
PHANTOM
  5
6CC
 10
509.97229
 20
133.905394
 30
0.0
 11
525.97229
 21
133.905394
 31
0.0
  0
LINE
  8
34
  6
PHANTOM
  5
6CD
 10
508.97229
 20
132.905394
 30
0.0
 11
509.97229
 21
133.905394
 31
0.0
  0
LINE
  8
34
  6
PHANTOM
  5
6CE
 10
525.97229
 20
133.905394
 30
0.0
 11
526.97229
 21
132.905394
 31
0.0
  0
ARC
  8
34
  6
PHANTOM
  5
6CF
 10
543.97229
 20
135.905394
 30
0.0
 40
2.0
 50
270.0
 51
0.0
  0
LINE
  8
34
  6
PHANTOM
  5
6D0
 10
540.97229
 20
132.905394
 30
0.0
 11
541.97229
 21
133.905394
 31
0.0
  0
LINE
  8
34
  6
PHANTOM
  5
6D1
 10
541.97229
 20
133.905394
 30
0.0
 11
543.97229
 21
133.905394
 31
0.0
  0
TEXT
  8
FF
  5
6D2
 10
466.84429
 20
336.841394
 30
0.0
 40
12.0
  1
取付穴寸法図
 41
0.833333
  0
LINE
  8
38
  6
CENTER
  5
6D3
 10
452.29629
 20
196.405394
 30
0.0
 11
550.46429
 21
196.405394
 31
0.0
  0
LINE
  8
34
  6
PHANTOM
  5
6D4
 10
477.97229
 20
258.905394
 30
0.0
 11
493.97229
 21
258.905394
 31
0.0
  0
LINE
  8
FF
  5
6D5
 10
291.5028
 20
254.813394
 30
0.0
 11
340.9708
 21
296.625394
 31
0.0
  0
LINE
  8
0C
  5
6D6
 10
305.9708
 20
208.905394
 30
0.0
 11
305.9708
 21
236.405394
 31
0.0
  0
LINE
  8
0C
  5
6D7
 10
305.9708
 20
236.405394
 30
0.0
 11
305.9708
 21
210.905394
 31
0.0
  0
LINE
  8
0C
  5
6D8
 10
317.4708
 20
196.405394
 30
0.0
 11
317.4708
 21
228.105394
 31
0.0
  0
LINE
  8
0C
  5
6D9
 10
305.9708
 20
183.905394
 30
0.0
 11
305.9708
 21
208.905394
 31
0.0
  0
LINE
  8
0C
  5
6DA
 10
317.4708
 20
188.905394
 30
0.0
 11
317.4708
 21
203.905394
 31
0.0
  0
ARC
  8
0C
  5
6DB
 10
310.9708
 20
181.905394
 30
0.0
 40
5.0
 50
90.0
 51
180.0
  0
CIRCLE
  8
0D
  5
6DC
 10
310.9708
 20
196.405394
 30
0.0
 40
4.0
  0
LINE
  8
0D
  5
6DD
 10
309.9708
 20
196.905394
 30
0.0
 11
307.0028
 21
196.905394
 31
0.0
  0
LINE
  8
0D
  5
6DE
 10
309.9708
 20
195.905394
 30
0.0
 11
307.0028
 21
195.905394
 31
0.0
  0
ARC
  8
0C
  5
6DF
 10
310.9708
 20
181.905394
 30
0.0
 40
5.0
 50
90.0
 51
180.0
  0
ARC
  8
0D
  5
6E0
 10
308.1708
 20
176.205394
 30
0.0
 40
0.5
 50
90.0
 51
180.0
  0
ARC
  8
0D
  5
6E1
 10
308.1708
 20
179.105394
 30
0.0
 40
0.5
 50
180.0
 51
270.0
  0
LINE
  8
0D
  5
6E2
 10
307.6708
 20
185.661394
 30
0.0
 11
307.6708
 21
179.105394
 31
0.0
  0
ARC
  8
0D
  5
6E3
 10
314.7708
 20
185.705394
 30
0.0
 40
0.5
 50
0.0
 51
90.0
  0
LINE
  8
0D
  5
6E4
 10
308.1708
 20
176.705394
 30
0.0
 11
314.7708
 21
176.705394
 31
0.0
  0
LINE
  8
0D
  5
6E5
 10
310.2108
 20
174.165394
 30
0.0
 11
312.7308
 21
171.645394
 31
0.0
  0
LINE
  8
0D
  5
6E6
 10
310.2108
 20
171.645394
 30
0.0
 11
312.7308
 21
174.165394
 31
0.0
  0
ARC
  8
0D
  5
6E7
 10
314.7708
 20
176.205394
 30
0.0
 40
0.5
 50
0.0
 51
90.0
  0
CIRCLE
  8
0D
  5
6E8
 10
311.4708
 20
182.405394
 30
0.0
 40
3.0
  0
LINE
  8
0D
  5
6E9
 10
308.1708
 20
178.605394
 30
0.0
 11
314.7708
 21
178.605394
 31
0.0
  0
LINE
  8
0D
  5
6EA
 10
310.2108
 20
183.665394
 30
0.0
 11
312.7308
 21
181.145394
 31
0.0
  0
LINE
  8
0D
  5
6EB
 10
310.2108
 20
181.145394
 30
0.0
 11
312.7308
 21
183.665394
 31
0.0
  0
ARC
  8
0D
  5
6EC
 10
314.7708
 20
179.105394
 30
0.0
 40
0.5
 50
270.0
 51
0.0
  0
LINE
  8
0D
  5
6ED
 10
315.2708
 20
185.705394
 30
0.0
 11
315.2708
 21
179.105394
 31
0.0
  0
LINE
  8
0C
  5
6EE
 10
310.9708
 20
186.905394
 30
0.0
 11
315.4708
 21
186.905394
 31
0.0
  0
LINE
  8
0D
  5
6EF
 10
308.4228
 20
186.205394
 30
0.0
 11
314.7708
 21
186.205394
 31
0.0
  0
ARC
  8
0C
  5
6F0
 10
315.4708
 20
188.905394
 30
0.0
 40
2.0
 50
270.0
 51
0.0
  0
LINE
  8
0D
  5
6F1
 10
314.9428
 20
196.905394
 30
0.0
 11
311.9708
 21
196.905394
 31
0.0
  0
LINE
  8
0D
  5
6F2
 10
314.9428
 20
195.905394
 30
0.0
 11
311.9708
 21
195.905394
 31
0.0
  0
ARC
  8
0D
  5
6F3
 10
311.9708
 20
197.405394
 30
0.0
 40
0.5
 50
180.0
 51
270.0
  0
ARC
  8
0D
  5
6F4
 10
311.9708
 20
195.405394
 30
0.0
 40
0.5
 50
90.0
 51
180.0
  0
ARC
  8
0D
  5
6F5
 10
309.9708
 20
195.405394
 30
0.0
 40
0.5
 50
0.0
 51
90.0
  0
ARC
  8
0D
  5
6F6
 10
309.9708
 20
197.405394
 30
0.0
 40
0.5
 50
270.0
 51
0.0
  0
LINE
  8
0D
  5
6F7
 10
310.4708
 20
198.905394
 30
0.0
 11
310.4708
 21
197.405394
 31
0.0
  0
LINE
  8
0D
  5
6F8
 10
311.4708
 20
198.905394
 30
0.0
 11
311.4708
 21
197.405394
 31
0.0
  0
LINE
  8
0D
  5
6F9
 10
310.4708
 20
198.905394
 30
0.0
 11
311.4708
 21
198.905394
 31
0.0
  0
LINE
  8
0D
  5
6FA
 10
310.4708
 20
193.905394
 30
0.0
 11
311.4708
 21
193.905394
 31
0.0
  0
LINE
  8
0D
  5
6FB
 10
311.4708
 20
195.405394
 30
0.0
 11
311.4708
 21
193.905394
 31
0.0
  0
LINE
  8
0D
  5
6FC
 10
310.4708
 20
195.405394
 30
0.0
 11
310.4708
 21
193.905394
 31
0.0
  0
LINE
  8
0C
  5
6FD
 10
307.5708
 20
225.705394
 30
0.0
 11
311.4708
 21
225.705394
 31
0.0
  0
ARC
  8
0C
  5
6FE
 10
310.9708
 20
210.905394
 30
0.0
 40
5.0
 50
180.0
 51
270.0
  0
ARC
  8
0C
  5
6FF
 10
310.9708
 20
210.905394
 30
0.0
 40
5.0
 50
180.0
 51
270.0
  0
ARC
  8
0D
  5
700
 10
308.1708
 20
213.705394
 30
0.0
 40
0.5
 50
90.0
 51
180.0
  0
ARC
  8
0D
  5
701
 10
308.1708
 20
216.605394
 30
0.0
 40
0.5
 50
180.0
 51
270.0
  0
ARC
  8
0D
  5
702
 10
308.1708
 20
223.205394
 30
0.0
 40
0.5
 50
90.0
 51
180.0
  0
LINE
  8
0C
  5
703
 10
307.5708
 20
207.241394
 30
0.0
 11
307.5708
 21
228.105394
 31
0.0
  0
LINE
  8
0D
  5
704
 10
307.6708
 20
213.705394
 30
0.0
 11
307.6708
 21
207.105394
 31
0.0
  0
LINE
  8
0D
  5
705
 10
307.6708
 20
223.205394
 30
0.0
 11
307.6708
 21
216.605394
 31
0.0
  0
ARC
  8
0C
  5
706
 10
307.0708
 20
228.105394
 30
0.0
 40
0.5
 50
0.0
 51
90.0
  0
LINE
  8
0C
  5
707
 10
305.9708
 20
228.605394
 30
0.0
 11
307.0708
 21
228.605394
 31
0.0
  0
LINE
  8
0C
  5
708
 10
315.3708
 20
205.905394
 30
0.0
 11
315.3708
 21
228.105394
 31
0.0
  0
CIRCLE
  8
0D
  5
709
 10
311.4708
 20
210.405394
 30
0.0
 40
3.0
  0
LINE
  8
0D
  5
70A
 10
315.2708
 20
213.705394
 30
0.0
 11
315.2708
 21
207.105394
 31
0.0
  0
LINE
  8
0C
  5
70B
 10
310.9708
 20
205.905394
 30
0.0
 11
315.4708
 21
205.905394
 31
0.0
  0
LINE
  8
0D
  5
70C
 10
308.4228
 20
206.605394
 30
0.0
 11
314.7708
 21
206.605394
 31
0.0
  0
ARC
  8
0C
  5
70D
 10
315.4708
 20
203.905394
 30
0.0
 40
2.0
 50
0.0
 51
90.0
  0
ARC
  8
0D
  5
70E
 10
314.7708
 20
207.105394
 30
0.0
 40
0.5
 50
270.0
 51
0.0
  0
LINE
  8
0D
  5
70F
 10
308.1708
 20
214.205394
 30
0.0
 11
314.7708
 21
214.205394
 31
0.0
  0
LINE
  8
0D
  5
710
 10
310.2108
 20
211.665394
 30
0.0
 11
312.7308
 21
209.145394
 31
0.0
  0
LINE
  8
0D
  5
711
 10
310.2108
 20
209.145394
 30
0.0
 11
312.7308
 21
211.665394
 31
0.0
  0
ARC
  8
0D
  5
712
 10
314.7708
 20
213.705394
 30
0.0
 40
0.5
 50
0.0
 51
90.0
  0
LINE
  8
0D
  6
PHANTOM
  5
713
 10
329.4708
 20
228.605394
 30
0.0
 11
317.4708
 21
228.605394
 31
0.0
  0
CIRCLE
  8
0D
  5
714
 10
311.4708
 20
219.905394
 30
0.0
 40
3.0
  0
LINE
  8
0D
  5
715
 10
315.2708
 20
223.205394
 30
0.0
 11
315.2708
 21
216.605394
 31
0.0
  0
LINE
  8
0D
  5
716
 10
308.1708
 20
216.105394
 30
0.0
 11
314.7708
 21
216.105394
 31
0.0
  0
LINE
  8
0D
  5
717
 10
310.2108
 20
218.645394
 30
0.0
 11
312.7308
 21
221.165394
 31
0.0
  0
LINE
  8
0D
  5
718
 10
310.2108
 20
221.165394
 30
0.0
 11
312.7308
 21
218.645394
 31
0.0
  0
ARC
  8
0D
  5
719
 10
314.7708
 20
216.605394
 30
0.0
 40
0.5
 50
270.0
 51
0.0
  0
LINE
  8
0C
  5
71A
 10
315.3708
 20
225.705394
 30
0.0
 11
311.4708
 21
225.705394
 31
0.0
  0
LINE
  8
0D
  5
71B
 10
308.1708
 20
223.705394
 30
0.0
 11
314.7708
 21
223.705394
 31
0.0
  0
ARC
  8
0C
  5
71C
 10
316.9708
 20
228.105394
 30
0.0
 40
0.5
 50
0.0
 51
90.0
  0
ARC
  8
0C
  5
71D
 10
315.8708
 20
228.105394
 30
0.0
 40
0.5
 50
90.0
 51
180.0
  0
LINE
  8
0C
  5
71E
 10
316.9708
 20
228.605394
 30
0.0
 11
315.8708
 21
228.605394
 31
0.0
  0
ARC
  8
0D
  5
71F
 10
314.7708
 20
223.205394
 30
0.0
 40
0.5
 50
0.0
 51
90.0
  0
DIMENSION
  8
FF
  5
720
  2
*D9
 10
351.0108
 20
259.905394
 30
0.0
 11
344.3441
 21
281.238761
 31
0.0
  1
8
 13
307.4708
 23
251.905394
 33
0.0
 14
314.4708
 24
259.905394
 34
0.0
 50
90.0
  3
FSTD1
  0
LINE
  8
FF
  5
721
 10
291.5028
 20
254.813394
 30
0.0
 11
302.5012
 21
259.990194
 31
0.0
  0
LINE
  8
FF
  5
722
 10
298.4396
 20
264.795794
 30
0.0
 11
291.5028
 21
254.813394
 31
0.0
  0
LINE
  8
0B
  5
723
 10
297.4708
 20
258.905394
 30
0.0
 11
298.4708
 21
259.905394
 31
0.0
  0
LINE
  8
0B
  5
724
 10
312.4708
 20
259.905394
 30
0.0
 11
313.4708
 21
258.905394
 31
0.0
  0
LINE
  8
10
  5
725
 10
310.0588
 20
233.905394
 30
0.0
 11
306.8868
 21
233.905394
 31
0.0
  0
CIRCLE
  8
0D
  5
726
 10
305.4708
 20
251.905394
 30
0.0
 40
5.77352
  0
LINE
  8
0D
  5
727
 10
310.4708
 20
254.793394
 30
0.0
 11
305.4708
 21
257.681394
 31
0.0
  0
LINE
  8
0D
  5
728
 10
305.4708
 20
246.133394
 30
0.0
 11
310.4708
 21
249.017394
 31
0.0
  0
LINE
  8
0C
  5
729
 10
305.5428
 20
237.645394
 30
0.0
 11
309.1788
 21
240.805394
 31
0.0
  0
CIRCLE
  8
0D
  5
72A
 10
308.4708
 20
233.905394
 30
0.0
 40
2.4
  0
LINE
  8
0C
  5
72B
 10
297.4708
 20
258.905394
 30
0.0
 11
297.4708
 21
244.273394
 31
0.0
  0
LINE
  8
0C
  5
72C
 10
303.9708
 20
238.405394
 30
0.0
 11
289.8708
 21
238.405394
 31
0.0
  0
LINE
  8
0C
  5
72D
 10
293.3628
 20
238.405394
 30
0.0
 11
297.4708
 21
244.273394
 31
0.0
  0
LINE
  8
0C
  5
72E
 10
303.9708
 20
238.405394
 30
0.0
 11
290.0268
 21
238.405394
 31
0.0
  0
ARC
  8
0C
  5
72F
 10
287.0708
 20
242.605394
 30
0.0
 40
0.8
 50
0.0
 51
150.0
  0
ARC
  8
0C
  5
730
 10
289.8708
 20
240.405394
 30
0.0
 40
2.0
 50
180.0
 51
270.0
  0
LINE
  8
0C
  5
731
 10
286.3788
 20
243.005394
 30
0.0
 11
286.0388
 21
242.413394
 31
0.0
  0
LINE
  8
0C
  5
732
 10
287.8708
 20
242.605394
 30
0.0
 11
287.8708
 21
240.405394
 31
0.0
  0
ARC
  8
0C
  5
733
 10
303.9708
 20
236.405394
 30
0.0
 40
2.0
 50
0.0
 51
90.0
  0
ARC
  8
0C
  5
734
 10
303.9708
 20
236.405394
 30
0.0
 40
2.0
 50
0.0
 51
90.0
  0
ARC
  8
0C
  5
735
 10
303.9708
 20
236.405394
 30
0.0
 40
2.0
 50
0.0
 51
90.0
  0
LINE
  8
10
  5
736
 10
305.2988
 20
233.905394
 30
0.0
 11
304.5708
 21
233.905394
 31
0.0
  0
LINE
  8
0B
  5
737
 10
297.4708
 20
258.905394
 30
0.0
 11
296.4708
 21
258.905394
 31
0.0
  0
LINE
  8
0C
  5
738
 10
296.4708
 20
258.905394
 30
0.0
 11
296.4708
 21
245.305394
 31
0.0
  0
CIRCLE
  8
0D
  5
739
 10
289.4708
 20
252.605394
 30
0.0
 40
3.0
  0
LINE
  8
0D
  5
73A
 10
288.2108
 20
253.865394
 30
0.0
 11
290.7308
 21
251.345394
 31
0.0
  0
LINE
  8
0D
  5
73B
 10
288.2108
 20
251.345394
 30
0.0
 11
290.7308
 21
253.865394
 31
0.0
  0
LINE
  8
0D
  5
73C
 10
285.6708
 20
255.905394
 30
0.0
 11
285.6708
 21
249.305394
 31
0.0
  0
LINE
  8
0D
  5
73D
 10
293.2708
 20
255.905394
 30
0.0
 11
293.2708
 21
249.305394
 31
0.0
  0
LINE
  8
0C
  5
73E
 10
296.0708
 20
258.905394
 30
0.0
 11
296.0708
 21
246.505394
 31
0.0
  0
LINE
  8
0C
  5
73F
 10
287.9708
 20
247.305394
 30
0.0
 11
290.9708
 21
247.305394
 31
0.0
  0
LINE
  8
0D
  5
740
 10
286.1708
 20
248.805394
 30
0.0
 11
292.7708
 21
248.805394
 31
0.0
  0
LINE
  8
0C
  5
741
 10
287.9708
 20
245.905394
 30
0.0
 11
290.9708
 21
245.905394
 31
0.0
  0
LINE
  8
0C
  5
742
 10
285.9708
 20
248.805394
 30
0.0
 11
285.9708
 21
245.305394
 31
0.0
  0
LINE
  8
0C
  5
743
 10
287.9708
 20
247.305394
 30
0.0
 11
287.9708
 21
245.305394
 31
0.0
  0
ARC
  8
0D
  5
744
 10
286.1708
 20
249.305394
 30
0.0
 40
0.5
 50
180.0
 51
270.0
  0
LINE
  8
0C
  5
745
 10
287.9708
 20
245.905394
 30
0.0
 11
287.9708
 21
245.305394
 31
0.0
  0
LINE
  8
0C
  5
746
 10
292.9708
 20
248.805394
 30
0.0
 11
292.9708
 21
245.305394
 31
0.0
  0
LINE
  8
0C
  5
747
 10
290.9708
 20
247.305394
 30
0.0
 11
290.9708
 21
245.305394
 31
0.0
  0
ARC
  8
0D
  5
748
 10
292.7708
 20
249.305394
 30
0.0
 40
0.5
 50
270.0
 51
0.0
  0
ARC
  8
0C
  5
749
 10
295.0708
 20
246.905394
 30
0.0
 40
1.0
 50
270.0
 51
0.0
  0
LINE
  8
0C
  5
74A
 10
292.9708
 20
245.905394
 30
0.0
 11
295.0708
 21
245.905394
 31
0.0
  0
LINE
  8
0C
  5
74B
 10
290.9708
 20
245.905394
 30
0.0
 11
290.9708
 21
245.305394
 31
0.0
  0
LINE
  8
0D
  5
74C
 10
286.1708
 20
256.405394
 30
0.0
 11
292.7708
 21
256.405394
 31
0.0
  0
ARC
  8
0D
  5
74D
 10
286.1708
 20
255.905394
 30
0.0
 40
0.5
 50
90.0
 51
180.0
  0
ARC
  8
0D
  5
74E
 10
292.7708
 20
255.905394
 30
0.0
 40
0.5
 50
0.0
 51
90.0
  0
LINE
  8
0D
  5
74F
 10
300.4708
 20
254.793394
 30
0.0
 11
300.4708
 21
249.017394
 31
0.0
  0
LINE
  8
0D
  5
750
 10
300.4708
 20
249.017394
 30
0.0
 11
305.4708
 21
246.133394
 31
0.0
  0
LINE
  8
0D
  5
751
 10
305.4708
 20
257.681394
 30
0.0
 11
300.4708
 21
254.793394
 31
0.0
  0
LINE
  8
0C
  5
752
 10
313.4708
 20
246.937394
 30
0.0
 11
309.1788
 21
240.805394
 31
0.0
  0
LINE
  8
10
  5
753
 10
308.4708
 20
237.805394
 30
0.0
 11
308.4708
 21
237.081394
 31
0.0
  0
LINE
  8
10
  5
754
 10
312.3708
 20
233.905394
 30
0.0
 11
311.6468
 21
233.905394
 31
0.0
  0
LINE
  8
10
  5
755
 10
308.4708
 20
230.729394
 30
0.0
 11
308.4708
 21
230.005394
 31
0.0
  0
LINE
  8
10
  5
756
 10
308.4708
 20
235.493394
 30
0.0
 11
308.4708
 21
232.317394
 31
0.0
  0
LINE
  8
0D
  5
757
 10
310.4708
 20
249.017394
 30
0.0
 11
310.4708
 21
254.793394
 31
0.0
  0
LINE
  8
0C
  5
758
 10
313.4708
 20
258.905394
 30
0.0
 11
313.4708
 21
246.937394
 31
0.0
  0
LINE
  8
0B
  5
759
 10
315.4708
 20
258.905394
 30
0.0
 11
313.4708
 21
258.905394
 31
0.0
  0
LINE
  8
0B
  5
75A
 10
313.4708
 20
258.905394
 30
0.0
 11
315.4708
 21
258.905394
 31
0.0
  0
ARC
  8
0B
  5
75B
 10
315.4708
 20
256.905394
 30
0.0
 40
2.0
 50
0.0
 51
90.0
  0
ARC
  8
0B
  5
75C
 10
315.4708
 20
256.905394
 30
0.0
 40
2.0
 50
0.0
 51
90.0
  0
LINE
  8
0B
  5
75D
 10
312.4708
 20
259.905394
 30
0.0
 11
298.4708
 21
259.905394
 31
0.0
  0
LINE
  8
34
  6
PHANTOM
  5
75E
 10
462.97229
 20
259.905394
 30
0.0
 11
461.97229
 21
258.905394
 31
0.0
  0
LINE
  8
34
  6
PHANTOM
  5
75F
 10
477.97229
 20
258.905394
 30
0.0
 11
476.97229
 21
259.905394
 31
0.0
  0
LINE
  8
34
  6
PHANTOM
  5
760
 10
459.97229
 20
258.905394
 30
0.0
 11
461.97229
 21
258.905394
 31
0.0
  0
ARC
  8
34
  6
PHANTOM
  5
761
 10
459.97229
 20
256.905394
 30
0.0
 40
2.0
 50
90.0
 51
180.0
  0
LINE
  8
34
  6
PHANTOM
  5
762
 10
462.97229
 20
259.905394
 30
0.0
 11
476.97229
 21
259.905394
 31
0.0
  0
TEXT
  8
FF
  5
763
 10
288.304132
 20
308.593103
 30
0.0
 40
7.0
  1
※１
 41
0.833333
  0
LINE
  8
FF
  5
764
 10
340.9708
 20
296.625394
 30
0.0
 11
366.0148
 21
296.625394
 31
0.0
  0
TEXT
  8
FF
  5
765
 10
344.7228
 20
300.377394
 30
0.0
 40
6.0
  1
M3.5
 41
1.078977
  0
TEXT
  8
FF
  5
766
 10
336.4468
 20
308.245394
 30
0.0
 40
8.0
  1
コイル端子
 41
0.833333
  0
DIMENSION
  8
FF
  5
767
  2
*D10
 10
576.93629
 20
259.905394
 30
0.0
 11
570.26959
 21
246.905394
 31
0.0
 12
14.33749
 22
0.0
 32
0.0
  1
26
 13
538.97229
 23
233.905394
 33
0.0
 14
542.97229
 24
259.905394
 34
0.0
 50
90.0
  3
FSTD1
  0
LINE
  8
34
  6
PHANTOM
  5
768
 10
540.97229
 20
259.905394
 30
0.0
 11
526.97229
 21
259.905394
 31
0.0
  0
LINE
  8
34
  6
PHANTOM
  5
769
 10
494.97229
 20
259.905394
 30
0.0
 11
493.97229
 21
258.905394
 31
0.0
  0
LINE
  8
34
  6
PHANTOM
  5
76A
 10
508.97229
 20
259.905394
 30
0.0
 11
509.97229
 21
258.905394
 31
0.0
  0
LINE
  8
34
  6
PHANTOM
  5
76B
 10
525.97229
 20
258.905394
 30
0.0
 11
526.97229
 21
259.905394
 31
0.0
  0
LINE
  8
34
  6
PHANTOM
  5
76C
 10
509.97229
 20
258.905394
 30
0.0
 11
525.97229
 21
258.905394
 31
0.0
  0
LINE
  8
34
  6
PHANTOM
  5
76D
 10
494.97229
 20
259.905394
 30
0.0
 11
508.97229
 21
259.905394
 31
0.0
  0
LINE
  8
34
  6
PHANTOM
  5
76E
 10
540.97229
 20
259.905394
 30
0.0
 11
541.97229
 21
258.905394
 31
0.0
  0
LINE
  8
38
  5
76F
 10
540.87229
 20
233.905394
 30
0.0
 11
540.14829
 21
233.905394
 31
0.0
  0
LINE
  8
38
  5
770
 10
536.97229
 20
237.805394
 30
0.0
 11
536.97229
 21
237.081394
 31
0.0
  0
CIRCLE
  8
33
  5
771
 10
536.97229
 20
233.905394
 30
0.0
 40
2.4
  0
LINE
  8
38
  5
772
 10
533.79629
 20
233.905394
 30
0.0
 11
533.07229
 21
233.905394
 31
0.0
  0
LINE
  8
38
  5
773
 10
536.97229
 20
230.729394
 30
0.0
 11
536.97229
 21
230.005394
 31
0.0
  0
LINE
  8
38
  5
774
 10
536.97229
 20
235.493394
 30
0.0
 11
536.97229
 21
232.317394
 31
0.0
  0
LINE
  8
38
  5
775
 10
538.56029
 20
233.905394
 30
0.0
 11
535.38429
 21
233.905394
 31
0.0
  0
ARC
  8
34
  6
PHANTOM
  5
776
 10
543.97229
 20
256.905394
 30
0.0
 40
2.0
 50
0.0
 51
90.0
  0
LINE
  8
34
  6
PHANTOM
  5
777
 10
541.97229
 20
258.905394
 30
0.0
 11
543.97229
 21
258.905394
 31
0.0
  0
TEXT
  8
FF
  5
8F6
 10
170.299887
 20
161.218538
 30
0.0
 40
8.0
  1
※１
 41
0.8333
  0
LINE
  8
FF
  5
8F7
 10
184.495972
 20
166.825908
 30
0.0
 11
222.462247
 21
183.318171
 31
0.0
  0
TEXT
  8
FF
  5
10EF
 10
24.725174
 20
-46.304685
 30
0.0
 40
10.0
  1
Type
  0
ARC
  8
FF
  5
10F5
 10
3.484865
 20
-37.247155
 30
0.0
 40
6.242447
 50
1.499529
 51
100.57959
1001
ACAD
1000
ASC_BOUNDS
1002
{
1070
    19
1002
}
  0
ARC
  8
FF
  5
10F6
 10
3.46062
 20
-37.309538
 30
0.0
 40
5.319261
 50
2.961866
 51
93.426847
  0
LINE
  8
FF
  5
10F7
 10
-2.090507
 20
-37.034685
 30
0.0
 11
8.772775
 21
-37.034685
 31
0.0
  0
LINE
  8
FF
  5
10F8
 10
-2.319572
 20
-38.114685
 30
0.0
 11
9.725174
 21
-38.114685
 31
0.0
  0
ARC
  8
FF
  5
10F9
 10
0.582054
 20
-37.569061
 30
0.0
 40
9.05618
 50
279.159834
 51
342.417868
1001
ACAD
1000
ASC_BOUNDS
1002
{
1070
    19
1002
}
  0
ARC
  8
FF
  5
10FA
 10
0.318021
 20
-37.333107
 30
0.0
 40
8.419574
 50
280.279158
 51
339.332945
1001
ACAD
1000
ASC_BOUNDS
1002
{
1070
    19
1002
}
  0
POLYLINE
  8
FF
  5
10FC
 66
     1
 10
0.0
 20
0.0
 30
0.0
 70
   128
  0
VERTEX
  8
FF
  5
12A9
 10
-4.067431
 20
-38.083797
 30
0.0
  0
VERTEX
  8
FF
  5
12AA
 10
-4.349905
 20
-39.368792
 30
0.0
  0
VERTEX
  8
FF
  5
12AB
 10
-4.410403
 20
-40.623699
 30
0.0
  0
SEQEND
  8
FF
  5
12AC
  0
LINE
  8
FF
  5
10FD
 10
-16.824826
 20
-46.304685
 30
0.0
 11
-14.079192
 21
-33.384056
 31
0.0
  0
ARC
  8
FF
  5
10FE
 10
0.934016
 20
-40.304712
 30
0.0
 40
6.3
 50
182.729155
 51
279.960292
1001
ACAD
1000
ASC_BOUNDS
1002
{
1070
    19
1002
}
  0
LINE
  8
FF
  5
10FF
 10
-11.089771
 20
-40.604685
 30
0.0
 11
-5.358838
 21
-40.604685
 31
0.0
  0
LINE
  8
FF
  5
1100
 10
-16.824826
 20
-46.304685
 30
0.0
 11
-12.301021
 21
-46.304685
 31
0.0
  0
LINE
  8
FF
  5
1101
 10
-12.301021
 20
-46.304685
 30
0.0
 11
-11.089771
 21
-40.604685
 31
0.0
  0
ARC
  8
FF
  5
1102
 10
1.191378
 20
-40.020123
 30
0.0
 40
5.632662
 50
186.002385
 51
276.412304
1001
ACAD
1000
ASC_BOUNDS
1002
{
1070
    19
1002
}
  0
LINE
  8
FF
  5
1103
 10
-11.511525
 20
-31.304685
 30
0.0
 11
-2.087326
 21
-31.304685
 31
0.0
  0
LINE
  8
FF
  5
1104
 10
-10.331146
 20
-37.034685
 30
0.0
 11
-4.68274
 21
-37.034685
 31
0.0
  0
LINE
  8
FF
  5
1105
 10
-9.32215
 20
-35.144685
 30
0.0
 11
-3.649863
 21
-35.144685
 31
0.0
  0
ARC
  8
FF
  5
1106
 10
-11.511525
 20
-33.929685
 30
0.0
 40
2.625
 50
90.0
 51
168.003101
  0
ARC
  8
FF
  5
1107
 10
-9.32215
 20
-35.894685
 30
0.0
 40
0.75
 50
90.0
 51
168.003101
  0
LINE
  8
FF
  5
1108
 10
-10.331146
 20
-37.034685
 30
0.0
 11
-10.055769
 21
-35.738791
 31
0.0
  0
ARC
  8
FF
  5
1109
 10
3.568182
 20
-39.385093
 30
0.0
 40
8.364916
 50
98.442625
 51
137.3304
1001
ACAD
1000
ASC_BOUNDS
1002
{
1070
    19
1002
}
  0
POLYLINE
  8
FF
  5
110A
 66
     1
 10
0.0
 20
0.0
 30
0.0
 70
   128
  0
VERTEX
  8
FF
  5
12AD
 10
3.142666
 20
-31.999788
 30
0.0
  0
VERTEX
  8
FF
  5
12AE
 10
1.851728
 20
-32.185709
 30
0.0
  0
VERTEX
  8
FF
  5
12AF
 10
0.584098
 20
-32.636349
 30
0.0
  0
VERTEX
  8
FF
  5
12B0
 10
-0.619208
 20
-33.337127
 30
0.0
  0
VERTEX
  8
FF
  5
12B1
 10
-1.719259
 20
-34.265369
 30
0.0
  0
VERTEX
  8
FF
  5
12B2
 10
-2.680463
 20
-35.391044
 30
0.0
  0
VERTEX
  8
FF
  5
12B3
 10
-3.47172
 20
-36.67773
 30
0.0
  0
VERTEX
  8
FF
  5
12B4
 10
-4.067431
 20
-38.083797
 30
0.0
  0
SEQEND
  8
FF
  5
12B5
  0
LINE
  8
FF
  5
110B
 10
-2.087326
 20
-31.304685
 30
0.0
 11
-2.582326
 21
-33.715607
 31
0.0
  0
LINE
  8
FF
  5
110C
 10
-2.090507
 20
-37.034685
 30
0.0
 11
-2.319572
 21
-38.114685
 31
0.0
  0
ARC
  8
FF
  5
110D
 10
3.747229
 20
-40.414395
 30
0.0
 40
9.082225
 50
144.533818
 51
158.153358
  0
LINE
  8
FF
  5
110F
 10
9.215174
 20
-40.304685
 30
0.0
 11
8.195771
 21
-40.304685
 31
0.0
  0
LINE
  8
FF
  5
1110
 10
9.725174
 20
-38.114685
 30
0.0
 11
9.725174
 21
-37.083798
 31
0.0
  0
TEXT
  8
FF
  5
1113
 10
74.725174
 20
-64.304685
 30
0.0
 40
10.0
  1
SC-N5 , SC-N5H
  0
TEXT
  8
FF
  5
1114
 10
74.725174
 20
-46.304685
 30
0.0
 40
10.0
  1
SC-N4/SE , SC-N4H/SE
  0
LINE
  8
FF
  5
1116
 10
376.785448
 20
-76.304685
 30
0.0
 11
566.785448
 21
-76.304685
 31
0.0
  0
LINE
  8
FF
  5
1117
 10
376.785448
 20
-66.304685
 30
0.0
 11
566.785448
 21
-66.304685
 31
0.0
  0
LINE
  8
FF
  5
1118
 10
376.785448
 20
-56.304685
 30
0.0
 11
566.785448
 21
-56.304685
 31
0.0
  0
LINE
  8
FF
  5
1119
 10
376.785448
 20
-46.304685
 30
0.0
 11
566.785448
 21
-46.304685
 31
0.0
  0
LINE
  8
FF
  5
111C
 10
376.785448
 20
-36.304685
 30
0.0
 11
566.785448
 21
-36.304685
 31
0.0
  0
TEXT
  8
FF
  6
CONTINUOUS
  5
111F
 10
381.654226
 20
-63.540819
 30
0.0
 40
5.0
  1
変更
  0
TEXT
  8
FF
  6
CONTINUOUS
  5
1120
 10
381.654226
 20
-54.09457
 30
0.0
 40
5.0
  1
作成
  0
LINE
  8
FF
  5
1123
 10
376.785448
 20
-36.304685
 30
0.0
 11
376.785448
 21
-76.304685
 31
0.0
  0
LINE
  8
FF
  5
1124
 10
436.785448
 20
-36.304685
 30
0.0
 11
436.785448
 21
-76.304685
 31
0.0
  0
LINE
  8
FF
  5
1125
 10
396.785448
 20
-36.304685
 30
0.0
 11
396.785448
 21
-76.304685
 31
0.0
  0
TEXT
  8
FF
  6
CONTINUOUS
  5
1127
 10
402.840499
 20
-54.09457
 30
0.0
 40
5.0
  1
2004-3
  0
TEXT
  8
FF
  6
CONTINUOUS
  5
1128
 10
410.715449
 20
-43.942827
 30
0.0
 40
5.0
  1
日付
  0
LINE
  8
FF
  5
112D
 10
486.785448
 20
-36.304685
 30
0.0
 11
486.785448
 21
-76.304685
 31
0.0
  0
TEXT
  8
FF
  6
CONTINUOUS
  5
112F
 10
454.008502
 20
-43.942827
 30
0.0
 40
5.0
  1
ﾌｧｲﾙ名
  0
TEXT
  8
FF
  6
CONTINUOUS
  5
1130
 10
440.196934
 20
-54.09457
 30
0.0
 40
5.0
  1
SC-N4SE
  0
TEXT
  8
FF
  6
CONTINUOUS
  5
1131
 10
504.128866
 20
-43.942827
 30
0.0
 40
5.0
  1
図面番号
  0
LINE
  8
FF
  5
1132
 10
566.785448
 20
-36.304685
 30
0.0
 11
566.785448
 21
-76.304685
 31
0.0
  0
LINE
  8
FF
  5
1133
 10
546.785448
 20
-36.304685
 30
0.0
 11
546.785448
 21
-76.304685
 31
0.0
  0
TEXT
  8
FF
  6
CONTINUOUS
  5
1135
 10
552.003403
 20
-43.942827
 30
0.0
 40
5.0
  1
変更
  0
TEXT
  8
FF
  6
CONTINUOUS
  5
12A2
 10
402.840499
 20
-64.09457
 30
0.0
 40
5.0
  1
2005-12
  0
TEXT
  8
FF
  6
CONTINUOUS
  5
12A3
 10
440.196934
 20
-64.09457
 30
0.0
 40
5.0
  1
SC-N4SE
  0
ENDSEC
  0
EOF
