  0
SECTION
  2
HEADER
  9
$ACADVER
  1
AC1009
  9
$INSBASE
 10
0.0
 20
0.0
 30
0.0
  9
$EXTMIN
 10
-151.992873
 20
-286.30454
 30
0.0
  9
$EXTMAX
 10
162.64822
 20
201.41146
 30
0.0
  9
$LIMMIN
 10
-220.338324
 20
-294.008597
  9
$LIMMAX
 10
196.304441
 20
219.677585
  9
$ORTHOMODE
 70
     1
  9
$REGENMODE
 70
     1
  9
$FILLMODE
 70
     1
  9
$QTEXTMODE
 70
     0
  9
$MIRRTEXT
 70
     1
  9
$DRAGMODE
 70
     2
  9
$LTSCALE
 40
1.0
  9
$OSMODE
 70
     1
  9
$ATTMODE
 70
     1
  9
$TEXTSIZE
 40
3.2
  9
$TRACEWID
 40
0.05
  9
$TEXTSTYLE
  7
STANDARD
  9
$CLAYER
  8
FF
  9
$CELTYPE
  6
CONTINUOUS
  9
$CECOLOR
 62
   256
  9
$DIMSCALE
 40
1.0
  9
$DIMASZ
 40
3.0
  9
$DIMEXO
 40
1.0
  9
$DIMDLI
 40
0.38
  9
$DIMRND
 40
0.0
  9
$DIMDLE
 40
0.0
  9
$DIMEXE
 40
1.0
  9
$DIMTP
 40
0.0
  9
$DIMTM
 40
0.0
  9
$DIMTXT
 40
3.0
  9
$DIMCEN
 40
0.09
  9
$DIMTSZ
 40
0.0
  9
$DIMTOL
 70
     0
  9
$DIMLIM
 70
     0
  9
$DIMTIH
 70
     0
  9
$DIMTOH
 70
     0
  9
$DIMSE1
 70
     0
  9
$DIMSE2
 70
     0
  9
$DIMTAD
 70
     1
  9
$DIMZIN
 70
     0
  9
$DIMBLK
  1

  9
$DIMASO
 70
     1
  9
$DIMSHO
 70
     1
  9
$DIMPOST
  1

  9
$DIMAPOST
  1

  9
$DIMALT
 70
     0
  9
$DIMALTD
 70
     2
  9
$DIMALTF
 40
25.4
  9
$DIMLFAC
 40
1.0
  9
$DIMTOFL
 70
     1
  9
$DIMTVP
 40
0.0
  9
$DIMTIX
 70
     0
  9
$DIMSOXD
 70
     0
  9
$DIMSAH
 70
     1
  9
$DIMBLK1
  1
_OPEN
  9
$DIMBLK2
  1
_OPEN
  9
$DIMSTYLE
  2
FSTD2
  9
$DIMCLRD
 70
     0
  9
$DIMCLRE
 70
     0
  9
$DIMCLRT
 70
     0
  9
$DIMTFAC
 40
1.0
  9
$DIMGAP
 40
1.0
  9
$LUNITS
 70
     2
  9
$LUPREC
 70
     4
  9
$SKETCHINC
 40
0.1
  9
$FILLETRAD
 40
0.0
  9
$AUNITS
 70
     0
  9
$AUPREC
 70
     0
  9
$MENU
  1
acad
  9
$ELEVATION
 40
0.0
  9
$PELEVATION
 40
0.0
  9
$THICKNESS
 40
0.0
  9
$LIMCHECK
 70
     0
  9
$BLIPMODE
 70
     1
  9
$CHAMFERA
 40
0.0
  9
$CHAMFERB
 40
0.0
  9
$SKPOLY
 70
     0
  9
$TDCREATE
 40
2451276.436439317
  9
$TDUPDATE
 40
2453726.594260162
  9
$TDINDWG
 40
0.0302289120
  9
$TDUSRTIMER
 40
0.0302289120
  9
$USRTIMER
 70
     1
  9
$ANGBASE
 50
0.0
  9
$ANGDIR
 70
     0
  9
$PDMODE
 70
     0
  9
$PDSIZE
 40
0.0
  9
$PLINEWID
 40
0.0
  9
$COORDS
 70
     1
  9
$SPLFRAME
 70
     0
  9
$SPLINETYPE
 70
     6
  9
$SPLINESEGS
 70
     8
  9
$ATTDIA
 70
     0
  9
$ATTREQ
 70
     1
  9
$HANDLING
 70
     1
  9
$HANDSEED
  5
A28
  9
$SURFTAB1
 70
     6
  9
$SURFTAB2
 70
     6
  9
$SURFTYPE
 70
     6
  9
$SURFU
 70
     6
  9
$SURFV
 70
     6
  9
$UCSNAME
  2

  9
$UCSORG
 10
0.0
 20
0.0
 30
0.0
  9
$UCSXDIR
 10
1.0
 20
0.0
 30
0.0
  9
$UCSYDIR
 10
0.0
 20
1.0
 30
0.0
  9
$PUCSNAME
  2

  9
$PUCSORG
 10
0.0
 20
0.0
 30
0.0
  9
$PUCSXDIR
 10
1.0
 20
0.0
 30
0.0
  9
$PUCSYDIR
 10
0.0
 20
1.0
 30
0.0
  9
$USERI1
 70
     0
  9
$USERI2
 70
     0
  9
$USERI3
 70
     0
  9
$USERI4
 70
     0
  9
$USERI5
 70
     0
  9
$USERR1
 40
0.0
  9
$USERR2
 40
0.0
  9
$USERR3
 40
0.0
  9
$USERR4
 40
0.0
  9
$USERR5
 40
0.0
  9
$WORLDVIEW
 70
     1
  9
$SHADEDGE
 70
     3
  9
$SHADEDIF
 70
    70
  9
$TILEMODE
 70
     1
  9
$MAXACTVP
 70
    16
  9
$PINSBASE
 10
0.0
 20
0.0
 30
0.0
  9
$PLIMCHECK
 70
     0
  9
$PEXTMIN
 10
1.000000E+20
 20
1.000000E+20
 30
1.000000E+20
  9
$PEXTMAX
 10
-1.000000E+20
 20
-1.000000E+20
 30
-1.000000E+20
  9
$PLIMMIN
 10
0.0
 20
0.0
  9
$PLIMMAX
 10
12.0
 20
9.0
  9
$UNITMODE
 70
     0
  9
$VISRETAIN
 70
     0
  9
$PLINEGEN
 70
     0
  9
$PSLTSCALE
 70
     1
  9
$TREEDEPTH
 70
  3020
  9
$DWGCODEPAGE
  3
dos932
  0
ENDSEC
  0
SECTION
  2
TABLES
  0
TABLE
  2
VPORT
 70
     2
  0
VPORT
  2
*ACTIVE
 70
     0
 10
0.0
 20
0.0
 11
1.0
 21
1.0
 12
221.620169
 22
5.583281
 13
0.0
 23
0.0
 14
1.0
 24
1.0
 15
20.0
 25
20.0
 16
0.0
 26
0.0
 36
1.0
 17
0.0
 27
0.0
 37
0.0
 40
599.183757
 41
1.475202
 42
50.0
 43
0.0
 44
0.0
 50
0.0
 51
0.0
 71
     0
 72
   100
 73
     1
 74
     1
 75
     0
 76
     0
 77
     0
 78
     0
  0
ENDTAB
  0
TABLE
  2
LTYPE
 70
     3
  0
LTYPE
  2
CONTINUOUS
 70
    64
  3
Solid-line
 72
    65
 73
     0
 40
0.0
  0
LTYPE
  2
HIDDEN
 70
    64
  3
HIDDEN
 72
    65
 73
     2
 40
2.45919
 49
1.84439
 49
-0.614797
  0
LTYPE
  2
CENTER
 70
    64
  3
CENTER
 72
    65
 73
     4
 40
10.2466
 49
6.14797
 49
-1.02466
 49
2.04932
 49
-1.02466
  0
ENDTAB
  0
TABLE
  2
LAYER
 70
    17
  0
LAYER
  2
0
 70
    64
 62
     7
  6
CONTINUOUS
  0
LAYER
  2
0A
 70
    64
 62
     7
  6
CONTINUOUS
  0
LAYER
  2
0B
 70
    64
 62
     6
  6
CONTINUOUS
  0
LAYER
  2
0C
 70
    64
 62
     3
  6
CONTINUOUS
  0
LAYER
  2
0D
 70
    64
 62
     2
  6
CONTINUOUS
  0
LAYER
  2
10
 70
    64
 62
     6
  6
CENTER
  0
LAYER
  2
14
 70
    64
 62
     7
  6
CONTINUOUS
  0
LAYER
  2
15
 70
    64
 62
     6
  6
CONTINUOUS
  0
LAYER
  2
16
 70
    64
 62
     3
  6
CONTINUOUS
  0
LAYER
  2
17
 70
    64
 62
     2
  6
CONTINUOUS
  0
LAYER
  2
1A
 70
    64
 62
     6
  6
CENTER
  0
LAYER
  2
32
 70
    64
 62
     7
  6
CONTINUOUS
  0
LAYER
  2
33
 70
    64
 62
     6
  6
CONTINUOUS
  0
LAYER
  2
34
 70
    64
 62
     3
  6
CONTINUOUS
  0
LAYER
  2
38
 70
    64
 62
     6
  6
CENTER
  0
LAYER
  2
FF
 70
    64
 62
     4
  6
CONTINUOUS
  0
LAYER
  2
DEFPOINTS
 70
    64
 62
     7
  6
CONTINUOUS
  0
ENDTAB
  0
TABLE
  2
STYLE
 70
     1
  0
STYLE
  2
STANDARD
 70
    64
 40
0.0
 41
1.0
 50
0.0
 71
     0
 42
0.2
  3
TXT
  4
BIGFONT
  0
ENDTAB
  0
TABLE
  2
VIEW
 70
     0
  0
ENDTAB
  0
TABLE
  2
UCS
 70
     0
  0
ENDTAB
  0
TABLE
  2
APPID
 70
     1
  0
APPID
  2
ACAD
 70
    64
  0
ENDTAB
  0
TABLE
  2
DIMSTYLE
 70
     2
  0
DIMSTYLE
  2
FSTD1
 70
    64
  3

  4

  5

  6
_OPEN
  7
_OPEN
 40
1.0
 41
3.0
 42
1.0
 43
0.38
 44
1.0
 45
0.0
 46
0.0
 47
0.0
 48
0.0
140
3.0
141
0.09
142
0.0
143
25.4
144
1.0
145
0.0
146
1.0
147
1.0
 71
     0
 72
     0
 73
     0
 74
     0
 75
     0
 76
     0
 77
     1
 78
     0
170
     0
171
     2
172
     1
173
     1
174
     0
175
     0
176
     0
177
     0
178
     0
  0
DIMSTYLE
  2
FSTD2
 70
    64
  3

  4

  5

  6
_OPEN
  7
_OPEN
 40
1.0
 41
3.0
 42
1.0
 43
0.38
 44
1.0
 45
0.0
 46
0.0
 47
0.0
 48
0.0
140
3.0
141
0.09
142
0.0
143
25.4
144
1.0
145
0.0
146
1.0
147
1.0
 71
     0
 72
     0
 73
     0
 74
     0
 75
     0
 76
     0
 77
     1
 78
     0
170
     0
171
     2
172
     1
173
     1
174
     0
175
     0
176
     0
177
     0
178
     0
  0
ENDTAB
  0
ENDSEC
  0
SECTION
  2
BLOCKS
  0
BLOCK
  8
0
  5
357
  2
_OPEN
 70
    64
 10
0.0
 20
0.0
 30
0.0
  3
_OPEN
  0
LINE
  8
0
  6
BYBLOCK
 62
     0
  5
358
 10
-1.0
 20
0.166667
 30
0.0
 11
0.0
 21
0.0
 31
0.0
  0
LINE
  8
0
  6
BYBLOCK
 62
     0
  5
359
 10
0.0
 20
0.0
 30
0.0
 11
-1.0
 21
-0.166667
 31
0.0
  0
LINE
  8
0
  6
BYBLOCK
 62
     0
  5
35A
 10
0.0
 20
0.0
 30
0.0
 11
-1.0
 21
0.0
 31
0.0
  0
ENDBLK
  8
0
  5
35B
  0
BLOCK
  8
0
  5
972
  2
*D1
 70
    65
 10
0.0
 20
0.0
 30
0.0
  3
*D1
  0
LINE
  8
0
  6
BYBLOCK
 62
     0
  5
973
 10
-148.594273
 20
134.56246
 30
0.0
 11
-148.594273
 21
197.67746
 31
0.0
  0
LINE
  8
0
  6
BYBLOCK
 62
     0
  5
974
 10
-27.594313
 20
134.56246
 30
0.0
 11
-27.594313
 21
197.67746
 31
0.0
  0
LINE
  8
0
  6
BYBLOCK
 62
     0
  5
975
 10
-145.594273
 20
196.67746
 30
0.0
 11
-30.594313
 21
196.67746
 31
0.0
  0
INSERT
  8
0
  6
BYBLOCK
 62
     0
  5
976
  2
_OPEN
 10
-148.594273
 20
196.67746
 30
0.0
 41
3.0
 42
3.0
 50
180.0
 43
3.0
  0
INSERT
  8
0
  6
BYBLOCK
 62
     0
  5
977
  2
_OPEN
 10
-27.594313
 20
196.67746
 30
0.0
 41
3.0
 42
3.0
 43
3.0
  0
TEXT
  8
0
  6
BYBLOCK
 62
     0
  5
978
 10
-91.094293
 20
197.67746
 30
0.0
 40
3.0
  1
118
  0
POINT
  8
DEFPOINTS
  6
BYBLOCK
 62
     0
  5
979
 10
-148.594273
 20
133.56246
 30
0.0
  0
POINT
  8
DEFPOINTS
  6
BYBLOCK
 62
     0
  5
97A
 10
-27.594313
 20
133.56246
 30
0.0
  0
POINT
  8
DEFPOINTS
  6
BYBLOCK
 62
     0
  5
97B
 10
-27.594313
 20
196.67746
 30
0.0
  0
ENDBLK
  8
0
  5
97C
  0
BLOCK
  8
0
  5
97D
  2
*D2
 70
    65
 10
0.0
 20
0.0
 30
0.0
  3
*D2
  0
LINE
  8
0
  6
BYBLOCK
 62
     0
  5
97E
 10
-138.594273
 20
156.56246
 30
0.0
 11
-138.594273
 21
188.88746
 31
0.0
  0
LINE
  8
0
  6
BYBLOCK
 62
     0
  5
97F
 10
-27.594313
 20
134.56246
 30
0.0
 11
-27.594313
 21
188.88746
 31
0.0
  0
LINE
  8
0
  6
BYBLOCK
 62
     0
  5
980
 10
-135.594273
 20
187.88746
 30
0.0
 11
-30.594313
 21
187.88746
 31
0.0
  0
INSERT
  8
0
  6
BYBLOCK
 62
     0
  5
981
  2
_OPEN
 10
-138.594273
 20
187.88746
 30
0.0
 41
3.0
 42
3.0
 50
180.0
 43
3.0
  0
INSERT
  8
0
  6
BYBLOCK
 62
     0
  5
982
  2
_OPEN
 10
-27.594313
 20
187.88746
 30
0.0
 41
3.0
 42
3.0
 43
3.0
  0
TEXT
  8
0
  6
BYBLOCK
 62
     0
  5
983
 10
-86.344293
 20
188.88746
 30
0.0
 40
3.0
  1
108
  0
POINT
  8
DEFPOINTS
  6
BYBLOCK
 62
     0
  5
984
 10
-138.594273
 20
155.56246
 30
0.0
  0
POINT
  8
DEFPOINTS
  6
BYBLOCK
 62
     0
  5
985
 10
-27.594313
 20
133.56246
 30
0.0
  0
POINT
  8
DEFPOINTS
  6
BYBLOCK
 62
     0
  5
986
 10
-27.594313
 20
187.88746
 30
0.0
  0
ENDBLK
  8
0
  5
987
  0
BLOCK
  8
0
  5
870
  2
*D3
 70
    65
 10
0.0
 20
0.0
 30
0.0
  3
*D3
  0
LINE
  8
0
  6
BYBLOCK
 62
     0
  5
871
 10
-27.594313
 20
135.56246
 30
0.0
 11
-27.594313
 21
188.88746
 31
0.0
  0
LINE
  8
0
  6
BYBLOCK
 62
     0
  5
872
 10
0.405687
 20
124.56246
 30
0.0
 11
0.405687
 21
188.88746
 31
0.0
  0
LINE
  8
0
  6
BYBLOCK
 62
     0
  5
873
 10
-24.594313
 20
187.88746
 30
0.0
 11
-2.594313
 21
187.88746
 31
0.0
  0
INSERT
  8
0
  6
BYBLOCK
 62
     0
  5
874
  2
_OPEN
 10
-27.594313
 20
187.88746
 30
0.0
 41
3.0
 42
3.0
 50
180.0
 43
3.0
  0
INSERT
  8
0
  6
BYBLOCK
 62
     0
  5
875
  2
_OPEN
 10
0.405687
 20
187.88746
 30
0.0
 41
3.0
 42
3.0
 43
3.0
  0
TEXT
  8
0
  6
BYBLOCK
 62
     0
  5
876
 10
-16.094313
 20
188.88746
 30
0.0
 40
3.0
  1
28
  0
POINT
  8
DEFPOINTS
  6
BYBLOCK
 62
     0
  5
877
 10
-27.594313
 20
134.56246
 30
0.0
  0
POINT
  8
DEFPOINTS
  6
BYBLOCK
 62
     0
  5
878
 10
0.405687
 20
123.56246
 30
0.0
  0
POINT
  8
DEFPOINTS
  6
BYBLOCK
 62
     0
  5
879
 10
0.405687
 20
187.88746
 30
0.0
  0
ENDBLK
  8
0
  5
87A
  0
BLOCK
  8
0
  5
988
  2
*D4
 70
    65
 10
0.0
 20
0.0
 30
0.0
  3
*D4
  0
LINE
  8
0
  6
BYBLOCK
 62
     0
  5
989
 10
-138.594273
 20
156.56246
 30
0.0
 11
-138.594273
 21
180.68346
 31
0.0
  0
LINE
  8
0
  6
BYBLOCK
 62
     0
  5
98A
 10
-47.594273
 20
151.56246
 30
0.0
 11
-47.594273
 21
180.68346
 31
0.0
  0
LINE
  8
0
  6
BYBLOCK
 62
     0
  5
98B
 10
-135.594273
 20
179.68346
 30
0.0
 11
-50.594273
 21
179.68346
 31
0.0
  0
INSERT
  8
0
  6
BYBLOCK
 62
     0
  5
98C
  2
_OPEN
 10
-138.594273
 20
179.68346
 30
0.0
 41
3.0
 42
3.0
 50
180.0
 43
3.0
  0
INSERT
  8
0
  6
BYBLOCK
 62
     0
  5
98D
  2
_OPEN
 10
-47.594273
 20
179.68346
 30
0.0
 41
3.0
 42
3.0
 43
3.0
  0
TEXT
  8
0
  6
BYBLOCK
 62
     0
  5
98E
 10
-95.594273
 20
180.68346
 30
0.0
 40
3.0
  1
88
  0
POINT
  8
DEFPOINTS
  6
BYBLOCK
 62
     0
  5
98F
 10
-138.594273
 20
155.56246
 30
0.0
  0
POINT
  8
DEFPOINTS
  6
BYBLOCK
 62
     0
  5
990
 10
-47.594273
 20
150.56246
 30
0.0
  0
POINT
  8
DEFPOINTS
  6
BYBLOCK
 62
     0
  5
991
 10
-47.594273
 20
179.68346
 30
0.0
  0
ENDBLK
  8
0
  5
992
  0
BLOCK
  8
0
  5
886
  2
*D5
 70
    65
 10
0.0
 20
0.0
 30
0.0
  3
*D5
  0
LINE
  8
0
  6
BYBLOCK
 62
     0
  5
887
 10
69.405727
 20
151.76246
 30
0.0
 11
69.405727
 21
198.41146
 31
0.0
  0
LINE
  8
0
  6
BYBLOCK
 62
     0
  5
888
 10
133.405727
 20
151.76246
 30
0.0
 11
133.405727
 21
198.41146
 31
0.0
  0
LINE
  8
0
  6
BYBLOCK
 62
     0
  5
889
 10
72.405727
 20
197.41146
 30
0.0
 11
130.405727
 21
197.41146
 31
0.0
  0
INSERT
  8
0
  6
BYBLOCK
 62
     0
  5
88A
  2
_OPEN
 10
69.405727
 20
197.41146
 30
0.0
 41
3.0
 42
3.0
 50
180.0
 43
3.0
  0
INSERT
  8
0
  6
BYBLOCK
 62
     0
  5
88B
  2
_OPEN
 10
133.405727
 20
197.41146
 30
0.0
 41
3.0
 42
3.0
 43
3.0
  0
TEXT
  8
0
  6
BYBLOCK
 62
     0
  5
88C
 10
98.905727
 20
198.41146
 30
0.0
 40
3.0
  1
64
  0
POINT
  8
DEFPOINTS
  6
BYBLOCK
 62
     0
  5
88D
 10
69.405727
 20
150.76246
 30
0.0
  0
POINT
  8
DEFPOINTS
  6
BYBLOCK
 62
     0
  5
88E
 10
133.405727
 20
150.76246
 30
0.0
  0
POINT
  8
DEFPOINTS
  6
BYBLOCK
 62
     0
  5
88F
 10
133.405727
 20
197.41146
 30
0.0
  0
ENDBLK
  8
0
  5
890
  0
BLOCK
  8
0
  5
891
  2
*D6
 70
    65
 10
0.0
 20
0.0
 30
0.0
  3
*D6
  0
LINE
  8
0
  6
BYBLOCK
 62
     0
  5
892
 10
81.237727
 20
145.56246
 30
0.0
 11
57.708727
 21
145.56246
 31
0.0
  0
LINE
  8
0
  6
BYBLOCK
 62
     0
  5
893
 10
96.755727
 20
165.56246
 30
0.0
 11
57.708727
 21
165.56246
 31
0.0
  0
LINE
  8
0
  6
BYBLOCK
 62
     0
  5
894
 10
58.708727
 20
148.56246
 30
0.0
 11
58.708727
 21
162.56246
 31
0.0
  0
INSERT
  8
0
  6
BYBLOCK
 62
     0
  5
895
  2
_OPEN
 10
58.708727
 20
145.56246
 30
0.0
 41
3.0
 42
3.0
 50
270.0
 43
3.0
  0
INSERT
  8
0
  6
BYBLOCK
 62
     0
  5
896
  2
_OPEN
 10
58.708727
 20
165.56246
 30
0.0
 41
3.0
 42
3.0
 50
90.0
 43
3.0
  0
TEXT
  8
0
  6
BYBLOCK
 62
     0
  5
897
 10
57.708727
 20
153.31246
 30
0.0
 40
3.0
  1
20
 50
90.0
  0
POINT
  8
DEFPOINTS
  6
BYBLOCK
 62
     0
  5
898
 10
82.237727
 20
145.56246
 30
0.0
  0
POINT
  8
DEFPOINTS
  6
BYBLOCK
 62
     0
  5
899
 10
97.755727
 20
165.56246
 30
0.0
  0
POINT
  8
DEFPOINTS
  6
BYBLOCK
 62
     0
  5
89A
 10
58.708727
 20
165.56246
 30
0.0
  0
ENDBLK
  8
0
  5
89B
  0
BLOCK
  8
0
  5
89C
  2
*D7
 70
    65
 10
0.0
 20
0.0
 30
0.0
  3
*D7
  0
LINE
  8
0
  6
BYBLOCK
 62
     0
  5
89D
 10
131.871727
 20
142.56246
 30
0.0
 11
151.327727
 21
142.56246
 31
0.0
  0
LINE
  8
0
  6
BYBLOCK
 62
     0
  5
89E
 10
106.055727
 20
165.56246
 30
0.0
 11
151.327727
 21
165.56246
 31
0.0
  0
LINE
  8
0
  6
BYBLOCK
 62
     0
  5
89F
 10
150.327727
 20
145.56246
 30
0.0
 11
150.327727
 21
162.56246
 31
0.0
  0
INSERT
  8
0
  6
BYBLOCK
 62
     0
  5
8A0
  2
_OPEN
 10
150.327727
 20
142.56246
 30
0.0
 41
3.0
 42
3.0
 50
270.0
 43
3.0
  0
INSERT
  8
0
  6
BYBLOCK
 62
     0
  5
8A1
  2
_OPEN
 10
150.327727
 20
165.56246
 30
0.0
 41
3.0
 42
3.0
 50
90.0
 43
3.0
  0
TEXT
  8
0
  6
BYBLOCK
 62
     0
  5
8A2
 10
149.327727
 20
151.56246
 30
0.0
 40
3.0
  1
23
 50
90.0
  0
POINT
  8
DEFPOINTS
  6
BYBLOCK
 62
     0
  5
8A3
 10
130.871727
 20
142.56246
 30
0.0
  0
POINT
  8
DEFPOINTS
  6
BYBLOCK
 62
     0
  5
8A4
 10
105.055727
 20
165.56246
 30
0.0
  0
POINT
  8
DEFPOINTS
  6
BYBLOCK
 62
     0
  5
8A5
 10
150.327727
 20
165.56246
 30
0.0
  0
ENDBLK
  8
0
  5
8A6
  0
BLOCK
  8
0
  5
8A7
  2
*D8
 70
    65
 10
0.0
 20
0.0
 30
0.0
  3
*D8
  0
LINE
  8
0
  6
BYBLOCK
 62
     0
  5
8A8
 10
81.237727
 20
145.56246
 30
0.0
 11
57.708727
 21
145.56246
 31
0.0
  0
LINE
  8
0
  6
BYBLOCK
 62
     0
  5
8A9
 10
80.529727
 20
96.56246
 30
0.0
 11
57.708727
 21
96.56246
 31
0.0
  0
LINE
  8
0
  6
BYBLOCK
 62
     0
  5
8AA
 10
58.708727
 20
142.56246
 30
0.0
 11
58.708727
 21
99.56246
 31
0.0
  0
INSERT
  8
0
  6
BYBLOCK
 62
     0
  5
8AB
  2
_OPEN
 10
58.708727
 20
145.56246
 30
0.0
 41
3.0
 42
3.0
 50
90.0
 43
3.0
  0
INSERT
  8
0
  6
BYBLOCK
 62
     0
  5
8AC
  2
_OPEN
 10
58.708727
 20
96.56246
 30
0.0
 41
3.0
 42
3.0
 50
270.0
 43
3.0
  0
TEXT
  8
0
  6
BYBLOCK
 62
     0
  5
8AD
 10
57.708727
 20
118.56246
 30
0.0
 40
3.0
  1
49
 50
90.0
  0
POINT
  8
DEFPOINTS
  6
BYBLOCK
 62
     0
  5
8AE
 10
82.237727
 20
145.56246
 30
0.0
  0
POINT
  8
DEFPOINTS
  6
BYBLOCK
 62
     0
  5
8AF
 10
81.529727
 20
96.56246
 30
0.0
  0
POINT
  8
DEFPOINTS
  6
BYBLOCK
 62
     0
  5
8B0
 10
58.708727
 20
96.56246
 30
0.0
  0
ENDBLK
  8
0
  5
8B1
  0
BLOCK
  8
0
  5
8B2
  2
*D9
 70
    65
 10
0.0
 20
0.0
 30
0.0
  3
*D9
  0
LINE
  8
0
  6
BYBLOCK
 62
     0
  5
8B3
 10
132.871727
 20
142.56246
 30
0.0
 11
151.327727
 21
142.56246
 31
0.0
  0
LINE
  8
0
  6
BYBLOCK
 62
     0
  5
8B4
 10
132.853727
 20
99.56246
 30
0.0
 11
151.327727
 21
99.56246
 31
0.0
  0
LINE
  8
0
  6
BYBLOCK
 62
     0
  5
8B5
 10
150.327727
 20
139.56246
 30
0.0
 11
150.327727
 21
102.56246
 31
0.0
  0
INSERT
  8
0
  6
BYBLOCK
 62
     0
  5
8B6
  2
_OPEN
 10
150.327727
 20
142.56246
 30
0.0
 41
3.0
 42
3.0
 50
90.0
 43
3.0
  0
INSERT
  8
0
  6
BYBLOCK
 62
     0
  5
8B7
  2
_OPEN
 10
150.327727
 20
99.56246
 30
0.0
 41
3.0
 42
3.0
 50
270.0
 43
3.0
  0
TEXT
  8
0
  6
BYBLOCK
 62
     0
  5
8B8
 10
149.327727
 20
118.56246
 30
0.0
 40
3.0
  1
43
 50
90.0
  0
POINT
  8
DEFPOINTS
  6
BYBLOCK
 62
     0
  5
8B9
 10
131.871727
 20
142.56246
 30
0.0
  0
POINT
  8
DEFPOINTS
  6
BYBLOCK
 62
     0
  5
8BA
 10
131.853727
 20
99.56246
 30
0.0
  0
POINT
  8
DEFPOINTS
  6
BYBLOCK
 62
     0
  5
8BB
 10
150.327727
 20
99.56246
 30
0.0
  0
ENDBLK
  8
0
  5
8BC
  0
BLOCK
  8
0
  5
963
  2
*D10
 70
    65
 10
0.0
 20
0.0
 30
0.0
  3
*D10
  0
LINE
  8
0
  6
BYBLOCK
 62
     0
  5
964
 10
107.055727
 20
165.56246
 30
0.0
 11
159.753727
 21
165.56246
 31
0.0
  0
LINE
  8
0
  6
BYBLOCK
 62
     0
  5
965
 10
129.905727
 20
85.56246
 30
0.0
 11
159.753727
 21
85.56246
 31
0.0
  0
LINE
  8
0
  6
BYBLOCK
 62
     0
  5
966
 10
158.753727
 20
162.56246
 30
0.0
 11
158.753727
 21
88.56246
 31
0.0
  0
INSERT
  8
0
  6
BYBLOCK
 62
     0
  5
967
  2
_OPEN
 10
158.753727
 20
165.56246
 30
0.0
 41
3.0
 42
3.0
 50
90.0
 43
3.0
  0
INSERT
  8
0
  6
BYBLOCK
 62
     0
  5
968
  2
_OPEN
 10
158.753727
 20
85.56246
 30
0.0
 41
3.0
 42
3.0
 50
270.0
 43
3.0
  0
TEXT
  8
0
  6
BYBLOCK
 62
     0
  5
969
 10
157.753727
 20
123.56246
 30
0.0
 40
3.0
  1
81
 50
90.0
  0
POINT
  8
DEFPOINTS
  6
BYBLOCK
 62
     0
  5
96A
 10
106.055727
 20
165.56246
 30
0.0
  0
POINT
  8
DEFPOINTS
  6
BYBLOCK
 62
     0
  5
96B
 10
128.905727
 20
85.56246
 30
0.0
  0
POINT
  8
DEFPOINTS
  6
BYBLOCK
 62
     0
  5
96C
 10
158.753727
 20
85.56246
 30
0.0
  0
ENDBLK
  8
0
  5
96D
  0
BLOCK
  8
0
  5
99E
  2
*D11
 70
    65
 10
0.0
 20
0.0
 30
0.0
  3
*D11
  0
LINE
  8
0
  6
BYBLOCK
 62
     0
  5
99F
 10
88.405727
 20
91.19426
 30
0.0
 11
88.405727
 21
57.21866
 31
0.0
  0
LINE
  8
0
  6
BYBLOCK
 62
     0
  5
9A0
 10
101.405727
 20
64.599417
 30
0.0
 11
101.405727
 21
57.21866
 31
0.0
  0
LINE
  8
0
  6
BYBLOCK
 62
     0
  5
9A1
 10
91.405727
 20
58.21866
 30
0.0
 11
98.405727
 21
58.21866
 31
0.0
  0
INSERT
  8
0
  6
BYBLOCK
 62
     0
  5
9A2
  2
_OPEN
 10
88.405727
 20
58.21866
 30
0.0
 41
3.0
 42
3.0
 50
180.0
 43
3.0
  0
INSERT
  8
0
  6
BYBLOCK
 62
     0
  5
9A3
  2
_OPEN
 10
101.405727
 20
58.21866
 30
0.0
 41
3.0
 42
3.0
 43
3.0
  0
TEXT
  8
0
  6
BYBLOCK
 62
     0
  5
9A4
 10
92.905727
 20
59.21866
 30
0.0
 40
3.0
  1
13
  0
POINT
  8
DEFPOINTS
  6
BYBLOCK
 62
     0
  5
9A5
 10
88.405727
 20
92.19426
 30
0.0
  0
POINT
  8
DEFPOINTS
  6
BYBLOCK
 62
     0
  5
9A6
 10
101.405727
 20
65.599417
 30
0.0
  0
POINT
  8
DEFPOINTS
  6
BYBLOCK
 62
     0
  5
9A7
 10
101.405727
 20
58.21866
 30
0.0
  0
ENDBLK
  8
0
  5
9A8
  0
BLOCK
  8
0
  5
993
  2
*D12
 70
    65
 10
0.0
 20
0.0
 30
0.0
  3
*D12
  0
LINE
  8
0
  6
BYBLOCK
 62
     0
  5
994
 10
101.405727
 20
64.414837
 30
0.0
 11
101.405727
 21
57.21866
 31
0.0
  0
LINE
  8
0
  6
BYBLOCK
 62
     0
  5
995
 10
114.405727
 20
91.19426
 30
0.0
 11
114.405727
 21
57.21866
 31
0.0
  0
LINE
  8
0
  6
BYBLOCK
 62
     0
  5
996
 10
104.405727
 20
58.21866
 30
0.0
 11
111.405727
 21
58.21866
 31
0.0
  0
INSERT
  8
0
  6
BYBLOCK
 62
     0
  5
997
  2
_OPEN
 10
101.405727
 20
58.21866
 30
0.0
 41
3.0
 42
3.0
 50
180.0
 43
3.0
  0
INSERT
  8
0
  6
BYBLOCK
 62
     0
  5
998
  2
_OPEN
 10
114.405727
 20
58.21866
 30
0.0
 41
3.0
 42
3.0
 43
3.0
  0
TEXT
  8
0
  6
BYBLOCK
 62
     0
  5
999
 10
105.905727
 20
59.21866
 30
0.0
 40
3.0
  1
13
  0
POINT
  8
DEFPOINTS
  6
BYBLOCK
 62
     0
  5
99A
 10
101.405727
 20
65.414837
 30
0.0
  0
POINT
  8
DEFPOINTS
  6
BYBLOCK
 62
     0
  5
99B
 10
114.405727
 20
92.19426
 30
0.0
  0
POINT
  8
DEFPOINTS
  6
BYBLOCK
 62
     0
  5
99C
 10
114.405727
 20
58.21866
 30
0.0
  0
ENDBLK
  8
0
  5
99D
  0
BLOCK
  8
0
  5
8DE
  2
*D13
 70
    65
 10
0.0
 20
0.0
 30
0.0
  3
*D13
  0
LINE
  8
0
  6
BYBLOCK
 62
     0
  5
8DF
 10
74.405727
 20
-44.51462
 30
0.0
 11
74.405727
 21
-17.92862
 31
0.0
  0
LINE
  8
0
  6
BYBLOCK
 62
     0
  5
8E0
 10
128.405727
 20
-101.85554
 30
0.0
 11
128.405727
 21
-17.92862
 31
0.0
  0
LINE
  8
0
  6
BYBLOCK
 62
     0
  5
8E1
 10
77.405727
 20
-18.92862
 30
0.0
 11
125.405727
 21
-18.92862
 31
0.0
  0
INSERT
  8
0
  6
BYBLOCK
 62
     0
  5
8E2
  2
_OPEN
 10
74.405727
 20
-18.92862
 30
0.0
 41
3.0
 42
3.0
 50
180.0
 43
3.0
  0
INSERT
  8
0
  6
BYBLOCK
 62
     0
  5
8E3
  2
_OPEN
 10
128.405727
 20
-18.92862
 30
0.0
 41
3.0
 42
3.0
 43
3.0
  0
TEXT
  8
0
  6
BYBLOCK
 62
     0
  5
8E4
 10
98.905727
 20
-17.92862
 30
0.0
 40
3.0
  1
54
  0
POINT
  8
DEFPOINTS
  6
BYBLOCK
 62
     0
  5
8E5
 10
74.405727
 20
-45.51462
 30
0.0
  0
POINT
  8
DEFPOINTS
  6
BYBLOCK
 62
     0
  5
8E6
 10
128.405727
 20
-102.85554
 30
0.0
  0
POINT
  8
DEFPOINTS
  6
BYBLOCK
 62
     0
  5
8E7
 10
128.405727
 20
-18.92862
 30
0.0
  0
ENDBLK
  8
0
  5
8E8
  0
BLOCK
  8
0
  5
8E9
  2
*D14
 70
    65
 10
0.0
 20
0.0
 30
0.0
  3
*D14
  0
LINE
  8
0
  6
BYBLOCK
 62
     0
  5
8EA
 10
76.405727
 20
-113.22754
 30
0.0
 11
76.405727
 21
-134.41354
 31
0.0
  0
LINE
  8
0
  6
BYBLOCK
 62
     0
  5
8EB
 10
126.405727
 20
-53.66662
 30
0.0
 11
126.405727
 21
-134.41354
 31
0.0
  0
LINE
  8
0
  6
BYBLOCK
 62
     0
  5
8EC
 10
79.405727
 20
-133.41354
 30
0.0
 11
123.405727
 21
-133.41354
 31
0.0
  0
INSERT
  8
0
  6
BYBLOCK
 62
     0
  5
8ED
  2
_OPEN
 10
76.405727
 20
-133.41354
 30
0.0
 41
3.0
 42
3.0
 50
180.0
 43
3.0
  0
INSERT
  8
0
  6
BYBLOCK
 62
     0
  5
8EE
  2
_OPEN
 10
126.405727
 20
-133.41354
 30
0.0
 41
3.0
 42
3.0
 43
3.0
  0
TEXT
  8
0
  6
BYBLOCK
 62
     0
  5
8EF
 10
99.155727
 20
-132.41354
 30
0.0
 40
3.0
  1
50
  0
POINT
  8
DEFPOINTS
  6
BYBLOCK
 62
     0
  5
8F0
 10
76.405727
 20
-112.22754
 30
0.0
  0
POINT
  8
DEFPOINTS
  6
BYBLOCK
 62
     0
  5
8F1
 10
126.405727
 20
-52.66662
 30
0.0
  0
POINT
  8
DEFPOINTS
  6
BYBLOCK
 62
     0
  5
8F2
 10
126.405727
 20
-133.41354
 30
0.0
  0
ENDBLK
  8
0
  5
8F3
  0
BLOCK
  8
0
  5
8F4
  2
*D15
 70
    65
 10
0.0
 20
0.0
 30
0.0
  3
*D15
  0
LINE
  8
0
  6
BYBLOCK
 62
     0
  5
8F5
 10
70.177727
 20
-50.93762
 30
0.0
 11
57.026727
 21
-50.93762
 31
0.0
  0
LINE
  8
0
  6
BYBLOCK
 62
     0
  5
8F6
 10
123.885727
 20
-106.93754
 30
0.0
 11
57.026727
 21
-106.93754
 31
0.0
  0
LINE
  8
0
  6
BYBLOCK
 62
     0
  5
8F7
 10
58.026727
 20
-53.93762
 30
0.0
 11
58.026727
 21
-103.93754
 31
0.0
  0
INSERT
  8
0
  6
BYBLOCK
 62
     0
  5
8F8
  2
_OPEN
 10
58.026727
 20
-50.93762
 30
0.0
 41
3.0
 42
3.0
 50
90.0
 43
3.0
  0
INSERT
  8
0
  6
BYBLOCK
 62
     0
  5
8F9
  2
_OPEN
 10
58.026727
 20
-106.93754
 30
0.0
 41
3.0
 42
3.0
 50
270.0
 43
3.0
  0
TEXT
  8
0
  6
BYBLOCK
 62
     0
  5
8FA
 10
57.026727
 20
-81.43758
 30
0.0
 40
3.0
  1
56
 50
90.0
  0
POINT
  8
DEFPOINTS
  6
BYBLOCK
 62
     0
  5
8FB
 10
71.177727
 20
-50.93762
 30
0.0
  0
POINT
  8
DEFPOINTS
  6
BYBLOCK
 62
     0
  5
8FC
 10
124.885727
 20
-106.93754
 30
0.0
  0
POINT
  8
DEFPOINTS
  6
BYBLOCK
 62
     0
  5
8FD
 10
58.026727
 20
-106.93754
 30
0.0
  0
ENDBLK
  8
0
  5
8FE
  0
BLOCK
  8
0
  5
8FF
  2
*D16
 70
    65
 10
0.0
 20
0.0
 30
0.0
  3
*D16
  0
LINE
  8
0
  6
BYBLOCK
 62
     0
  5
900
 10
71.155727
 20
-48.93762
 30
0.0
 11
46.962727
 21
-48.93762
 31
0.0
  0
LINE
  8
0
  6
BYBLOCK
 62
     0
  5
901
 10
71.766727
 20
-108.93754
 30
0.0
 11
46.962727
 21
-108.93754
 31
0.0
  0
LINE
  8
0
  6
BYBLOCK
 62
     0
  5
902
 10
47.962727
 20
-51.93762
 30
0.0
 11
47.962727
 21
-105.93754
 31
0.0
  0
INSERT
  8
0
  6
BYBLOCK
 62
     0
  5
903
  2
_OPEN
 10
47.962727
 20
-48.93762
 30
0.0
 41
3.0
 42
3.0
 50
90.0
 43
3.0
  0
INSERT
  8
0
  6
BYBLOCK
 62
     0
  5
904
  2
_OPEN
 10
47.962727
 20
-108.93754
 30
0.0
 41
3.0
 42
3.0
 50
270.0
 43
3.0
  0
TEXT
  8
0
  6
BYBLOCK
 62
     0
  5
905
 10
46.962727
 20
-81.18758
 30
0.0
 40
3.0
  1
60
 50
90.0
  0
POINT
  8
DEFPOINTS
  6
BYBLOCK
 62
     0
  5
906
 10
72.155727
 20
-48.93762
 30
0.0
  0
POINT
  8
DEFPOINTS
  6
BYBLOCK
 62
     0
  5
907
 10
72.766727
 20
-108.93754
 30
0.0
  0
POINT
  8
DEFPOINTS
  6
BYBLOCK
 62
     0
  5
908
 10
47.962727
 20
-108.93754
 30
0.0
  0
ENDBLK
  8
0
  5
909
  0
BLOCK
  8
0
  5
90A
  2
*D17
 70
    65
 10
0.0
 20
0.0
 30
0.0
  3
*D17
  0
LINE
  8
0
  6
BYBLOCK
 62
     0
  5
90B
 10
132.107727
 20
-48.93762
 30
0.0
 11
153.93137
 21
-48.93762
 31
0.0
  0
LINE
  8
0
  6
BYBLOCK
 62
     0
  5
90C
 10
131.655727
 20
-108.93754
 30
0.0
 11
153.93137
 21
-108.93754
 31
0.0
  0
LINE
  8
0
  6
BYBLOCK
 62
     0
  5
90D
 10
152.93137
 20
-51.93762
 30
0.0
 11
152.93137
 21
-105.93754
 31
0.0
  0
INSERT
  8
0
  6
BYBLOCK
 62
     0
  5
90E
  2
_OPEN
 10
152.93137
 20
-48.93762
 30
0.0
 41
3.0
 42
3.0
 50
90.0
 43
3.0
  0
INSERT
  8
0
  6
BYBLOCK
 62
     0
  5
90F
  2
_OPEN
 10
152.93137
 20
-108.93754
 30
0.0
 41
3.0
 42
3.0
 50
270.0
 43
3.0
  0
TEXT
  8
0
  6
BYBLOCK
 62
     0
  5
910
 10
151.93137
 20
-81.18758
 30
0.0
 40
3.0
  1
60
 50
90.0
  0
POINT
  8
DEFPOINTS
  6
BYBLOCK
 62
     0
  5
911
 10
131.107727
 20
-48.93762
 30
0.0
  0
POINT
  8
DEFPOINTS
  6
BYBLOCK
 62
     0
  5
912
 10
130.655727
 20
-108.93754
 30
0.0
  0
POINT
  8
DEFPOINTS
  6
BYBLOCK
 62
     0
  5
913
 10
152.93137
 20
-108.93754
 30
0.0
  0
ENDBLK
  8
0
  5
914
  0
BLOCK
  8
0
  5
915
  2
*D18
 70
    65
 10
0.0
 20
0.0
 30
0.0
  3
*D18
  0
LINE
  8
0
  6
BYBLOCK
 62
     0
  5
916
 10
-138.594273
 20
157.56246
 30
0.0
 11
-138.594273
 21
171.89146
 31
0.0
  0
LINE
  8
0
  6
BYBLOCK
 62
     0
  5
917
 10
-130.094273
 20
156.56246
 30
0.0
 11
-130.094273
 21
171.89146
 31
0.0
  0
LINE
  8
0
  6
BYBLOCK
 62
     0
  5
918
 10
-135.594273
 20
170.89146
 30
0.0
 11
-133.094273
 21
170.89146
 31
0.0
  0
INSERT
  8
0
  6
BYBLOCK
 62
     0
  5
919
  2
_OPEN
 10
-138.594273
 20
170.89146
 30
0.0
 41
3.0
 42
3.0
 50
180.0
 43
3.0
  0
INSERT
  8
0
  6
BYBLOCK
 62
     0
  5
91A
  2
_OPEN
 10
-130.094273
 20
170.89146
 30
0.0
 41
3.0
 42
3.0
 43
3.0
  0
TEXT
  8
0
  6
BYBLOCK
 62
     0
  5
91B
 10
-137.344273
 20
171.89146
 30
0.0
 40
3.0
  1
8.5
  0
POINT
  8
DEFPOINTS
  6
BYBLOCK
 62
     0
  5
91C
 10
-138.594273
 20
156.56246
 30
0.0
  0
POINT
  8
DEFPOINTS
  6
BYBLOCK
 62
     0
  5
91D
 10
-130.094273
 20
155.56246
 30
0.0
  0
POINT
  8
DEFPOINTS
  6
BYBLOCK
 62
     0
  5
91E
 10
-130.094273
 20
170.89146
 30
0.0
  0
ENDBLK
  8
0
  5
91F
  0
BLOCK
  8
0
  5
920
  2
*D19
 70
    65
 10
0.0
 20
0.0
 30
0.0
  3
*D19
  0
LINE
  8
0
  6
BYBLOCK
 62
     0
  5
921
 10
122.555727
 20
86.36246
 30
0.0
 11
122.555727
 21
74.34606
 31
0.0
  0
LINE
  8
0
  6
BYBLOCK
 62
     0
  5
922
 10
130.255727
 20
90.36246
 30
0.0
 11
130.255727
 21
74.34606
 31
0.0
  0
LINE
  8
0
  6
BYBLOCK
 62
     0
  5
923
 10
119.555727
 20
75.34606
 30
0.0
 11
116.555727
 21
75.34606
 31
0.0
  0
LINE
  8
0
  6
BYBLOCK
 62
     0
  5
924
 10
133.255727
 20
75.34606
 30
0.0
 11
144.255727
 21
75.34606
 31
0.0
  0
LINE
  8
0
  6
BYBLOCK
 62
     0
  5
925
 10
122.555727
 20
75.34606
 30
0.0
 11
130.255727
 21
75.34606
 31
0.0
  0
INSERT
  8
0
  6
BYBLOCK
 62
     0
  5
926
  2
_OPEN
 10
122.555727
 20
75.34606
 30
0.0
 41
3.0
 42
3.0
 43
3.0
  0
INSERT
  8
0
  6
BYBLOCK
 62
     0
  5
927
  2
_OPEN
 10
130.255727
 20
75.34606
 30
0.0
 41
3.0
 42
3.0
 50
180.0
 43
3.0
  0
TEXT
  8
0
  6
BYBLOCK
 62
     0
  5
928
 10
137.255727
 20
76.34606
 30
0.0
 40
3.0
  1
7.7
  0
POINT
  8
DEFPOINTS
  6
BYBLOCK
 62
     0
  5
929
 10
122.555727
 20
87.36246
 30
0.0
  0
POINT
  8
DEFPOINTS
  6
BYBLOCK
 62
     0
  5
92A
 10
130.255727
 20
91.36246
 30
0.0
  0
POINT
  8
DEFPOINTS
  6
BYBLOCK
 62
     0
  5
92B
 10
130.255727
 20
75.34606
 30
0.0
  0
ENDBLK
  8
0
  5
92C
  0
BLOCK
  8
0
  5
92D
  2
*D20
 70
    65
 10
0.0
 20
0.0
 30
0.0
  3
*D20
  0
LINE
  8
0
  6
BYBLOCK
 62
     0
  5
92E
 10
106.055727
 20
-34.437624
 30
0.0
 11
153.885727
 21
-34.437624
 31
0.0
  0
LINE
  8
0
  6
BYBLOCK
 62
     0
  5
92F
 10
131.107727
 20
-48.93762
 30
0.0
 11
153.885727
 21
-48.93762
 31
0.0
  0
LINE
  8
0
  6
BYBLOCK
 62
     0
  5
930
 10
152.885727
 20
-37.437624
 30
0.0
 11
152.885727
 21
-45.93762
 31
0.0
  0
INSERT
  8
0
  6
BYBLOCK
 62
     0
  5
931
  2
_OPEN
 10
152.885727
 20
-34.437624
 30
0.0
 41
3.0
 42
3.0
 50
90.0
 43
3.0
  0
INSERT
  8
0
  6
BYBLOCK
 62
     0
  5
932
  2
_OPEN
 10
152.885727
 20
-48.93762
 30
0.0
 41
3.0
 42
3.0
 50
270.0
 43
3.0
  0
TEXT
  8
0
  6
BYBLOCK
 62
     0
  5
933
 10
151.885727
 20
-45.687622
 30
0.0
 40
3.0
  1
14.5
 50
90.0
  0
POINT
  8
DEFPOINTS
  6
BYBLOCK
 62
     0
  5
934
 10
105.055727
 20
-34.437624
 30
0.0
  0
POINT
  8
DEFPOINTS
  6
BYBLOCK
 62
     0
  5
935
 10
130.107727
 20
-48.93762
 30
0.0
  0
POINT
  8
DEFPOINTS
  6
BYBLOCK
 62
     0
  5
936
 10
152.885727
 20
-48.93762
 30
0.0
  0
ENDBLK
  8
0
  5
937
  0
BLOCK
  8
0
  5
938
  2
*D21
 70
    65
 10
0.0
 20
0.0
 30
0.0
  3
*D21
  0
LINE
  8
0
  6
BYBLOCK
 62
     0
  5
939
 10
96.755727
 20
-34.437624
 30
0.0
 11
46.962727
 21
-34.437624
 31
0.0
  0
LINE
  8
0
  6
BYBLOCK
 62
     0
  5
93A
 10
70.155727
 20
-48.93762
 30
0.0
 11
46.962727
 21
-48.93762
 31
0.0
  0
LINE
  8
0
  6
BYBLOCK
 62
     0
  5
93B
 10
47.962727
 20
-37.437624
 30
0.0
 11
47.962727
 21
-45.93762
 31
0.0
  0
INSERT
  8
0
  6
BYBLOCK
 62
     0
  5
93C
  2
_OPEN
 10
47.962727
 20
-34.437624
 30
0.0
 41
3.0
 42
3.0
 50
90.0
 43
3.0
  0
INSERT
  8
0
  6
BYBLOCK
 62
     0
  5
93D
  2
_OPEN
 10
47.962727
 20
-48.93762
 30
0.0
 41
3.0
 42
3.0
 50
270.0
 43
3.0
  0
TEXT
  8
0
  6
BYBLOCK
 62
     0
  5
93E
 10
46.962727
 20
-45.687622
 30
0.0
 40
3.0
  1
14.5
 50
90.0
  0
POINT
  8
DEFPOINTS
  6
BYBLOCK
 62
     0
  5
93F
 10
97.755727
 20
-34.437624
 30
0.0
  0
POINT
  8
DEFPOINTS
  6
BYBLOCK
 62
     0
  5
940
 10
71.155727
 20
-48.93762
 30
0.0
  0
POINT
  8
DEFPOINTS
  6
BYBLOCK
 62
     0
  5
941
 10
47.962727
 20
-48.93762
 30
0.0
  0
ENDBLK
  8
0
  5
942
  0
BLOCK
  8
0
  5
943
  2
*D22
 70
    65
 10
0.0
 20
0.0
 30
0.0
  3
*D22
  0
LINE
  8
0
  6
BYBLOCK
 62
     0
  5
944
 10
96.755727
 20
-34.437624
 30
0.0
 11
57.026727
 21
-34.437624
 31
0.0
  0
LINE
  8
0
  6
BYBLOCK
 62
     0
  5
945
 10
70.177727
 20
-50.93762
 30
0.0
 11
57.026727
 21
-50.93762
 31
0.0
  0
LINE
  8
0
  6
BYBLOCK
 62
     0
  5
946
 10
58.026727
 20
-37.437624
 30
0.0
 11
58.026727
 21
-47.93762
 31
0.0
  0
INSERT
  8
0
  6
BYBLOCK
 62
     0
  5
947
  2
_OPEN
 10
58.026727
 20
-34.437624
 30
0.0
 41
3.0
 42
3.0
 50
90.0
 43
3.0
  0
INSERT
  8
0
  6
BYBLOCK
 62
     0
  5
948
  2
_OPEN
 10
58.026727
 20
-50.93762
 30
0.0
 41
3.0
 42
3.0
 50
270.0
 43
3.0
  0
TEXT
  8
0
  6
BYBLOCK
 62
     0
  5
949
 10
57.026727
 20
-46.687622
 30
0.0
 40
3.0
  1
16.5
 50
90.0
  0
POINT
  8
DEFPOINTS
  6
BYBLOCK
 62
     0
  5
94A
 10
97.755727
 20
-34.437624
 30
0.0
  0
POINT
  8
DEFPOINTS
  6
BYBLOCK
 62
     0
  5
94B
 10
71.177727
 20
-50.93762
 30
0.0
  0
POINT
  8
DEFPOINTS
  6
BYBLOCK
 62
     0
  5
94C
 10
58.026727
 20
-50.93762
 30
0.0
  0
ENDBLK
  8
0
  5
94D
  0
BLOCK
  8
0
  5
94E
  2
*D23
 70
    65
 10
0.0
 20
0.0
 30
0.0
  3
*D23
  0
LINE
  8
0
  6
BYBLOCK
 62
     0
  5
94F
 10
96.555727
 20
84.86246
 30
0.0
 11
96.555727
 21
65.63604
 31
0.0
  0
LINE
  8
0
  6
BYBLOCK
 62
     0
  5
950
 10
106.255727
 20
84.86246
 30
0.0
 11
106.255727
 21
65.63604
 31
0.0
  0
LINE
  8
0
  6
BYBLOCK
 62
     0
  5
951
 10
99.555727
 20
66.63604
 30
0.0
 11
103.255727
 21
66.63604
 31
0.0
  0
INSERT
  8
0
  6
BYBLOCK
 62
     0
  5
952
  2
_OPEN
 10
96.555727
 20
66.63604
 30
0.0
 41
3.0
 42
3.0
 50
180.0
 43
3.0
  0
INSERT
  8
0
  6
BYBLOCK
 62
     0
  5
953
  2
_OPEN
 10
106.255727
 20
66.63604
 30
0.0
 41
3.0
 42
3.0
 43
3.0
  0
TEXT
  8
0
  6
BYBLOCK
 62
     0
  5
954
 10
98.405727
 20
67.63604
 30
0.0
 40
3.0
  1
9.7
  0
POINT
  8
DEFPOINTS
  6
BYBLOCK
 62
     0
  5
955
 10
96.555727
 20
85.86246
 30
0.0
  0
POINT
  8
DEFPOINTS
  6
BYBLOCK
 62
     0
  5
956
 10
106.255727
 20
85.86246
 30
0.0
  0
POINT
  8
DEFPOINTS
  6
BYBLOCK
 62
     0
  5
957
 10
106.255727
 20
66.63604
 30
0.0
  0
ENDBLK
  8
0
  5
958
  0
ENDSEC
  0
SECTION
  2
ENTITIES
  0
LINE
  8
0A
  6
CONTINUOUS
 62
     7
  5
3C
 10
101.405727
 20
123.56246
 30
0.0
 11
101.405727
 21
118.56226
 31
0.0
  0
LINE
  8
0A
  6
CONTINUOUS
 62
     7
  5
3D
 10
98.905727
 20
121.06246
 30
0.0
 11
103.905727
 21
121.06246
 31
0.0
  0
LINE
  8
0B
  6
CONTINUOUS
 62
     6
  5
3E
 10
133.405727
 20
150.76246
 30
0.0
 11
130.895727
 21
150.76246
 31
0.0
  0
LINE
  8
0B
  6
CONTINUOUS
 62
     6
  5
3F
 10
79.365727
 20
151.66226
 30
0.0
 11
80.255727
 21
151.66226
 31
0.0
  0
LINE
  8
0B
  6
CONTINUOUS
 62
     6
  5
40
 10
80.255727
 20
154.76246
 30
0.0
 11
83.555727
 21
154.76246
 31
0.0
  0
LINE
  8
0B
  6
CONTINUOUS
 62
     6
  5
41
 10
126.405727
 20
155.56246
 30
0.0
 11
115.355727
 21
155.56246
 31
0.0
  0
LINE
  8
0B
  6
CONTINUOUS
 62
     6
  5
42
 10
87.455727
 20
164.66246
 30
0.0
 11
87.455727
 21
151.66226
 31
0.0
  0
LINE
  8
0B
  6
CONTINUOUS
 62
     6
  5
43
 10
115.355727
 20
164.66246
 30
0.0
 11
115.355727
 21
155.56246
 31
0.0
  0
LINE
  8
0B
  6
CONTINUOUS
 62
     6
  5
44
 10
83.555727
 20
151.66226
 30
0.0
 11
87.455727
 21
151.66226
 31
0.0
  0
LINE
  8
0B
  6
CONTINUOUS
 62
     6
  5
45
 10
73.905727
 20
155.56246
 30
0.0
 11
74.905727
 21
155.56246
 31
0.0
  0
LINE
  8
0B
  6
CONTINUOUS
 62
     6
  5
46
 10
99.805727
 20
155.16246
 30
0.0
 11
99.805727
 21
165.56246
 31
0.0
  0
LINE
  8
0B
  6
CONTINUOUS
 62
     6
  5
47
 10
90.055727
 20
163.66246
 30
0.0
 11
97.755727
 21
163.66246
 31
0.0
  0
LINE
  8
0B
  6
CONTINUOUS
 62
     6
  5
48
 10
103.005727
 20
155.16246
 30
0.0
 11
103.005727
 21
165.56246
 31
0.0
  0
LINE
  8
0B
  6
CONTINUOUS
 62
     6
  5
49
 10
90.055727
 20
164.66246
 30
0.0
 11
90.055727
 21
163.66246
 31
0.0
  0
LINE
  8
0B
  6
CONTINUOUS
 62
     6
  5
4A
 10
97.755727
 20
165.56246
 30
0.0
 11
97.755727
 21
163.66246
 31
0.0
  0
LINE
  8
0B
  6
CONTINUOUS
 62
     6
  5
4B
 10
112.755727
 20
163.66246
 30
0.0
 11
105.055727
 21
163.66246
 31
0.0
  0
LINE
  8
0B
  6
CONTINUOUS
 62
     6
  5
4C
 10
105.055727
 20
165.56246
 30
0.0
 11
105.055727
 21
163.66246
 31
0.0
  0
LINE
  8
0B
  6
CONTINUOUS
 62
     6
  5
4D
 10
115.355727
 20
164.66246
 30
0.0
 11
112.755727
 21
164.66246
 31
0.0
  0
LINE
  8
0B
  6
CONTINUOUS
 62
     6
  5
4E
 10
87.455727
 20
164.66246
 30
0.0
 11
90.055727
 21
164.66246
 31
0.0
  0
LINE
  8
0B
  6
CONTINUOUS
 62
     6
  5
4F
 10
83.555727
 20
154.76246
 30
0.0
 11
83.555727
 21
151.66226
 31
0.0
  0
LINE
  8
0B
  6
CONTINUOUS
 62
     6
  5
50
 10
80.255727
 20
154.76246
 30
0.0
 11
80.255727
 21
151.66226
 31
0.0
  0
LINE
  8
0B
  6
CONTINUOUS
 62
     6
  5
51
 10
112.755727
 20
164.66246
 30
0.0
 11
112.755727
 21
163.66246
 31
0.0
  0
LINE
  8
0B
  6
CONTINUOUS
 62
     6
  5
52
 10
103.005727
 20
155.16246
 30
0.0
 11
99.805727
 21
155.16246
 31
0.0
  0
LINE
  8
0B
  6
CONTINUOUS
 62
     6
  5
53
 10
71.915727
 20
91.36246
 30
0.0
 11
69.405727
 21
91.36246
 31
0.0
  0
LINE
  8
0B
  6
CONTINUOUS
 62
     6
  5
54
 10
76.405727
 20
86.56246
 30
0.0
 11
83.905727
 21
86.56246
 31
0.0
  0
LINE
  8
0B
  6
CONTINUOUS
 62
     6
  5
55
 10
89.905727
 20
87.76246
 30
0.0
 11
93.255727
 21
87.76246
 31
0.0
  0
LINE
  8
0B
  6
CONTINUOUS
 62
     6
  5
56
 10
88.405727
 20
91.01246
 30
0.0
 11
89.905727
 21
91.01246
 31
0.0
  0
LINE
  8
0B
  6
CONTINUOUS
 62
     6
  5
57
 10
93.255727
 20
85.56246
 30
0.0
 11
93.255727
 21
87.76246
 31
0.0
  0
LINE
  8
0B
  6
CONTINUOUS
 62
     6
  5
58
 10
89.905727
 20
91.01246
 30
0.0
 11
89.905727
 21
87.76246
 31
0.0
  0
LINE
  8
0B
  6
CONTINUOUS
 62
     6
  5
59
 10
69.405727
 20
151.06246
 30
0.0
 11
69.405727
 21
91.36246
 31
0.0
  0
LINE
  8
0B
  6
CONTINUOUS
 62
     6
  5
5A
 10
133.405727
 20
150.76246
 30
0.0
 11
133.405727
 21
90.06246
 31
0.0
  0
LINE
  8
0B
  6
CONTINUOUS
 62
     6
  5
5B
 10
93.255727
 20
85.56246
 30
0.0
 11
128.905727
 21
85.56246
 31
0.0
  0
LINE
  8
0B
  6
CONTINUOUS
 62
     6
  5
5C
 10
97.755727
 20
165.56246
 30
0.0
 11
99.805727
 21
165.56246
 31
0.0
  0
LINE
  8
0B
  6
CONTINUOUS
 62
     6
  5
5D
 10
105.055727
 20
165.56246
 30
0.0
 11
103.005727
 21
165.56246
 31
0.0
  0
ARC
  8
0B
  6
CONTINUOUS
 62
     6
  5
5E
 10
126.405727
 20
151.06246
 30
0.0
 40
4.50002
 50
356.177
 51
90.0002
  0
ARC
  8
0B
  6
CONTINUOUS
 62
     6
  5
5F
 10
73.905727
 20
151.06246
 30
0.0
 40
4.5
 50
90.0002
 51
180.0
  0
ARC
  8
0B
  6
CONTINUOUS
 62
     6
  5
60
 10
74.905727
 20
151.06246
 30
0.0
 40
4.49998
 50
7.66239
 51
90.0002
  0
ARC
  8
0B
  6
CONTINUOUS
 62
     6
  5
61
 10
76.405727
 20
91.06246
 30
0.0
 40
4.50002
 50
176.178
 51
270.0
  0
ARC
  8
0B
  6
CONTINUOUS
 62
     6
  5
62
 10
128.905727
 20
90.06246
 30
0.0
 40
4.5
 50
270.0
 51
0.0
  0
ARC
  8
0B
  6
CONTINUOUS
 62
     6
  5
63
 10
83.905727
 20
91.06246
 30
0.0
 40
4.5
 50
270.0
 51
359.363
  0
LINE
  8
0C
  6
CONTINUOUS
 62
     3
  5
64
 10
93.255727
 20
155.16246
 30
0.0
 11
87.455727
 21
155.16246
 31
0.0
  0
LINE
  8
0C
  6
CONTINUOUS
 62
     3
  5
65
 10
115.355727
 20
155.16246
 30
0.0
 11
109.555727
 21
155.16246
 31
0.0
  0
LINE
  8
0C
  6
CONTINUOUS
 62
     3
  5
66
 10
93.255727
 20
156.26226
 30
0.0
 11
96.555727
 21
156.26226
 31
0.0
  0
LINE
  8
0C
  6
CONTINUOUS
 62
     3
  5
67
 10
106.255727
 20
156.26226
 30
0.0
 11
109.555727
 21
156.26226
 31
0.0
  0
LINE
  8
0C
  6
CONTINUOUS
 62
     3
  5
68
 10
122.555727
 20
147.26246
 30
0.0
 11
130.255727
 21
147.26246
 31
0.0
  0
LINE
  8
0C
  6
CONTINUOUS
 62
     3
  5
69
 10
72.555727
 20
147.26246
 30
0.0
 11
80.255727
 21
147.26246
 31
0.0
  0
LINE
  8
0C
  6
CONTINUOUS
 62
     3
  5
6A
 10
72.555727
 20
150.76246
 30
0.0
 11
69.405727
 21
150.76246
 31
0.0
  0
LINE
  8
0C
  6
CONTINUOUS
 62
     3
  5
6B
 10
119.255727
 20
154.76246
 30
0.0
 11
122.555727
 21
154.76246
 31
0.0
  0
LINE
  8
0C
  6
CONTINUOUS
 62
     3
  5
6C
 10
83.555727
 20
150.56246
 30
0.0
 11
93.255727
 21
150.56246
 31
0.0
  0
LINE
  8
0C
  6
CONTINUOUS
 62
     3
  5
6D
 10
106.255727
 20
155.16246
 30
0.0
 11
103.005727
 21
155.16246
 31
0.0
  0
LINE
  8
0C
  6
CONTINUOUS
 62
     3
  5
6E
 10
106.255727
 20
85.86246
 30
0.0
 11
109.555727
 21
85.86246
 31
0.0
  0
LINE
  8
0C
  6
CONTINUOUS
 62
     3
  5
6F
 10
91.405727
 20
133.56246
 30
0.0
 11
91.405727
 21
108.56246
 31
0.0
  0
LINE
  8
0C
  6
CONTINUOUS
 62
     3
  5
70
 10
96.405727
 20
133.56246
 30
0.0
 11
96.405727
 21
125.76246
 31
0.0
  0
LINE
  8
0C
  6
CONTINUOUS
 62
     3
  5
71
 10
99.155727
 20
125.76246
 30
0.0
 11
99.155727
 21
116.36246
 31
0.0
  0
LINE
  8
0C
  6
CONTINUOUS
 62
     3
  5
72
 10
94.655727
 20
116.36246
 30
0.0
 11
94.655727
 21
125.76246
 31
0.0
  0
LINE
  8
0C
  6
CONTINUOUS
 62
     3
  5
73
 10
111.405727
 20
125.76246
 30
0.0
 11
91.405727
 21
125.76246
 31
0.0
  0
LINE
  8
0C
  6
CONTINUOUS
 62
     3
  5
74
 10
111.405727
 20
133.56246
 30
0.0
 11
111.405727
 21
108.56246
 31
0.0
  0
LINE
  8
0C
  6
CONTINUOUS
 62
     3
  5
75
 10
106.405727
 20
133.56246
 30
0.0
 11
106.405727
 21
125.76246
 31
0.0
  0
LINE
  8
0C
  6
CONTINUOUS
 62
     3
  5
76
 10
91.405727
 20
108.56246
 30
0.0
 11
111.405727
 21
108.56246
 31
0.0
  0
LINE
  8
0C
  6
CONTINUOUS
 62
     3
  5
77
 10
111.405727
 20
133.56246
 30
0.0
 11
91.405727
 21
133.56246
 31
0.0
  0
LINE
  8
0C
  6
CONTINUOUS
 62
     3
  5
78
 10
111.405727
 20
116.36246
 30
0.0
 11
91.405727
 21
116.36246
 31
0.0
  0
LINE
  8
0C
  6
CONTINUOUS
 62
     3
  5
79
 10
108.155727
 20
116.36246
 30
0.0
 11
108.155727
 21
125.76246
 31
0.0
  0
LINE
  8
0C
  6
CONTINUOUS
 62
     3
  5
7A
 10
103.655727
 20
125.76246
 30
0.0
 11
103.655727
 21
116.36246
 31
0.0
  0
LINE
  8
0C
  6
CONTINUOUS
 62
     3
  5
7B
 10
93.255727
 20
156.26226
 30
0.0
 11
93.255727
 21
140.06246
 31
0.0
  0
LINE
  8
0C
  6
CONTINUOUS
 62
     3
  5
7C
 10
96.555727
 20
156.26226
 30
0.0
 11
96.555727
 21
140.06246
 31
0.0
  0
LINE
  8
0C
  6
CONTINUOUS
 62
     3
  5
7D
 10
106.255727
 20
156.26226
 30
0.0
 11
106.255727
 21
140.06246
 31
0.0
  0
LINE
  8
0C
  6
CONTINUOUS
 62
     3
  5
7E
 10
109.555727
 20
150.56246
 30
0.0
 11
119.255727
 21
150.56246
 31
0.0
  0
LINE
  8
0C
  6
CONTINUOUS
 62
     3
  5
7F
 10
96.555727
 20
150.56246
 30
0.0
 11
106.255727
 21
150.56246
 31
0.0
  0
LINE
  8
0C
  6
CONTINUOUS
 62
     3
  5
80
 10
119.255727
 20
87.36246
 30
0.0
 11
119.255727
 21
102.06246
 31
0.0
  0
LINE
  8
0C
  6
CONTINUOUS
 62
     3
  5
81
 10
109.555727
 20
91.56246
 30
0.0
 11
119.255727
 21
91.56246
 31
0.0
  0
LINE
  8
0C
  6
CONTINUOUS
 62
     3
  5
82
 10
109.555727
 20
85.86246
 30
0.0
 11
109.555727
 21
102.06246
 31
0.0
  0
LINE
  8
0C
  6
CONTINUOUS
 62
     3
  5
83
 10
96.555727
 20
91.56246
 30
0.0
 11
106.255727
 21
91.56246
 31
0.0
  0
LINE
  8
0C
  6
CONTINUOUS
 62
     3
  5
84
 10
83.555727
 20
91.56246
 30
0.0
 11
93.255727
 21
91.56246
 31
0.0
  0
LINE
  8
0C
  6
CONTINUOUS
 62
     3
  5
85
 10
83.555727
 20
87.36246
 30
0.0
 11
83.555727
 21
102.06246
 31
0.0
  0
LINE
  8
0C
  6
CONTINUOUS
 62
     3
  5
86
 10
93.255727
 20
85.86246
 30
0.0
 11
96.555727
 21
85.86246
 31
0.0
  0
LINE
  8
0C
  6
CONTINUOUS
 62
     3
  5
87
 10
122.555727
 20
139.06246
 30
0.0
 11
133.405727
 21
139.06246
 31
0.0
  0
LINE
  8
0C
  6
CONTINUOUS
 62
     3
  5
88
 10
122.555727
 20
140.06246
 30
0.0
 11
80.255727
 21
140.06246
 31
0.0
  0
LINE
  8
0C
  6
CONTINUOUS
 62
     3
  5
89
 10
72.555727
 20
150.76246
 30
0.0
 11
72.555727
 21
139.06246
 31
0.0
  0
LINE
  8
0C
  6
CONTINUOUS
 62
     3
  5
8A
 10
80.255727
 20
139.06246
 30
0.0
 11
69.405727
 21
139.06246
 31
0.0
  0
LINE
  8
0C
  6
CONTINUOUS
 62
     3
  5
8B
 10
122.555727
 20
103.06246
 30
0.0
 11
133.405727
 21
103.06246
 31
0.0
  0
LINE
  8
0C
  6
CONTINUOUS
 62
     3
  5
8C
 10
133.405727
 20
91.36246
 30
0.0
 11
130.255727
 21
91.36246
 31
0.0
  0
LINE
  8
0C
  6
CONTINUOUS
 62
     3
  5
8D
 10
119.255727
 20
87.36246
 30
0.0
 11
122.555727
 21
87.36246
 31
0.0
  0
LINE
  8
0C
  6
CONTINUOUS
 62
     3
  5
8E
 10
122.555727
 20
102.06246
 30
0.0
 11
80.255727
 21
102.06246
 31
0.0
  0
LINE
  8
0C
  6
CONTINUOUS
 62
     3
  5
8F
 10
80.255727
 20
87.36246
 30
0.0
 11
80.255727
 21
103.06246
 31
0.0
  0
LINE
  8
0C
  6
CONTINUOUS
 62
     3
  5
90
 10
80.255727
 20
87.36246
 30
0.0
 11
83.555727
 21
87.36246
 31
0.0
  0
LINE
  8
0C
  6
CONTINUOUS
 62
     3
  5
91
 10
122.555727
 20
94.86246
 30
0.0
 11
130.255727
 21
94.86246
 31
0.0
  0
LINE
  8
0C
  6
CONTINUOUS
 62
     3
  5
92
 10
72.555727
 20
94.86246
 30
0.0
 11
80.255727
 21
94.86246
 31
0.0
  0
LINE
  8
0C
  6
CONTINUOUS
 62
     3
  5
93
 10
72.555727
 20
91.36246
 30
0.0
 11
72.555727
 21
103.06246
 31
0.0
  0
LINE
  8
0C
  6
CONTINUOUS
 62
     3
  5
94
 10
80.255727
 20
103.06246
 30
0.0
 11
69.405727
 21
103.06246
 31
0.0
  0
LINE
  8
0C
  6
CONTINUOUS
 62
     3
  5
95
 10
122.555727
 20
154.76246
 30
0.0
 11
122.555727
 21
139.06246
 31
0.0
  0
LINE
  8
0C
  6
CONTINUOUS
 62
     3
  5
96
 10
130.255727
 20
150.76246
 30
0.0
 11
130.255727
 21
139.06246
 31
0.0
  0
LINE
  8
0C
  6
CONTINUOUS
 62
     3
  5
97
 10
72.555727
 20
91.36246
 30
0.0
 11
71.915727
 21
91.36246
 31
0.0
  0
LINE
  8
0C
  6
CONTINUOUS
 62
     3
  5
98
 10
109.555727
 20
156.26226
 30
0.0
 11
109.555727
 21
140.06246
 31
0.0
  0
LINE
  8
0C
  6
CONTINUOUS
 62
     3
  5
99
 10
119.255727
 20
154.76246
 30
0.0
 11
119.255727
 21
140.06246
 31
0.0
  0
LINE
  8
0C
  6
CONTINUOUS
 62
     3
  5
9A
 10
76.655727
 20
151.06246
 30
0.0
 11
76.655727
 21
149.06246
 31
0.0
  0
LINE
  8
0C
  6
CONTINUOUS
 62
     3
  5
9B
 10
72.155727
 20
151.06246
 30
0.0
 11
72.155727
 21
150.76246
 31
0.0
  0
LINE
  8
0C
  6
CONTINUOUS
 62
     3
  5
9C
 10
126.155727
 20
91.06246
 30
0.0
 11
126.155727
 21
93.06246
 31
0.0
  0
LINE
  8
0C
  6
CONTINUOUS
 62
     3
  5
9D
 10
130.655727
 20
91.06246
 30
0.0
 11
130.655727
 21
91.36246
 31
0.0
  0
LINE
  8
0C
  6
CONTINUOUS
 62
     3
  5
9E
 10
112.905727
 20
91.56246
 30
0.0
 11
112.905727
 21
89.36226
 31
0.0
  0
LINE
  8
0C
  6
CONTINUOUS
 62
     3
  5
9F
 10
96.555727
 20
89.36226
 30
0.0
 11
106.255727
 21
89.36226
 31
0.0
  0
LINE
  8
0C
  6
CONTINUOUS
 62
     3
  5
A0
 10
109.555727
 20
89.36226
 30
0.0
 11
112.905727
 21
89.36226
 31
0.0
  0
LINE
  8
0C
  6
CONTINUOUS
 62
     3
  5
A1
 10
96.555727
 20
85.86246
 30
0.0
 11
96.555727
 21
102.06246
 31
0.0
  0
LINE
  8
0C
  6
CONTINUOUS
 62
     3
  5
A2
 10
106.255727
 20
85.86246
 30
0.0
 11
106.255727
 21
102.06246
 31
0.0
  0
LINE
  8
0C
  6
CONTINUOUS
 62
     3
  5
A3
 10
122.555727
 20
87.36246
 30
0.0
 11
122.555727
 21
103.06246
 31
0.0
  0
LINE
  8
0C
  6
CONTINUOUS
 62
     3
  5
A4
 10
130.255727
 20
91.36246
 30
0.0
 11
130.255727
 21
103.06246
 31
0.0
  0
LINE
  8
0C
  6
CONTINUOUS
 62
     3
  5
A5
 10
80.255727
 20
151.66226
 30
0.0
 11
80.255727
 21
139.06246
 31
0.0
  0
LINE
  8
0C
  6
CONTINUOUS
 62
     3
  5
A6
 10
83.555727
 20
151.66226
 30
0.0
 11
83.555727
 21
140.06246
 31
0.0
  0
LINE
  8
0C
  6
CONTINUOUS
 62
     3
  5
A7
 10
87.455727
 20
151.66226
 30
0.0
 11
87.455727
 21
150.56246
 31
0.0
  0
LINE
  8
0C
  6
CONTINUOUS
 62
     3
  5
A8
 10
90.055727
 20
163.66246
 30
0.0
 11
90.055727
 21
155.16246
 31
0.0
  0
LINE
  8
0C
  6
CONTINUOUS
 62
     3
  5
A9
 10
97.755727
 20
163.66246
 30
0.0
 11
97.755727
 21
155.16246
 31
0.0
  0
LINE
  8
0C
  6
CONTINUOUS
 62
     3
  5
AA
 10
99.805727
 20
155.16246
 30
0.0
 11
96.555727
 21
155.16246
 31
0.0
  0
LINE
  8
0C
  6
CONTINUOUS
 62
     3
  5
AB
 10
105.055727
 20
163.66246
 30
0.0
 11
105.055727
 21
155.16246
 31
0.0
  0
LINE
  8
0C
  6
CONTINUOUS
 62
     3
  5
AC
 10
112.755727
 20
163.66246
 30
0.0
 11
112.755727
 21
155.16246
 31
0.0
  0
LINE
  8
0C
  6
CONTINUOUS
 62
     3
  5
AD
 10
115.355727
 20
155.56246
 30
0.0
 11
115.355727
 21
150.56246
 31
0.0
  0
LINE
  8
0C
  6
CONTINUOUS
 62
     3
  5
AE
 10
130.895727
 20
150.76246
 30
0.0
 11
130.255727
 21
150.76246
 31
0.0
  0
LINE
  8
0C
  6
CONTINUOUS
 62
     3
  5
AF
 10
93.255727
 20
87.76246
 30
0.0
 11
93.255727
 21
102.06246
 31
0.0
  0
CIRCLE
  8
0C
  6
CONTINUOUS
 62
     3
  5
B0
 10
76.405727
 20
91.06246
 30
0.0
 40
2.25
  0
CIRCLE
  8
0C
  6
CONTINUOUS
 62
     3
  5
B1
 10
126.405727
 20
151.06246
 30
0.0
 40
2.25
  0
ARC
  8
0C
  6
CONTINUOUS
 62
     3
  5
B2
 10
74.405727
 20
151.06246
 30
0.0
 40
2.25
 50
0.0
 51
180.0
  0
ARC
  8
0C
  6
CONTINUOUS
 62
     3
  5
B3
 10
74.405727
 20
149.06246
 30
0.0
 40
2.25
 50
306.87
 51
0.0
  0
ARC
  8
0C
  6
CONTINUOUS
 62
     3
  5
B4
 10
128.405727
 20
91.06246
 30
0.0
 40
2.25
 50
180.0
 51
0.0
  0
ARC
  8
0C
  6
CONTINUOUS
 62
     3
  5
B5
 10
128.405727
 20
93.06246
 30
0.0
 40
2.25
 50
126.87
 51
180.0
  0
LINE
  8
0D
  6
CONTINUOUS
 62
     2
  5
B6
 10
92.669727
 20
158.32506
 30
0.0
 11
95.143727
 21
160.79986
 31
0.0
  0
LINE
  8
0D
  6
CONTINUOUS
 62
     2
  5
B7
 10
96.027727
 20
157.44126
 30
0.0
 11
91.785727
 21
161.68386
 31
0.0
  0
LINE
  8
0D
  6
CONTINUOUS
 62
     2
  5
B8
 10
107.669727
 20
158.32506
 30
0.0
 11
110.143727
 21
160.79986
 31
0.0
  0
LINE
  8
0D
  6
CONTINUOUS
 62
     2
  5
B9
 10
111.027727
 20
157.44126
 30
0.0
 11
106.785727
 21
161.68386
 31
0.0
  0
LINE
  8
0D
  6
CONTINUOUS
 62
     2
  5
BA
 10
78.526727
 20
140.44106
 30
0.0
 11
74.284727
 21
144.68366
 31
0.0
  0
LINE
  8
0D
  6
CONTINUOUS
 62
     2
  5
BB
 10
75.168727
 20
141.32506
 30
0.0
 11
77.643727
 21
143.79986
 31
0.0
  0
LINE
  8
0D
  6
CONTINUOUS
 62
     2
  5
BC
 10
125.169727
 20
141.32506
 30
0.0
 11
127.643727
 21
143.79986
 31
0.0
  0
LINE
  8
0D
  6
CONTINUOUS
 62
     2
  5
BD
 10
128.527727
 20
140.44106
 30
0.0
 11
124.285727
 21
144.68366
 31
0.0
  0
LINE
  8
0D
  6
CONTINUOUS
 62
     2
  5
BE
 10
75.168727
 20
98.32506
 30
0.0
 11
77.642727
 21
100.79966
 31
0.0
  0
LINE
  8
0D
  6
CONTINUOUS
 62
     2
  5
BF
 10
78.526727
 20
97.44106
 30
0.0
 11
74.284727
 21
101.68366
 31
0.0
  0
LINE
  8
0D
  6
CONTINUOUS
 62
     2
  5
C0
 10
125.169727
 20
98.32506
 30
0.0
 11
127.643727
 21
100.79966
 31
0.0
  0
LINE
  8
0D
  6
CONTINUOUS
 62
     2
  5
C1
 10
128.527727
 20
97.44106
 30
0.0
 11
124.285727
 21
101.68366
 31
0.0
  0
LINE
  8
0D
  6
CONTINUOUS
 62
     2
  5
C2
 10
85.930727
 20
148.03726
 30
0.0
 11
90.880727
 21
143.08746
 31
0.0
  0
LINE
  8
0D
  6
CONTINUOUS
 62
     2
  5
C3
 10
89.642727
 20
146.79966
 30
0.0
 11
87.168727
 21
144.32486
 31
0.0
  0
LINE
  8
0D
  6
CONTINUOUS
 62
     2
  5
C4
 10
102.643727
 20
146.79966
 30
0.0
 11
100.169727
 21
144.32486
 31
0.0
  0
LINE
  8
0D
  6
CONTINUOUS
 62
     2
  5
C5
 10
98.931727
 20
148.03726
 30
0.0
 11
103.881727
 21
143.08746
 31
0.0
  0
LINE
  8
0D
  6
CONTINUOUS
 62
     2
  5
C6
 10
115.643727
 20
146.79966
 30
0.0
 11
113.169727
 21
144.32486
 31
0.0
  0
LINE
  8
0D
  6
CONTINUOUS
 62
     2
  5
C7
 10
111.931727
 20
148.03726
 30
0.0
 11
116.881727
 21
143.08746
 31
0.0
  0
LINE
  8
0D
  6
CONTINUOUS
 62
     2
  5
C8
 10
89.642727
 20
97.79986
 30
0.0
 11
87.168727
 21
95.32506
 31
0.0
  0
LINE
  8
0D
  6
CONTINUOUS
 62
     2
  5
C9
 10
85.930727
 20
99.03706
 30
0.0
 11
90.880727
 21
94.08746
 31
0.0
  0
LINE
  8
0D
  6
CONTINUOUS
 62
     2
  5
CA
 10
102.643727
 20
97.79986
 30
0.0
 11
100.169727
 21
95.32506
 31
0.0
  0
LINE
  8
0D
  6
CONTINUOUS
 62
     2
  5
CB
 10
98.931727
 20
99.03706
 30
0.0
 11
103.881727
 21
94.08746
 31
0.0
  0
LINE
  8
0D
  6
CONTINUOUS
 62
     2
  5
CC
 10
115.643727
 20
97.79986
 30
0.0
 11
113.169727
 21
95.32506
 31
0.0
  0
LINE
  8
0D
  6
CONTINUOUS
 62
     2
  5
CD
 10
111.931727
 20
99.03706
 30
0.0
 11
116.881727
 21
94.08746
 31
0.0
  0
CIRCLE
  8
0D
  6
CONTINUOUS
 62
     2
  5
CE
 10
126.405727
 20
142.56246
 30
0.0
 40
3.0
  0
CIRCLE
  8
0D
  6
CONTINUOUS
 62
     2
  5
CF
 10
76.405727
 20
142.56246
 30
0.0
 40
3.0
  0
CIRCLE
  8
0D
  6
CONTINUOUS
 62
     2
  5
D0
 10
101.405727
 20
145.56246
 30
0.0
 40
3.5
  0
CIRCLE
  8
0D
  6
CONTINUOUS
 62
     2
  5
D1
 10
114.405727
 20
145.56246
 30
0.0
 40
3.5
  0
CIRCLE
  8
0D
  6
CONTINUOUS
 62
     2
  5
D2
 10
126.405727
 20
99.56246
 30
0.0
 40
3.0
  0
CIRCLE
  8
0D
  6
CONTINUOUS
 62
     2
  5
D3
 10
76.405727
 20
99.56246
 30
0.0
 40
3.0
  0
CIRCLE
  8
0D
  6
CONTINUOUS
 62
     2
  5
D4
 10
114.405727
 20
96.56246
 30
0.0
 40
3.5
  0
CIRCLE
  8
0D
  6
CONTINUOUS
 62
     2
  5
D5
 10
88.405727
 20
96.56246
 30
0.0
 40
3.5
  0
CIRCLE
  8
0D
  6
CONTINUOUS
 62
     2
  5
D6
 10
101.405727
 20
96.56246
 30
0.0
 40
3.5
  0
CIRCLE
  8
0D
  6
CONTINUOUS
 62
     2
  5
D7
 10
108.905727
 20
159.56246
 30
0.0
 40
3.0
  0
CIRCLE
  8
0D
  6
CONTINUOUS
 62
     2
  5
D8
 10
88.405727
 20
145.56246
 30
0.0
 40
3.5
  0
CIRCLE
  8
0D
  6
CONTINUOUS
 62
     2
  5
D9
 10
93.905727
 20
159.56246
 30
0.0
 40
3.0
  0
LINE
  8
10
  6
CENTER
 62
     6
  5
DA
 10
126.405727
 20
95.54386
 30
0.0
 11
126.405727
 21
104.20006
 31
0.0
  0
LINE
  8
10
  6
CENTER
 62
     6
  5
DB
 10
76.405727
 20
95.63606
 30
0.0
 11
76.405727
 21
104.20006
 31
0.0
  0
LINE
  8
10
  6
CENTER
 62
     6
  5
DC
 10
70.958727
 20
142.56246
 30
0.0
 11
81.705727
 21
142.56246
 31
0.0
  0
LINE
  8
10
  6
CENTER
 62
     6
  5
DD
 10
81.090727
 20
99.56246
 30
0.0
 11
71.940727
 21
99.56246
 31
0.0
  0
LINE
  8
10
  6
CENTER
 62
     6
  5
DE
 10
104.185727
 20
159.56246
 30
0.0
 11
113.671727
 21
159.56246
 31
0.0
  0
LINE
  8
10
  6
CENTER
 62
     6
  5
DF
 10
98.669727
 20
159.56246
 30
0.0
 11
89.256727
 21
159.56246
 31
0.0
  0
LINE
  8
10
  6
CENTER
 62
     6
  5
E0
 10
76.405727
 20
146.58106
 30
0.0
 11
76.405727
 21
137.92466
 31
0.0
  0
LINE
  8
10
  6
CENTER
 62
     6
  5
E1
 10
126.405727
 20
146.48886
 30
0.0
 11
126.405727
 21
137.92466
 31
0.0
  0
LINE
  8
10
  6
CENTER
 62
     6
  5
E2
 10
114.405727
 20
149.93046
 30
0.0
 11
114.405727
 21
141.28306
 31
0.0
  0
LINE
  8
10
  6
CENTER
 62
     6
  5
E3
 10
93.905727
 20
155.45766
 30
0.0
 11
93.905727
 21
163.47326
 31
0.0
  0
LINE
  8
10
  6
CENTER
 62
     6
  5
E4
 10
108.905727
 20
155.45766
 30
0.0
 11
108.905727
 21
163.47326
 31
0.0
  0
LINE
  8
10
  6
CENTER
 62
     6
  5
E5
 10
88.405727
 20
149.93046
 30
0.0
 11
88.405727
 21
141.28306
 31
0.0
  0
LINE
  8
10
  6
CENTER
 62
     6
  5
E6
 10
114.405727
 20
92.19426
 30
0.0
 11
114.405727
 21
100.84166
 31
0.0
  0
LINE
  8
10
  6
CENTER
 62
     6
  5
E7
 10
88.405727
 20
92.19426
 30
0.0
 11
88.405727
 21
100.84166
 31
0.0
  0
LINE
  8
10
  6
CENTER
 62
     6
  5
E8
 10
131.853727
 20
99.56246
 30
0.0
 11
121.105727
 21
99.56246
 31
0.0
  0
LINE
  8
10
  6
CENTER
 62
     6
  5
E9
 10
81.529727
 20
96.56246
 30
0.0
 11
120.575727
 21
96.56246
 31
0.0
  0
LINE
  8
10
  6
CENTER
 62
     6
  5
EA
 10
121.281727
 20
145.56246
 30
0.0
 11
82.237727
 21
145.56246
 31
0.0
  0
LINE
  8
10
  6
CENTER
 62
     6
  5
EB
 10
121.721727
 20
142.56246
 30
0.0
 11
130.871727
 21
142.56246
 31
0.0
  0
LINE
  8
10
  6
CENTER
 62
     6
  5
EC
 10
65.987727
 20
121.06246
 30
0.0
 11
136.227727
 21
121.06246
 31
0.0
  0
LINE
  8
10
  6
CENTER
 62
     6
  5
ED
 10
101.405727
 20
168.07946
 30
0.0
 11
101.405727
 21
82.92226
 31
0.0
  0
LINE
  8
14
  6
CONTINUOUS
 62
     7
  5
EE
 10
-138.594273
 20
123.56246
 30
0.0
 11
-138.594273
 21
118.56226
 31
0.0
  0
LINE
  8
14
  6
CONTINUOUS
 62
     7
  5
EF
 10
-141.094273
 20
121.06246
 30
0.0
 11
-136.094273
 21
121.06246
 31
0.0
  0
LINE
  8
15
  6
CONTINUOUS
 62
     6
  5
F0
 10
-27.594313
 20
108.56246
 30
0.0
 11
-32.594313
 21
108.56246
 31
0.0
  0
LINE
  8
15
  6
CONTINUOUS
 62
     6
  5
F1
 10
-32.594313
 20
137.56226
 30
0.0
 11
-34.037673
 21
140.06246
 31
0.0
  0
LINE
  8
15
  6
CONTINUOUS
 62
     6
  5
F2
 10
-51.668873
 20
156.26226
 30
0.0
 11
-37.958273
 21
156.26226
 31
0.0
  0
LINE
  8
15
  6
CONTINUOUS
 62
     6
  5
F3
 10
-34.494273
 20
152.26246
 30
0.0
 11
-36.226273
 21
155.26246
 31
0.0
  0
LINE
  8
15
  6
CONTINUOUS
 62
     6
  5
F4
 10
-54.844273
 20
152.76246
 30
0.0
 11
-54.844273
 21
152.16246
 31
0.0
  0
LINE
  8
15
  6
CONTINUOUS
 62
     6
  5
F5
 10
-54.844273
 20
152.76246
 30
0.0
 11
-53.400873
 21
155.26246
 31
0.0
  0
LINE
  8
15
  6
CONTINUOUS
 62
     6
  5
F6
 10
-34.494273
 20
89.86246
 30
0.0
 11
-36.226273
 21
86.86246
 31
0.0
  0
LINE
  8
15
  6
CONTINUOUS
 62
     6
  5
F7
 10
-32.594313
 20
104.56246
 30
0.0
 11
-34.037673
 21
102.06246
 31
0.0
  0
LINE
  8
15
  6
CONTINUOUS
 62
     6
  5
F8
 10
-133.594273
 20
138.76246
 30
0.0
 11
-134.594273
 21
138.76246
 31
0.0
  0
LINE
  8
15
  6
CONTINUOUS
 62
     6
  5
F9
 10
-80.094273
 20
163.46226
 30
0.0
 11
-80.094273
 21
151.66226
 31
0.0
  0
LINE
  8
15
  6
CONTINUOUS
 62
     6
  5
FA
 10
-74.894273
 20
165.56246
 30
0.0
 11
-74.894273
 21
163.46226
 31
0.0
  0
LINE
  8
15
  6
CONTINUOUS
 62
     6
  5
FB
 10
-80.094273
 20
163.46226
 30
0.0
 11
-74.894273
 21
163.46226
 31
0.0
  0
LINE
  8
15
  6
CONTINUOUS
 62
     6
  5
FC
 10
-57.844273
 20
165.56246
 30
0.0
 11
-57.844273
 21
155.16246
 31
0.0
  0
LINE
  8
15
  6
CONTINUOUS
 62
     6
  5
FD
 10
-134.594273
 20
137.56226
 30
0.0
 11
-134.594273
 21
138.76246
 31
0.0
  0
LINE
  8
15
  6
CONTINUOUS
 62
     6
  5
FE
 10
-134.594273
 20
137.56226
 30
0.0
 11
-135.344873
 21
136.26246
 31
0.0
  0
LINE
  8
15
  6
CONTINUOUS
 62
     6
  5
FF
 10
-138.594273
 20
136.26246
 30
0.0
 11
-135.344873
 21
136.26246
 31
0.0
  0
LINE
  8
15
  6
CONTINUOUS
 62
     6
  5
100
 10
-80.094273
 20
151.66226
 30
0.0
 11
-130.094273
 21
151.66226
 31
0.0
  0
LINE
  8
15
  6
CONTINUOUS
 62
     6
  5
101
 10
-134.594273
 20
105.06226
 30
0.0
 11
-134.594273
 21
103.36246
 31
0.0
  0
LINE
  8
15
  6
CONTINUOUS
 62
     6
  5
102
 10
-135.594273
 20
105.06226
 30
0.0
 11
-134.594273
 21
105.06226
 31
0.0
  0
LINE
  8
15
  6
CONTINUOUS
 62
     6
  5
103
 10
-138.594273
 20
155.56246
 30
0.0
 11
-130.094273
 21
155.56246
 31
0.0
  0
LINE
  8
15
  6
CONTINUOUS
 62
     6
  5
104
 10
-74.894273
 20
165.56246
 30
0.0
 11
-57.844273
 21
165.56246
 31
0.0
  0
LINE
  8
15
  6
CONTINUOUS
 62
     6
  5
105
 10
-54.844273
 20
152.16246
 30
0.0
 11
-57.844273
 21
155.16246
 31
0.0
  0
LINE
  8
15
  6
CONTINUOUS
 62
     6
  5
106
 10
-32.594313
 20
137.56226
 30
0.0
 11
-32.594313
 21
133.56246
 31
0.0
  0
LINE
  8
15
  6
CONTINUOUS
 62
     6
  5
107
 10
-34.494273
 20
152.26246
 30
0.0
 11
-34.494273
 21
140.06246
 31
0.0
  0
LINE
  8
15
  6
CONTINUOUS
 62
     6
  5
108
 10
-27.594313
 20
133.56246
 30
0.0
 11
-32.594313
 21
133.56246
 31
0.0
  0
LINE
  8
15
  6
CONTINUOUS
 62
     6
  5
109
 10
-133.594273
 20
138.76246
 30
0.0
 11
-133.594273
 21
103.36246
 31
0.0
  0
LINE
  8
15
  6
CONTINUOUS
 62
     6
  5
10A
 10
-135.594273
 20
105.06226
 30
0.0
 11
-138.594273
 21
103.36246
 31
0.0
  0
LINE
  8
15
  6
CONTINUOUS
 62
     6
  5
10B
 10
-138.594273
 20
85.56246
 30
0.0
 11
-138.594273
 21
103.36246
 31
0.0
  0
LINE
  8
15
  6
CONTINUOUS
 62
     6
  5
10C
 10
-34.494273
 20
140.06246
 30
0.0
 11
-34.037673
 21
140.06246
 31
0.0
  0
LINE
  8
15
  6
CONTINUOUS
 62
     6
  5
10D
 10
-32.594313
 20
108.56246
 30
0.0
 11
-32.594313
 21
104.56246
 31
0.0
  0
LINE
  8
15
  6
CONTINUOUS
 62
     6
  5
10E
 10
-34.494273
 20
102.06246
 30
0.0
 11
-34.494273
 21
89.86246
 31
0.0
  0
LINE
  8
15
  6
CONTINUOUS
 62
     6
  5
10F
 10
-34.494273
 20
102.06246
 30
0.0
 11
-34.037673
 21
102.06246
 31
0.0
  0
LINE
  8
15
  6
CONTINUOUS
 62
     6
  5
110
 10
-134.594273
 20
103.36246
 30
0.0
 11
-133.594273
 21
103.36246
 31
0.0
  0
LINE
  8
15
  6
CONTINUOUS
 62
     6
  5
111
 10
-78.644273
 20
91.01246
 30
0.0
 11
-78.644273
 21
86.36246
 31
0.0
  0
LINE
  8
15
  6
CONTINUOUS
 62
     6
  5
112
 10
-130.094273
 20
91.01246
 30
0.0
 11
-78.644273
 21
91.01246
 31
0.0
  0
LINE
  8
15
  6
CONTINUOUS
 62
     6
  5
113
 10
-78.644273
 20
86.36246
 30
0.0
 11
-61.144273
 21
86.36246
 31
0.0
  0
LINE
  8
15
  6
CONTINUOUS
 62
     6
  5
114
 10
-61.144273
 20
87.76246
 30
0.0
 11
-61.144273
 21
86.36246
 31
0.0
  0
LINE
  8
15
  6
CONTINUOUS
 62
     6
  5
115
 10
-130.094273
 20
85.56246
 30
0.0
 11
-130.094273
 21
91.01246
 31
0.0
  0
LINE
  8
15
  6
CONTINUOUS
 62
     6
  5
116
 10
-130.094273
 20
85.56246
 30
0.0
 11
-138.594273
 21
85.56246
 31
0.0
  0
LINE
  8
15
  6
CONTINUOUS
 62
     6
  5
117
 10
-54.844273
 20
89.36226
 30
0.0
 11
-53.400873
 21
86.86246
 31
0.0
  0
LINE
  8
15
  6
CONTINUOUS
 62
     6
  5
118
 10
-51.668873
 20
85.86246
 30
0.0
 11
-37.958273
 21
85.86246
 31
0.0
  0
LINE
  8
15
  6
CONTINUOUS
 62
     6
  5
119
 10
-61.144273
 20
87.76246
 30
0.0
 11
-60.344273
 21
87.76246
 31
0.0
  0
LINE
  8
15
  6
CONTINUOUS
 62
     6
  5
11A
 10
-59.544273
 20
89.36226
 30
0.0
 11
-54.844273
 21
89.36226
 31
0.0
  0
LINE
  8
15
  6
CONTINUOUS
 62
     6
  5
11B
 10
-130.094273
 20
155.56246
 30
0.0
 11
-130.094273
 21
151.66226
 31
0.0
  0
LINE
  8
15
  6
CONTINUOUS
 62
     6
  5
11C
 10
-138.594273
 20
155.56246
 30
0.0
 11
-138.594273
 21
136.26246
 31
0.0
  0
LINE
  8
15
  6
CONTINUOUS
 62
     6
  5
11D
 10
-27.594313
 20
108.56246
 30
0.0
 11
-27.594313
 21
133.56246
 31
0.0
  0
LINE
  8
15
  6
CONTINUOUS
 62
     6
  5
11E
 10
-130.094273
 20
91.01246
 30
0.0
 11
-120.094273
 21
91.01246
 31
0.0
  0
LINE
  8
15
  6
CONTINUOUS
 62
     6
  5
11F
 10
-106.094273
 20
86.41246
 30
0.0
 11
-100.094273
 21
86.41246
 31
0.0
  0
LINE
  8
15
  6
CONTINUOUS
 62
     6
  5
120
 10
-100.094273
 20
91.01246
 30
0.0
 11
-100.094273
 21
86.41246
 31
0.0
  0
LINE
  8
15
  6
CONTINUOUS
 62
     6
  5
121
 10
-106.094273
 20
86.41246
 30
0.0
 11
-106.094273
 21
91.01246
 31
0.0
  0
LINE
  8
15
  6
CONTINUOUS
 62
     6
  5
122
 10
-59.544273
 20
89.36226
 30
0.0
 11
-59.544273
 21
88.56346
 31
0.0
  0
ARC
  8
15
  6
CONTINUOUS
 62
     6
  5
123
 10
-51.668873
 20
154.26226
 30
0.0
 40
2.0
 50
90.0002
 51
150.0
  0
ARC
  8
15
  6
CONTINUOUS
 62
     6
  5
124
 10
-37.958273
 20
154.26226
 30
0.0
 40
2.0
 50
30.0
 51
90.0002
  0
ARC
  8
15
  6
CONTINUOUS
 62
     6
  5
125
 10
-37.958273
 20
87.86246
 30
0.0
 40
2.0
 50
270.0
 51
330.0
  0
ARC
  8
15
  6
CONTINUOUS
 62
     6
  5
126
 10
-60.344273
 20
88.56246
 30
0.0
 40
0.800004
 50
270.0
 51
0.079776
  0
ARC
  8
15
  6
CONTINUOUS
 62
     6
  5
127
 10
-51.668873
 20
87.86246
 30
0.0
 40
2.0
 50
210.0
 51
270.0
  0
LINE
  8
16
  6
CONTINUOUS
 62
     3
  5
128
 10
-36.294273
 20
152.26246
 30
0.0
 11
-36.294273
 21
140.06246
 31
0.0
  0
LINE
  8
16
  6
CONTINUOUS
 62
     3
  5
129
 10
-74.594273
 20
145.06246
 30
0.0
 11
-56.944273
 21
145.06246
 31
0.0
  0
LINE
  8
16
  6
CONTINUOUS
 62
     3
  5
12A
 10
-56.944273
 20
97.06246
 30
0.0
 11
-74.594273
 21
97.06246
 31
0.0
  0
LINE
  8
16
  6
CONTINUOUS
 62
     3
  5
12B
 10
-32.594313
 20
125.76246
 30
0.0
 11
-27.594313
 21
125.76246
 31
0.0
  0
LINE
  8
16
  6
CONTINUOUS
 62
     3
  5
12C
 10
-38.892273
 20
154.76246
 30
0.0
 11
-53.689473
 21
154.76246
 31
0.0
  0
LINE
  8
16
  6
CONTINUOUS
 62
     3
  5
12D
 10
-54.346073
 20
150.76246
 30
0.0
 11
-38.892273
 21
150.76246
 31
0.0
  0
LINE
  8
16
  6
CONTINUOUS
 62
     3
  5
12E
 10
-36.294273
 20
152.26246
 30
0.0
 11
-37.160273
 21
153.76246
 31
0.0
  0
LINE
  8
16
  6
CONTINUOUS
 62
     3
  5
12F
 10
-36.294273
 20
148.26246
 30
0.0
 11
-37.160273
 21
149.76246
 31
0.0
  0
LINE
  8
16
  6
CONTINUOUS
 62
     3
  5
130
 10
-56.944273
 20
148.26246
 30
0.0
 11
-56.944273
 21
145.06246
 31
0.0
  0
LINE
  8
16
  6
CONTINUOUS
 62
     3
  5
131
 10
-56.944273
 20
148.26246
 30
0.0
 11
-56.078273
 21
149.76246
 31
0.0
  0
LINE
  8
16
  6
CONTINUOUS
 62
     3
  5
132
 10
-56.944273
 20
93.86246
 30
0.0
 11
-56.078273
 21
92.36246
 31
0.0
  0
LINE
  8
16
  6
CONTINUOUS
 62
     3
  5
133
 10
-56.944273
 20
93.86246
 30
0.0
 11
-56.944273
 21
97.06246
 31
0.0
  0
LINE
  8
16
  6
CONTINUOUS
 62
     3
  5
134
 10
-36.294273
 20
102.06246
 30
0.0
 11
-34.494273
 21
102.06246
 31
0.0
  0
LINE
  8
16
  6
CONTINUOUS
 62
     3
  5
135
 10
-36.294273
 20
93.86246
 30
0.0
 11
-37.160273
 21
92.36246
 31
0.0
  0
LINE
  8
16
  6
CONTINUOUS
 62
     3
  5
136
 10
-36.294273
 20
89.86246
 30
0.0
 11
-37.160273
 21
88.36246
 31
0.0
  0
LINE
  8
16
  6
CONTINUOUS
 62
     3
  5
137
 10
-54.346073
 20
91.36246
 30
0.0
 11
-38.892273
 21
91.36246
 31
0.0
  0
LINE
  8
16
  6
CONTINUOUS
 62
     3
  5
138
 10
-36.294273
 20
89.86246
 30
0.0
 11
-36.294273
 21
102.06246
 31
0.0
  0
LINE
  8
16
  6
CONTINUOUS
 62
     3
  5
139
 10
-130.094273
 20
140.06246
 30
0.0
 11
-74.594273
 21
140.06246
 31
0.0
  0
LINE
  8
16
  6
CONTINUOUS
 62
     3
  5
13A
 10
-130.094273
 20
102.06246
 30
0.0
 11
-74.594273
 21
102.06246
 31
0.0
  0
LINE
  8
16
  6
CONTINUOUS
 62
     3
  5
13B
 10
-53.844273
 20
118.56226
 30
0.0
 11
-53.844273
 21
123.56246
 31
0.0
  0
LINE
  8
16
  6
CONTINUOUS
 62
     3
  5
13C
 10
-68.644273
 20
118.56226
 30
0.0
 11
-68.644273
 21
123.56246
 31
0.0
  0
LINE
  8
16
  6
CONTINUOUS
 62
     3
  5
13D
 10
-68.644273
 20
118.56226
 30
0.0
 11
-53.844273
 21
118.56226
 31
0.0
  0
LINE
  8
16
  6
CONTINUOUS
 62
     3
  5
13E
 10
-74.594273
 20
140.06246
 30
0.0
 11
-74.594273
 21
145.06246
 31
0.0
  0
LINE
  8
16
  6
CONTINUOUS
 62
     3
  5
13F
 10
-77.144273
 20
134.41246
 30
0.0
 11
-133.594273
 21
134.41246
 31
0.0
  0
LINE
  8
16
  6
CONTINUOUS
 62
     3
  5
140
 10
-77.144273
 20
134.41246
 30
0.0
 11
-77.144273
 21
136.91226
 31
0.0
  0
LINE
  8
16
  6
CONTINUOUS
 62
     3
  5
141
 10
-77.144273
 20
136.91226
 30
0.0
 11
-133.594273
 21
136.91226
 31
0.0
  0
LINE
  8
16
  6
CONTINUOUS
 62
     3
  5
142
 10
-77.144273
 20
105.21246
 30
0.0
 11
-133.594273
 21
105.21246
 31
0.0
  0
LINE
  8
16
  6
CONTINUOUS
 62
     3
  5
143
 10
-77.144273
 20
107.71246
 30
0.0
 11
-133.594273
 21
107.71246
 31
0.0
  0
LINE
  8
16
  6
CONTINUOUS
 62
     3
  5
144
 10
-77.144273
 20
107.71246
 30
0.0
 11
-77.144273
 21
105.21246
 31
0.0
  0
LINE
  8
16
  6
CONTINUOUS
 62
     3
  5
145
 10
-68.644273
 20
123.56246
 30
0.0
 11
-53.844273
 21
123.56246
 31
0.0
  0
LINE
  8
16
  6
CONTINUOUS
 62
     3
  5
146
 10
-74.594273
 20
102.06246
 30
0.0
 11
-74.594273
 21
97.06246
 31
0.0
  0
LINE
  8
16
  6
CONTINUOUS
 62
     3
  5
147
 10
-73.144273
 20
133.98726
 30
0.0
 11
-71.144273
 21
133.98726
 31
0.0
  0
LINE
  8
16
  6
CONTINUOUS
 62
     3
  5
148
 10
-73.144273
 20
137.98746
 30
0.0
 11
-71.144273
 21
137.98746
 31
0.0
  0
LINE
  8
16
  6
CONTINUOUS
 62
     3
  5
149
 10
-73.144273
 20
108.13746
 30
0.0
 11
-71.144273
 21
108.13746
 31
0.0
  0
LINE
  8
16
  6
CONTINUOUS
 62
     3
  5
14A
 10
-73.144273
 20
104.13746
 30
0.0
 11
-71.144273
 21
104.13746
 31
0.0
  0
LINE
  8
16
  6
CONTINUOUS
 62
     3
  5
14B
 10
-71.144273
 20
104.13746
 30
0.0
 11
-71.144273
 21
108.13746
 31
0.0
  0
LINE
  8
16
  6
CONTINUOUS
 62
     3
  5
14C
 10
-32.594313
 20
116.36246
 30
0.0
 11
-27.594313
 21
116.36246
 31
0.0
  0
LINE
  8
16
  6
CONTINUOUS
 62
     3
  5
14D
 10
-71.144273
 20
137.98746
 30
0.0
 11
-71.144273
 21
133.98726
 31
0.0
  0
LINE
  8
16
  6
CONTINUOUS
 62
     3
  5
14E
 10
-53.689473
 20
87.36246
 30
0.0
 11
-38.892273
 21
87.36246
 31
0.0
  0
LINE
  8
16
  6
CONTINUOUS
 62
     3
  5
14F
 10
-130.094273
 20
91.01246
 30
0.0
 11
-130.094273
 21
102.06246
 31
0.0
  0
LINE
  8
16
  6
CONTINUOUS
 62
     3
  5
150
 10
-32.594313
 20
133.56246
 30
0.0
 11
-32.594313
 21
108.56246
 31
0.0
  0
LINE
  8
16
  6
CONTINUOUS
 62
     3
  5
151
 10
-130.094273
 20
151.66226
 30
0.0
 11
-130.094273
 21
140.06246
 31
0.0
  0
LINE
  8
16
  6
CONTINUOUS
 62
     3
  5
152
 10
-36.294273
 20
140.06246
 30
0.0
 11
-34.494273
 21
140.06246
 31
0.0
  0
ARC
  8
16
  6
CONTINUOUS
 62
     3
  5
153
 10
-54.346073
 20
148.76246
 30
0.0
 40
2.0
 50
90.0002
 51
150.0
  0
ARC
  8
16
  6
CONTINUOUS
 62
     3
  5
154
 10
-54.346073
 20
93.36246
 30
0.0
 40
2.0
 50
210.0
 51
270.0
  0
ARC
  8
16
  6
CONTINUOUS
 62
     3
  5
155
 10
-73.144273
 20
135.98746
 30
0.0
 40
2.0
 50
90.0002
 51
270.0
  0
ARC
  8
16
  6
CONTINUOUS
 62
     3
  5
156
 10
-73.144273
 20
106.13746
 30
0.0
 40
2.0
 50
90.0002
 51
270.0
  0
ARC
  8
16
  6
CONTINUOUS
 62
     3
  5
157
 10
-38.892273
 20
152.76246
 30
0.0
 40
2.0
 50
30.0
 51
90.0002
  0
ARC
  8
16
  6
CONTINUOUS
 62
     3
  5
158
 10
-38.892273
 20
148.76246
 30
0.0
 40
2.0
 50
30.0
 51
90.0002
  0
ARC
  8
16
  6
CONTINUOUS
 62
     3
  5
159
 10
-38.892273
 20
93.36246
 30
0.0
 40
2.0
 50
270.0
 51
330.0
  0
ARC
  8
16
  6
CONTINUOUS
 62
     3
  5
15A
 10
-38.892273
 20
89.36226
 30
0.0
 40
2.0
 50
270.0
 51
330.0
  0
LINE
  8
17
  6
HIDDEN
 62
     2
  5
15B
 10
-47.594273
 20
150.56246
 30
0.0
 11
-49.094273
 21
150.56246
 31
0.0
  0
LINE
  8
17
  6
HIDDEN
 62
     2
  5
15C
 10
-24.594313
 20
140.81226
 30
0.0
 11
-24.594313
 21
138.81246
 31
0.0
  0
LINE
  8
17
  6
HIDDEN
 62
     2
  5
15D
 10
-24.594313
 20
101.31246
 30
0.0
 11
-24.594313
 21
103.31246
 31
0.0
  0
LINE
  8
17
  6
HIDDEN
 62
     2
  5
15E
 10
-134.594273
 20
138.56246
 30
0.0
 11
-133.594273
 21
138.56246
 31
0.0
  0
LINE
  8
17
  6
HIDDEN
 62
     2
  5
15F
 10
-134.594273
 20
138.56246
 30
0.0
 11
-134.594273
 21
133.56246
 31
0.0
  0
LINE
  8
17
  6
HIDDEN
 62
     2
  5
160
 10
-133.594273
 20
138.56246
 30
0.0
 11
-133.594273
 21
132.56246
 31
0.0
  0
LINE
  8
17
  6
HIDDEN
 62
     2
  5
161
 10
-133.594273
 20
103.56246
 30
0.0
 11
-133.594273
 21
109.56246
 31
0.0
  0
LINE
  8
17
  6
HIDDEN
 62
     2
  5
162
 10
-134.594273
 20
103.56246
 30
0.0
 11
-134.594273
 21
108.56246
 31
0.0
  0
LINE
  8
17
  6
HIDDEN
 62
     2
  5
163
 10
-134.594273
 20
103.56246
 30
0.0
 11
-133.594273
 21
103.56246
 31
0.0
  0
LINE
  8
17
  6
HIDDEN
 62
     2
  5
164
 10
-4.894313
 20
130.56246
 30
0.0
 11
-3.294313
 21
130.56246
 31
0.0
  0
LINE
  8
17
  6
HIDDEN
 62
     2
  5
165
 10
-4.894313
 20
140.81226
 30
0.0
 11
-6.626313
 21
143.81246
 31
0.0
  0
LINE
  8
17
  6
HIDDEN
 62
     2
  5
166
 10
-24.594313
 20
140.81226
 30
0.0
 11
-22.862313
 21
143.81246
 31
0.0
  0
LINE
  8
17
  6
HIDDEN
 62
     2
  5
167
 10
-4.894313
 20
101.31246
 30
0.0
 11
-6.626313
 21
98.31246
 31
0.0
  0
LINE
  8
17
  6
HIDDEN
 62
     2
  5
168
 10
-24.594313
 20
101.31246
 30
0.0
 11
-22.862313
 21
98.31246
 31
0.0
  0
LINE
  8
17
  6
HIDDEN
 62
     2
  5
169
 10
-4.894313
 20
111.56246
 30
0.0
 11
-3.294313
 21
111.56246
 31
0.0
  0
LINE
  8
17
  6
HIDDEN
 62
     2
  5
16A
 10
-47.594273
 20
150.56246
 30
0.0
 11
-47.594273
 21
140.50666
 31
0.0
  0
LINE
  8
17
  6
HIDDEN
 62
     2
  5
16B
 10
-49.094273
 20
140.53386
 30
0.0
 11
-49.094273
 21
150.56246
 31
0.0
  0
LINE
  8
17
  6
HIDDEN
 62
     2
  5
16C
 10
-147.594273
 20
109.56246
 30
0.0
 11
-133.594273
 21
109.56246
 31
0.0
  0
LINE
  8
17
  6
HIDDEN
 62
     2
  5
16D
 10
-148.594273
 20
108.56246
 30
0.0
 11
-134.594273
 21
108.56246
 31
0.0
  0
LINE
  8
17
  6
HIDDEN
 62
     2
  5
16E
 10
-148.594273
 20
133.56246
 30
0.0
 11
-134.594273
 21
133.56246
 31
0.0
  0
LINE
  8
17
  6
HIDDEN
 62
     2
  5
16F
 10
-147.594273
 20
132.56246
 30
0.0
 11
-133.594273
 21
132.56246
 31
0.0
  0
LINE
  8
17
  6
HIDDEN
 62
     2
  5
170
 10
-32.594313
 20
138.81246
 30
0.0
 11
-24.594313
 21
138.81246
 31
0.0
  0
LINE
  8
17
  6
HIDDEN
 62
     2
  5
171
 10
-21.130133
 20
144.81226
 30
0.0
 11
-8.358313
 21
144.81226
 31
0.0
  0
LINE
  8
17
  6
HIDDEN
 62
     2
  5
172
 10
-4.894313
 20
140.81226
 30
0.0
 11
-4.894313
 21
130.56246
 31
0.0
  0
LINE
  8
17
  6
HIDDEN
 62
     2
  5
173
 10
-3.294313
 20
130.56246
 30
0.0
 11
-3.294313
 21
123.56246
 31
0.0
  0
LINE
  8
17
  6
HIDDEN
 62
     2
  5
174
 10
-3.294313
 20
123.56246
 30
0.0
 11
0.405687
 21
123.56246
 31
0.0
  0
LINE
  8
17
  6
HIDDEN
 62
     2
  5
175
 10
0.405687
 20
118.56226
 30
0.0
 11
0.405687
 21
123.56246
 31
0.0
  0
LINE
  8
17
  6
HIDDEN
 62
     2
  5
176
 10
-3.294313
 20
118.56226
 30
0.0
 11
0.405687
 21
118.56226
 31
0.0
  0
LINE
  8
17
  6
HIDDEN
 62
     2
  5
177
 10
-3.294313
 20
118.56226
 30
0.0
 11
-3.294313
 21
111.56246
 31
0.0
  0
LINE
  8
17
  6
HIDDEN
 62
     2
  5
178
 10
-4.894313
 20
101.31246
 30
0.0
 11
-4.894313
 21
111.56246
 31
0.0
  0
LINE
  8
17
  6
HIDDEN
 62
     2
  5
179
 10
-21.130133
 20
97.31246
 30
0.0
 11
-8.358313
 21
97.31246
 31
0.0
  0
LINE
  8
17
  6
HIDDEN
 62
     2
  5
17A
 10
-32.594313
 20
103.31246
 30
0.0
 11
-24.594313
 21
103.31246
 31
0.0
  0
ARC
  8
17
  6
HIDDEN
 62
     2
  5
17B
 10
-21.130133
 20
142.81226
 30
0.0
 40
2.0
 50
90.0002
 51
150.0
  0
ARC
  8
17
  6
HIDDEN
 62
     2
  5
17C
 10
-8.358313
 20
142.81226
 30
0.0
 40
1.99996
 50
30.0007
 51
90.0002
  0
ARC
  8
17
  6
HIDDEN
 62
     2
  5
17D
 10
-21.130133
 20
99.31246
 30
0.0
 40
2.0
 50
210.0
 51
270.0
  0
ARC
  8
17
  6
HIDDEN
 62
     2
  5
17E
 10
-8.358313
 20
99.31246
 30
0.0
 40
1.999954
 50
270.0
 51
329.999
  0
LINE
  8
1A
  6
HIDDEN
 62
     2
  5
17F
 10
-148.594273
 20
133.56246
 30
0.0
 11
-148.594273
 21
108.56246
 31
0.0
  0
LINE
  8
1A
  6
HIDDEN
 62
     2
  5
180
 10
-147.594273
 20
132.56246
 30
0.0
 11
-147.594273
 21
109.56246
 31
0.0
  0
LINE
  8
1A
  6
CENTER
 62
     6
  5
181
 10
-53.383473
 20
145.56246
 30
0.0
 11
-42.855673
 21
145.56246
 31
0.0
  0
LINE
  8
1A
  6
CENTER
 62
     6
  5
182
 10
-151.992873
 20
121.06246
 30
0.0
 11
3.566687
 21
121.06246
 31
0.0
  0
LINE
  8
32
  6
CONTINUOUS
 62
     7
  5
183
 10
101.405727
 20
-76.43754
 30
0.0
 11
101.405727
 21
-81.43754
 31
0.0
  0
LINE
  8
32
  6
CONTINUOUS
 62
     7
  5
184
 10
98.905727
 20
-78.93754
 30
0.0
 11
103.905727
 21
-78.93754
 31
0.0
  0
LINE
  8
33
  6
CONTINUOUS
 62
     6
  5
185
 10
76.655727
 20
-48.93762
 30
0.0
 11
76.655727
 21
-50.93762
 31
0.0
  0
LINE
  8
33
  6
CONTINUOUS
 62
     6
  5
186
 10
126.155727
 20
-108.93754
 30
0.0
 11
126.155727
 21
-106.93754
 31
0.0
  0
LINE
  8
33
  6
CONTINUOUS
 62
     6
  5
187
 10
72.155727
 20
-50.93762
 30
0.0
 11
72.155727
 21
-48.93762
 31
0.0
  0
LINE
  8
33
  6
CONTINUOUS
 62
     6
  5
188
 10
130.655727
 20
-108.93754
 30
0.0
 11
130.655727
 21
-106.93754
 31
0.0
  0
CIRCLE
  8
33
  6
CONTINUOUS
 62
     6
  5
189
 10
76.405727
 20
-108.93754
 30
0.0
 40
2.25
  0
CIRCLE
  8
33
  6
CONTINUOUS
 62
     6
  5
18A
 10
126.405727
 20
-48.93762
 30
0.0
 40
2.25
  0
ARC
  8
33
  6
CONTINUOUS
 62
     6
  5
18B
 10
74.405727
 20
-48.93762
 30
0.0
 40
2.25
 50
0.0
 51
180.0
  0
ARC
  8
33
  6
CONTINUOUS
 62
     6
  5
18C
 10
128.405727
 20
-108.93754
 30
0.0
 40
2.25
 50
180.0
 51
0.0
  0
ARC
  8
33
  6
CONTINUOUS
 62
     6
  5
18D
 10
74.405727
 20
-50.93762
 30
0.0
 40
2.25
 50
180.0
 51
0.0
  0
ARC
  8
33
  6
CONTINUOUS
 62
     6
  5
18E
 10
128.405727
 20
-106.93754
 30
0.0
 40
2.25
 50
0.0
 51
180.0
  0
LINE
  8
34
  6
CONTINUOUS
 62
     3
  5
18F
 10
133.405727
 20
-44.43762
 30
0.0
 11
115.355727
 21
-44.43762
 31
0.0
  0
LINE
  8
34
  6
CONTINUOUS
 62
     3
  5
190
 10
87.455727
 20
-35.33762
 30
0.0
 11
87.455727
 21
-44.43762
 31
0.0
  0
LINE
  8
34
  6
CONTINUOUS
 62
     3
  5
191
 10
115.355727
 20
-35.33762
 30
0.0
 11
115.355727
 21
-44.43762
 31
0.0
  0
LINE
  8
34
  6
CONTINUOUS
 62
     3
  5
192
 10
73.905727
 20
-44.43762
 30
0.0
 11
74.905727
 21
-44.43762
 31
0.0
  0
LINE
  8
34
  6
CONTINUOUS
 62
     3
  5
193
 10
105.055727
 20
-34.437624
 30
0.0
 11
105.055727
 21
-35.33762
 31
0.0
  0
LINE
  8
34
  6
CONTINUOUS
 62
     3
  5
194
 10
115.355727
 20
-35.33762
 30
0.0
 11
105.055727
 21
-35.33762
 31
0.0
  0
LINE
  8
34
  6
CONTINUOUS
 62
     3
  5
195
 10
87.455727
 20
-35.33762
 30
0.0
 11
97.755727
 21
-35.33762
 31
0.0
  0
LINE
  8
34
  6
CONTINUOUS
 62
     3
  5
196
 10
69.405727
 20
-114.43754
 30
0.0
 11
74.405727
 21
-114.43754
 31
0.0
  0
LINE
  8
34
  6
CONTINUOUS
 62
     3
  5
197
 10
97.755727
 20
-34.437624
 30
0.0
 11
97.755727
 21
-35.33762
 31
0.0
  0
LINE
  8
34
  6
CONTINUOUS
 62
     3
  5
198
 10
133.405727
 20
-109.93754
 30
0.0
 11
133.405727
 21
-104.93754
 31
0.0
  0
LINE
  8
34
  6
CONTINUOUS
 62
     3
  5
199
 10
69.405727
 20
-44.43762
 30
0.0
 11
87.455727
 21
-44.43762
 31
0.0
  0
LINE
  8
34
  6
CONTINUOUS
 62
     3
  5
19A
 10
133.405727
 20
-114.43754
 30
0.0
 11
133.405727
 21
-109.43754
 31
0.0
  0
LINE
  8
34
  6
CONTINUOUS
 62
     3
  5
19B
 10
69.405727
 20
-114.43754
 30
0.0
 11
69.405727
 21
-109.43754
 31
0.0
  0
LINE
  8
34
  6
CONTINUOUS
 62
     3
  5
19C
 10
69.405727
 20
-44.43762
 30
0.0
 11
69.405727
 21
-49.43762
 31
0.0
  0
LINE
  8
34
  6
CONTINUOUS
 62
     3
  5
19D
 10
133.405727
 20
-44.43762
 30
0.0
 11
133.405727
 21
-49.43762
 31
0.0
  0
LINE
  8
34
  6
CONTINUOUS
 62
     3
  5
19E
 10
97.755727
 20
-34.437624
 30
0.0
 11
105.055727
 21
-34.437624
 31
0.0
  0
LINE
  8
34
  6
CONTINUOUS
 62
     3
  5
19F
 10
128.405727
 20
-114.43754
 30
0.0
 11
133.405727
 21
-114.43754
 31
0.0
  0
LINE
  8
38
  6
CENTER
 62
     6
  5
1A0
 10
74.405727
 20
-45.51462
 30
0.0
 11
74.405727
 21
-54.39254
 31
0.0
  0
LINE
  8
38
  6
CENTER
 62
     6
  5
1A1
 10
128.405727
 20
-112.47354
 30
0.0
 11
128.405727
 21
-102.85554
 31
0.0
  0
LINE
  8
38
  6
CENTER
 62
     6
  5
1A2
 10
76.405727
 20
-112.22754
 30
0.0
 11
76.405727
 21
-104.82754
 31
0.0
  0
LINE
  8
38
  6
CENTER
 62
     6
  5
1A3
 10
126.405727
 20
-45.26762
 30
0.0
 11
126.405727
 21
-52.66662
 31
0.0
  0
LINE
  8
38
  6
CENTER
 62
     6
  5
1A4
 10
80.041727
 20
-108.93754
 30
0.0
 11
72.766727
 21
-108.93754
 31
0.0
  0
LINE
  8
38
  6
CENTER
 62
     6
  5
1A5
 10
131.633727
 20
-106.93754
 30
0.0
 11
124.885727
 21
-106.93754
 31
0.0
  0
LINE
  8
38
  6
CENTER
 62
     6
  5
1A6
 10
71.177727
 20
-50.93762
 30
0.0
 11
77.925727
 21
-50.93762
 31
0.0
  0
LINE
  8
38
  6
CENTER
 62
     6
  5
1A7
 10
71.155727
 20
-48.93762
 30
0.0
 11
77.860727
 21
-48.93762
 31
0.0
  0
LINE
  8
38
  6
CENTER
 62
     6
  5
1A8
 10
65.860727
 20
-78.93754
 30
0.0
 11
136.099727
 21
-78.93754
 31
0.0
  0
LINE
  8
38
  6
CENTER
 62
     6
  5
1A9
 10
101.405727
 20
-116.90554
 30
0.0
 11
101.405727
 21
-27.62462
 31
0.0
  0
LINE
  8
38
  6
CENTER
 62
     6
  5
1AA
 10
122.831727
 20
-48.93762
 30
0.0
 11
130.107727
 21
-48.93762
 31
0.0
  0
LINE
  8
38
  6
CENTER
 62
     6
  5
1AB
 10
131.655727
 20
-108.93754
 30
0.0
 11
124.951727
 21
-108.93754
 31
0.0
  0
LINE
  8
FF
  6
CONTINUOUS
 62
     4
  5
1F5
 10
86.775727
 20
148.65966
 30
0.0
 11
59.169727
 21
189.45746
 31
0.0
  0
LINE
  8
FF
  6
CONTINUOUS
 62
     4
  5
1F6
 10
99.503727
 20
148.50006
 30
0.0
 11
59.169727
 21
189.45746
 31
0.0
  0
LINE
  8
FF
  6
CONTINUOUS
 62
     4
  5
1F7
 10
112.307727
 20
148.36346
 30
0.0
 11
59.169727
 21
189.45746
 31
0.0
  0
LINE
  8
FF
  6
CONTINUOUS
 62
     4
  5
1F8
 10
130.191927
 20
-110.52954
 30
0.0
 11
140.552527
 21
-119.01934
 31
0.0
  0
TEXT
  8
FF
  6
CONTINUOUS
 62
     4
  5
2FB
 10
51.091127
 20
189.96946
 30
0.0
 40
3.0
  1
M4
 41
1.30167
  0
TEXT
  8
FF
  6
CONTINUOUS
 62
     4
  5
2FC
 10
141.617727
 20
-120.67754
 30
0.0
 40
3.0
  1
2-M4
 41
1.21
  0
DIMENSION
  8
FF
  6
CONTINUOUS
  5
38D
  2
*D1
 10
-27.594313
 20
196.67746
 30
0.0
 11
-88.094293
 21
199.17746
 31
0.0
  1
118
 13
-148.594273
 23
133.56246
 33
0.0
 14
-27.594313
 24
133.56246
 34
0.0
  3
FSTD1
  0
DIMENSION
  8
FF
  6
CONTINUOUS
  5
3A5
  2
*D2
 10
-27.594313
 20
187.88746
 30
0.0
 11
-83.094293
 21
190.38746
 31
0.0
  1
108
 13
-138.594273
 23
155.56246
 33
0.0
 14
-27.594313
 24
133.56246
 34
0.0
  3
FSTD1
  0
DIMENSION
  8
FF
  6
CONTINUOUS
  5
3B2
  2
*D3
 10
0.405687
 20
187.88746
 30
0.0
 11
-13.594313
 21
190.38746
 31
0.0
  1
28
 13
-27.594313
 23
134.56246
 33
0.0
 14
0.405687
 24
123.56246
 34
0.0
  3
FSTD1
  0
DIMENSION
  8
FF
  6
CONTINUOUS
  5
3BF
  2
*D4
 10
-47.594273
 20
179.68346
 30
0.0
 11
-93.094273
 21
182.18346
 31
0.0
  1
88
 13
-138.594273
 23
155.56246
 33
0.0
 14
-47.594273
 24
150.56246
 34
0.0
  3
FSTD1
  0
DIMENSION
  8
FF
  6
CONTINUOUS
  5
3CE
  2
*D18
 10
-130.094273
 20
170.89146
 30
0.0
 11
-134.344273
 21
173.39146
 31
0.0
  1
8.5
 13
-138.594273
 23
156.56246
 33
0.0
 14
-130.094273
 24
155.56246
 34
0.0
  3
FSTD2
  0
DIMENSION
  8
FF
  6
CONTINUOUS
  5
3E8
  2
*D5
 10
133.405727
 20
197.41146
 30
0.0
 11
101.405727
 21
199.91146
 31
0.0
  1
64
 13
69.405727
 23
150.76246
 33
0.0
 14
133.405727
 24
150.76246
 34
0.0
  3
FSTD1
  0
DIMENSION
  8
FF
  6
CONTINUOUS
  5
3F5
  2
*D6
 10
58.708727
 20
165.56246
 30
0.0
 11
56.208727
 21
155.56246
 31
0.0
  1
20
 13
82.237727
 23
145.56246
 33
0.0
 14
97.755727
 24
165.56246
 34
0.0
 50
90.0
  3
FSTD1
  0
DIMENSION
  8
FF
  6
CONTINUOUS
  5
402
  2
*D7
 10
150.327727
 20
165.56246
 30
0.0
 11
147.827727
 21
154.06246
 31
0.0
  1
23
 13
130.871727
 23
142.56246
 33
0.0
 14
105.055727
 24
165.56246
 34
0.0
 50
90.0
  3
FSTD1
  0
DIMENSION
  8
FF
  6
CONTINUOUS
  5
40F
  2
*D8
 10
58.708727
 20
96.56246
 30
0.0
 11
56.208727
 21
121.06246
 31
0.0
  1
49
 13
82.237727
 23
145.56246
 33
0.0
 14
81.529727
 24
96.56246
 34
0.0
 50
90.0
  3
FSTD1
  0
DIMENSION
  8
FF
  6
CONTINUOUS
  5
41C
  2
*D9
 10
150.327727
 20
99.56246
 30
0.0
 11
147.827727
 21
121.06246
 31
0.0
  1
43
 13
131.871727
 23
142.56246
 33
0.0
 14
131.853727
 24
99.56246
 34
0.0
 50
90.0
  3
FSTD1
  0
DIMENSION
  8
FF
  6
CONTINUOUS
  5
429
  2
*D10
 10
158.753727
 20
85.56246
 30
0.0
 11
156.253727
 21
125.56246
 31
0.0
  1
81
 13
106.055727
 23
165.56246
 33
0.0
 14
128.905727
 24
85.56246
 34
0.0
 50
90.0
  3
FSTD1
  0
DIMENSION
  8
FF
  6
CONTINUOUS
  5
436
  2
*D11
 10
101.405727
 20
58.21866
 30
0.0
 11
94.905727
 21
60.71866
 31
0.0
  1
13
 13
88.405727
 23
92.19426
 33
0.0
 14
101.405727
 24
65.599417
 34
0.0
  3
FSTD1
  0
DIMENSION
  8
FF
  6
CONTINUOUS
  5
443
  2
*D12
 10
114.405727
 20
58.21866
 30
0.0
 11
107.905727
 21
60.71866
 31
0.0
  1
13
 13
101.405727
 23
65.414837
 33
0.0
 14
114.405727
 24
92.19426
 34
0.0
  3
FSTD1
  0
DIMENSION
  8
FF
  6
CONTINUOUS
  5
461
  2
*D19
 10
130.255727
 20
75.34606
 30
0.0
 11
140.255727
 21
77.84606
 31
0.0
  1
7.7
 13
122.555727
 23
87.36246
 33
0.0
 14
130.255727
 24
91.36246
 34
0.0
  3
FSTD2
  0
DIMENSION
  8
FF
  6
CONTINUOUS
  5
488
  2
*D20
 10
152.885727
 20
-48.93762
 30
0.0
 11
150.385727
 21
-41.687622
 31
0.0
  1
14.5
 13
105.055727
 23
-34.437624
 33
0.0
 14
130.107727
 24
-48.93762
 34
0.0
 50
90.0
  3
FSTD2
  0
DIMENSION
  8
FF
  6
CONTINUOUS
  5
495
  2
*D21
 10
47.962727
 20
-48.93762
 30
0.0
 11
45.462727
 21
-41.687622
 31
0.0
  1
14.5
 13
97.755727
 23
-34.437624
 33
0.0
 14
71.155727
 24
-48.93762
 34
0.0
 50
90.0
  3
FSTD2
  0
DIMENSION
  8
FF
  6
CONTINUOUS
  5
4A2
  2
*D22
 10
58.026727
 20
-50.93762
 30
0.0
 11
55.526727
 21
-42.687622
 31
0.0
  1
16.5
 13
97.755727
 23
-34.437624
 33
0.0
 14
71.177727
 24
-50.93762
 34
0.0
 50
90.0
  3
FSTD2
  0
DIMENSION
  8
FF
  6
CONTINUOUS
  5
4BC
  2
*D13
 10
128.405727
 20
-18.92862
 30
0.0
 11
101.405727
 21
-16.42862
 31
0.0
  1
54
 13
74.405727
 23
-45.51462
 33
0.0
 14
128.405727
 24
-102.85554
 34
0.0
  3
FSTD1
  0
DIMENSION
  8
FF
  6
CONTINUOUS
  5
4C9
  2
*D14
 10
126.405727
 20
-133.41354
 30
0.0
 11
101.405727
 21
-130.91354
 31
0.0
  1
50
 13
76.405727
 23
-112.22754
 33
0.0
 14
126.405727
 24
-52.66662
 34
0.0
  3
FSTD1
  0
DIMENSION
  8
FF
  6
CONTINUOUS
  5
4D6
  2
*D15
 10
58.026727
 20
-106.93754
 30
0.0
 11
55.526727
 21
-78.93758
 31
0.0
  1
56
 13
71.177727
 23
-50.93762
 33
0.0
 14
124.885727
 24
-106.93754
 34
0.0
 50
90.0
  3
FSTD1
  0
DIMENSION
  8
FF
  6
CONTINUOUS
  5
4E3
  2
*D16
 10
47.962727
 20
-108.93754
 30
0.0
 11
45.462727
 21
-78.93758
 31
0.0
  1
60
 13
72.155727
 23
-48.93762
 33
0.0
 14
72.766727
 24
-108.93754
 34
0.0
 50
90.0
  3
FSTD1
  0
DIMENSION
  8
FF
  6
CONTINUOUS
  5
4F0
  2
*D17
 10
152.93137
 20
-108.93754
 30
0.0
 11
150.43137
 21
-78.93758
 31
0.0
  1
60
 13
131.107727
 23
-48.93762
 33
0.0
 14
130.655727
 24
-108.93754
 34
0.0
 50
90.0
  3
FSTD1
  0
DIMENSION
  8
FF
  6
CONTINUOUS
  5
54C
  2
*D23
 10
106.255727
 20
66.63604
 30
0.0
 11
101.405727
 21
69.13604
 31
0.0
  1
9.7
 13
96.555727
 23
85.86246
 33
0.0
 14
106.255727
 24
85.86246
 34
0.0
  3
FSTD2
  0
LINE
  8
FF
  6
CONTINUOUS
  5
96E
 10
96.127934
 20
161.577851
 30
0.0
 11
139.088702
 21
189.4341
 31
0.0
  0
LINE
  8
FF
  6
CONTINUOUS
  5
96F
 10
139.088702
 20
189.4341
 30
0.0
 11
111.000598
 21
161.709905
 31
0.0
  0
LINE
  8
FF
  6
CONTINUOUS
  5
970
 10
139.088702
 20
189.4341
 30
0.0
 11
116.676466
 21
148.225869
 31
0.0
  0
TEXT
  8
FF
  6
CONTINUOUS
 62
     4
  5
971
 10
136.756951
 20
190.984349
 30
0.0
 40
3.0
  1
M3.5
 41
1.30167
  0
LINE
  8
FF
  6
CONTINUOUS
  5
9A9
 10
101.405727
 20
81.736513
 30
0.0
 11
101.405727
 21
70.874336
 31
0.0
  0
TEXT
  8
FF
  5
9E5
 10
-5.968652
 20
-280.30454
 30
0.0
 40
5.0
  1
SC-5-1H/G
  0
TEXT
  8
FF
  5
9E6
 10
-5.968652
 20
-271.30454
 30
0.0
 40
5.0
  1
SC-5-1/G
  0
TEXT
  8
FF
  5
9E7
 10
-120.556349
 20
-271.30454
 30
0.0
 40
5.0
  1
Magnetic Contactor Type
  0
ARC
  8
FF
  5
9E8
 10
-131.176504
 20
-266.775774
 30
0.0
 40
3.121224
 50
1.499529
 51
100.57959
1001
ACAD
1000
ASC_BOUNDS
1002
{
1070
    19
1002
}
  0
ARC
  8
FF
  5
9E9
 10
-131.045321
 20
-268.359395
 30
0.0
 40
4.541113
 50
144.533818
 51
158.153358
  0
LINE
  8
FF
  5
9EA
 10
-138.674699
 20
-263.80454
 30
0.0
 11
-133.962599
 21
-263.80454
 31
0.0
  0
LINE
  8
FF
  5
9EB
 10
-137.580011
 20
-265.72454
 30
0.0
 11
-134.743868
 21
-265.72454
 31
0.0
  0
ARC
  8
FF
  5
9EC
 10
-132.451928
 20
-268.304553
 30
0.0
 40
3.15
 50
182.729155
 51
279.960292
1001
ACAD
1000
ASC_BOUNDS
1002
{
1070
    19
1002
}
  0
ARC
  8
FF
  5
9ED
 10
-132.323247
 20
-268.162258
 30
0.0
 40
2.816331
 50
186.002385
 51
276.412304
1001
ACAD
1000
ASC_BOUNDS
1002
{
1070
    19
1002
}
  0
LINE
  8
FF
  5
9EE
 10
-141.331349
 20
-271.30454
 30
0.0
 11
-139.958532
 21
-264.844225
 31
0.0
  0
LINE
  8
FF
  5
9EF
 10
-139.069447
 20
-271.30454
 30
0.0
 11
-138.463822
 21
-268.45454
 31
0.0
  0
LINE
  8
FF
  5
9F0
 10
-141.331349
 20
-271.30454
 30
0.0
 11
-139.069447
 21
-271.30454
 31
0.0
  0
LINE
  8
FF
  5
9F1
 10
-138.463822
 20
-268.45454
 30
0.0
 11
-135.598355
 21
-268.45454
 31
0.0
  0
ARC
  8
FF
  5
9F2
 10
-138.674699
 20
-265.11704
 30
0.0
 40
1.3125
 50
90.0
 51
168.003101
  0
LINE
  8
FF
  5
9F3
 10
-138.084509
 20
-266.66954
 30
0.0
 11
-137.946821
 21
-266.021592
 31
0.0
  0
ARC
  8
FF
  5
9F4
 10
-137.580011
 20
-266.09954
 30
0.0
 40
0.375
 50
90.0
 51
168.003101
  0
LINE
  8
FF
  5
9F5
 10
-138.084509
 20
-266.66954
 30
0.0
 11
-135.260306
 21
-266.66954
 31
0.0
  0
POLYLINE
  8
FF
  5
9F6
 66
     1
 10
0.0
 20
0.0
 30
0.0
 70
   128
  0
VERTEX
  8
FF
  5
A1B
 10
-134.952652
 20
-267.194095
 30
0.0
  0
VERTEX
  8
FF
  5
A1C
 10
-135.093889
 20
-267.836593
 30
0.0
  0
VERTEX
  8
FF
  5
A1D
 10
-135.124138
 20
-268.464046
 30
0.0
  0
SEQEND
  8
FF
  5
A1E
  0
ARC
  8
FF
  5
9F7
 10
-132.759925
 20
-266.81875
 30
0.0
 40
4.209787
 50
280.279158
 51
339.332945
1001
ACAD
1000
ASC_BOUNDS
1002
{
1070
    19
1002
}
  0
ARC
  8
FF
  5
9F8
 10
-132.627909
 20
-266.936728
 30
0.0
 40
4.52809
 50
279.159834
 51
342.417868
1001
ACAD
1000
ASC_BOUNDS
1002
{
1070
    19
1002
}
  0
LINE
  8
FF
  5
9F9
 10
-128.311349
 20
-268.30454
 30
0.0
 11
-128.821051
 21
-268.30454
 31
0.0
  0
LINE
  8
FF
  5
9FA
 10
-134.078722
 20
-267.20954
 30
0.0
 11
-128.056349
 21
-267.20954
 31
0.0
  0
LINE
  8
FF
  5
9FB
 10
-133.96419
 20
-266.66954
 30
0.0
 11
-128.532549
 21
-266.66954
 31
0.0
  0
POLYLINE
  8
FF
  5
9FC
 66
     1
 10
0.0
 20
0.0
 30
0.0
 70
   128
  0
VERTEX
  8
FF
  5
A1F
 10
-131.347603
 20
-264.152091
 30
0.0
  0
VERTEX
  8
FF
  5
A20
 10
-131.993072
 20
-264.245052
 30
0.0
  0
VERTEX
  8
FF
  5
A21
 10
-132.626887
 20
-264.470371
 30
0.0
  0
VERTEX
  8
FF
  5
A22
 10
-133.22854
 20
-264.82076
 30
0.0
  0
VERTEX
  8
FF
  5
A23
 10
-133.778566
 20
-265.284882
 30
0.0
  0
VERTEX
  8
FF
  5
A24
 10
-134.259168
 20
-265.847719
 30
0.0
  0
VERTEX
  8
FF
  5
A25
 10
-134.654796
 20
-266.491062
 30
0.0
  0
VERTEX
  8
FF
  5
A26
 10
-134.952652
 20
-267.194095
 30
0.0
  0
SEQEND
  8
FF
  5
A27
  0
LINE
  8
FF
  5
9FD
 10
-133.96419
 20
-266.66954
 30
0.0
 11
-134.078722
 21
-267.20954
 31
0.0
  0
LINE
  8
FF
  5
9FE
 10
-133.962599
 20
-263.80454
 30
0.0
 11
-134.210099
 21
-265.01
 31
0.0
  0
ARC
  8
FF
  5
9FF
 10
-131.134845
 20
-267.844743
 30
0.0
 40
4.182458
 50
98.442625
 51
137.3304
1001
ACAD
1000
ASC_BOUNDS
1002
{
1070
    19
1002
}
  0
LINE
  8
FF
  5
A00
 10
-128.056349
 20
-267.20954
 30
0.0
 11
-128.056349
 21
-266.694096
 31
0.0
  0
ARC
  8
FF
  5
A01
 10
-131.188626
 20
-266.806966
 30
0.0
 40
2.659631
 50
2.961866
 51
93.426847
  0
LINE
  8
FF
  5
A02
 10
67.64822
 20
-286.30454
 30
0.0
 11
162.64822
 21
-286.30454
 31
0.0
  0
LINE
  8
FF
  5
A03
 10
67.64822
 20
-281.30454
 30
0.0
 11
162.64822
 21
-281.30454
 31
0.0
  0
LINE
  8
FF
  5
A04
 10
67.64822
 20
-276.30454
 30
0.0
 11
162.64822
 21
-276.30454
 31
0.0
  0
LINE
  8
FF
  5
A05
 10
67.64822
 20
-271.30454
 30
0.0
 11
162.64822
 21
-271.30454
 31
0.0
  0
LINE
  8
FF
  5
A06
 10
67.64822
 20
-266.30454
 30
0.0
 11
162.64822
 21
-266.30454
 31
0.0
  0
LINE
  8
FF
  5
A07
 10
77.64822
 20
-266.30454
 30
0.0
 11
77.64822
 21
-286.30454
 31
0.0
  0
LINE
  8
FF
  5
A08
 10
67.64822
 20
-266.30454
 30
0.0
 11
67.64822
 21
-286.30454
 31
0.0
  0
TEXT
  8
FF
  6
CONTINUOUS
  5
A09
 10
70.082609
 20
-279.922606
 30
0.0
 40
2.5
  1
変更
  0
LINE
  8
FF
  5
A0A
 10
97.64822
 20
-266.30454
 30
0.0
 11
97.64822
 21
-286.30454
 31
0.0
  0
TEXT
  8
FF
  6
CONTINUOUS
  5
A0B
 10
80.675746
 20
-280.122082
 30
0.0
 40
2.5
  1
2005-12
  0
TEXT
  8
FF
  6
CONTINUOUS
  5
A0C
 10
99.353963
 20
-280.122082
 30
0.0
 40
2.5
  1
SC-5-1G
  0
TEXT
  8
FF
  6
CONTINUOUS
  5
A0D
 10
84.613221
 20
-270.123611
 30
0.0
 40
2.5
  1
日付
  0
TEXT
  8
FF
  6
CONTINUOUS
  5
A0E
 10
70.082609
 20
-275.199482
 30
0.0
 40
2.5
  1
作成
  0
TEXT
  8
FF
  6
CONTINUOUS
  5
A0F
 10
106.259747
 20
-270.123611
 30
0.0
 40
2.5
  1
ﾌｧｲﾙ名
  0
LINE
  8
FF
  5
A10
 10
162.64822
 20
-266.30454
 30
0.0
 11
162.64822
 21
-286.30454
 31
0.0
  0
LINE
  8
FF
  5
A11
 10
122.64822
 20
-266.30454
 30
0.0
 11
122.64822
 21
-286.30454
 31
0.0
  0
LINE
  8
FF
  5
A12
 10
152.64822
 20
-266.30454
 30
0.0
 11
152.64822
 21
-286.30454
 31
0.0
  0
TEXT
  8
FF
  6
CONTINUOUS
  5
A13
 10
131.319929
 20
-270.123611
 30
0.0
 40
2.5
  1
図面番号
  0
TEXT
  8
FF
  6
CONTINUOUS
  5
A14
 10
155.257198
 20
-270.123611
 30
0.0
 40
2.5
  1
変更
  0
ENDSEC
  0
EOF
