  0
SECTION
  2
HEADER
  9
$ACADVER
  1
AC1009
  9
$INSBASE
 10
0.0
 20
0.0
 30
0.0
  9
$EXTMIN
 10
66.145625
 20
8.624204
 30
0.0
  9
$EXTMAX
 10
608.06216
 20
366.404684
 30
0.0
  9
$LIMMIN
 10
53.765733
 20
27.781778
  9
$LIMMAX
 10
614.731219
 20
380.333656
  9
$ORTHOMODE
 70
     1
  9
$REGENMODE
 70
     1
  9
$FILLMODE
 70
     1
  9
$QTEXTMODE
 70
     0
  9
$MIRRTEXT
 70
     1
  9
$DRAGMODE
 70
     2
  9
$LTSCALE
 40
3.0
  9
$OSMODE
 70
     1
  9
$ATTMODE
 70
     1
  9
$TEXTSIZE
 40
2.5
  9
$TRACEWID
 40
1.0
  9
$TEXTSTYLE
  7
STANDARD
  9
$CLAYER
  8
FF
  9
$CELTYPE
  6
BYLAYER
  9
$CECOLOR
 62
   256
  9
$DIMSCALE
 40
1.0
  9
$DIMASZ
 40
7.0
  9
$DIMEXO
 40
2.3333
  9
$DIMDLI
 40
0.38
  9
$DIMRND
 40
0.0
  9
$DIMDLE
 40
0.0
  9
$DIMEXE
 40
2.3333
  9
$DIMTP
 40
0.0
  9
$DIMTM
 40
0.0
  9
$DIMTXT
 40
7.0
  9
$DIMCEN
 40
0.09
  9
$DIMTSZ
 40
0.0
  9
$DIMTOL
 70
     0
  9
$DIMLIM
 70
     0
  9
$DIMTIH
 70
     0
  9
$DIMTOH
 70
     0
  9
$DIMSE1
 70
     0
  9
$DIMSE2
 70
     0
  9
$DIMTAD
 70
     1
  9
$DIMZIN
 70
     8
  9
$DIMBLK
  1

  9
$DIMASO
 70
     1
  9
$DIMSHO
 70
     1
  9
$DIMPOST
  1

  9
$DIMAPOST
  1

  9
$DIMALT
 70
     0
  9
$DIMALTD
 70
     4
  9
$DIMALTF
 40
0.0394
  9
$DIMLFAC
 40
1.0
  9
$DIMTOFL
 70
     1
  9
$DIMTVP
 40
0.0
  9
$DIMTIX
 70
     0
  9
$DIMSOXD
 70
     0
  9
$DIMSAH
 70
     1
  9
$DIMBLK1
  1
_OPEN
  9
$DIMBLK2
  1
_OPEN
  9
$DIMSTYLE
  2
FSTD1
  9
$DIMCLRD
 70
     0
  9
$DIMCLRE
 70
     0
  9
$DIMCLRT
 70
     0
  9
$DIMTFAC
 40
1.0
  9
$DIMGAP
 40
2.3
  9
$LUNITS
 70
     2
  9
$LUPREC
 70
     4
  9
$SKETCHINC
 40
1.0
  9
$FILLETRAD
 40
10.0
  9
$AUNITS
 70
     0
  9
$AUPREC
 70
     0
  9
$MENU
  1
acad
  9
$ELEVATION
 40
0.0
  9
$PELEVATION
 40
0.0
  9
$THICKNESS
 40
0.0
  9
$LIMCHECK
 70
     0
  9
$BLIPMODE
 70
     0
  9
$CHAMFERA
 40
10.0
  9
$CHAMFERB
 40
10.0
  9
$SKPOLY
 70
     0
  9
$TDCREATE
 40
2452139.400584190
  9
$TDUPDATE
 40
2453725.731033784
  9
$TDINDWG
 40
0.0188671412
  9
$TDUSRTIMER
 40
0.0188671412
  9
$USRTIMER
 70
     1
  9
$ANGBASE
 50
0.0
  9
$ANGDIR
 70
     0
  9
$PDMODE
 70
     0
  9
$PDSIZE
 40
0.0
  9
$PLINEWID
 40
0.0
  9
$COORDS
 70
     1
  9
$SPLFRAME
 70
     0
  9
$SPLINETYPE
 70
     6
  9
$SPLINESEGS
 70
     8
  9
$ATTDIA
 70
     0
  9
$ATTREQ
 70
     1
  9
$HANDLING
 70
     1
  9
$HANDSEED
  5
18CF
  9
$SURFTAB1
 70
     6
  9
$SURFTAB2
 70
     6
  9
$SURFTYPE
 70
     6
  9
$SURFU
 70
     6
  9
$SURFV
 70
     6
  9
$UCSNAME
  2

  9
$UCSORG
 10
0.0
 20
0.0
 30
0.0
  9
$UCSXDIR
 10
1.0
 20
0.0
 30
0.0
  9
$UCSYDIR
 10
0.0
 20
1.0
 30
0.0
  9
$PUCSNAME
  2

  9
$PUCSORG
 10
0.0
 20
0.0
 30
0.0
  9
$PUCSXDIR
 10
1.0
 20
0.0
 30
0.0
  9
$PUCSYDIR
 10
0.0
 20
1.0
 30
0.0
  9
$USERI1
 70
     0
  9
$USERI2
 70
     0
  9
$USERI3
 70
     0
  9
$USERI4
 70
     0
  9
$USERI5
 70
     0
  9
$USERR1
 40
0.0
  9
$USERR2
 40
0.0
  9
$USERR3
 40
0.0
  9
$USERR4
 40
0.0
  9
$USERR5
 40
0.0
  9
$WORLDVIEW
 70
     1
  9
$SHADEDGE
 70
     3
  9
$SHADEDIF
 70
    70
  9
$TILEMODE
 70
     1
  9
$MAXACTVP
 70
    16
  9
$PINSBASE
 10
0.0
 20
0.0
 30
0.0
  9
$PLIMCHECK
 70
     0
  9
$PEXTMIN
 10
1.000000E+20
 20
1.000000E+20
 30
1.000000E+20
  9
$PEXTMAX
 10
-1.000000E+20
 20
-1.000000E+20
 30
-1.000000E+20
  9
$PLIMMIN
 10
0.0
 20
0.0
  9
$PLIMMAX
 10
420.0
 20
297.0
  9
$UNITMODE
 70
     0
  9
$VISRETAIN
 70
     1
  9
$PLINEGEN
 70
     0
  9
$PSLTSCALE
 70
     1
  9
$TREEDEPTH
 70
  3020
  9
$DWGCODEPAGE
  3
dos932
  0
ENDSEC
  0
SECTION
  2
TABLES
  0
TABLE
  2
VPORT
 70
     2
  0
VPORT
  2
*ACTIVE
 70
     0
 10
0.0
 20
0.0
 11
1.0
 21
1.0
 12
334.248476
 22
225.672102
 13
0.0
 23
0.0
 14
10.0
 24
10.0
 15
10.0
 25
10.0
 16
0.0
 26
0.0
 36
1.0
 17
0.0
 27
0.0
 37
0.0
 40
437.245552
 41
1.475202
 42
50.0
 43
0.0
 44
0.0
 50
0.0
 51
0.0
 71
     0
 72
   100
 73
     1
 74
     1
 75
     0
 76
     0
 77
     0
 78
     0
  0
ENDTAB
  0
TABLE
  2
LTYPE
 70
     3
  0
LTYPE
  2
CONTINUOUS
 70
    64
  3
Solid line
 72
    65
 73
     0
 40
0.0
  0
LTYPE
  2
CENTER
 70
    64
  3
Center ____ _ ____ _ ____ _ ____ _ ____ _ ____
 72
    65
 73
     4
 40
2.0
 49
1.25
 49
-0.25
 49
0.25
 49
-0.25
  0
LTYPE
  2
PHANTOM
 70
    64
  3
Phantom ______  __  __  ______  __  __  ______
 72
    65
 73
     6
 40
2.5
 49
1.25
 49
-0.25
 49
0.25
 49
-0.25
 49
0.25
 49
-0.25
  0
ENDTAB
  0
TABLE
  2
LAYER
 70
    15
  0
LAYER
  2
0
 70
    64
 62
     7
  6
CONTINUOUS
  0
LAYER
  2
DEFPOINTS
 70
    64
 62
     7
  6
CONTINUOUS
  0
LAYER
  2
15
 70
    64
 62
     6
  6
CONTINUOUS
  0
LAYER
  2
16
 70
    64
 62
     3
  6
CONTINUOUS
  0
LAYER
  2
17
 70
    64
 62
     2
  6
CONTINUOUS
  0
LAYER
  2
1A
 70
    64
 62
     6
  6
CENTER
  0
LAYER
  2
FF
 70
    64
 62
     4
  6
CONTINUOUS
  0
LAYER
  2
0B
 70
    64
 62
     6
  6
CONTINUOUS
  0
LAYER
  2
0C
 70
    64
 62
     3
  6
CONTINUOUS
  0
LAYER
  2
0D
 70
    64
 62
     2
  6
CONTINUOUS
  0
LAYER
  2
10
 70
    64
 62
     6
  6
CENTER
  0
LAYER
  2
34
 70
    64
 62
     3
  6
CONTINUOUS
  0
LAYER
  2
33
 70
    64
 62
     6
  6
CONTINUOUS
  0
LAYER
  2
38
 70
    64
 62
     6
  6
CENTER
  0
LAYER
  2
EE
 70
    64
 62
     4
  6
CONTINUOUS
  0
ENDTAB
  0
TABLE
  2
STYLE
 70
     1
  0
STYLE
  2
STANDARD
 70
    64
 40
0.0
 41
1.0
 50
0.0
 71
     0
 42
2.5
  3
txt.shx
  4
bigfont.shx
  0
ENDTAB
  0
TABLE
  2
VIEW
 70
     0
  0
ENDTAB
  0
TABLE
  2
UCS
 70
     0
  0
ENDTAB
  0
TABLE
  2
APPID
 70
     3
  0
APPID
  2
ACAD
 70
    64
  0
ENDTAB
  0
TABLE
  2
DIMSTYLE
 70
     4
  0
DIMSTYLE
  2
STANDARD
 70
     0
  3

  4

  5

  6
_OPEN
  7
_OPEN
 40
1.0
 41
6.0
 42
0.625
 43
3.75
 44
1.25
 45
0.0
 46
0.0
 47
0.0
 48
0.0
140
6.0
141
2.5
142
0.0
143
0.0394
144
1.0
145
0.0
146
1.0
147
2.3
 71
     0
 72
     0
 73
     0
 74
     0
 75
     0
 76
     0
 77
     1
 78
     8
170
     0
171
     4
172
     1
173
     1
174
     0
175
     0
176
     0
177
     0
178
     0
  0
DIMSTYLE
  2
FSTD3
 70
    64
  3

  4

  5

  6
_OPEN
  7
_OPEN
 40
1.0
 41
7.0
 42
2.333
 43
0.38
 44
2.333
 45
0.0
 46
0.0
 47
0.0
 48
0.0
140
7.0
141
0.09
142
0.0
143
25.4
144
1.0
145
0.0
146
1.0
147
-2.333
 71
     0
 72
     0
 73
     0
 74
     0
 75
     0
 76
     0
 77
     1
 78
     0
170
     0
171
     2
172
     1
173
     1
174
     0
175
     0
176
     0
177
     0
178
     0
  0
DIMSTYLE
  2
FSTD2
 70
    64
  3

  4

  5

  6
_OPEN
  7
_OPEN
 40
1.0
 41
7.0
 42
2.3333
 43
0.38
 44
2.3333
 45
0.0
 46
0.0
 47
0.0
 48
0.0
140
7.0
141
0.09
142
0.0
143
0.0394
144
1.0
145
0.0
146
1.0
147
2.3
 71
     0
 72
     0
 73
     0
 74
     0
 75
     0
 76
     0
 77
     1
 78
     8
170
     0
171
     4
172
     1
173
     1
174
     0
175
     0
176
     0
177
     0
178
     0
  0
DIMSTYLE
  2
FSTD1
 70
    64
  3

  4

  5

  6
_OPEN
  7
_OPEN
 40
1.0
 41
7.0
 42
2.3333
 43
0.38
 44
2.3333
 45
0.0
 46
0.0
 47
0.0
 48
0.0
140
7.0
141
0.09
142
0.0
143
0.0394
144
1.0
145
0.0
146
1.0
147
2.3
 71
     0
 72
     0
 73
     0
 74
     0
 75
     0
 76
     0
 77
     1
 78
     8
170
     0
171
     4
172
     1
173
     1
174
     0
175
     0
176
     0
177
     0
178
     0
  0
ENDTAB
  0
ENDSEC
  0
SECTION
  2
BLOCKS
  0
BLOCK
  8
0
  5
FE
  2
_OPEN
 70
    64
 10
0.0
 20
0.0
 30
0.0
  3
_OPEN
  0
LINE
  8
0
  6
BYBLOCK
 62
     0
  5
FB
 10
-1.0
 20
0.166667
 30
0.0
 11
0.0
 21
0.0
 31
0.0
  0
LINE
  8
0
  6
BYBLOCK
 62
     0
  5
FC
 10
0.0
 20
0.0
 30
0.0
 11
-1.0
 21
-0.166667
 31
0.0
  0
LINE
  8
0
  6
BYBLOCK
 62
     0
  5
FD
 10
0.0
 20
0.0
 30
0.0
 11
-1.0
 21
0.0
 31
0.0
  0
ENDBLK
  8
0
  5
FF
  0
BLOCK
  8
0
  5
16F5
  2
*D1
 70
    65
 10
0.0
 20
0.0
 30
0.0
  3
*D1
  0
LINE
  8
0
  6
BYBLOCK
 62
     0
  5
16F6
 10
369.882756
 20
254.496404
 30
0.0
 11
395.954792
 21
254.496404
 31
0.0
  0
LINE
  8
0
  6
BYBLOCK
 62
     0
  5
16F7
 10
349.270772
 20
277.536344
 30
0.0
 11
395.954792
 21
277.536344
 31
0.0
  0
LINE
  8
0
  6
BYBLOCK
 62
     0
  5
16F8
 10
393.621492
 20
261.496404
 30
0.0
 11
393.621492
 21
270.536344
 31
0.0
  0
INSERT
  8
0
  6
BYBLOCK
 62
     0
  5
16F9
  2
_OPEN
 10
393.621492
 20
254.496404
 30
0.0
 41
7.0
 42
7.0
 50
270.0
 43
7.0
  0
INSERT
  8
0
  6
BYBLOCK
 62
     0
  5
16FA
  2
_OPEN
 10
393.621492
 20
277.536344
 30
0.0
 41
7.0
 42
7.0
 50
90.0
 43
7.0
  0
TEXT
  8
0
  6
BYBLOCK
 62
     0
  5
16FB
 10
391.321492
 20
260.183041
 30
0.0
 40
7.0
  1
23
 50
90.0
  0
POINT
  8
DEFPOINTS
  6
BYBLOCK
 62
     0
  5
16FC
 10
367.549456
 20
254.496404
 30
0.0
  0
POINT
  8
DEFPOINTS
  6
BYBLOCK
 62
     0
  5
16FD
 10
346.937472
 20
277.536344
 30
0.0
  0
POINT
  8
DEFPOINTS
  6
BYBLOCK
 62
     0
  5
16FE
 10
393.621492
 20
277.536344
 30
0.0
  0
ENDBLK
  8
0
  5
16FF
  0
BLOCK
  8
0
  5
16B4
  2
*D2
 70
    65
 10
0.0
 20
0.0
 30
0.0
  3
*D2
  0
LINE
  8
0
  6
BYBLOCK
 62
     0
  5
16B5
 10
111.874246
 20
269.547979
 30
0.0
 11
111.874246
 21
301.504675
 31
0.0
  0
LINE
  8
0
  6
BYBLOCK
 62
     0
  5
16B6
 10
120.551626
 20
269.795904
 30
0.0
 11
120.551626
 21
301.504675
 31
0.0
  0
LINE
  8
0
  6
BYBLOCK
 62
     0
  5
16B7
 10
104.874246
 20
299.171375
 30
0.0
 11
97.874246
 21
299.171375
 31
0.0
  0
LINE
  8
0
  6
BYBLOCK
 62
     0
  5
16B8
 10
127.551626
 20
299.171375
 30
0.0
 11
153.151626
 21
299.171375
 31
0.0
  0
LINE
  8
0
  6
BYBLOCK
 62
     0
  5
16B9
 10
111.874246
 20
299.171375
 30
0.0
 11
120.551626
 21
299.171375
 31
0.0
  0
INSERT
  8
0
  6
BYBLOCK
 62
     0
  5
16BA
  2
_OPEN
 10
111.874246
 20
299.171375
 30
0.0
 41
7.0
 42
7.0
 43
7.0
  0
INSERT
  8
0
  6
BYBLOCK
 62
     0
  5
16BB
  2
_OPEN
 10
120.551626
 20
299.171375
 30
0.0
 41
7.0
 42
7.0
 50
180.0
 43
7.0
  0
TEXT
  8
0
  6
BYBLOCK
 62
     0
  5
16BC
 10
136.851626
 20
301.471375
 30
0.0
 40
7.0
  1
8.5
  0
POINT
  8
DEFPOINTS
  6
BYBLOCK
 62
     0
  5
16BD
 10
111.874246
 20
267.214679
 30
0.0
  0
POINT
  8
DEFPOINTS
  6
BYBLOCK
 62
     0
  5
16BE
 10
120.551626
 20
267.462604
 30
0.0
  0
POINT
  8
DEFPOINTS
  6
BYBLOCK
 62
     0
  5
16BF
 10
120.551626
 20
299.171375
 30
0.0
  0
ENDBLK
  8
0
  5
16C0
  0
BLOCK
  8
0
  5
1716
  2
*D3
 70
    65
 10
0.0
 20
0.0
 30
0.0
  3
*D3
  0
LINE
  8
0
  6
BYBLOCK
 62
     0
  5
1717
 10
316.209619
 20
257.488604
 30
0.0
 11
293.750166
 21
257.488604
 31
0.0
  0
LINE
  8
0
  6
BYBLOCK
 62
     0
  5
1718
 10
337.522632
 20
277.536344
 30
0.0
 11
293.750166
 21
277.536344
 31
0.0
  0
LINE
  8
0
  6
BYBLOCK
 62
     0
  5
1719
 10
296.083466
 20
264.488604
 30
0.0
 11
296.083466
 21
270.536344
 31
0.0
  0
INSERT
  8
0
  6
BYBLOCK
 62
     0
  5
171A
  2
_OPEN
 10
296.083466
 20
257.488604
 30
0.0
 41
7.0
 42
7.0
 50
270.0
 43
7.0
  0
INSERT
  8
0
  6
BYBLOCK
 62
     0
  5
171B
  2
_OPEN
 10
296.083466
 20
277.536344
 30
0.0
 41
7.0
 42
7.0
 50
90.0
 43
7.0
  0
TEXT
  8
0
  6
BYBLOCK
 62
     0
  5
171C
 10
293.783466
 20
262.262474
 30
0.0
 40
7.0
  1
20
 50
90.0
  0
POINT
  8
DEFPOINTS
  6
BYBLOCK
 62
     0
  5
171D
 10
318.542919
 20
257.488604
 30
0.0
  0
POINT
  8
DEFPOINTS
  6
BYBLOCK
 62
     0
  5
171E
 10
339.855932
 20
277.536344
 30
0.0
  0
POINT
  8
DEFPOINTS
  6
BYBLOCK
 62
     0
  5
171F
 10
296.083466
 20
277.536344
 30
0.0
  0
ENDBLK
  8
0
  5
1720
  0
BLOCK
  8
0
  5
172E
  2
*D4
 70
    65
 10
0.0
 20
0.0
 30
0.0
  3
*D4
  0
LINE
  8
0
  6
BYBLOCK
 62
     0
  5
172F
 10
338.160352
 20
201.392595
 30
0.0
 11
338.160352
 21
138.109392
 31
0.0
  0
LINE
  8
0
  6
BYBLOCK
 62
     0
  5
1730
 10
325.194153
 20
201.426791
 30
0.0
 11
325.194153
 21
138.109392
 31
0.0
  0
LINE
  8
0
  6
BYBLOCK
 62
     0
  5
1731
 10
345.160352
 20
140.442692
 30
0.0
 11
352.160352
 21
140.442692
 31
0.0
  0
LINE
  8
0
  6
BYBLOCK
 62
     0
  5
1732
 10
318.194153
 20
140.442692
 30
0.0
 11
297.260819
 21
140.442692
 31
0.0
  0
LINE
  8
0
  6
BYBLOCK
 62
     0
  5
1733
 10
338.160352
 20
140.442692
 30
0.0
 11
325.194153
 21
140.442692
 31
0.0
  0
INSERT
  8
0
  6
BYBLOCK
 62
     0
  5
1734
  2
_OPEN
 10
338.160352
 20
140.442692
 30
0.0
 41
7.0
 42
7.0
 50
180.0
 43
7.0
  0
INSERT
  8
0
  6
BYBLOCK
 62
     0
  5
1735
  2
_OPEN
 10
325.194153
 20
140.442692
 30
0.0
 41
7.0
 42
7.0
 43
7.0
  0
TEXT
  8
0
  6
BYBLOCK
 62
     0
  5
1736
 10
299.560819
 20
142.742692
 30
0.0
 40
7.0
  1
13
  0
POINT
  8
DEFPOINTS
  6
BYBLOCK
 62
     0
  5
1737
 10
338.160352
 20
203.725895
 30
0.0
  0
POINT
  8
DEFPOINTS
  6
BYBLOCK
 62
     0
  5
1738
 10
325.194153
 20
203.760091
 30
0.0
  0
POINT
  8
DEFPOINTS
  6
BYBLOCK
 62
     0
  5
1739
 10
325.194153
 20
140.442692
 30
0.0
  0
ENDBLK
  8
0
  5
173A
  0
BLOCK
  8
0
  5
16C1
  2
*D5
 70
    65
 10
0.0
 20
0.0
 30
0.0
  3
*D5
  0
LINE
  8
0
  6
BYBLOCK
 62
     0
  5
16C2
 10
343.047612
 20
195.610524
 30
0.0
 11
343.047612
 21
180.638126
 31
0.0
  0
LINE
  8
0
  6
BYBLOCK
 62
     0
  5
16C3
 10
333.273093
 20
195.610524
 30
0.0
 11
333.273093
 21
180.638126
 31
0.0
  0
LINE
  8
0
  6
BYBLOCK
 62
     0
  5
16C4
 10
350.047612
 20
182.971426
 30
0.0
 11
357.047612
 21
182.971426
 31
0.0
  0
LINE
  8
0
  6
BYBLOCK
 62
     0
  5
16C5
 10
326.273093
 20
182.971426
 30
0.0
 11
300.673093
 21
182.971426
 31
0.0
  0
LINE
  8
0
  6
BYBLOCK
 62
     0
  5
16C6
 10
343.047612
 20
182.971426
 30
0.0
 11
333.273093
 21
182.971426
 31
0.0
  0
INSERT
  8
0
  6
BYBLOCK
 62
     0
  5
16C7
  2
_OPEN
 10
343.047612
 20
182.971426
 30
0.0
 41
7.0
 42
7.0
 50
180.0
 43
7.0
  0
INSERT
  8
0
  6
BYBLOCK
 62
     0
  5
16C8
  2
_OPEN
 10
333.273093
 20
182.971426
 30
0.0
 41
7.0
 42
7.0
 43
7.0
  0
TEXT
  8
0
  6
BYBLOCK
 62
     0
  5
16C9
 10
302.973093
 20
185.271426
 30
0.0
 40
7.0
  1
9.7
  0
POINT
  8
DEFPOINTS
  6
BYBLOCK
 62
     0
  5
16CA
 10
343.047612
 20
197.943824
 30
0.0
  0
POINT
  8
DEFPOINTS
  6
BYBLOCK
 62
     0
  5
16CB
 10
333.273093
 20
197.943824
 30
0.0
  0
POINT
  8
DEFPOINTS
  6
BYBLOCK
 62
     0
  5
16CC
 10
333.273093
 20
182.971426
 30
0.0
  0
ENDBLK
  8
0
  5
16CD
  0
BLOCK
  8
0
  5
16CE
  2
*D6
 70
    65
 10
0.0
 20
0.0
 30
0.0
  3
*D6
  0
LINE
  8
0
  6
BYBLOCK
 62
     0
  5
16CF
 10
471.872412
 20
258.984704
 30
0.0
 11
450.633492
 21
258.984704
 31
0.0
  0
LINE
  8
0
  6
BYBLOCK
 62
     0
  5
16D0
 10
489.127432
 20
277.336864
 30
0.0
 11
450.633492
 21
277.336864
 31
0.0
  0
LINE
  8
0
  6
BYBLOCK
 62
     0
  5
16D1
 10
452.966792
 20
251.984704
 30
0.0
 11
452.966792
 21
244.984704
 31
0.0
  0
LINE
  8
0
  6
BYBLOCK
 62
     0
  5
16D2
 10
452.966792
 20
284.336864
 30
0.0
 11
452.966792
 21
354.503531
 31
0.0
  0
LINE
  8
0
  6
BYBLOCK
 62
     0
  5
16D3
 10
452.966792
 20
258.984704
 30
0.0
 11
452.966792
 21
277.336864
 31
0.0
  0
INSERT
  8
0
  6
BYBLOCK
 62
     0
  5
16D4
  2
_OPEN
 10
452.966792
 20
258.984704
 30
0.0
 41
7.0
 42
7.0
 50
90.0
 43
7.0
  0
INSERT
  8
0
  6
BYBLOCK
 62
     0
  5
16D5
  2
_OPEN
 10
452.966792
 20
277.336864
 30
0.0
 41
7.0
 42
7.0
 50
270.0
 43
7.0
  0
TEXT
  8
0
  6
BYBLOCK
 62
     0
  5
16D6
 10
450.666792
 20
293.636864
 30
0.0
 40
7.0
  1
18.5(～20.5)
 50
90.0
  0
POINT
  8
DEFPOINTS
  6
BYBLOCK
 62
     0
  5
16D7
 10
474.205712
 20
258.984704
 30
0.0
  0
POINT
  8
DEFPOINTS
  6
BYBLOCK
 62
     0
  5
16D8
 10
491.460732
 20
277.336864
 30
0.0
  0
POINT
  8
DEFPOINTS
  6
BYBLOCK
 62
     0
  5
16D9
 10
452.966792
 20
277.336864
 30
0.0
  0
ENDBLK
  8
0
  5
16DA
  0
BLOCK
  8
0
  5
177F
  2
*D7
 70
    65
 10
0.0
 20
0.0
 30
0.0
  3
*D7
  0
LINE
  8
0
  6
BYBLOCK
 62
     0
  5
1780
 10
111.874246
 20
270.474136
 30
0.0
 11
111.874246
 21
314.002403
 31
0.0
  0
LINE
  8
0
  6
BYBLOCK
 62
     0
  5
1781
 10
199.894796
 20
266.233761
 30
0.0
 11
199.894796
 21
314.002403
 31
0.0
  0
LINE
  8
0
  6
BYBLOCK
 62
     0
  5
1782
 10
118.874246
 20
311.669103
 30
0.0
 11
192.894796
 21
311.669103
 31
0.0
  0
INSERT
  8
0
  6
BYBLOCK
 62
     0
  5
1783
  2
_OPEN
 10
111.874246
 20
311.669103
 30
0.0
 41
7.0
 42
7.0
 50
180.0
 43
7.0
  0
INSERT
  8
0
  6
BYBLOCK
 62
     0
  5
1784
  2
_OPEN
 10
199.894796
 20
311.669103
 30
0.0
 41
7.0
 42
7.0
 43
7.0
  0
TEXT
  8
0
  6
BYBLOCK
 62
     0
  5
1785
 10
150.051188
 20
313.969103
 30
0.0
 40
7.0
  1
88
  0
POINT
  8
DEFPOINTS
  6
BYBLOCK
 62
     0
  5
1786
 10
111.874246
 20
268.140836
 30
0.0
  0
POINT
  8
DEFPOINTS
  6
BYBLOCK
 62
     0
  5
1787
 10
199.894796
 20
263.900461
 30
0.0
  0
POINT
  8
DEFPOINTS
  6
BYBLOCK
 62
     0
  5
1788
 10
199.894796
 20
311.669103
 30
0.0
  0
ENDBLK
  8
0
  5
1789
  0
BLOCK
  8
0
  5
16DB
  2
*D8
 70
    65
 10
0.0
 20
0.0
 30
0.0
  3
*D8
  0
LINE
  8
0
  6
BYBLOCK
 62
     0
  5
16DC
 10
519.54405
 20
262.974304
 30
0.0
 11
546.998864
 21
262.974304
 31
0.0
  0
LINE
  8
0
  6
BYBLOCK
 62
     0
  5
16DD
 10
502.371672
 20
277.536344
 30
0.0
 11
546.998864
 21
277.536344
 31
0.0
  0
LINE
  8
0
  6
BYBLOCK
 62
     0
  5
16DE
 10
544.665564
 20
255.974304
 30
0.0
 11
544.665564
 21
248.974304
 31
0.0
  0
LINE
  8
0
  6
BYBLOCK
 62
     0
  5
16DF
 10
544.665564
 20
284.536344
 30
0.0
 11
544.665564
 21
314.803011
 31
0.0
  0
LINE
  8
0
  6
BYBLOCK
 62
     0
  5
16E0
 10
544.665564
 20
262.974304
 30
0.0
 11
544.665564
 21
277.536344
 31
0.0
  0
INSERT
  8
0
  6
BYBLOCK
 62
     0
  5
16E1
  2
_OPEN
 10
544.665564
 20
262.974304
 30
0.0
 41
7.0
 42
7.0
 50
90.0
 43
7.0
  0
INSERT
  8
0
  6
BYBLOCK
 62
     0
  5
16E2
  2
_OPEN
 10
544.665564
 20
277.536344
 30
0.0
 41
7.0
 42
7.0
 50
270.0
 43
7.0
  0
TEXT
  8
0
  6
BYBLOCK
 62
     0
  5
16E3
 10
542.365564
 20
293.836344
 30
0.0
 40
7.0
  1
14.5
 50
90.0
  0
POINT
  8
DEFPOINTS
  6
BYBLOCK
 62
     0
  5
16E4
 10
517.21075
 20
262.974304
 30
0.0
  0
POINT
  8
DEFPOINTS
  6
BYBLOCK
 62
     0
  5
16E5
 10
500.038372
 20
277.536344
 30
0.0
  0
POINT
  8
DEFPOINTS
  6
BYBLOCK
 62
     0
  5
16E6
 10
544.665564
 20
277.536344
 30
0.0
  0
ENDBLK
  8
0
  5
16E7
  0
BLOCK
  8
0
  5
16E8
  2
*D9
 70
    65
 10
0.0
 20
0.0
 30
0.0
  3
*D9
  0
LINE
  8
0
  6
BYBLOCK
 62
     0
  5
16E9
 10
359.105752
 20
197.605324
 30
0.0
 11
359.105752
 21
168.753071
 31
0.0
  0
LINE
  8
0
  6
BYBLOCK
 62
     0
  5
16EA
 10
366.885472
 20
201.594924
 30
0.0
 11
366.885472
 21
168.753071
 31
0.0
  0
LINE
  8
0
  6
BYBLOCK
 62
     0
  5
16EB
 10
352.105752
 20
171.086371
 30
0.0
 11
345.105752
 21
171.086371
 31
0.0
  0
LINE
  8
0
  6
BYBLOCK
 62
     0
  5
16EC
 10
373.885472
 20
171.086371
 30
0.0
 11
399.485472
 21
171.086371
 31
0.0
  0
LINE
  8
0
  6
BYBLOCK
 62
     0
  5
16ED
 10
359.105752
 20
171.086371
 30
0.0
 11
366.885472
 21
171.086371
 31
0.0
  0
INSERT
  8
0
  6
BYBLOCK
 62
     0
  5
16EE
  2
_OPEN
 10
359.105752
 20
171.086371
 30
0.0
 41
7.0
 42
7.0
 43
7.0
  0
INSERT
  8
0
  6
BYBLOCK
 62
     0
  5
16EF
  2
_OPEN
 10
366.885472
 20
171.086371
 30
0.0
 41
7.0
 42
7.0
 50
180.0
 43
7.0
  0
TEXT
  8
0
  6
BYBLOCK
 62
     0
  5
16F0
 10
383.185472
 20
173.386371
 30
0.0
 40
7.0
  1
7.7
  0
POINT
  8
DEFPOINTS
  6
BYBLOCK
 62
     0
  5
16F1
 10
359.105752
 20
199.938624
 30
0.0
  0
POINT
  8
DEFPOINTS
  6
BYBLOCK
 62
     0
  5
16F2
 10
366.885472
 20
203.928224
 30
0.0
  0
POINT
  8
DEFPOINTS
  6
BYBLOCK
 62
     0
  5
16F3
 10
366.885472
 20
171.086371
 30
0.0
  0
ENDBLK
  8
0
  5
16F4
  0
BLOCK
  8
0
  5
1700
  2
*D10
 70
    65
 10
0.0
 20
0.0
 30
0.0
  3
*D10
  0
LINE
  8
0
  6
BYBLOCK
 62
     0
  5
1701
 10
370.381456
 20
254.496404
 30
0.0
 11
395.954792
 21
254.496404
 31
0.0
  0
LINE
  8
0
  6
BYBLOCK
 62
     0
  5
1702
 10
371.358908
 20
211.608204
 30
0.0
 11
395.954792
 21
211.608204
 31
0.0
  0
LINE
  8
0
  6
BYBLOCK
 62
     0
  5
1703
 10
393.621492
 20
247.496404
 30
0.0
 11
393.621492
 21
218.608204
 31
0.0
  0
INSERT
  8
0
  6
BYBLOCK
 62
     0
  5
1704
  2
_OPEN
 10
393.621492
 20
254.496404
 30
0.0
 41
7.0
 42
7.0
 50
90.0
 43
7.0
  0
INSERT
  8
0
  6
BYBLOCK
 62
     0
  5
1705
  2
_OPEN
 10
393.621492
 20
211.608204
 30
0.0
 41
7.0
 42
7.0
 50
270.0
 43
7.0
  0
TEXT
  8
0
  6
BYBLOCK
 62
     0
  5
1706
 10
391.321492
 20
227.218971
 30
0.0
 40
7.0
  1
43
 50
90.0
  0
POINT
  8
DEFPOINTS
  6
BYBLOCK
 62
     0
  5
1707
 10
368.048156
 20
254.496404
 30
0.0
  0
POINT
  8
DEFPOINTS
  6
BYBLOCK
 62
     0
  5
1708
 10
369.025608
 20
211.608204
 30
0.0
  0
POINT
  8
DEFPOINTS
  6
BYBLOCK
 62
     0
  5
1709
 10
393.621492
 20
211.608204
 30
0.0
  0
ENDBLK
  8
0
  5
170A
  0
BLOCK
  8
0
  5
170B
  2
*D11
 70
    65
 10
0.0
 20
0.0
 30
0.0
  3
*D11
  0
LINE
  8
0
  6
BYBLOCK
 62
     0
  5
170C
 10
315.50289
 20
208.616004
 30
0.0
 11
294.249436
 21
208.616004
 31
0.0
  0
LINE
  8
0
  6
BYBLOCK
 62
     0
  5
170D
 10
316.209619
 20
257.488604
 30
0.0
 11
294.249436
 21
257.488604
 31
0.0
  0
LINE
  8
0
  6
BYBLOCK
 62
     0
  5
170E
 10
296.582736
 20
215.616004
 30
0.0
 11
296.582736
 21
250.488604
 31
0.0
  0
INSERT
  8
0
  6
BYBLOCK
 62
     0
  5
170F
  2
_OPEN
 10
296.582736
 20
208.616004
 30
0.0
 41
7.0
 42
7.0
 50
270.0
 43
7.0
  0
INSERT
  8
0
  6
BYBLOCK
 62
     0
  5
1710
  2
_OPEN
 10
296.582736
 20
257.488604
 30
0.0
 41
7.0
 42
7.0
 50
90.0
 43
7.0
  0
TEXT
  8
0
  6
BYBLOCK
 62
     0
  5
1711
 10
294.282736
 20
227.218971
 30
0.0
 40
7.0
  1
49
 50
90.0
  0
POINT
  8
DEFPOINTS
  6
BYBLOCK
 62
     0
  5
1712
 10
317.83619
 20
208.616004
 30
0.0
  0
POINT
  8
DEFPOINTS
  6
BYBLOCK
 62
     0
  5
1713
 10
318.542919
 20
257.488604
 30
0.0
  0
POINT
  8
DEFPOINTS
  6
BYBLOCK
 62
     0
  5
1714
 10
296.582736
 20
257.488604
 30
0.0
  0
ENDBLK
  8
0
  5
1715
  0
BLOCK
  8
0
  5
1748
  2
*D12
 70
    65
 10
0.0
 20
0.0
 30
0.0
  3
*D12
  0
LINE
  8
0
  6
BYBLOCK
 62
     0
  5
1749
 10
220.092146
 20
248.052584
 30
0.0
 11
220.092146
 21
325.841443
 31
0.0
  0
LINE
  8
0
  6
BYBLOCK
 62
     0
  5
174A
 10
247.321166
 20
237.879104
 30
0.0
 11
247.321166
 21
325.841443
 31
0.0
  0
LINE
  8
0
  6
BYBLOCK
 62
     0
  5
174B
 10
227.092146
 20
323.508143
 30
0.0
 11
240.321166
 21
323.508143
 31
0.0
  0
INSERT
  8
0
  6
BYBLOCK
 62
     0
  5
174C
  2
_OPEN
 10
220.092146
 20
323.508143
 30
0.0
 41
7.0
 42
7.0
 50
180.0
 43
7.0
  0
INSERT
  8
0
  6
BYBLOCK
 62
     0
  5
174D
  2
_OPEN
 10
247.321166
 20
323.508143
 30
0.0
 41
7.0
 42
7.0
 43
7.0
  0
TEXT
  8
0
  6
BYBLOCK
 62
     0
  5
174E
 10
227.873323
 20
325.808143
 30
0.0
 40
7.0
  1
28
  0
POINT
  8
DEFPOINTS
  6
BYBLOCK
 62
     0
  5
174F
 10
220.092146
 20
245.719284
 30
0.0
  0
POINT
  8
DEFPOINTS
  6
BYBLOCK
 62
     0
  5
1750
 10
247.321166
 20
235.545804
 30
0.0
  0
POINT
  8
DEFPOINTS
  6
BYBLOCK
 62
     0
  5
1751
 10
247.321166
 20
323.508143
 30
0.0
  0
ENDBLK
  8
0
  5
1752
  0
BLOCK
  8
0
  5
1753
  2
*D13
 70
    65
 10
0.0
 20
0.0
 30
0.0
  3
*D13
  0
LINE
  8
0
  6
BYBLOCK
 62
     0
  5
1754
 10
349.769472
 20
277.536344
 30
0.0
 11
406.3477
 21
277.536344
 31
0.0
  0
LINE
  8
0
  6
BYBLOCK
 62
     0
  5
1755
 10
353.459852
 20
196.598759
 30
0.0
 11
406.3477
 21
196.598759
 31
0.0
  0
LINE
  8
0
  6
BYBLOCK
 62
     0
  5
1756
 10
404.0144
 20
270.536344
 30
0.0
 11
404.0144
 21
203.598759
 31
0.0
  0
INSERT
  8
0
  6
BYBLOCK
 62
     0
  5
1757
  2
_OPEN
 10
404.0144
 20
277.536344
 30
0.0
 41
7.0
 42
7.0
 50
90.0
 43
7.0
  0
INSERT
  8
0
  6
BYBLOCK
 62
     0
  5
1758
  2
_OPEN
 10
404.0144
 20
196.598759
 30
0.0
 41
7.0
 42
7.0
 50
270.0
 43
7.0
  0
TEXT
  8
0
  6
BYBLOCK
 62
     0
  5
1759
 10
401.7144
 20
232.400885
 30
0.0
 40
7.0
  1
81
 50
90.0
  0
POINT
  8
DEFPOINTS
  6
BYBLOCK
 62
     0
  5
175A
 10
347.436172
 20
277.536344
 30
0.0
  0
POINT
  8
DEFPOINTS
  6
BYBLOCK
 62
     0
  5
175B
 10
351.126552
 20
196.598759
 30
0.0
  0
POINT
  8
DEFPOINTS
  6
BYBLOCK
 62
     0
  5
175C
 10
404.0144
 20
196.598759
 30
0.0
  0
ENDBLK
  8
0
  5
175D
  0
BLOCK
  8
0
  5
175E
  2
*D14
 70
    65
 10
0.0
 20
0.0
 30
0.0
  3
*D14
  0
LINE
  8
0
  6
BYBLOCK
 62
     0
  5
175F
 10
317.214953
 20
269.425441
 30
0.0
 11
317.214953
 21
329.414777
 31
0.0
  0
LINE
  8
0
  6
BYBLOCK
 62
     0
  5
1760
 10
370.077152
 20
265.435841
 30
0.0
 11
370.077152
 21
329.414777
 31
0.0
  0
LINE
  8
0
  6
BYBLOCK
 62
     0
  5
1761
 10
324.214953
 20
327.081477
 30
0.0
 11
363.077152
 21
327.081477
 31
0.0
  0
INSERT
  8
0
  6
BYBLOCK
 62
     0
  5
1762
  2
_OPEN
 10
317.214953
 20
327.081477
 30
0.0
 41
7.0
 42
7.0
 50
180.0
 43
7.0
  0
INSERT
  8
0
  6
BYBLOCK
 62
     0
  5
1763
  2
_OPEN
 10
370.077152
 20
327.081477
 30
0.0
 41
7.0
 42
7.0
 43
7.0
  0
TEXT
  8
0
  6
BYBLOCK
 62
     0
  5
1764
 10
337.812719
 20
329.381477
 30
0.0
 40
7.0
  1
53
  0
POINT
  8
DEFPOINTS
  6
BYBLOCK
 62
     0
  5
1765
 10
317.214953
 20
267.092141
 30
0.0
  0
POINT
  8
DEFPOINTS
  6
BYBLOCK
 62
     0
  5
1766
 10
370.077152
 20
263.102541
 30
0.0
  0
POINT
  8
DEFPOINTS
  6
BYBLOCK
 62
     0
  5
1767
 10
370.077152
 20
327.081477
 30
0.0
  0
ENDBLK
  8
0
  5
1768
  0
BLOCK
  8
0
  5
1769
  2
*D15
 70
    65
 10
0.0
 20
0.0
 30
0.0
  3
*D15
  0
LINE
  8
0
  6
BYBLOCK
 62
     0
  5
176A
 10
111.874246
 20
270.474136
 30
0.0
 11
111.874246
 21
325.841443
 31
0.0
  0
LINE
  8
0
  6
BYBLOCK
 62
     0
  5
176B
 10
220.092146
 20
248.978741
 30
0.0
 11
220.092146
 21
325.841443
 31
0.0
  0
LINE
  8
0
  6
BYBLOCK
 62
     0
  5
176C
 10
118.874246
 20
323.508143
 30
0.0
 11
213.092146
 21
323.508143
 31
0.0
  0
INSERT
  8
0
  6
BYBLOCK
 62
     0
  5
176D
  2
_OPEN
 10
111.874246
 20
323.508143
 30
0.0
 41
7.0
 42
7.0
 50
180.0
 43
7.0
  0
INSERT
  8
0
  6
BYBLOCK
 62
     0
  5
176E
  2
_OPEN
 10
220.092146
 20
323.508143
 30
0.0
 41
7.0
 42
7.0
 43
7.0
  0
TEXT
  8
0
  6
BYBLOCK
 62
     0
  5
176F
 10
158.399863
 20
325.808143
 30
0.0
 40
7.0
  1
108
  0
POINT
  8
DEFPOINTS
  6
BYBLOCK
 62
     0
  5
1770
 10
111.874246
 20
268.140836
 30
0.0
  0
POINT
  8
DEFPOINTS
  6
BYBLOCK
 62
     0
  5
1771
 10
220.092146
 20
246.645441
 30
0.0
  0
POINT
  8
DEFPOINTS
  6
BYBLOCK
 62
     0
  5
1772
 10
220.092146
 20
323.508143
 30
0.0
  0
ENDBLK
  8
0
  5
1773
  0
BLOCK
  8
0
  5
1774
  2
*D16
 70
    65
 10
0.0
 20
0.0
 30
0.0
  3
*D16
  0
LINE
  8
0
  6
BYBLOCK
 62
     0
  5
1775
 10
101.700766
 20
250.275361
 30
0.0
 11
101.700766
 21
339.259022
 31
0.0
  0
LINE
  8
0
  6
BYBLOCK
 62
     0
  5
1776
 10
220.092146
 20
248.978741
 30
0.0
 11
220.092146
 21
339.259022
 31
0.0
  0
LINE
  8
0
  6
BYBLOCK
 62
     0
  5
1777
 10
108.700766
 20
336.925722
 30
0.0
 11
213.092146
 21
336.925722
 31
0.0
  0
INSERT
  8
0
  6
BYBLOCK
 62
     0
  5
1778
  2
_OPEN
 10
101.700766
 20
336.925722
 30
0.0
 41
7.0
 42
7.0
 50
180.0
 43
7.0
  0
INSERT
  8
0
  6
BYBLOCK
 62
     0
  5
1779
  2
_OPEN
 10
220.092146
 20
336.925722
 30
0.0
 41
7.0
 42
7.0
 43
7.0
  0
TEXT
  8
0
  6
BYBLOCK
 62
     0
  5
177A
 10
153.896456
 20
339.225722
 30
0.0
 40
7.0
  1
118
  0
POINT
  8
DEFPOINTS
  6
BYBLOCK
 62
     0
  5
177B
 10
101.700766
 20
247.942061
 30
0.0
  0
POINT
  8
DEFPOINTS
  6
BYBLOCK
 62
     0
  5
177C
 10
220.092146
 20
246.645441
 30
0.0
  0
POINT
  8
DEFPOINTS
  6
BYBLOCK
 62
     0
  5
177D
 10
220.092146
 20
336.925722
 30
0.0
  0
ENDBLK
  8
0
  5
177E
  0
BLOCK
  8
0
  5
178A
  2
*D17
 70
    65
 10
0.0
 20
0.0
 30
0.0
  3
*D17
  0
LINE
  8
0
  6
BYBLOCK
 62
     0
  5
178B
 10
304.778799
 20
266.894895
 30
0.0
 11
304.778799
 21
341.42135
 31
0.0
  0
LINE
  8
0
  6
BYBLOCK
 62
     0
  5
178C
 10
382.433514
 20
266.894895
 30
0.0
 11
382.433514
 21
341.42135
 31
0.0
  0
LINE
  8
0
  6
BYBLOCK
 62
     0
  5
178D
 10
311.778799
 20
339.08805
 30
0.0
 11
375.433514
 21
339.08805
 31
0.0
  0
INSERT
  8
0
  6
BYBLOCK
 62
     0
  5
178E
  2
_OPEN
 10
304.778799
 20
339.08805
 30
0.0
 41
7.0
 42
7.0
 50
180.0
 43
7.0
  0
INSERT
  8
0
  6
BYBLOCK
 62
     0
  5
178F
  2
_OPEN
 10
382.433514
 20
339.08805
 30
0.0
 41
7.0
 42
7.0
 43
7.0
  0
TEXT
  8
0
  6
BYBLOCK
 62
     0
  5
1790
 10
337.772823
 20
341.38805
 30
0.0
 40
7.0
  1
78
  0
POINT
  8
DEFPOINTS
  6
BYBLOCK
 62
     0
  5
1791
 10
304.778799
 20
264.561595
 30
0.0
  0
POINT
  8
DEFPOINTS
  6
BYBLOCK
 62
     0
  5
1792
 10
382.433514
 20
264.561595
 30
0.0
  0
POINT
  8
DEFPOINTS
  6
BYBLOCK
 62
     0
  5
1793
 10
382.433514
 20
339.08805
 30
0.0
  0
ENDBLK
  8
0
  5
1794
  0
BLOCK
  8
0
  5
1721
  2
*D18
 70
    65
 10
0.0
 20
0.0
 30
0.0
  3
*D18
  0
LINE
  8
0
  6
BYBLOCK
 62
     0
  5
1722
 10
325.194153
 20
201.426791
 30
0.0
 11
325.194153
 21
168.469846
 31
0.0
  0
LINE
  8
0
  6
BYBLOCK
 62
     0
  5
1723
 10
317.214953
 20
197.605324
 30
0.0
 11
317.214953
 21
168.469846
 31
0.0
  0
LINE
  8
0
  6
BYBLOCK
 62
     0
  5
1724
 10
332.194153
 20
170.803146
 30
0.0
 11
339.194153
 21
170.803146
 31
0.0
  0
LINE
  8
0
  6
BYBLOCK
 62
     0
  5
1725
 10
310.214953
 20
170.803146
 30
0.0
 11
293.948286
 21
170.803146
 31
0.0
  0
LINE
  8
0
  6
BYBLOCK
 62
     0
  5
1726
 10
325.194153
 20
170.803146
 30
0.0
 11
317.214953
 21
170.803146
 31
0.0
  0
INSERT
  8
0
  6
BYBLOCK
 62
     0
  5
1727
  2
_OPEN
 10
325.194153
 20
170.803146
 30
0.0
 41
7.0
 42
7.0
 50
180.0
 43
7.0
  0
INSERT
  8
0
  6
BYBLOCK
 62
     0
  5
1728
  2
_OPEN
 10
317.214953
 20
170.803146
 30
0.0
 41
7.0
 42
7.0
 43
7.0
  0
TEXT
  8
0
  6
BYBLOCK
 62
     0
  5
1729
 10
296.248286
 20
173.103146
 30
0.0
 40
7.0
  1
8
  0
POINT
  8
DEFPOINTS
  6
BYBLOCK
 62
     0
  5
172A
 10
325.194153
 20
203.760091
 30
0.0
  0
POINT
  8
DEFPOINTS
  6
BYBLOCK
 62
     0
  5
172B
 10
317.214953
 20
199.938624
 30
0.0
  0
POINT
  8
DEFPOINTS
  6
BYBLOCK
 62
     0
  5
172C
 10
317.214953
 20
170.803146
 30
0.0
  0
ENDBLK
  8
0
  5
172D
  0
BLOCK
  8
0
  5
162A
  2
*D19
 70
    65
 10
0.0
 20
0.0
 30
0.0
  3
*D19
  0
LINE
  8
0
  6
BYBLOCK
 62
     0
  5
162B
 10
508.340224
 20
207.119904
 30
0.0
 11
450.633792
 21
207.119904
 31
0.0
  0
LINE
  8
0
  6
BYBLOCK
 62
     0
  5
162C
 10
474.361284
 20
258.984704
 30
0.0
 11
450.633792
 21
258.984704
 31
0.0
  0
LINE
  8
0
  6
BYBLOCK
 62
     0
  5
162D
 10
452.966792
 20
214.119904
 30
0.0
 11
452.966792
 21
251.984704
 31
0.0
  0
INSERT
  8
0
  6
BYBLOCK
 62
     0
  5
162E
  2
_OPEN
 10
452.966792
 20
207.119904
 30
0.0
 41
7.0
 42
7.0
 50
270.0
 43
7.0
  0
INSERT
  8
0
  6
BYBLOCK
 62
     0
  5
162F
  2
_OPEN
 10
452.966792
 20
258.984704
 30
0.0
 41
7.0
 42
7.0
 50
90.0
 43
7.0
  0
TEXT
  8
0
  6
BYBLOCK
 62
     0
  5
1630
 10
448.300792
 20
211.352304
 30
0.0
 40
7.0
  1
(48)～52
 50
90.0
  0
LINE
  8
0
  6
BYBLOCK
 62
     0
  5
1631
 10
450.633792
 20
209.019304
 30
0.0
 11
450.633792
 21
257.085304
 31
0.0
  0
LINE
  8
0
  6
BYBLOCK
 62
     0
  5
1632
 10
450.633792
 20
257.085304
 30
0.0
 11
438.967792
 21
257.085304
 31
0.0
  0
LINE
  8
0
  6
BYBLOCK
 62
     0
  5
1633
 10
438.967792
 20
257.085304
 30
0.0
 11
438.967792
 21
209.019304
 31
0.0
  0
LINE
  8
0
  6
BYBLOCK
 62
     0
  5
1634
 10
438.967792
 20
209.019304
 30
0.0
 11
450.633792
 21
209.019304
 31
0.0
  0
POINT
  8
DEFPOINTS
  6
BYBLOCK
 62
     0
  5
1635
 10
510.673224
 20
207.119904
 30
0.0
  0
POINT
  8
DEFPOINTS
  6
BYBLOCK
 62
     0
  5
1636
 10
476.694284
 20
258.984704
 30
0.0
  0
POINT
  8
DEFPOINTS
  6
BYBLOCK
 62
     0
  5
1637
 10
452.966792
 20
258.984704
 30
0.0
  0
ENDBLK
  8
0
  5
1638
  0
BLOCK
  8
0
  5
169E
  2
*D20
 70
    65
 10
0.0
 20
0.0
 30
0.0
  3
*D20
  0
LINE
  8
0
  6
BYBLOCK
 62
     0
  5
169F
 10
479.292452
 20
197.890596
 30
0.0
 11
479.292452
 21
173.245089
 31
0.0
  0
LINE
  8
0
  6
BYBLOCK
 62
     0
  5
16A0
 10
513.702752
 20
202.247809
 30
0.0
 11
513.702752
 21
173.245089
 31
0.0
  0
LINE
  8
0
  6
BYBLOCK
 62
     0
  5
16A1
 10
486.292452
 20
175.578089
 30
0.0
 11
506.702752
 21
175.578089
 31
0.0
  0
INSERT
  8
0
  6
BYBLOCK
 62
     0
  5
16A2
  2
_OPEN
 10
479.292452
 20
175.578089
 30
0.0
 41
7.0
 42
7.0
 50
180.0
 43
7.0
  0
INSERT
  8
0
  6
BYBLOCK
 62
     0
  5
16A3
  2
_OPEN
 10
513.702752
 20
175.578089
 30
0.0
 41
7.0
 42
7.0
 43
7.0
  0
TEXT
  8
0
  6
BYBLOCK
 62
     0
  5
16A4
 10
490.664269
 20
180.244089
 30
0.0
 40
7.0
  1
35
  0
LINE
  8
0
  6
BYBLOCK
 62
     0
  5
16A5
 10
488.331269
 20
177.911089
 30
0.0
 11
504.663935
 21
177.911089
 31
0.0
  0
LINE
  8
0
  6
BYBLOCK
 62
     0
  5
16A6
 10
504.663935
 20
177.911089
 30
0.0
 11
504.663935
 21
189.577089
 31
0.0
  0
LINE
  8
0
  6
BYBLOCK
 62
     0
  5
16A7
 10
504.663935
 20
189.577089
 30
0.0
 11
488.331269
 21
189.577089
 31
0.0
  0
LINE
  8
0
  6
BYBLOCK
 62
     0
  5
16A8
 10
488.331269
 20
189.577089
 30
0.0
 11
488.331269
 21
177.911089
 31
0.0
  0
POINT
  8
DEFPOINTS
  6
BYBLOCK
 62
     0
  5
16A9
 10
479.292452
 20
200.223596
 30
0.0
  0
POINT
  8
DEFPOINTS
  6
BYBLOCK
 62
     0
  5
16AA
 10
513.702752
 20
204.580809
 30
0.0
  0
POINT
  8
DEFPOINTS
  6
BYBLOCK
 62
     0
  5
16AB
 10
513.702752
 20
175.578089
 30
0.0
  0
ENDBLK
  8
0
  5
16AC
  0
BLOCK
  8
0
  5
168F
  2
*D21
 70
    65
 10
0.0
 20
0.0
 30
0.0
  3
*D21
  0
LINE
  8
0
  6
BYBLOCK
 62
     0
  5
1690
 10
519.54375
 20
262.974304
 30
0.0
 11
546.998564
 21
262.974304
 31
0.0
  0
LINE
  8
0
  6
BYBLOCK
 62
     0
  5
1691
 10
484.646149
 20
203.130304
 30
0.0
 11
546.998564
 21
203.130304
 31
0.0
  0
LINE
  8
0
  6
BYBLOCK
 62
     0
  5
1692
 10
544.665564
 20
255.974304
 30
0.0
 11
544.665564
 21
210.130304
 31
0.0
  0
INSERT
  8
0
  6
BYBLOCK
 62
     0
  5
1693
  2
_OPEN
 10
544.665564
 20
262.974304
 30
0.0
 41
7.0
 42
7.0
 50
90.0
 43
7.0
  0
INSERT
  8
0
  6
BYBLOCK
 62
     0
  5
1694
  2
_OPEN
 10
544.665564
 20
203.130304
 30
0.0
 41
7.0
 42
7.0
 50
270.0
 43
7.0
  0
TEXT
  8
0
  6
BYBLOCK
 62
     0
  5
1695
 10
539.999564
 20
227.802304
 30
0.0
 40
7.0
  1
60
 50
90.0
  0
LINE
  8
0
  6
BYBLOCK
 62
     0
  5
1696
 10
542.332564
 20
225.469304
 30
0.0
 11
542.332564
 21
240.635304
 31
0.0
  0
LINE
  8
0
  6
BYBLOCK
 62
     0
  5
1697
 10
542.332564
 20
240.635304
 30
0.0
 11
530.666564
 21
240.635304
 31
0.0
  0
LINE
  8
0
  6
BYBLOCK
 62
     0
  5
1698
 10
530.666564
 20
240.635304
 30
0.0
 11
530.666564
 21
225.469304
 31
0.0
  0
LINE
  8
0
  6
BYBLOCK
 62
     0
  5
1699
 10
530.666564
 20
225.469304
 30
0.0
 11
542.332564
 21
225.469304
 31
0.0
  0
POINT
  8
DEFPOINTS
  6
BYBLOCK
 62
     0
  5
169A
 10
517.21075
 20
262.974304
 30
0.0
  0
POINT
  8
DEFPOINTS
  6
BYBLOCK
 62
     0
  5
169B
 10
482.313149
 20
203.130304
 30
0.0
  0
POINT
  8
DEFPOINTS
  6
BYBLOCK
 62
     0
  5
169C
 10
544.665564
 20
203.130304
 30
0.0
  0
ENDBLK
  8
0
  5
169D
  0
BLOCK
  8
0
  5
1673
  2
*D22
 70
    65
 10
0.0
 20
0.0
 30
0.0
  3
*D22
  0
LINE
  8
0
  6
BYBLOCK
 62
     0
  5
1674
 10
479.791152
 20
264.449338
 30
0.0
 11
479.791152
 21
292.785873
 31
0.0
  0
LINE
  8
0
  6
BYBLOCK
 62
     0
  5
1675
 10
514.201452
 20
268.225412
 30
0.0
 11
514.201452
 21
292.785873
 31
0.0
  0
LINE
  8
0
  6
BYBLOCK
 62
     0
  5
1676
 10
486.791152
 20
290.452873
 30
0.0
 11
507.201452
 21
290.452873
 31
0.0
  0
INSERT
  8
0
  6
BYBLOCK
 62
     0
  5
1677
  2
_OPEN
 10
479.791152
 20
290.452873
 30
0.0
 41
7.0
 42
7.0
 50
180.0
 43
7.0
  0
INSERT
  8
0
  6
BYBLOCK
 62
     0
  5
1678
  2
_OPEN
 10
514.201452
 20
290.452873
 30
0.0
 41
7.0
 42
7.0
 43
7.0
  0
TEXT
  8
0
  6
BYBLOCK
 62
     0
  5
1679
 10
491.162969
 20
295.118873
 30
0.0
 40
7.0
  1
34
  0
LINE
  8
0
  6
BYBLOCK
 62
     0
  5
167A
 10
488.829969
 20
292.785873
 30
0.0
 11
505.162635
 21
292.785873
 31
0.0
  0
LINE
  8
0
  6
BYBLOCK
 62
     0
  5
167B
 10
505.162635
 20
292.785873
 30
0.0
 11
505.162635
 21
304.451873
 31
0.0
  0
LINE
  8
0
  6
BYBLOCK
 62
     0
  5
167C
 10
505.162635
 20
304.451873
 30
0.0
 11
488.829969
 21
304.451873
 31
0.0
  0
LINE
  8
0
  6
BYBLOCK
 62
     0
  5
167D
 10
488.829969
 20
304.451873
 30
0.0
 11
488.829969
 21
292.785873
 31
0.0
  0
POINT
  8
DEFPOINTS
  6
BYBLOCK
 62
     0
  5
167E
 10
479.791152
 20
262.116338
 30
0.0
  0
POINT
  8
DEFPOINTS
  6
BYBLOCK
 62
     0
  5
167F
 10
514.201452
 20
265.892412
 30
0.0
  0
POINT
  8
DEFPOINTS
  6
BYBLOCK
 62
     0
  5
1680
 10
514.201452
 20
290.452873
 30
0.0
  0
ENDBLK
  8
0
  5
1681
  0
BLOCK
  8
0
  5
17A9
  2
*D23
 70
    65
 10
0.0
 20
0.0
 30
0.0
  3
*D23
  0
LINE
  8
0
  6
BYBLOCK
 62
     0
  5
17AA
 10
338.160352
 20
194.265459
 30
0.0
 11
338.160352
 21
152.225443
 31
0.0
  0
LINE
  8
0
  6
BYBLOCK
 62
     0
  5
17AB
 10
351.126552
 20
194.764159
 30
0.0
 11
351.126552
 21
152.225443
 31
0.0
  0
LINE
  8
0
  6
BYBLOCK
 62
     0
  5
17AC
 10
331.160352
 20
154.558743
 30
0.0
 11
324.160352
 21
154.558743
 31
0.0
  0
LINE
  8
0
  6
BYBLOCK
 62
     0
  5
17AD
 10
358.126552
 20
154.558743
 30
0.0
 11
379.059886
 21
154.558743
 31
0.0
  0
LINE
  8
0
  6
BYBLOCK
 62
     0
  5
17AE
 10
338.160352
 20
154.558743
 30
0.0
 11
351.126552
 21
154.558743
 31
0.0
  0
INSERT
  8
0
  6
BYBLOCK
 62
     0
  5
17AF
  2
_OPEN
 10
338.160352
 20
154.558743
 30
0.0
 41
7.0
 42
7.0
 43
7.0
  0
INSERT
  8
0
  6
BYBLOCK
 62
     0
  5
17B0
  2
_OPEN
 10
351.126552
 20
154.558743
 30
0.0
 41
7.0
 42
7.0
 50
180.0
 43
7.0
  0
TEXT
  8
0
  6
BYBLOCK
 62
     0
  5
17B1
 10
367.426552
 20
156.858743
 30
0.0
 40
7.0
  1
13
  0
POINT
  8
DEFPOINTS
  6
BYBLOCK
 62
     0
  5
17B2
 10
338.160352
 20
196.598759
 30
0.0
  0
POINT
  8
DEFPOINTS
  6
BYBLOCK
 62
     0
  5
17B3
 10
351.126552
 20
197.097459
 30
0.0
  0
POINT
  8
DEFPOINTS
  6
BYBLOCK
 62
     0
  5
17B4
 10
351.126552
 20
154.558743
 30
0.0
  0
ENDBLK
  8
0
  5
17B5
  0
ENDSEC
  0
SECTION
  2
ENTITIES
  0
TEXT
  8
EE
  5
475
 10
78.381491
 20
125.325577
 30
0.0
 40
8.549143
  1
〔ＮＯＴＥ〕
 41
0.555556
  0
TEXT
  8
FF
  5
476
 10
99.04192
 20
102.527863
 30
0.0
 40
8.549143
  1
補助接点ユニット（ヘッドオン）を取り付けた場合
 41
0.833333
  0
TEXT
  8
FF
  5
477
 10
99.04192
 20
79.730149
 30
0.0
 40
8.549143
  1
補助接点ユニット（サイドオン）を取り付けた場合
 41
0.833333
  0
TEXT
  8
EE
  5
478
 10
85.505777
 20
114.496663
 30
0.0
 40
8.549143
  1
※１　Ａｕｘｉｌｉａｒｙ　ｃｏｎｔａｃｔ　ｂｌｏｃｋ，Ｆｒｏｎｔ　ｍｏｕｎｔｅｄ　（Ｉｆ　Ｕｓｅｄ）
 41
0.486111
  0
TEXT
  8
EE
  5
479
 10
85.505777
 20
91.698949
 30
0.0
 40
8.549143
  1
※２　Ａｕｘｉｌｉａｒｙ　ｃｏｎｔａｃｔ　ｂｌｏｃｋ，Ｓｉｄｅ　ｍｏｕｎｔｅｄ　（Ｉｆ　Ｕｓｅｄ）
 41
0.486111
  0
DIMENSION
  8
FF
  6
CONTINUOUS
  5
498
  2
*D19
 10
452.966792
 20
258.984704
 30
0.0
 11
444.800792
 21
233.052304
 31
0.0
  1
(48)～52
 13
510.673224
 23
207.119904
 33
0.0
 14
476.694284
 24
258.984704
 34
0.0
 50
90.0
  3
FSTD3
  0
LINE
  8
38
  6
CONTINUOUS
  5
499
 10
516.851228
 20
207.119904
 30
0.0
 11
510.673224
 21
207.119904
 31
0.0
  0
DIMENSION
  8
FF
  6
CONTINUOUS
  5
49A
  2
*D20
 10
513.702752
 20
175.578089
 30
0.0
 11
496.497602
 21
183.744089
 31
0.0
  1
35
 13
479.292452
 23
200.223596
 33
0.0
 14
513.702752
 24
204.580809
 34
0.0
  3
FSTD3
  0
DIMENSION
  8
FF
  6
CONTINUOUS
  5
49B
  2
*D21
 10
544.665564
 20
203.130304
 30
0.0
 11
536.499564
 21
233.052304
 31
0.0
  1
60
 13
517.21075
 23
262.974304
 33
0.0
 14
482.313149
 24
203.130304
 34
0.0
 50
90.0
  3
FSTD3
  0
DIMENSION
  8
FF
  6
CONTINUOUS
  5
49C
  2
*D22
 10
514.201452
 20
290.452873
 30
0.0
 11
496.996302
 21
298.618873
 31
0.0
  1
34
 13
479.791152
 23
262.116338
 33
0.0
 14
514.201452
 24
265.892412
 34
0.0
  3
FSTD3
  0
DIMENSION
  8
FF
  6
CONTINUOUS
  5
49D
  2
*D1
 10
393.621492
 20
277.536344
 30
0.0
 11
387.821492
 21
266.016374
 31
0.0
  1
23
 13
367.549456
 23
254.496404
 33
0.0
 14
346.937472
 24
277.536344
 34
0.0
 50
90.0
  3
FSTD1
  0
LINE
  8
0B
  6
CONTINUOUS
  5
49E
 10
366.885472
 20
259.184184
 30
0.0
 11
366.885472
 21
262.176384
 31
0.0
  0
LINE
  8
0C
  6
CONTINUOUS
  5
49F
 10
365.588852
 20
259.184184
 30
0.0
 11
359.205492
 21
259.184184
 31
0.0
  0
LINE
  8
0C
  6
CONTINUOUS
  5
4A0
 10
358.54597
 20
266.66469
 30
0.0
 11
358.706792
 21
266.664684
 31
0.0
  0
LINE
  8
0C
  6
CONTINUOUS
  5
4A1
 10
356.512512
 20
266.664684
 30
0.0
 11
357.558358
 21
266.664684
 31
0.0
  0
LINE
  8
0B
  6
CONTINUOUS
  5
4A2
 10
355.016412
 20
275.541544
 30
0.0
 11
355.016412
 21
276.040244
 31
0.0
  0
LINE
  8
0B
  6
CONTINUOUS
  5
4A3
 10
347.236692
 20
275.541544
 30
0.0
 11
347.236692
 21
277.237124
 31
0.0
  0
LINE
  8
0C
  6
CONTINUOUS
  5
4A4
 10
345.241892
 20
268.160784
 30
0.0
 11
345.740592
 21
268.160784
 31
0.0
  0
LINE
  8
0B
  6
CONTINUOUS
  5
4A5
 10
343.047612
 20
267.063644
 30
0.0
 11
343.047612
 21
267.662084
 31
0.0
  0
LINE
  8
0B
  6
CONTINUOUS
  5
4A6
 10
342.050212
 20
267.063644
 30
0.0
 11
343.047612
 21
267.063644
 31
0.0
  0
LINE
  8
0B
  6
CONTINUOUS
  5
4A7
 10
340.055412
 20
275.541544
 30
0.0
 11
340.055412
 21
277.237124
 31
0.0
  0
LINE
  8
0B
  6
CONTINUOUS
  5
4A8
 10
332.275693
 20
275.541544
 30
0.0
 11
332.275693
 21
276.040244
 31
0.0
  0
LINE
  8
0C
  6
CONTINUOUS
  5
4A9
 10
329.730898
 20
263.572744
 30
0.0
 11
329.730898
 21
262.475607
 31
0.0
  0
LINE
  8
0C
  6
CONTINUOUS
  5
4AA
 10
330.081413
 20
263.572744
 30
0.0
 11
329.730898
 21
263.572744
 31
0.0
  0
LINE
  8
0C
  6
CONTINUOUS
  5
4AB
 10
323.75004
 20
262.475607
 30
0.0
 11
330.081413
 21
262.475607
 31
0.0
  0
LINE
  8
0C
  6
CONTINUOUS
  5
4AC
 10
320.306893
 20
262.475604
 30
0.0
 11
320.306893
 21
252.002904
 31
0.0
  0
LINE
  8
0C
  6
CONTINUOUS
  5
4AD
 10
365.085718
 20
206.920449
 30
0.0
 11
359.105752
 21
206.920449
 31
0.0
  0
LINE
  8
0C
  6
CONTINUOUS
  5
4AE
 10
366.885472
 20
206.920424
 30
0.0
 11
366.885472
 21
215.099104
 31
0.0
  0
LINE
  8
0C
  6
CONTINUOUS
  5
4AF
 10
349.131752
 20
198.442524
 30
0.0
 11
351.625252
 21
198.442524
 31
0.0
  0
LINE
  8
0B
  6
CONTINUOUS
  5
4B0
 10
348.134352
 20
198.442524
 30
0.0
 11
349.131752
 21
198.442524
 31
0.0
  0
LINE
  8
0C
  6
CONTINUOUS
  5
4B1
 10
339.157752
 20
198.442524
 30
0.0
 11
343.047612
 21
198.442524
 31
0.0
  0
LINE
  8
0B
  6
CONTINUOUS
  5
4B2
 10
338.160352
 20
198.442524
 30
0.0
 11
339.157752
 21
198.442524
 31
0.0
  0
LINE
  8
0B
  6
CONTINUOUS
  5
4B3
 10
333.620758
 20
199.838884
 30
0.0
 11
335.168152
 21
199.838884
 31
0.0
  0
LINE
  8
0B
  6
CONTINUOUS
  5
4B4
 10
333.271649
 20
199.919309
 30
0.0
 11
333.273093
 21
198.442524
 31
0.0
  0
LINE
  8
0B
  6
CONTINUOUS
  5
4B5
 10
335.666852
 20
198.442524
 30
0.0
 11
336.165552
 21
198.442524
 31
0.0
  0
LINE
  8
0C
  6
CONTINUOUS
  5
4B6
 10
330.08139
 20
200.891109
 30
0.0
 11
330.081413
 21
214.101704
 31
0.0
  0
LINE
  8
0C
  6
CONTINUOUS
  5
4B7
 10
320.306893
 20
203.629004
 30
0.0
 11
320.306893
 21
214.101704
 31
0.0
  0
LINE
  8
15
  6
CONTINUOUS
  5
4B8
 10
192.101968
 20
199.439924
 30
0.0
 11
193.566151
 21
199.439924
 31
0.0
  0
LINE
  8
16
  6
CONTINUOUS
  5
4B9
 10
116.661766
 20
215.897024
 30
0.0
 11
116.661766
 21
215.398324
 31
0.0
  0
LINE
  8
16
  6
CONTINUOUS
  5
4BA
 10
118.157866
 20
197.943824
 30
0.0
 11
118.157866
 21
198.642004
 31
0.0
  0
LINE
  8
15
  6
CONTINUOUS
  5
4BB
 10
115.614496
 20
250.706284
 30
0.0
 11
116.661766
 21
250.706284
 31
0.0
  0
LINE
  8
16
  6
CONTINUOUS
  5
4BC
 10
120.551626
 20
263.572744
 30
0.0
 11
120.551626
 21
252.501604
 31
0.0
  0
ARC
  8
15
  5
4BD
 10
192.101968
 20
264.171184
 30
0.0
 40
2.4935
 50
90.0
 51
131.539137
  0
LINE
  8
15
  6
CONTINUOUS
  5
4BE
 10
192.101968
 20
266.664684
 30
0.0
 11
193.566151
 21
266.664684
 31
0.0
  0
LINE
  8
15
  6
CONTINUOUS
  5
4BF
 10
214.756056
 20
249.509404
 30
0.0
 11
214.756056
 21
245.519804
 31
0.0
  0
LINE
  8
15
  6
CONTINUOUS
  5
4C0
 10
214.756056
 20
216.595204
 30
0.0
 11
214.756056
 21
220.584804
 31
0.0
  0
LINE
  8
15
  6
CONTINUOUS
  5
4C1
 10
112.173466
 20
266.963904
 30
0.0
 11
112.173466
 21
266.715979
 31
0.0
  0
LINE
  8
15
  6
CONTINUOUS
  5
4C2
 10
112.173466
 20
253.399264
 30
0.0
 11
112.173466
 21
250.706284
 31
0.0
  0
TEXT
  8
FF
  5
4C3
 10
484.8038
 20
349.306398
 30
0.0
 40
8.549143
  1
取付穴寸法図
 41
0.833333
  0
TEXT
  8
EE
  5
4C4
 10
470.555228
 20
357.855541
 30
0.0
 40
8.549143
  1
PANEL DRILLING
 41
0.734908
  0
TEXT
  8
FF
  5
4C5
 10
377.426566
 20
113.937097
 30
0.0
 40
8.549143
  1
１　３４Ｘ（４８～）５２：Ｃｏｍｐａｔｉｂｌｅ　ｗｉｔｈ　ｗｉｔｈ　ｔｈｏｓｅ　ｏｆ　ＳＲＣ　ｔｙｐｅ
 41
0.416667
  0
TEXT
  8
FF
  5
4C6
 10
431.571137
 20
79.740526
 30
0.0
 40
8.549143
  1
ＩＥＣ用取付穴
 41
0.833333
  0
TEXT
  8
EE
  5
4C7
 10
423.851261
 20
137.886096
 30
0.0
 40
8.549143
  1
diagonal line to mount a contactor.
 41
0.726313
  0
TEXT
  8
EE
  5
4C8
 10
416.726975
 20
160.113867
 30
0.0
 40
8.549143
  1
〔ＮＯＴＥ〕
 41
0.555556
  0
TEXT
  8
FF
  5
4C9
 10
423.851261
 20
126.487239
 30
0.0
 40
8.549143
  1
対角線の取付穴２カ所で取付けて下さい。
 41
0.833333
  0
TEXT
  8
EE
  5
4CA
 10
423.851261
 20
149.284953
 30
0.0
 40
8.549143
  1
Use the two mounting holes on a
 41
0.70638
  0
TEXT
  8
FF
  5
4CB
 10
431.571137
 20
102.53824
 30
0.0
 40
7.124286
  1
ＳＲＣシリーズとと互換性有り
 41
0.833333
  0
TEXT
  8
FF
  5
4CC
 10
377.426566
 20
91.139383
 30
0.0
 40
8.549143
  1
2 35X60      :Conform to IEC standards
 41
0.625824
  0
CIRCLE
  8
FF
  5
4CD
 10
379.706337
 20
117.926697
 30
0.0
 40
4.274571
  0
CIRCLE
  8
FF
  5
4CE
 10
379.706337
 20
95.128983
 30
0.0
 40
4.274571
  0
DIMENSION
  8
FF
  5
4CF
  2
*D10
 10
393.621492
 20
211.608204
 30
0.0
 11
387.821492
 21
233.052304
 31
0.0
  1
43
 13
368.048156
 23
254.496404
 33
0.0
 14
369.025608
 24
211.608204
 34
0.0
 50
270.0
  3
FSTD1
  0
DIMENSION
  8
FF
  5
4D0
  2
*D2
 10
120.551626
 20
299.171375
 30
0.0
 11
143.851626
 21
304.971375
 31
0.0
  1
8.5
 13
111.874246
 23
267.214679
 33
0.0
 14
120.551626
 24
267.462604
 34
0.0
  3
FSTD2
  0
DIMENSION
  8
FF
  5
4D1
  2
*D11
 10
296.582736
 20
257.488604
 30
0.0
 11
290.782736
 21
233.052304
 31
0.0
  1
49
 13
317.83619
 23
208.616004
 33
0.0
 14
318.542919
 24
257.488604
 34
0.0
 50
90.0
  3
FSTD1
  0
DIMENSION
  8
FF
  5
4D2
  2
*D3
 10
296.083466
 20
277.536344
 30
0.0
 11
290.283466
 21
267.512474
 31
0.0
  1
20
 13
318.542919
 23
257.488604
 33
0.0
 14
339.855932
 24
277.536344
 34
0.0
 50
90.0
  3
FSTD1
  0
DIMENSION
  8
FF
  5
4D3
  2
*D18
 10
317.214953
 20
170.803146
 30
0.0
 11
298.581619
 21
176.603146
 31
0.0
  1
8
 13
325.194153
 23
203.760091
 33
0.0
 14
317.214953
 24
199.938624
 34
0.0
 50
180.0
  3
FSTD1
  0
DIMENSION
  8
FF
  5
4D4
  2
*D4
 10
325.194153
 20
140.442692
 30
0.0
 11
304.227486
 21
146.242692
 31
0.0
  1
13
 13
338.160352
 23
203.725895
 33
0.0
 14
325.194153
 24
203.760091
 34
0.0
 50
180.0
  3
FSTD1
  0
DIMENSION
  8
FF
  5
4D6
  2
*D5
 10
333.273093
 20
182.971426
 30
0.0
 11
309.973093
 21
188.771426
 31
0.0
  1
9.7
 13
343.047612
 23
197.943824
 33
0.0
 14
333.273093
 24
197.943824
 34
0.0
 50
180.0
  3
FSTD2
  0
DIMENSION
  8
FF
  5
4D8
  2
*D12
 10
247.321166
 20
323.508143
 30
0.0
 11
233.706656
 21
329.308143
 31
0.0
  1
28
 13
220.092146
 23
245.719284
 33
0.0
 14
247.321166
 24
235.545804
 34
0.0
  3
FSTD1
  0
DIMENSION
  8
FF
  5
4D9
  2
*D13
 10
404.0144
 20
196.598759
 30
0.0
 11
398.2144
 21
237.067552
 31
0.0
  1
81
 13
347.436172
 23
277.536344
 33
0.0
 14
351.126552
 24
196.598759
 34
0.0
 50
270.0
  3
FSTD1
  0
DIMENSION
  8
FF
  5
4DA
  2
*D14
 10
370.077152
 20
327.081477
 30
0.0
 11
343.646052
 21
332.881477
 31
0.0
  1
53
 13
317.214953
 23
267.092141
 33
0.0
 14
370.077152
 24
263.102541
 34
0.0
  3
FSTD1
  0
DIMENSION
  8
FF
  5
4DB
  2
*D6
 10
452.966792
 20
277.336864
 30
0.0
 11
447.166792
 21
322.920198
 31
0.0
  1
18.5(～20.5)
 13
474.205712
 23
258.984704
 33
0.0
 14
491.460732
 24
277.336864
 34
0.0
 50
90.0
  3
FSTD2
  0
DIMENSION
  8
FF
  5
4DC
  2
*D15
 10
220.092146
 20
323.508143
 30
0.0
 11
165.983196
 21
329.308143
 31
0.0
  1
108
 13
111.874246
 23
268.140836
 33
0.0
 14
220.092146
 24
246.645441
 34
0.0
  3
FSTD1
  0
DIMENSION
  8
FF
  5
4DD
  2
*D16
 10
220.092146
 20
336.925722
 30
0.0
 11
160.896456
 21
342.725722
 31
0.0
  1
118
 13
101.700766
 23
247.942061
 33
0.0
 14
220.092146
 24
246.645441
 34
0.0
  3
FSTD1
  0
DIMENSION
  8
FF
  5
4DE
  2
*D7
 10
199.894796
 20
311.669103
 30
0.0
 11
155.884521
 21
317.469103
 31
0.0
  1
88
 13
111.874246
 23
268.140836
 33
0.0
 14
199.894796
 24
263.900461
 34
0.0
  3
FSTD1
  0
DIMENSION
  8
FF
  5
4DF
  2
*D17
 10
382.433514
 20
339.08805
 30
0.0
 11
343.606156
 21
344.88805
 31
0.0
  1
78
 13
304.778799
 23
264.561595
 33
0.0
 14
382.433514
 24
264.561595
 34
0.0
  3
FSTD1
  0
TEXT
  8
FF
  5
4E0
 10
398.565746
 20
293.400704
 30
0.0
 40
6.9818
  1
補助端子
 41
0.6
  0
TEXT
  8
FF
  5
4E1
 10
335.467372
 20
293.047339
 30
0.0
 40
6.9818
  1
コイル端子
 41
0.6
  0
TEXT
  8
EE
  5
4E2
 10
335.467372
 20
301.026539
 30
0.0
 40
6.9818
  1
TERMINAL
 41
0.597572
  0
TEXT
  8
EE
  5
4E3
 10
335.467372
 20
309.005739
 30
0.0
 40
6.9818
  1
COIL
 41
0.626223
  0
TEXT
  8
EE
  5
4E4
 10
398.565746
 20
309.359104
 30
0.0
 40
6.9818
  1
AUX.
 41
0.690548
  0
TEXT
  8
EE
  5
4E5
 10
398.565746
 20
301.379904
 30
0.0
 40
6.9818
  1
TERMINAL
 41
0.597572
  0
TEXT
  8
FF
  5
4E6
 10
233.606916
 20
337.320357
 30
0.0
 40
6.9818
  1
※１
 41
0.833333
  0
TEXT
  8
FF
  5
4E7
 10
237.345456
 20
178.651259
 30
0.0
 40
6.9818
  1
※１
 41
0.833333
  0
TEXT
  8
EE
  5
4E8
 10
120.915535
 20
356.694736
 30
0.0
 40
5.9844
  1
(MOUNTING TRACK HEIGHT:15)
 41
0.657705
  0
TEXT
  8
FF
  5
4E9
 10
120.41598
 20
348.712687
 30
0.0
 40
5.9844
  1
（レール高さ１５の場合）
 41
0.625
  0
TEXT
  8
FF
  5
4EA
 10
398.565746
 20
285.421504
 30
0.0
 40
6.9818
  1
M3.5
 41
0.6
  0
TEXT
  8
FF
  5
4EB
 10
335.467372
 20
285.068139
 30
0.0
 40
6.9818
  1
M3.5
 41
0.6
  0
TEXT
  8
FF
  5
4EC
 10
259.595008
 20
284.911405
 30
0.0
 40
6.9818
  1
M4
 41
0.6
  0
TEXT
  8
EE
  5
4ED
 10
255.626649
 20
300.869805
 30
0.0
 40
6.9818
  1
TERMINAL
 41
0.597572
  0
TEXT
  8
EE
  5
4EE
 10
255.626649
 20
308.849005
 30
0.0
 40
6.9818
  1
MAIN
 41
0.626223
  0
TEXT
  8
FF
  5
4EF
 10
258.556141
 20
292.890605
 30
0.0
 40
6.9818
  1
主端子
 41
0.6
  0
TEXT
  8
FF
  5
4F2
 10
481.102021
 20
217.142349
 30
0.0
 40
4.987
  1
2
  0
TEXT
  8
FF
  5
4F3
 10
488.89029
 20
243.898317
 30
0.0
 40
4.987
  1
1
 41
1.538462
  0
TEXT
  8
FF
  5
4F4
 10
412.181681
 20
174.590416
 30
0.0
 40
6.9818
  1
２ーＭ４
 41
0.833333
  0
TEXT
  8
EE
  5
4F5
 10
412.181681
 20
190.548816
 30
0.0
 40
6.9818
  1
MOUNTING HOLE
 41
0.616479
  0
TEXT
  8
FF
  5
4F6
 10
412.181681
 20
182.569616
 30
0.0
 40
6.9818
  1
取付穴
 41
0.833333
  0
TEXT
  8
FF
  5
4F7
 10
349.174498
 20
351.197407
 30
0.0
 40
6.9818
  1
※２
 41
0.833333
  0
ARC
  8
17
  6
PHANTOM
  5
4F8
 10
224.929536
 20
252.216633
 30
0.0
 40
1.9948
 50
150.0
 51
180.0
  0
ARC
  8
17
  6
PHANTOM
  5
4F9
 10
226.419652
 20
254.761428
 30
0.0
 40
1.9948
 50
103.0
 51
150.0
  0
ARC
  8
17
  6
PHANTOM
  5
4FA
 10
238.776013
 20
255.394064
 30
0.0
 40
1.9948
 50
29.9999
 51
90.0
  0
ARC
  8
17
  6
PHANTOM
  5
4FB
 10
240.588716
 20
252.216633
 30
0.0
 40
1.9948
 50
0.0
 51
29.9999
  0
ARC
  8
17
  6
PHANTOM
  5
4FC
 10
244.877536
 20
241.780979
 30
0.0
 40
0.29922
 50
0.0
 51
90.0
  0
ARC
  8
17
  6
PHANTOM
  5
4FD
 10
244.877536
 20
224.326479
 30
0.0
 40
0.29922
 50
270.0
 51
0.0
  0
ARC
  8
17
  6
PHANTOM
  5
4FE
 10
221.438636
 20
215.498064
 30
0.0
 40
0.4987
 50
90.0
 51
180.0
  0
ARC
  8
17
  6
PHANTOM
  5
4FF
 10
224.951479
 20
213.887976
 30
0.0
 40
1.9948
 50
180.0
 51
210.0
  0
ARC
  8
17
  6
PHANTOM
  5
500
 10
226.419652
 20
211.346031
 30
0.0
 40
1.9948
 50
210.0
 51
257.0
  0
ARC
  8
17
  6
PHANTOM
  5
501
 10
238.776013
 20
210.710544
 30
0.0
 40
1.9948
 50
270.0
 51
330.0
  0
ARC
  8
17
  6
PHANTOM
  5
502
 10
240.610659
 20
213.887976
 30
0.0
 40
1.9948
 50
330.0
 51
0.0
  0
ARC
  8
16
  5
503
 10
177.453296
 20
244.747532
 30
0.0
 40
1.19688
 50
0.0
 51
90.0
  0
ARC
  8
16
  5
504
 10
177.453296
 20
221.357077
 30
0.0
 40
1.19688
 50
270.0
 51
0.0
  0
ARC
  8
16
  5
505
 10
174.261616
 20
248.038952
 30
0.0
 40
2.09454
 50
90.0
 51
180.0
  0
ARC
  8
16
  5
506
 10
174.261616
 20
248.038952
 30
0.0
 40
2.09454
 50
180.0
 51
270.0
  0
ARC
  8
16
  5
507
 10
174.261616
 20
218.065657
 30
0.0
 40
2.09454
 50
90.0
 51
180.0
  0
ARC
  8
16
  5
508
 10
174.261616
 20
218.065657
 30
0.0
 40
2.09454
 50
180.0
 51
270.0
  0
ARC
  8
16
  5
509
 10
192.414296
 20
234.548404
 30
0.0
 40
0.9974
 50
0.0
 51
90.0
  0
ARC
  8
16
  5
50A
 10
172.216946
 20
213.603004
 30
0.0
 40
0.4987
 50
0.0
 51
90.0
  0
ARC
  8
16
  5
50B
 10
172.216946
 20
252.501604
 30
0.0
 40
0.4987
 50
270.0
 51
0.0
  0
ARC
  8
16
  5
50C
 10
173.713046
 20
255.992504
 30
0.0
 40
0.9974
 50
90.0
 51
180.001
  0
ARC
  8
16
  5
50D
 10
173.713046
 20
210.112104
 30
0.0
 40
0.9974
 50
180.001
 51
270.0
  0
ARC
  8
15
  5
50E
 10
173.413826
 20
275.541544
 30
0.0
 40
0.9974
 50
90.0
 51
180.0
  0
ARC
  8
15
  5
50F
 10
168.227346
 20
274.344664
 30
0.0
 40
0.9974
 50
90.0
 51
180.0
  0
ARC
  8
16
  5
510
 10
188.424696
 20
275.541544
 30
0.0
 40
0.9974
 50
0.0
 51
90.0
  0
ARC
  8
16
  5
511
 10
172.366556
 20
200.636804
 30
0.0
 40
0.79792
 50
90.0
 51
180.0
  0
ARC
  8
16
  5
512
 10
172.366556
 20
200.636804
 30
0.0
 40
0.79792
 50
179.999
 51
270.0
  0
ARC
  8
15
  5
513
 10
186.928596
 20
200.636804
 30
0.0
 40
0.79792
 50
0.0
 51
90.0
  0
ARC
  8
15
  5
514
 10
186.928596
 20
200.636804
 30
0.0
 40
0.79792
 50
270.0
 51
0.0
  0
ARC
  8
15
  5
515
 10
169.174876
 20
198.941224
 30
0.0
 40
0.4987
 50
179.999
 51
270.0
  0
ARC
  8
15
  5
516
 10
174.211746
 20
276.789719
 30
0.0
 40
0.74805
 50
90.0
 51
180.0
  0
ARC
  8
15
  5
517
 10
188.674046
 20
276.789719
 30
0.0
 40
0.74805
 50
0.0
 51
90.0
  0
ARC
  8
16
  5
518
 10
192.414296
 20
231.556204
 30
0.0
 40
0.9974
 50
270.0
 51
0.0
  0
ARC
  8
16
  5
519
 10
115.415016
 20
210.411324
 30
0.0
 40
4.987
 50
89.4259
 51
130.54
  0
ARC
  8
15
  5
51A
 10
116.019726
 20
213.340831
 30
0.0
 40
3.9896
 50
109.818
 51
164.587
  0
ARC
  8
15
  5
51B
 10
115.863846
 20
216.395724
 30
0.0
 40
0.4987
 50
180.0
 51
270.0
  0
ARC
  8
16
  5
51C
 10
121.050326
 20
213.603004
 30
0.0
 40
0.4987
 50
90.0
 51
180.0
  0
ARC
  8
16
  5
51D
 10
121.050326
 20
252.501604
 30
0.0
 40
0.4987
 50
180.0
 51
270.0
  0
ARC
  8
16
  5
51E
 10
120.052926
 20
199.140704
 30
0.0
 40
0.4987
 50
270.0
 51
0.0
  0
ARC
  8
15
  5
51F
 10
112.672166
 20
197.097459
 30
0.0
 40
0.4987
 50
180.0
 51
258.463
  0
ARC
  8
16
  5
520
 10
112.672166
 20
199.140704
 30
0.0
 40
0.4987
 50
180.0
 51
270.0
  0
ARC
  8
15
  5
521
 10
120.052926
 20
266.963904
 30
0.0
 40
0.4987
 50
0.0
 51
90.0
  0
ARC
  8
15
  5
522
 10
112.672166
 20
266.963904
 30
0.0
 40
0.4987
 50
90.0
 51
180.0
  0
ARC
  8
15
  5
523
 10
185.631976
 20
198.941224
 30
0.0
 40
0.4987
 50
270.0
 51
0.0
  0
ARC
  8
15
  5
524
 10
219.792926
 20
245.220584
 30
0.0
 40
0.29922
 50
0.0
 51
90.0
  0
ARC
  8
15
  5
525
 10
219.792926
 20
220.884024
 30
0.0
 40
0.29922
 50
270.0
 51
0.0
  0
ARC
  8
16
  5
526
 10
208.474431
 20
264.669884
 30
0.0
 40
1.9948
 50
30.0001
 51
90.0
  0
ARC
  8
15
  5
527
 10
209.406003
 20
266.165984
 30
0.0
 40
1.9948
 50
30.0
 51
90.0
  0
ARC
  8
15
  5
528
 10
210.866196
 20
263.638288
 30
0.0
 40
1.9948
 50
0.0
 51
30.0
  0
ARC
  8
16
  5
529
 10
191.716116
 20
263.504351
 30
0.0
 40
2.4935
 50
150.0
 51
180.0
  0
ARC
  8
16
  5
52A
 10
209.070876
 20
263.638288
 30
0.0
 40
1.9948
 50
0.0
 51
30.0
  0
ARC
  8
16
  5
52B
 10
212.362296
 20
251.504204
 30
0.0
 40
0.4987
 50
0.0
 51
90.0
  0
ARC
  8
15
  5
52C
 10
195.581469
 20
266.165984
 30
0.0
 40
1.9948
 50
90.0
 51
150.0
  0
ARC
  8
15
  5
52D
 10
195.581469
 20
199.938624
 30
0.0
 40
1.9948
 50
210.0
 51
270.0
  0
ARC
  8
16
  5
52E
 10
212.362296
 20
214.600404
 30
0.0
 40
0.4987
 50
270.0
 51
0.0
  0
ARC
  8
16
  5
52F
 10
209.070876
 20
202.469171
 30
0.0
 40
1.9948
 50
330.0
 51
0.0
  0
ARC
  8
16
  5
530
 10
192.101968
 20
264.171184
 30
0.0
 40
2.4935
 50
131.539137
 51
150.0
  0
ARC
  8
15
  5
531
 10
210.866196
 20
202.469171
 30
0.0
 40
1.9948
 50
330.0
 51
0.0
  0
ARC
  8
15
  5
532
 10
209.406003
 20
199.938624
 30
0.0
 40
1.9948
 50
270.0
 51
330.0
  0
ARC
  8
16
  5
533
 10
208.474431
 20
201.434724
 30
0.0
 40
1.9948
 50
270.0
 51
330.0
  0
ARC
  8
15
  5
534
 10
117.659166
 20
197.097459
 30
0.0
 40
0.4987
 50
270.0
 51
0.0
  0
ARC
  8
15
  5
535
 10
120.052926
 20
198.442524
 30
0.0
 40
0.4987
 50
270.0
 51
0.0
  0
ARC
  8
16
  5
536
 10
191.716116
 20
202.603107
 30
0.0
 40
2.4935
 50
180.0
 51
210.0
  0
ARC
  8
15
  5
537
 10
192.101968
 20
201.933424
 30
0.0
 40
2.4935
 50
210.0
 51
270.0
  0
ARC
  8
16
  5
538
 10
112.672166
 20
263.074044
 30
0.0
 40
0.4987
 50
90.0
 51
180.0
  0
ARC
  8
16
  5
539
 10
120.052926
 20
263.074044
 30
0.0
 40
0.4987
 50
0.0
 51
90.0
  0
ARC
  8
0B
  5
53A
 10
340.354632
 20
277.237124
 30
0.0
 40
0.29922
 50
90.0
 51
180.0
  0
ARC
  8
0B
  5
53B
 10
341.750992
 20
277.237124
 30
0.0
 40
0.29922
 50
0.0
 51
90.0
  0
ARC
  8
0B
  5
53C
 10
346.937472
 20
277.237124
 30
0.0
 40
0.29922
 50
0.0
 51
90.0
  0
ARC
  8
0B
  5
53D
 10
345.541112
 20
277.237124
 30
0.0
 40
0.29922
 50
90.0
 51
180.0
  0
ARC
  8
0B
  5
53E
 10
331.395131
 20
276.040244
 30
0.0
 40
0.4987
 50
90.0
 51
169.732
  0
ARC
  8
0B
  5
53F
 10
331.776993
 20
276.040244
 30
0.0
 40
0.4987
 50
0.0
 51
90.0
  0
ARC
  8
0B
  5
540
 10
355.894124
 20
276.040244
 30
0.0
 40
0.4987
 50
10.2683
 51
90.0
  0
ARC
  8
0B
  5
541
 10
355.515112
 20
276.040244
 30
0.0
 40
0.4987
 50
90.0
 51
180.0
  0
ARC
  8
0C
  5
542
 10
330.580113
 20
267.662084
 30
0.0
 40
0.4987
 50
90.0
 51
180.002
  0
ARC
  8
0C
  5
543
 10
332.774393
 20
267.662084
 30
0.0
 40
0.4987
 50
0.0
 51
90.0
  0
ARC
  8
0C
  5
544
 10
345.740592
 20
267.662084
 30
0.0
 40
0.4987
 50
0.0
 51
90.0
  0
ARC
  8
0B
  5
545
 10
367.384172
 20
262.176384
 30
0.0
 40
0.4987
 50
90.0
 51
180.0
  0
ARC
  8
0B
  5
546
 10
369.079752
 20
261.677684
 30
0.0
 40
0.9974
 50
0.0
 51
90.0
  0
CIRCLE
  8
0D
  5
547
 10
363.095352
 20
254.496404
 30
0.0
 40
2.9922
  0
ARC
  8
0B
  5
548
 10
343.546312
 20
267.662084
 30
0.0
 40
0.4987
 50
90.0
 51
180.0
  0
ARC
  8
0C
  5
549
 10
361.100552
 20
262.974304
 30
0.0
 40
2.09454
 50
205.209
 51
154.791
  0
ARC
  8
0B
  5
54A
 10
361.100552
 20
262.974304
 30
0.0
 40
4.4883
 50
0.0
 51
124.692
  0
ARC
  8
0B
  5
54B
 10
318.212353
 20
265.667284
 30
0.0
 40
0.9974
 50
90.0
 51
180.0
  0
ARC
  8
0B
  5
54C
 10
319.808193
 20
266.165984
 30
0.0
 40
0.4987
 50
0.0
 51
90.0
  0
ARC
  8
0C
  5
54D
 10
356.512512
 20
266.165984
 30
0.0
 40
0.4987
 50
90.0
 51
180.001
  0
ARC
  8
0C
  5
54E
 10
358.706792
 20
266.165984
 30
0.0
 40
0.4987
 50
0.0
 51
90.0
  0
CIRCLE
  8
0D
  5
54F
 10
325.194153
 20
257.488604
 30
0.0
 40
3.4909
  0
CIRCLE
  8
0D
  5
550
 10
338.160352
 20
257.488604
 30
0.0
 40
3.4909
  0
CIRCLE
  8
0D
  5
551
 10
351.126552
 20
257.488604
 30
0.0
 40
3.4909
  0
ARC
  8
0B
  5
552
 10
360.103152
 20
198.941224
 30
0.0
 40
0.9974
 50
270.0
 51
0.0
  0
ARC
  8
0B
  5
553
 10
360.601852
 20
207.119904
 30
0.0
 40
4.4883
 50
276.379
 51
357.453
  0
ARC
  8
0B
  5
554
 10
318.212353
 20
200.437324
 30
0.0
 40
0.9974
 50
180.0
 51
270.0
  0
ARC
  8
0B
  5
555
 10
319.808193
 20
199.938624
 30
0.0
 40
0.4987
 50
270.0
 51
0.000917
  0
ARC
  8
0C
  5
556
 10
356.512512
 20
199.938624
 30
0.0
 40
0.4987
 50
180.0
 51
270.0
  0
ARC
  8
0C
  5
557
 10
358.607052
 20
199.938624
 30
0.0
 40
0.4987
 50
270.0
 51
0.0
  0
ARC
  8
0B
  5
558
 10
369.079752
 20
204.426924
 30
0.0
 40
0.9974
 50
270.0
 51
0.0
  0
ARC
  8
0B
  5
559
 10
367.384172
 20
203.928224
 30
0.0
 40
0.4987
 50
180.0
 51
270.0
  0
CIRCLE
  8
0D
  5
55A
 10
363.095352
 20
211.608204
 30
0.0
 40
2.9922
  0
ARC
  8
0B
  5
55B
 10
332.774393
 20
198.442524
 30
0.0
 40
0.4987
 50
270.0
 51
0.0
  0
ARC
  8
0B
  5
55C
 10
330.580113
 20
198.442524
 30
0.0
 40
0.4987
 50
180.0
 51
270.0
  0
ARC
  8
0C
  5
55D
 10
343.546312
 20
198.442524
 30
0.0
 40
0.4987
 50
180.0
 51
270.0
  0
ARC
  8
0C
  5
55E
 10
345.740592
 20
198.442524
 30
0.0
 40
0.4987
 50
270.0
 51
0.002063
  0
CIRCLE
  8
0D
  5
55F
 10
351.126552
 20
208.616004
 30
0.0
 40
3.4909
  0
CIRCLE
  8
0D
  5
560
 10
325.194153
 20
208.616004
 30
0.0
 40
3.4909
  0
CIRCLE
  8
0D
  5
561
 10
338.160352
 20
208.616004
 30
0.0
 40
3.4909
  0
ARC
  8
0C
  5
562
 10
360.601852
 20
207.119904
 30
0.0
 40
2.09454
 50
224.415
 51
354.535
  0
ARC
  8
0B
  5
563
 10
326.191553
 20
203.130304
 30
0.0
 40
4.4883
 50
175.156
 51
330.073
  0
CIRCLE
  8
0D
  5
564
 10
336.165552
 20
271.452204
 30
0.0
 40
2.9922
  0
CIRCLE
  8
0D
  5
565
 10
351.126552
 20
271.452204
 30
0.0
 40
2.9922
  0
ARC
  8
0C
  5
566
 10
326.191553
 20
203.130304
 30
0.0
 40
2.09454
 50
166.226
 51
234.049
  0
ARC
  8
0C
  5
567
 10
326.191553
 20
203.130304
 30
0.0
 40
2.09454
 50
234.049
 51
13.7741
  0
ARC
  8
0B
  5
568
 10
336.664252
 20
197.097459
 30
0.0
 40
0.4987
 50
180.0
 51
270.0
  0
ARC
  8
0B
  5
569
 10
350.627852
 20
197.097459
 30
0.0
 40
0.4987
 50
270.0
 51
0.0
  0
ARC
  8
0B
  5
56A
 10
335.666852
 20
198.941224
 30
0.0
 40
0.4987
 50
180.0
 51
270.0
  0
ARC
  8
0C
  5
56B
 10
351.625252
 20
198.941224
 30
0.0
 40
0.4987
 50
270.0
 51
0.0
  0
ARC
  8
0B
  5
56C
 10
333.620758
 20
200.636804
 30
0.0
 40
0.79792
 50
244.054
 51
270.0
  0
ARC
  8
0C
  5
56D
 10
333.620758
 20
200.636804
 30
0.0
 40
0.79792
 50
90.0
 51
115.946
  0
ARC
  8
0C
  5
56E
 10
353.668498
 20
200.636804
 30
0.0
 40
0.79792
 50
270.0
 51
90.0
  0
CIRCLE
  8
33
  5
56F
 10
514.201452
 20
262.974304
 30
0.0
 40
2.24415
  0
CIRCLE
  8
33
  5
570
 10
479.292452
 20
203.130304
 30
0.0
 40
2.24415
  0
ARC
  8
33
  5
571
 10
513.702752
 20
209.114704
 30
0.0
 40
2.24415
 50
0.0
 51
180.0
  0
ARC
  8
33
  5
572
 10
513.702752
 20
207.119904
 30
0.0
 40
2.24415
 50
180.0
 51
0.0
  0
ARC
  8
33
  5
573
 10
479.791152
 20
258.984704
 30
0.0
 40
2.24415
 50
0.0
 51
180.0
  0
ARC
  8
33
  5
574
 10
479.791152
 20
256.989904
 30
0.0
 40
2.24415
 50
180.0
 51
0.0
  0
CIRCLE
  8
FF
  5
575
 10
483.69811
 20
219.53041
 30
0.0
 40
2.9922
  0
CIRCLE
  8
FF
  5
576
 10
491.48638
 20
246.286377
 30
0.0
 40
2.9922
  0
ARC
  8
34
  6
PHANTOM
  5
577
 10
498.639162
 20
277.237124
 30
0.0
 40
0.29922
 50
90.0
 51
178.909
  0
ARC
  8
34
  6
PHANTOM
  5
578
 10
513.204052
 20
198.941224
 30
0.0
 40
0.9974
 50
270.0
 51
0.0
  0
ARC
  8
34
  6
PHANTOM
  5
579
 10
522.180652
 20
261.677684
 30
0.0
 40
0.9974
 50
0.0
 51
90.0
  0
ARC
  8
34
  6
PHANTOM
  5
57A
 10
522.180652
 20
204.426924
 30
0.0
 40
0.9974
 50
270.0
 51
0.0
  0
ARC
  8
34
  6
PHANTOM
  5
57B
 10
522.180652
 20
261.677684
 30
0.0
 40
0.9974
 50
0.0
 51
90.0
  0
ARC
  8
34
  6
PHANTOM
  5
57C
 10
522.180652
 20
204.426924
 30
0.0
 40
0.9974
 50
270.0
 51
0.0
  0
ARC
  8
34
  6
PHANTOM
  5
57D
 10
521.057865
 20
203.928224
 30
0.0
 40
0.4987
 50
180.0
 51
270.0
  0
ARC
  8
34
  6
PHANTOM
  5
57E
 10
488.767752
 20
198.941224
 30
0.0
 40
0.4987
 50
180.0
 51
270.0
  0
ARC
  8
34
  6
PHANTOM
  5
57F
 10
479.791152
 20
259.084444
 30
0.0
 40
4.4883
 50
90.0
 51
130.926
  0
ARC
  8
34
  6
PHANTOM
  5
580
 10
493.455532
 20
277.237124
 30
0.0
 40
0.29922
 50
90.0
 51
180.0
  0
ARC
  8
34
  6
PHANTOM
  5
581
 10
494.851892
 20
277.237124
 30
0.0
 40
0.29922
 50
0.0
 51
90.0
  0
ARC
  8
34
  6
PHANTOM
  5
582
 10
500.038372
 20
277.237124
 30
0.0
 40
0.29922
 50
0.0
 51
90.0
  0
ARC
  8
34
  6
PHANTOM
  5
583
 10
484.49603
 20
276.040244
 30
0.0
 40
0.4987
 50
90.0
 51
169.732
  0
ARC
  8
34
  6
PHANTOM
  5
584
 10
484.877892
 20
276.040244
 30
0.0
 40
0.4987
 50
0.0
 51
90.0
  0
ARC
  8
34
  6
PHANTOM
  5
585
 10
508.995024
 20
276.040244
 30
0.0
 40
0.4987
 50
10.2683
 51
90.0
  0
ARC
  8
34
  6
PHANTOM
  5
586
 10
508.616012
 20
276.040244
 30
0.0
 40
0.4987
 50
90.0
 51
180.0
  0
ARC
  8
34
  6
PHANTOM
  5
587
 10
520.485072
 20
262.176384
 30
0.0
 40
0.4987
 50
90.0
 51
180.0
  0
ARC
  8
34
  6
PHANTOM
  5
588
 10
522.180652
 20
261.677684
 30
0.0
 40
0.9974
 50
0.0
 51
90.0
  0
ARC
  8
34
  6
PHANTOM
  5
589
 10
496.647212
 20
267.662084
 30
0.0
 40
0.4987
 50
90.0
 51
180.0
  0
ARC
  8
34
  6
PHANTOM
  5
58A
 10
514.201452
 20
262.974304
 30
0.0
 40
4.4883
 50
0.0
 51
124.692
  0
ARC
  8
34
  6
PHANTOM
  5
58B
 10
471.313252
 20
265.667284
 30
0.0
 40
0.9974
 50
90.0
 51
180.0
  0
ARC
  8
34
  6
PHANTOM
  5
58C
 10
472.909092
 20
266.165984
 30
0.0
 40
0.4987
 50
0.0
 51
90.0
  0
ARC
  8
34
  6
PHANTOM
  5
58D
 10
513.204052
 20
198.941224
 30
0.0
 40
0.9974
 50
270.0
 51
0.0
  0
ARC
  8
34
  6
PHANTOM
  5
58E
 10
513.702752
 20
207.119904
 30
0.0
 40
4.4883
 50
276.379
 51
357.453
  0
ARC
  8
34
  6
PHANTOM
  5
58F
 10
471.313252
 20
200.437324
 30
0.0
 40
0.9974
 50
180.0
 51
270.0
  0
ARC
  8
34
  6
PHANTOM
  5
590
 10
472.909092
 20
199.938624
 30
0.0
 40
0.4987
 50
270.0
 51
0.000917
  0
ARC
  8
34
  6
PHANTOM
  5
591
 10
522.180652
 20
204.426924
 30
0.0
 40
0.9974
 50
270.0
 51
0.0
  0
ARC
  8
34
  6
PHANTOM
  5
592
 10
485.875292
 20
198.442524
 30
0.0
 40
0.4987
 50
270.0
 51
0.0
  0
ARC
  8
34
  6
PHANTOM
  5
593
 10
483.681012
 20
198.442524
 30
0.0
 40
0.4987
 50
180.0
 51
270.0
  0
ARC
  8
34
  6
PHANTOM
  5
594
 10
479.292452
 20
203.130304
 30
0.0
 40
4.4883
 50
175.156
 51
330.073
  0
ARC
  8
34
  6
PHANTOM
  5
595
 10
489.765152
 20
197.097459
 30
0.0
 40
0.4987
 50
180.0
 51
270.0
  0
ARC
  8
34
  6
PHANTOM
  5
596
 10
503.728752
 20
197.097459
 30
0.0
 40
0.4987
 50
270.0
 51
0.0
  0
ARC
  8
34
  6
PHANTOM
  5
597
 10
488.767752
 20
198.941224
 30
0.0
 40
0.4987
 50
180.0
 51
270.0
  0
ARC
  8
0B
  5
598
 10
326.690253
 20
259.084444
 30
0.0
 40
4.4883
 50
90.0
 51
130.926
  0
LINE
  8
15
  5
599
 10
116.661766
 20
220.584804
 30
0.0
 11
116.661766
 21
216.720592
 31
0.0
  0
LINE
  8
17
  6
PHANTOM
  5
59A
 10
102.698166
 20
245.519804
 30
0.0
 11
116.661766
 21
245.519804
 31
0.0
  0
LINE
  8
17
  6
PHANTOM
  5
59B
 10
102.698166
 20
245.519804
 30
0.0
 11
102.698166
 21
220.584804
 31
0.0
  0
LINE
  8
17
  6
PHANTOM
  5
59C
 10
101.700766
 20
246.517204
 30
0.0
 11
101.700766
 21
219.587404
 31
0.0
  0
LINE
  8
17
  6
PHANTOM
  5
59D
 10
101.700766
 20
246.517204
 30
0.0
 11
115.664366
 21
246.517204
 31
0.0
  0
LINE
  8
17
  6
PHANTOM
  5
59E
 10
101.700766
 20
219.587404
 30
0.0
 11
115.664366
 21
219.587404
 31
0.0
  0
LINE
  8
17
  6
PHANTOM
  5
59F
 10
115.664366
 20
250.008104
 30
0.0
 11
115.664366
 21
246.517204
 31
0.0
  0
LINE
  8
17
  6
PHANTOM
  5
5A0
 10
115.664366
 20
219.587404
 30
0.0
 11
115.664366
 21
215.938658
 31
0.0
  0
LINE
  8
1A
  6
CENTER
  5
5A1
 10
97.915206
 20
233.052304
 30
0.0
 11
252.58327
 21
233.052304
 31
0.0
  0
LINE
  8
17
  6
PHANTOM
  5
5A2
 10
102.698166
 20
220.584804
 30
0.0
 11
116.661766
 21
220.584804
 31
0.0
  0
LINE
  8
17
  6
PHANTOM
  5
5A3
 10
245.176756
 20
235.047104
 30
0.0
 11
247.321166
 21
235.047104
 31
0.0
  0
LINE
  8
17
  6
PHANTOM
  5
5A4
 10
247.321166
 20
235.047104
 30
0.0
 11
247.321166
 21
231.057504
 31
0.0
  0
LINE
  8
17
  6
PHANTOM
  5
5A5
 10
214.955536
 20
249.261479
 30
0.0
 11
214.955536
 21
244.522404
 31
0.0
  0
LINE
  8
17
  6
PHANTOM
  5
5A6
 10
222.934736
 20
250.757579
 30
0.0
 11
216.451636
 21
250.757579
 31
0.0
  0
LINE
  8
17
  6
PHANTOM
  5
5A7
 10
221.438636
 20
215.996764
 30
0.0
 11
222.956679
 21
215.996764
 31
0.0
  0
LINE
  8
17
  6
PHANTOM
  5
5A8
 10
214.955536
 20
216.845979
 30
0.0
 11
214.955536
 21
221.582204
 31
0.0
  0
LINE
  8
17
  6
PHANTOM
  5
5A9
 10
214.955536
 20
249.261479
 30
0.0
 11
216.451636
 21
250.757579
 31
0.0
  0
LINE
  8
17
  6
PHANTOM
  5
5AA
 10
216.750856
 20
254.248479
 30
0.0
 11
216.750856
 21
250.757579
 31
0.0
  0
LINE
  8
17
  6
PHANTOM
  5
5AB
 10
217.748256
 20
255.245879
 30
0.0
 11
216.750856
 21
254.248479
 31
0.0
  0
LINE
  8
17
  6
PHANTOM
  5
5AC
 10
218.246956
 20
255.245879
 30
0.0
 11
217.748256
 21
255.245879
 31
0.0
  0
LINE
  8
17
  6
PHANTOM
  5
5AD
 10
218.246956
 20
255.245879
 30
0.0
 11
218.246956
 21
250.757579
 31
0.0
  0
LINE
  8
17
  6
PHANTOM
  5
5AE
 10
222.934736
 20
252.216633
 30
0.0
 11
222.934736
 21
250.757579
 31
0.0
  0
LINE
  8
17
  6
PHANTOM
  5
5AF
 10
223.202039
 20
253.214033
 30
0.0
 11
224.692155
 21
255.758828
 31
0.0
  0
LINE
  8
17
  6
PHANTOM
  5
5B0
 10
225.970822
 20
256.704933
 30
0.0
 11
228.941079
 21
257.388864
 31
0.0
  0
LINE
  8
17
  6
PHANTOM
  5
5B1
 10
238.776013
 20
257.388864
 30
0.0
 11
228.941079
 21
257.388864
 31
0.0
  0
LINE
  8
17
  6
PHANTOM
  5
5B2
 10
242.338156
 20
253.214033
 30
0.0
 11
240.50351
 21
256.391464
 31
0.0
  0
LINE
  8
17
  6
PHANTOM
  5
5B3
 10
242.605459
 20
252.216633
 30
0.0
 11
242.605459
 21
242.080199
 31
0.0
  0
LINE
  8
17
  6
PHANTOM
  5
5B4
 10
244.877536
 20
242.080199
 30
0.0
 11
242.605459
 21
242.080199
 31
0.0
  0
LINE
  8
17
  6
PHANTOM
  5
5B5
 10
245.176756
 20
224.326479
 30
0.0
 11
245.176756
 21
241.780979
 31
0.0
  0
LINE
  8
17
  6
PHANTOM
  5
5B6
 10
244.877536
 20
224.027259
 30
0.0
 11
242.605459
 21
224.027259
 31
0.0
  0
LINE
  8
17
  6
PHANTOM
  5
5B7
 10
220.939936
 20
215.349879
 30
0.0
 11
220.939936
 21
215.498064
 31
0.0
  0
LINE
  8
17
  6
PHANTOM
  5
5B8
 10
220.963019
 20
215.349879
 30
0.0
 11
216.451636
 21
215.349879
 31
0.0
  0
LINE
  8
17
  6
PHANTOM
  5
5B9
 10
214.955536
 20
216.845979
 30
0.0
 11
216.451636
 21
215.349879
 31
0.0
  0
LINE
  8
17
  6
PHANTOM
  5
5BA
 10
222.956679
 20
213.887976
 30
0.0
 11
222.956679
 21
215.996764
 31
0.0
  0
LINE
  8
17
  6
PHANTOM
  5
5BB
 10
223.223982
 20
212.890576
 30
0.0
 11
224.692155
 21
210.348631
 31
0.0
  0
LINE
  8
17
  6
PHANTOM
  5
5BC
 10
225.970822
 20
209.402526
 30
0.0
 11
228.941079
 21
208.715744
 31
0.0
  0
LINE
  8
17
  6
PHANTOM
  5
5BD
 10
238.776013
 20
208.715744
 30
0.0
 11
228.941079
 21
208.715744
 31
0.0
  0
LINE
  8
17
  6
PHANTOM
  5
5BE
 10
242.338156
 20
212.890576
 30
0.0
 11
240.50351
 21
209.713144
 31
0.0
  0
LINE
  8
17
  6
PHANTOM
  5
5BF
 10
242.605459
 20
213.887976
 30
0.0
 11
242.605459
 21
224.027259
 31
0.0
  0
LINE
  8
17
  6
PHANTOM
  5
5C0
 10
245.176756
 20
231.057504
 30
0.0
 11
247.321166
 21
231.057504
 31
0.0
  0
LINE
  8
10
  6
CENTER
  5
5C1
 10
311.484177
 20
233.052304
 30
0.0
 11
372.718838
 21
233.052304
 31
0.0
  0
LINE
  8
10
  5
5C2
 10
343.646052
 20
281.916355
 30
0.0
 11
343.646052
 21
193.389981
 31
0.0
  0
LINE
  8
FF
  5
5C3
 10
243.383146
 20
186.690303
 30
0.0
 11
230.776865
 21
212.531512
 31
0.0
  0
LINE
  8
FF
  5
5C4
 10
363.941718
 20
256.471256
 30
0.0
 11
376.212587
 21
282.429304
 31
0.0
  0
LINE
  8
FF
  5
5C5
 10
365.369424
 20
282.406506
 30
0.0
 11
339.305938
 21
282.406506
 31
0.0
  0
LINE
  8
16
  5
5C6
 10
121.050326
 20
252.002904
 30
0.0
 11
172.216946
 21
252.002904
 31
0.0
  0
LINE
  8
16
  5
5C7
 10
121.050326
 20
214.101704
 30
0.0
 11
172.216946
 21
214.101704
 31
0.0
  0
LINE
  8
16
  5
5C8
 10
174.261616
 20
220.160197
 30
0.0
 11
176.156676
 21
220.160197
 31
0.0
  0
LINE
  8
16
  5
5C9
 10
178.650176
 20
230.558804
 30
0.0
 11
178.650176
 21
221.357077
 31
0.0
  0
LINE
  8
16
  5
5CA
 10
178.650176
 20
228.894571
 30
0.0
 11
178.650176
 21
230.558804
 31
0.0
  0
LINE
  8
16
  5
5CB
 10
190.918196
 20
235.545804
 30
0.0
 11
192.414296
 21
235.545804
 31
0.0
  0
LINE
  8
16
  5
5CC
 10
178.650176
 20
230.558804
 30
0.0
 11
178.650176
 21
235.545804
 31
0.0
  0
LINE
  8
16
  5
5CD
 10
193.411696
 20
234.548404
 30
0.0
 11
193.411696
 21
233.052304
 31
0.0
  0
LINE
  8
16
  5
5CE
 10
193.411696
 20
231.556204
 30
0.0
 11
193.411696
 21
233.052304
 31
0.0
  0
LINE
  8
16
  5
5CF
 10
176.156676
 20
250.133492
 30
0.0
 11
174.261616
 21
250.133492
 31
0.0
  0
LINE
  8
16
  5
5D0
 10
176.156676
 20
245.944412
 30
0.0
 11
174.261616
 21
245.944412
 31
0.0
  0
LINE
  8
16
  5
5D1
 10
172.715646
 20
213.603004
 30
0.0
 11
172.715646
 21
210.112104
 31
0.0
  0
LINE
  8
16
  5
5D2
 10
170.172276
 20
219.738439
 30
0.0
 11
170.172276
 21
217.244939
 31
0.0
  0
LINE
  8
16
  5
5D3
 10
115.614496
 20
250.706284
 30
0.0
 11
112.173466
 21
250.706284
 31
0.0
  0
LINE
  8
15
  5
5D4
 10
116.661766
 20
215.897024
 30
0.0
 11
116.661766
 21
250.706284
 31
0.0
  0
LINE
  8
15
  5
5D5
 10
112.173466
 20
197.097459
 30
0.0
 11
112.173466
 21
214.400924
 31
0.0
  0
LINE
  8
15
  5
5D6
 10
112.173466
 20
214.101704
 30
0.0
 11
112.173466
 21
210.411324
 31
0.0
  0
LINE
  8
15
  5
5D7
 10
169.174876
 20
198.442524
 30
0.0
 11
171.857882
 21
198.442524
 31
0.0
  0
LINE
  8
16
  5
5D8
 10
183.038736
 20
268.559744
 30
0.0
 11
189.422096
 21
268.559744
 31
0.0
  0
LINE
  8
16
  5
5D9
 10
183.038736
 20
268.559744
 30
0.0
 11
183.038736
 21
263.592692
 31
0.0
  0
LINE
  8
16
  5
5DA
 10
173.413826
 20
276.538944
 30
0.0
 11
188.424696
 21
276.538944
 31
0.0
  0
LINE
  8
15
  5
5DB
 10
167.229946
 20
274.344664
 30
0.0
 11
167.229946
 21
263.572744
 31
0.0
  0
LINE
  8
15
  5
5DC
 10
170.100463
 20
275.342064
 30
0.0
 11
168.227346
 21
275.342064
 31
0.0
  0
LINE
  8
15
  5
5DD
 10
172.416426
 20
275.541544
 30
0.0
 11
172.416426
 21
275.342064
 31
0.0
  0
LINE
  8
15
  5
5DE
 10
170.100463
 20
275.342064
 30
0.0
 11
172.416426
 21
275.342064
 31
0.0
  0
LINE
  8
16
  5
5DF
 10
183.038736
 20
263.572744
 30
0.0
 11
189.222616
 21
263.572744
 31
0.0
  0
LINE
  8
15
  5
5E0
 10
189.422096
 20
267.063644
 30
0.0
 11
190.448449
 21
266.037576
 31
0.0
  0
LINE
  8
15
  5
5E1
 10
186.130676
 20
199.838884
 30
0.0
 11
186.928596
 21
199.838884
 31
0.0
  0
LINE
  8
16
  5
5E2
 10
173.164476
 20
199.838884
 30
0.0
 11
173.164476
 21
198.442524
 31
0.0
  0
LINE
  8
16
  5
5E3
 10
170.670976
 20
198.442524
 30
0.0
 11
170.670976
 21
201.434724
 31
0.0
  0
LINE
  8
15
  5
5E4
 10
186.130676
 20
199.838884
 30
0.0
 11
186.130676
 21
198.941224
 31
0.0
  0
LINE
  8
15
  5
5E5
 10
168.676176
 20
203.081859
 30
0.0
 11
168.676176
 21
198.941224
 31
0.0
  0
LINE
  8
16
  5
5E6
 10
176.156676
 20
199.838884
 30
0.0
 11
176.156676
 21
198.442524
 31
0.0
  0
LINE
  8
15
  5
5E7
 10
174.211746
 20
277.536344
 30
0.0
 11
188.674046
 21
277.536344
 31
0.0
  0
LINE
  8
15
  5
5E8
 10
173.463696
 20
276.538944
 30
0.0
 11
173.463696
 21
276.789719
 31
0.0
  0
LINE
  8
15
  5
5E9
 10
189.422096
 20
276.789719
 30
0.0
 11
189.422096
 21
268.559744
 31
0.0
  0
LINE
  8
15
  5
5EA
 10
189.422096
 20
268.559744
 30
0.0
 11
189.422096
 21
267.063644
 31
0.0
  0
LINE
  8
16
  5
5EB
 10
183.038736
 20
263.592692
 30
0.0
 11
183.038736
 21
256.989904
 31
0.0
  0
LINE
  8
15
  5
5EC
 10
116.63042
 20
215.398324
 30
0.0
 11
116.661766
 21
215.398324
 31
0.0
  0
LINE
  8
16
  5
5ED
 10
115.464886
 20
215.398324
 30
0.0
 11
116.661766
 21
215.398324
 31
0.0
  0
LINE
  8
15
  5
5EE
 10
112.173466
 20
250.706284
 30
0.0
 11
112.173466
 21
248.212784
 31
0.0
  0
LINE
  8
15
  5
5EF
 10
112.173466
 20
248.212784
 30
0.0
 11
113.419646
 21
248.212784
 31
0.0
  0
LINE
  8
15
  5
5F0
 10
115.614496
 20
249.509404
 30
0.0
 11
115.614496
 21
250.706284
 31
0.0
  0
LINE
  8
15
  5
5F1
 10
115.614496
 20
249.509404
 30
0.0
 11
114.865876
 21
248.212784
 31
0.0
  0
LINE
  8
15
  5
5F2
 10
113.419646
 20
248.212784
 30
0.0
 11
114.865876
 21
248.212784
 31
0.0
  0
LINE
  8
15
  5
5F3
 10
111.874246
 20
206.871979
 30
0.0
 11
111.874246
 21
203.130304
 31
0.0
  0
LINE
  8
16
  5
5F4
 10
167.229946
 20
263.572744
 30
0.0
 11
167.229946
 21
252.002904
 31
0.0
  0
LINE
  8
16
  5
5F5
 10
211.065676
 20
263.638288
 30
0.0
 11
211.065676
 21
252.002904
 31
0.0
  0
LINE
  8
16
  5
5F6
 10
178.650176
 20
239.598098
 30
0.0
 11
178.650176
 21
244.747532
 31
0.0
  0
LINE
  8
16
  5
5F7
 10
178.650176
 20
235.545804
 30
0.0
 11
178.650176
 21
239.598098
 31
0.0
  0
LINE
  8
16
  5
5F8
 10
178.650176
 20
235.545804
 30
0.0
 11
190.918196
 21
235.545804
 31
0.0
  0
LINE
  8
16
  5
5F9
 10
178.650176
 20
230.558804
 30
0.0
 11
192.414296
 21
230.558804
 31
0.0
  0
LINE
  8
16
  5
5FA
 10
173.713046
 20
256.989904
 30
0.0
 11
189.222616
 21
256.989904
 31
0.0
  0
LINE
  8
16
  5
5FB
 10
189.222616
 20
209.114704
 30
0.0
 11
173.713046
 21
209.114704
 31
0.0
  0
LINE
  8
16
  5
5FC
 10
176.156676
 20
201.434724
 30
0.0
 11
176.156676
 21
220.160197
 31
0.0
  0
LINE
  8
16
  5
5FD
 10
184.135876
 20
256.989904
 30
0.0
 11
184.135876
 21
257.987304
 31
0.0
  0
LINE
  8
16
  5
5FE
 10
189.222616
 20
257.987304
 30
0.0
 11
184.135876
 21
257.987304
 31
0.0
  0
LINE
  8
16
  5
5FF
 10
176.156676
 20
256.291724
 30
0.0
 11
183.637176
 21
256.291724
 31
0.0
  0
LINE
  8
16
  5
600
 10
183.637176
 20
256.291724
 30
0.0
 11
183.637176
 21
256.989904
 31
0.0
  0
LINE
  8
16
  5
601
 10
176.156676
 20
209.812884
 30
0.0
 11
183.637176
 21
209.812884
 31
0.0
  0
LINE
  8
16
  5
602
 10
183.637176
 20
209.812884
 30
0.0
 11
183.637176
 21
209.114704
 31
0.0
  0
LINE
  8
16
  5
603
 10
172.715646
 20
252.501604
 30
0.0
 11
172.715646
 21
255.992504
 31
0.0
  0
LINE
  8
16
  5
604
 10
112.173466
 20
266.715979
 30
0.0
 11
112.173466
 21
253.399264
 31
0.0
  0
LINE
  8
15
  5
605
 10
167.229946
 20
263.572744
 30
0.0
 11
120.551626
 21
263.572744
 31
0.0
  0
LINE
  8
16
  5
606
 10
160.547366
 20
219.738439
 30
0.0
 11
160.547366
 21
217.244939
 31
0.0
  0
LINE
  8
16
  5
607
 10
170.172276
 20
217.244939
 30
0.0
 11
160.547366
 21
217.244939
 31
0.0
  0
LINE
  8
16
  5
608
 10
170.172276
 20
219.738439
 30
0.0
 11
116.661766
 21
219.738439
 31
0.0
  0
LINE
  8
16
  5
609
 10
116.661766
 20
216.845979
 30
0.0
 11
153.565566
 21
216.845979
 31
0.0
  0
LINE
  8
16
  5
60A
 10
160.547366
 20
217.244939
 30
0.0
 11
153.565566
 21
216.845979
 31
0.0
  0
LINE
  8
16
  5
60B
 10
170.172276
 20
246.369019
 30
0.0
 11
116.661766
 21
246.369019
 31
0.0
  0
LINE
  8
16
  5
60C
 10
170.172276
 20
246.369019
 30
0.0
 11
170.172276
 21
248.862519
 31
0.0
  0
LINE
  8
16
  5
60D
 10
170.172276
 20
248.862519
 30
0.0
 11
160.547366
 21
248.862519
 31
0.0
  0
LINE
  8
16
  5
60E
 10
160.547366
 20
246.369019
 30
0.0
 11
160.547366
 21
248.862519
 31
0.0
  0
LINE
  8
16
  5
60F
 10
160.547366
 20
248.862519
 30
0.0
 11
153.565566
 21
249.261479
 31
0.0
  0
LINE
  8
16
  5
610
 10
116.661766
 20
249.261479
 30
0.0
 11
153.565566
 21
249.261479
 31
0.0
  0
LINE
  8
16
  5
611
 10
177.453296
 20
245.944412
 30
0.0
 11
176.156676
 21
245.944412
 31
0.0
  0
LINE
  8
16
  5
612
 10
177.453296
 20
220.160197
 30
0.0
 11
176.156676
 21
220.160197
 31
0.0
  0
LINE
  8
16
  5
613
 10
176.156676
 20
215.971117
 30
0.0
 11
174.261616
 21
215.971117
 31
0.0
  0
LINE
  8
15
  5
614
 10
115.365146
 20
217.093904
 30
0.0
 11
115.365146
 21
216.395724
 31
0.0
  0
LINE
  8
15
  5
615
 10
115.863846
 20
215.897024
 30
0.0
 11
116.661766
 21
215.897024
 31
0.0
  0
LINE
  8
15
  5
616
 10
114.666966
 20
217.093904
 30
0.0
 11
115.365146
 21
217.093904
 31
0.0
  0
LINE
  8
15
  5
617
 10
120.551626
 20
203.081859
 30
0.0
 11
168.676176
 21
203.081859
 31
0.0
  0
LINE
  8
16
  5
618
 10
111.874246
 20
206.871979
 30
0.0
 11
112.173466
 21
206.871979
 31
0.0
  0
LINE
  8
15
  5
619
 10
111.874246
 20
199.391479
 30
0.0
 11
112.173466
 21
199.391479
 31
0.0
  0
LINE
  8
15
  5
61A
 10
111.874246
 20
211.109504
 30
0.0
 11
112.173466
 21
211.109504
 31
0.0
  0
LINE
  8
15
  5
61B
 10
111.874246
 20
206.871979
 30
0.0
 11
111.874246
 21
211.109504
 31
0.0
  0
LINE
  8
15
  5
61C
 10
112.672166
 20
267.462604
 30
0.0
 11
120.052926
 21
267.462604
 31
0.0
  0
LINE
  8
15
  5
61D
 10
111.874246
 20
253.399264
 30
0.0
 11
112.173466
 21
253.399264
 31
0.0
  0
LINE
  8
16
  5
61E
 10
111.874246
 20
262.575344
 30
0.0
 11
112.173466
 21
262.575344
 31
0.0
  0
LINE
  8
15
  5
61F
 10
111.874246
 20
266.715979
 30
0.0
 11
112.173466
 21
266.715979
 31
0.0
  0
LINE
  8
15
  5
620
 10
171.857882
 20
198.442524
 30
0.0
 11
185.631976
 21
198.442524
 31
0.0
  0
LINE
  8
16
  5
621
 10
112.672166
 20
198.642004
 30
0.0
 11
120.052926
 21
198.642004
 31
0.0
  0
LINE
  8
16
  5
622
 10
172.366556
 20
199.838884
 30
0.0
 11
186.130676
 21
199.838884
 31
0.0
  0
LINE
  8
16
  5
623
 10
214.756056
 20
237.740084
 30
0.0
 11
219.094746
 21
237.740084
 31
0.0
  0
LINE
  8
16
  5
624
 10
214.756056
 20
228.364524
 30
0.0
 11
219.094746
 21
228.364524
 31
0.0
  0
LINE
  8
15
  5
625
 10
214.756056
 20
245.519804
 30
0.0
 11
219.792926
 21
245.519804
 31
0.0
  0
LINE
  8
15
  5
626
 10
214.756056
 20
220.584804
 30
0.0
 11
219.792926
 21
220.584804
 31
0.0
  0
LINE
  8
16
  5
627
 10
217.099946
 20
228.364524
 30
0.0
 11
217.099946
 21
220.584804
 31
0.0
  0
LINE
  8
16
  5
628
 10
217.099946
 20
245.519804
 30
0.0
 11
217.099946
 21
239.535404
 31
0.0
  0
LINE
  8
16
  5
629
 10
214.756056
 20
239.535404
 30
0.0
 11
217.099946
 21
239.535404
 31
0.0
  0
LINE
  8
15
  5
62A
 10
220.092146
 20
238.737484
 30
0.0
 11
219.094746
 21
237.740084
 31
0.0
  0
LINE
  8
15
  5
62B
 10
220.092146
 20
227.367124
 30
0.0
 11
220.092146
 21
220.884024
 31
0.0
  0
LINE
  8
15
  5
62C
 10
219.094746
 20
228.364524
 30
0.0
 11
220.092146
 21
227.367124
 31
0.0
  0
LINE
  8
15
  5
62D
 10
219.094746
 20
237.740084
 30
0.0
 11
220.092146
 21
237.740084
 31
0.0
  0
LINE
  8
15
  5
62E
 10
219.094746
 20
228.364524
 30
0.0
 11
220.092146
 21
228.364524
 31
0.0
  0
LINE
  8
15
  5
62F
 10
220.092146
 20
237.740084
 30
0.0
 11
220.092146
 21
228.364524
 31
0.0
  0
LINE
  8
15
  5
630
 10
212.860996
 20
252.002904
 30
0.0
 11
213.316665
 21
252.002904
 31
0.0
  0
LINE
  8
15
  5
631
 10
214.756056
 20
249.509404
 30
0.0
 11
213.316665
 21
252.002904
 31
0.0
  0
LINE
  8
16
  5
632
 10
112.173466
 20
213.403524
 30
0.0
 11
120.551626
 21
213.403524
 31
0.0
  0
LINE
  8
16
  5
633
 10
176.156676
 20
250.133492
 30
0.0
 11
176.156676
 21
245.944412
 31
0.0
  0
LINE
  8
1A
  5
634
 10
194.120705
 20
257.488604
 30
0.0
 11
204.621332
 21
257.488604
 31
0.0
  0
LINE
  8
17
  5
635
 10
199.894796
 20
262.475604
 30
0.0
 11
198.398696
 21
262.475604
 31
0.0
  0
LINE
  8
15
  5
636
 10
195.581469
 20
268.160784
 30
0.0
 11
209.406003
 21
268.160784
 31
0.0
  0
LINE
  8
16
  5
637
 10
193.566151
 20
266.664684
 30
0.0
 11
208.474431
 21
266.664684
 31
0.0
  0
LINE
  8
15
  5
638
 10
212.860996
 20
233.052304
 30
0.0
 11
212.860996
 21
263.638288
 31
0.0
  0
LINE
  8
16
  5
639
 10
176.156676
 20
250.133492
 30
0.0
 11
176.156676
 21
256.989904
 31
0.0
  0
LINE
  8
15
  5
63A
 10
212.593978
 20
264.635688
 30
0.0
 11
211.133499
 21
267.163384
 31
0.0
  0
LINE
  8
16
  5
63B
 10
210.798658
 20
264.635688
 30
0.0
 11
210.201928
 21
265.667284
 31
0.0
  0
LINE
  8
16
  5
63C
 10
211.065676
 20
252.002904
 30
0.0
 11
212.362296
 21
252.002904
 31
0.0
  0
LINE
  8
16
  5
63D
 10
214.756056
 20
233.052304
 30
0.0
 11
214.756056
 21
245.519804
 31
0.0
  0
LINE
  8
16
  5
63E
 10
189.222616
 20
256.989904
 30
0.0
 11
189.222616
 21
263.504351
 31
0.0
  0
LINE
  8
16
  5
63F
 10
189.222616
 20
260.634689
 30
0.0
 11
189.222616
 21
256.989904
 31
0.0
  0
LINE
  8
16
  5
640
 10
189.556888
 20
264.749676
 30
0.0
 11
189.942454
 21
265.419359
 31
0.0
  0
LINE
  8
16
  5
641
 10
168.676176
 20
201.434724
 30
0.0
 11
189.510722
 21
201.434724
 31
0.0
  0
LINE
  8
15
  5
642
 10
193.566151
 20
199.439924
 30
0.0
 11
193.853972
 21
198.941224
 31
0.0
  0
LINE
  8
15
  5
643
 10
193.566151
 20
266.664684
 30
0.0
 11
193.853972
 21
267.163384
 31
0.0
  0
LINE
  8
16
  5
644
 10
214.756056
 20
233.052304
 30
0.0
 11
214.756056
 21
220.584804
 31
0.0
  0
LINE
  8
16
  5
645
 10
211.065676
 20
214.101704
 30
0.0
 11
212.362296
 21
214.101704
 31
0.0
  0
LINE
  8
16
  5
646
 10
210.798658
 20
201.471771
 30
0.0
 11
210.201928
 21
200.437324
 31
0.0
  0
LINE
  8
15
  5
647
 10
212.593978
 20
201.471771
 30
0.0
 11
211.133499
 21
198.941224
 31
0.0
  0
LINE
  8
15
  5
648
 10
212.860996
 20
233.052304
 30
0.0
 11
212.860996
 21
202.469171
 31
0.0
  0
LINE
  8
16
  5
649
 10
193.566151
 20
199.439924
 30
0.0
 11
208.474431
 21
199.439924
 31
0.0
  0
LINE
  8
15
  5
64A
 10
195.581469
 20
197.943824
 30
0.0
 11
201.525403
 21
197.943824
 31
0.0
  0
LINE
  8
15
  5
64B
 10
214.756056
 20
216.595204
 30
0.0
 11
213.316665
 21
214.101704
 31
0.0
  0
LINE
  8
15
  5
64C
 10
212.860996
 20
214.101704
 30
0.0
 11
213.316665
 21
214.101704
 31
0.0
  0
LINE
  8
16
  5
64D
 10
211.065676
 20
202.469171
 30
0.0
 11
211.065676
 21
214.101704
 31
0.0
  0
LINE
  8
15
  5
64E
 10
118.157866
 20
197.097459
 30
0.0
 11
118.157866
 21
197.943824
 31
0.0
  0
LINE
  8
17
  5
64F
 10
175.946937
 20
275.299318
 30
0.0
 11
176.937498
 21
275.416157
 31
0.0
  0
LINE
  8
1A
  5
650
 10
173.947293
 20
271.047545
 30
0.0
 11
180.423838
 21
271.808418
 31
0.0
  0
LINE
  8
15
  5
651
 10
120.551626
 20
263.572744
 30
0.0
 11
120.551626
 21
266.963904
 31
0.0
  0
LINE
  8
15
  5
652
 10
111.874246
 20
253.399264
 30
0.0
 11
111.874246
 21
266.715979
 31
0.0
  0
LINE
  8
15
  5
653
 10
220.092146
 20
238.737484
 30
0.0
 11
220.092146
 21
245.220584
 31
0.0
  0
LINE
  8
15
  5
654
 10
120.551626
 20
198.442524
 30
0.0
 11
120.551626
 21
213.603004
 31
0.0
  0
LINE
  8
15
  5
655
 10
120.052926
 20
197.943824
 30
0.0
 11
118.157866
 21
197.943824
 31
0.0
  0
LINE
  8
15
  5
656
 10
111.874246
 20
199.391479
 30
0.0
 11
111.874246
 21
203.130304
 31
0.0
  0
LINE
  8
17
  6
PHANTOM
  5
657
 10
199.894796
 20
262.475604
 30
0.0
 11
199.894796
 21
252.44746
 31
0.0
  0
LINE
  8
17
  6
PHANTOM
  5
658
 10
198.398696
 20
252.473107
 30
0.0
 11
198.398696
 21
262.475604
 31
0.0
  0
LINE
  8
17
  6
PHANTOM
  5
659
 10
175.946937
 20
275.299318
 30
0.0
 11
176.937498
 21
266.878413
 31
0.0
  0
LINE
  8
17
  6
PHANTOM
  5
65A
 10
177.907826
 20
267.166234
 30
0.0
 11
176.937498
 21
275.416157
 31
0.0
  0
LINE
  8
15
  5
65B
 10
113.569826
 20
196.598759
 30
0.0
 11
117.659166
 21
196.598759
 31
0.0
  0
LINE
  8
15
  5
65C
 10
201.525403
 20
197.943824
 30
0.0
 11
209.406003
 21
197.943824
 31
0.0
  0
LINE
  8
16
  5
65D
 10
189.222616
 20
209.114704
 30
0.0
 11
189.222616
 21
202.603107
 31
0.0
  0
LINE
  8
15
  5
65E
 10
189.556888
 20
201.354932
 30
0.0
 11
189.942454
 21
200.688099
 31
0.0
  0
LINE
  8
16
  5
65F
 10
112.672166
 20
263.572744
 30
0.0
 11
120.052926
 21
263.572744
 31
0.0
  0
LINE
  8
0C
  5
660
 10
329.730898
 20
267.063644
 30
0.0
 11
330.081413
 21
267.063644
 31
0.0
  0
LINE
  8
0B
  5
661
 10
342.050212
 20
267.063644
 30
0.0
 11
342.050212
 21
277.237124
 31
0.0
  0
LINE
  8
0B
  5
662
 10
340.354632
 20
277.536344
 30
0.0
 11
341.750992
 21
277.536344
 31
0.0
  0
LINE
  8
0C
  5
663
 10
332.275693
 20
275.541544
 30
0.0
 11
332.275693
 21
268.160784
 31
0.0
  0
LINE
  8
0B
  5
664
 10
332.275693
 20
275.541544
 30
0.0
 11
340.055412
 21
275.541544
 31
0.0
  0
LINE
  8
0C
  5
665
 10
357.558358
 20
267.063644
 30
0.0
 11
346.239292
 21
267.063644
 31
0.0
  0
LINE
  8
0C
  5
666
 10
355.016412
 20
275.541544
 30
0.0
 11
355.016412
 21
267.063644
 31
0.0
  0
LINE
  8
0B
  5
667
 10
355.894124
 20
276.538944
 30
0.0
 11
355.515112
 21
276.538944
 31
0.0
  0
LINE
  8
0B
  5
668
 10
347.236692
 20
275.541544
 30
0.0
 11
355.016412
 21
275.541544
 31
0.0
  0
LINE
  8
0C
  5
669
 10
340.055412
 20
267.063644
 30
0.0
 11
340.055412
 21
275.541544
 31
0.0
  0
LINE
  8
0C
  5
66A
 10
347.236692
 20
267.063644
 30
0.0
 11
347.236692
 21
275.541544
 31
0.0
  0
LINE
  8
0B
  5
66B
 10
331.395131
 20
276.538944
 30
0.0
 11
331.776993
 21
276.538944
 31
0.0
  0
LINE
  8
0B
  5
66C
 10
329.730898
 20
269.656884
 30
0.0
 11
330.90498
 21
276.128585
 31
0.0
  0
LINE
  8
0B
  5
66D
 10
357.558358
 20
269.656884
 30
0.0
 11
356.387125
 21
276.128585
 31
0.0
  0
LINE
  8
0C
  5
66E
 10
334.669452
 20
228.364524
 30
0.0
 11
344.643452
 21
228.364524
 31
0.0
  0
LINE
  8
0C
  5
66F
 10
337.909578
 20
228.364524
 30
0.0
 11
337.909578
 21
233.052304
 31
0.0
  0
LINE
  8
0C
  5
670
 10
342.397878
 20
228.364524
 30
0.0
 11
342.397878
 21
233.052304
 31
0.0
  0
LINE
  8
0C
  5
671
 10
334.669452
 20
237.740084
 30
0.0
 11
344.643452
 21
237.740084
 31
0.0
  0
LINE
  8
0C
  5
672
 10
343.147352
 20
245.519804
 30
0.0
 11
344.643452
 21
245.519804
 31
0.0
  0
LINE
  8
0C
  5
673
 10
343.147352
 20
245.519804
 30
0.0
 11
343.147352
 21
248.013304
 31
0.0
  0
LINE
  8
0C
  5
674
 10
343.147352
 20
248.013304
 30
0.0
 11
344.643452
 21
248.013304
 31
0.0
  0
LINE
  8
0C
  5
675
 10
337.909578
 20
237.740084
 30
0.0
 11
337.909578
 21
233.052304
 31
0.0
  0
LINE
  8
0C
  5
676
 10
342.397878
 20
237.740084
 30
0.0
 11
342.397878
 21
233.052304
 31
0.0
  0
LINE
  8
0C
  5
677
 10
339.656452
 20
245.519804
 30
0.0
 11
339.656452
 21
237.740084
 31
0.0
  0
LINE
  8
0C
  5
678
 10
343.047612
 20
267.063644
 30
0.0
 11
343.047612
 21
252.002904
 31
0.0
  0
LINE
  8
0C
  5
679
 10
333.273093
 20
252.002904
 30
0.0
 11
333.273093
 21
267.662084
 31
0.0
  0
LINE
  8
0C
  5
67A
 10
330.580113
 20
268.160784
 30
0.0
 11
332.774393
 21
268.160784
 31
0.0
  0
LINE
  8
0B
  5
67B
 10
343.546312
 20
268.160784
 30
0.0
 11
345.241892
 21
268.160784
 31
0.0
  0
LINE
  8
0B
  5
67C
 10
369.079752
 20
262.675084
 30
0.0
 11
367.384172
 21
262.675084
 31
0.0
  0
LINE
  8
0B
  5
67D
 10
365.588852
 20
259.184184
 30
0.0
 11
366.885472
 21
259.184184
 31
0.0
  0
LINE
  8
0C
  5
67E
 10
358.108352
 20
252.002904
 30
0.0
 11
317.214953
 21
252.002904
 31
0.0
  0
LINE
  8
0C
  5
67F
 10
358.108352
 20
249.509404
 30
0.0
 11
317.214953
 21
249.509404
 31
0.0
  0
LINE
  8
0C
  5
680
 10
334.669452
 20
233.052304
 30
0.0
 11
334.669452
 21
220.584804
 31
0.0
  0
LINE
  8
0C
  5
681
 10
334.669452
 20
245.519804
 30
0.0
 11
339.656452
 21
245.519804
 31
0.0
  0
LINE
  8
0C
  5
682
 10
344.643452
 20
220.584804
 30
0.0
 11
334.669452
 21
220.584804
 31
0.0
  0
LINE
  8
0C
  5
683
 10
358.108352
 20
252.002904
 30
0.0
 11
358.108352
 21
248.512004
 31
0.0
  0
LINE
  8
0C
  5
684
 10
358.108352
 20
251.005504
 30
0.0
 11
370.077152
 21
251.005504
 31
0.0
  0
LINE
  8
10
  5
685
 10
363.095352
 20
254.496404
 30
0.0
 11
360.978015
 21
256.613742
 31
0.0
  0
LINE
  8
10
  5
686
 10
363.095352
 20
254.496404
 30
0.0
 11
363.799232
 21
255.203133
 31
0.0
  0
LINE
  8
10
  5
687
 10
363.095352
 20
254.496404
 30
0.0
 11
362.388623
 21
253.792525
 31
0.0
  0
LINE
  8
10
  5
688
 10
363.095352
 20
254.496404
 30
0.0
 11
365.20984
 21
252.381916
 31
0.0
  0
LINE
  8
0C
  5
689
 10
333.273093
 20
262.475604
 30
0.0
 11
343.047612
 21
262.475604
 31
0.0
  0
LINE
  8
0C
  5
68A
 10
346.239292
 20
262.475604
 30
0.0
 11
356.013812
 21
262.475604
 31
0.0
  0
LINE
  8
0C
  5
68B
 10
333.273093
 20
267.063644
 30
0.0
 11
342.050212
 21
267.063644
 31
0.0
  0
LINE
  8
0C
  5
68C
 10
355.614852
 20
199.439924
 30
0.0
 11
355.614852
 21
201.434724
 31
0.0
  0
LINE
  8
0C
  5
68D
 10
359.105752
 20
203.429524
 30
0.0
 11
359.604452
 21
203.429524
 31
0.0
  0
LINE
  8
0C
  5
68E
 10
359.604452
 20
203.429524
 30
0.0
 11
359.604452
 21
199.439924
 31
0.0
  0
LINE
  8
0C
  5
68F
 10
333.672052
 20
245.519804
 30
0.0
 11
320.207153
 21
245.519804
 31
0.0
  0
LINE
  8
0C
  5
690
 10
320.207153
 20
220.584804
 30
0.0
 11
333.672052
 21
220.584804
 31
0.0
  0
LINE
  8
0B
  5
691
 10
345.241892
 20
268.160784
 30
0.0
 11
345.241892
 21
277.237124
 31
0.0
  0
LINE
  8
0B
  5
692
 10
357.558358
 20
266.664684
 30
0.0
 11
358.54597
 21
266.66469
 31
0.0
  0
LINE
  8
0B
  5
693
 10
318.212353
 20
266.664684
 30
0.0
 11
319.808193
 21
266.664684
 31
0.0
  0
LINE
  8
0B
  5
694
 10
365.588852
 20
262.974304
 30
0.0
 11
365.588852
 21
259.184184
 31
0.0
  0
LINE
  8
10
  5
695
 10
338.160352
 20
252.832171
 30
0.0
 11
338.160352
 21
261.728979
 31
0.0
  0
LINE
  8
0B
  5
696
 10
329.730898
 20
269.656884
 30
0.0
 11
329.730898
 21
263.572744
 31
0.0
  0
LINE
  8
0B
  5
697
 10
357.558358
 20
269.656884
 30
0.0
 11
357.558358
 21
266.664684
 31
0.0
  0
LINE
  8
0C
  5
698
 10
343.047612
 20
263.572744
 30
0.0
 11
333.273093
 21
263.572744
 31
0.0
  0
LINE
  8
0C
  5
699
 10
334.669452
 20
245.519804
 30
0.0
 11
334.669452
 21
233.052304
 31
0.0
  0
LINE
  8
0C
  5
69A
 10
333.672052
 20
245.519804
 30
0.0
 11
333.672052
 21
220.584804
 31
0.0
  0
LINE
  8
0C
  5
69B
 10
354.617452
 20
245.519804
 30
0.0
 11
349.630452
 21
245.519804
 31
0.0
  0
LINE
  8
0C
  5
69C
 10
346.886178
 20
237.740084
 30
0.0
 11
346.886178
 21
233.052304
 31
0.0
  0
LINE
  8
0C
  5
69D
 10
346.139552
 20
245.519804
 30
0.0
 11
346.139552
 21
248.013304
 31
0.0
  0
LINE
  8
0C
  5
69E
 10
346.886178
 20
228.364524
 30
0.0
 11
346.886178
 21
233.052304
 31
0.0
  0
LINE
  8
0C
  5
69F
 10
351.374478
 20
228.364524
 30
0.0
 11
351.374478
 21
233.052304
 31
0.0
  0
LINE
  8
0C
  5
6A0
 10
354.617452
 20
245.519804
 30
0.0
 11
354.617452
 21
233.052304
 31
0.0
  0
LINE
  8
0C
  5
6A1
 10
354.617452
 20
237.740084
 30
0.0
 11
344.643452
 21
237.740084
 31
0.0
  0
LINE
  8
0C
  5
6A2
 10
349.630452
 20
245.519804
 30
0.0
 11
349.630452
 21
237.740084
 31
0.0
  0
LINE
  8
0C
  5
6A3
 10
346.139552
 20
248.013304
 30
0.0
 11
344.643452
 21
248.013304
 31
0.0
  0
LINE
  8
0C
  5
6A4
 10
346.139552
 20
245.519804
 30
0.0
 11
344.643452
 21
245.519804
 31
0.0
  0
LINE
  8
0C
  5
6A5
 10
351.374478
 20
237.740084
 30
0.0
 11
351.374478
 21
233.052304
 31
0.0
  0
LINE
  8
0C
  5
6A6
 10
354.617452
 20
228.364524
 30
0.0
 11
344.643452
 21
228.364524
 31
0.0
  0
LINE
  8
0C
  5
6A7
 10
354.617452
 20
233.052304
 30
0.0
 11
354.617452
 21
220.584804
 31
0.0
  0
LINE
  8
0C
  5
6A8
 10
344.643452
 20
220.584804
 30
0.0
 11
354.617452
 21
220.584804
 31
0.0
  0
LINE
  8
0C
  5
6A9
 10
320.207153
 20
245.519804
 30
0.0
 11
320.207153
 21
220.584804
 31
0.0
  0
LINE
  8
0C
  5
6AA
 10
369.079752
 20
245.519804
 30
0.0
 11
369.079752
 21
220.584804
 31
0.0
  0
LINE
  8
0C
  5
6AB
 10
369.079752
 20
220.584804
 30
0.0
 11
355.614852
 21
220.584804
 31
0.0
  0
LINE
  8
0C
  5
6AC
 10
355.614852
 20
245.519804
 30
0.0
 11
355.614852
 21
220.584804
 31
0.0
  0
LINE
  8
0C
  5
6AD
 10
355.614852
 20
245.519804
 30
0.0
 11
369.079752
 21
245.519804
 31
0.0
  0
LINE
  8
0C
  5
6AE
 10
330.081413
 20
252.002904
 30
0.0
 11
330.081413
 21
267.662084
 31
0.0
  0
LINE
  8
0B
  5
6AF
 10
320.306893
 20
262.475604
 30
0.0
 11
320.306893
 21
266.165984
 31
0.0
  0
LINE
  8
0B
  5
6B0
 10
317.214953
 20
200.437324
 30
0.0
 11
317.214953
 21
265.667284
 31
0.0
  0
LINE
  8
10
  5
6B1
 10
363.095352
 20
258.411912
 30
0.0
 11
363.095352
 21
249.871318
 31
0.0
  0
LINE
  8
0B
  5
6B2
 10
320.306893
 20
262.475604
 30
0.0
 11
323.75004
 21
262.475607
 31
0.0
  0
LINE
  8
0C
  5
6B3
 10
358.108352
 20
248.512004
 30
0.0
 11
370.077152
 21
248.512004
 31
0.0
  0
LINE
  8
10
  5
6B4
 10
325.194153
 20
257.488604
 30
0.0
 11
323.851937
 21
256.149239
 31
0.0
  0
LINE
  8
10
  5
6B5
 10
325.194153
 20
257.488604
 30
0.0
 11
326.533518
 21
258.83082
 31
0.0
  0
LINE
  8
10
  5
6B6
 10
322.72345
 20
259.956457
 30
0.0
 11
325.194153
 21
257.488604
 31
0.0
  0
LINE
  8
10
  5
6B7
 10
327.662005
 20
255.020752
 30
0.0
 11
325.194153
 21
257.488604
 31
0.0
  0
LINE
  8
10
  5
6B8
 10
338.160352
 20
257.488604
 30
0.0
 11
336.818137
 21
256.149239
 31
0.0
  0
LINE
  8
10
  5
6B9
 10
335.68965
 20
259.956457
 30
0.0
 11
338.160352
 21
257.488604
 31
0.0
  0
LINE
  8
10
  5
6BA
 10
338.160352
 20
257.488604
 30
0.0
 11
339.499718
 21
258.83082
 31
0.0
  0
LINE
  8
10
  5
6BB
 10
340.628205
 20
255.020752
 30
0.0
 11
338.160352
 21
257.488604
 31
0.0
  0
LINE
  8
10
  5
6BC
 10
351.126552
 20
257.488604
 30
0.0
 11
349.784337
 21
256.149239
 31
0.0
  0
LINE
  8
10
  5
6BD
 10
348.65585
 20
259.956457
 30
0.0
 11
351.126552
 21
257.488604
 31
0.0
  0
LINE
  8
10
  5
6BE
 10
351.126552
 20
257.488604
 30
0.0
 11
352.465918
 21
258.83082
 31
0.0
  0
LINE
  8
10
  5
6BF
 10
353.594405
 20
255.020752
 30
0.0
 11
351.126552
 21
257.488604
 31
0.0
  0
LINE
  8
10
  5
6C0
 10
351.126552
 20
261.845817
 30
0.0
 11
351.126552
 21
253.219732
 31
0.0
  0
LINE
  8
10
  5
6C1
 10
358.421821
 20
254.496404
 30
0.0
 11
367.549456
 21
254.496404
 31
0.0
  0
LINE
  8
0C
  5
6C2
 10
356.013812
 20
263.572744
 30
0.0
 11
346.239292
 21
263.572744
 31
0.0
  0
LINE
  8
0C
  5
6C3
 10
358.607052
 20
199.439924
 30
0.0
 11
356.512512
 21
199.439924
 31
0.0
  0
LINE
  8
0B
  5
6C4
 10
319.808193
 20
199.439924
 30
0.0
 11
318.212353
 21
199.439924
 31
0.0
  0
LINE
  8
0B
  5
6C5
 10
369.079752
 20
203.429524
 30
0.0
 11
367.384172
 21
203.429524
 31
0.0
  0
LINE
  8
0B
  5
6C6
 10
366.885472
 20
203.928224
 30
0.0
 11
366.885472
 21
206.920424
 31
0.0
  0
LINE
  8
0C
  5
6C7
 10
358.108352
 20
214.101704
 30
0.0
 11
358.108352
 21
217.592604
 31
0.0
  0
LINE
  8
0C
  5
6C8
 10
358.108352
 20
217.592604
 30
0.0
 11
370.077152
 21
217.592604
 31
0.0
  0
LINE
  8
0C
  5
6C9
 10
358.108352
 20
215.099104
 30
0.0
 11
370.077152
 21
215.099104
 31
0.0
  0
LINE
  8
10
  5
6CA
 10
363.095352
 20
211.608204
 30
0.0
 11
365.20984
 21
209.493716
 31
0.0
  0
LINE
  8
10
  5
6CB
 10
363.095352
 20
211.608204
 30
0.0
 11
363.799232
 21
212.314933
 31
0.0
  0
LINE
  8
10
  5
6CC
 10
363.095352
 20
211.608204
 30
0.0
 11
360.978015
 21
213.725542
 31
0.0
  0
LINE
  8
10
  5
6CD
 10
363.095352
 20
211.608204
 30
0.0
 11
362.388623
 21
210.904325
 31
0.0
  0
LINE
  8
0C
  5
6CE
 10
359.105752
 20
215.099104
 30
0.0
 11
359.105752
 21
199.938624
 31
0.0
  0
LINE
  8
0C
  5
6CF
 10
330.081413
 20
203.629004
 30
0.0
 11
320.306893
 21
203.629004
 31
0.0
  0
LINE
  8
0C
  5
6D0
 10
343.047612
 20
203.629004
 30
0.0
 11
333.273093
 21
203.629004
 31
0.0
  0
LINE
  8
0C
  5
6D1
 10
356.013812
 20
203.629004
 30
0.0
 11
346.239292
 21
203.629004
 31
0.0
  0
LINE
  8
0C
  5
6D2
 10
317.214953
 20
216.595204
 30
0.0
 11
358.108352
 21
216.595204
 31
0.0
  0
LINE
  8
0C
  5
6D3
 10
317.214953
 20
214.101704
 30
0.0
 11
358.108352
 21
214.101704
 31
0.0
  0
LINE
  8
0B
  5
6D4
 10
332.774393
 20
197.943824
 30
0.0
 11
330.580113
 21
197.943824
 31
0.0
  0
LINE
  8
0C
  5
6D5
 10
345.740592
 20
197.943824
 30
0.0
 11
343.546312
 21
197.943824
 31
0.0
  0
LINE
  8
0B
  5
6D6
 10
320.306893
 20
203.629004
 30
0.0
 11
320.306893
 21
199.938624
 31
0.0
  0
LINE
  8
0C
  5
6D7
 10
356.013812
 20
214.101704
 30
0.0
 11
356.013812
 21
199.938624
 31
0.0
  0
LINE
  8
0C
  5
6D8
 10
343.047612
 20
214.101704
 30
0.0
 11
343.047612
 21
198.442524
 31
0.0
  0
LINE
  8
0C
  5
6D9
 10
333.271649
 20
199.919309
 30
0.0
 11
333.273093
 21
214.101704
 31
0.0
  0
LINE
  8
10
 62
     6
  5
6DA
 10
351.126552
 20
204.258791
 30
0.0
 11
351.126552
 21
212.884876
 31
0.0
  0
LINE
  8
10
 62
     6
  5
6DB
 10
363.095352
 20
207.601506
 30
0.0
 11
363.095352
 21
216.233291
 31
0.0
  0
LINE
  8
10
  5
6DC
 10
368.526908
 20
211.608204
 30
0.0
 11
357.809132
 21
211.608204
 31
0.0
  0
LINE
  8
0B
  5
6DD
 10
366.885472
 20
206.920424
 30
0.0
 11
365.085718
 21
206.920449
 31
0.0
  0
LINE
  8
10
  5
6DE
 10
351.126552
 20
208.616004
 30
0.0
 11
352.465918
 21
209.95822
 31
0.0
  0
LINE
  8
10
  5
6DF
 10
351.126552
 20
208.616004
 30
0.0
 11
349.784337
 21
207.276639
 31
0.0
  0
LINE
  8
10
  5
6E0
 10
353.594405
 20
206.148152
 30
0.0
 11
351.126552
 21
208.616004
 31
0.0
  0
LINE
  8
10
  5
6E1
 10
348.65585
 20
211.083857
 30
0.0
 11
351.126552
 21
208.616004
 31
0.0
  0
LINE
  8
10
  5
6E2
 10
322.72345
 20
211.083857
 30
0.0
 11
325.194153
 21
208.616004
 31
0.0
  0
LINE
  8
10
  5
6E3
 10
325.194153
 20
208.616004
 30
0.0
 11
323.851937
 21
207.276639
 31
0.0
  0
LINE
  8
10
  5
6E4
 10
327.662005
 20
206.148152
 30
0.0
 11
325.194153
 21
208.616004
 31
0.0
  0
LINE
  8
10
  5
6E5
 10
325.194153
 20
208.616004
 30
0.0
 11
326.533518
 21
209.95822
 31
0.0
  0
LINE
  8
10
  5
6E6
 10
335.68965
 20
211.083857
 30
0.0
 11
338.160352
 21
208.616004
 31
0.0
  0
LINE
  8
10
  5
6E7
 10
338.160352
 20
208.616004
 30
0.0
 11
336.818137
 21
207.276639
 31
0.0
  0
LINE
  8
10
  5
6E8
 10
340.628205
 20
206.148152
 30
0.0
 11
338.160352
 21
208.616004
 31
0.0
  0
LINE
  8
10
  5
6E9
 10
338.160352
 20
208.616004
 30
0.0
 11
339.499718
 21
209.95822
 31
0.0
  0
LINE
  8
10
 62
     6
  5
6EA
 10
325.194153
 20
204.258791
 30
0.0
 11
325.194153
 21
212.884876
 31
0.0
  0
LINE
  8
0B
  5
6EB
 10
370.077152
 20
233.052304
 30
0.0
 11
370.077152
 21
204.426924
 31
0.0
  0
LINE
  8
0B
  5
6EC
 10
351.126552
 20
197.943824
 30
0.0
 11
360.103152
 21
197.943824
 31
0.0
  0
LINE
  8
0B
  5
6ED
 10
330.08139
 20
200.891109
 30
0.0
 11
330.081413
 21
198.442524
 31
0.0
  0
LINE
  8
10
 62
     6
  5
6EE
 10
338.160352
 20
213.372177
 30
0.0
 11
338.160352
 21
204.224595
 31
0.0
  0
LINE
  8
0C
  5
6EF
 10
354.617452
 20
199.439924
 30
0.0
 11
354.617452
 21
201.434724
 31
0.0
  0
LINE
  8
0C
  5
6F0
 10
352.123952
 20
199.439924
 30
0.0
 11
354.617452
 21
199.439924
 31
0.0
  0
LINE
  8
0C
  5
6F1
 10
344.643452
 20
244.322924
 30
0.0
 11
349.630452
 21
244.322924
 31
0.0
  0
LINE
  8
0C
  5
6F2
 10
344.643452
 20
244.322924
 30
0.0
 11
339.656452
 21
244.322924
 31
0.0
  0
LINE
  8
10
  5
6F3
 10
336.165552
 20
271.452204
 30
0.0
 11
335.458823
 21
270.748325
 31
0.0
  0
LINE
  8
10
  5
6F4
 10
336.165552
 20
271.452204
 30
0.0
 11
336.869432
 21
272.158933
 31
0.0
  0
LINE
  8
10
  5
6F5
 10
351.126552
 20
271.452204
 30
0.0
 11
350.419823
 21
270.748325
 31
0.0
  0
LINE
  8
10
  5
6F6
 10
351.126552
 20
271.452204
 30
0.0
 11
351.830432
 21
272.158933
 31
0.0
  0
LINE
  8
10
  5
6F7
 10
346.415975
 20
271.452204
 30
0.0
 11
355.879876
 21
271.452204
 31
0.0
  0
LINE
  8
10
  5
6F8
 10
338.28004
 20
269.337716
 30
0.0
 11
336.165552
 21
271.452204
 31
0.0
  0
LINE
  8
10
  5
6F9
 10
334.048215
 20
273.569542
 30
0.0
 11
336.165552
 21
271.452204
 31
0.0
  0
LINE
  8
10
  5
6FA
 10
353.24104
 20
269.337716
 30
0.0
 11
351.126552
 21
271.452204
 31
0.0
  0
LINE
  8
10
  5
6FB
 10
349.009215
 20
273.569542
 30
0.0
 11
351.126552
 21
271.452204
 31
0.0
  0
LINE
  8
10
  5
6FC
 10
340.916026
 20
271.452204
 30
0.0
 11
331.526218
 21
271.452204
 31
0.0
  0
LINE
  8
10
  5
6FD
 10
336.165552
 20
267.357165
 30
0.0
 11
336.165552
 21
275.353463
 31
0.0
  0
LINE
  8
10
  5
6FE
 10
351.126552
 20
267.357165
 30
0.0
 11
351.126552
 21
275.353463
 31
0.0
  0
LINE
  8
0C
  5
6FF
 10
366.885472
 20
251.005504
 30
0.0
 11
366.885472
 21
259.184184
 31
0.0
  0
LINE
  8
0C
  5
700
 10
359.205492
 20
251.005504
 30
0.0
 11
359.205492
 21
266.165984
 31
0.0
  0
LINE
  8
0C
  5
701
 10
346.239292
 20
252.002904
 30
0.0
 11
346.239292
 21
267.662084
 31
0.0
  0
LINE
  8
0C
  5
702
 10
356.013812
 20
252.002904
 30
0.0
 11
356.013812
 21
266.165984
 31
0.0
  0
LINE
  8
10
  5
703
 10
325.194153
 20
261.845817
 30
0.0
 11
325.194153
 21
253.219732
 31
0.0
  0
LINE
  8
0B
  5
704
 10
370.077152
 20
233.052304
 30
0.0
 11
370.077152
 21
261.677684
 31
0.0
  0
LINE
  8
0B
  5
705
 10
361.100552
 20
202.660102
 30
0.0
 11
361.100552
 21
198.941224
 31
0.0
  0
LINE
  8
10
  5
706
 10
318.33489
 20
208.616004
 30
0.0
 11
357.279086
 21
208.616004
 31
0.0
  0
LINE
  8
0B
  5
707
 10
346.937472
 20
277.536344
 30
0.0
 11
345.541112
 21
277.536344
 31
0.0
  0
LINE
  8
10
  5
708
 10
357.982965
 20
257.488604
 30
0.0
 11
319.041619
 21
257.488604
 31
0.0
  0
LINE
  8
0C
  5
709
 10
346.239292
 20
214.101704
 30
0.0
 11
346.239292
 21
198.442524
 31
0.0
  0
LINE
  8
0C
  5
70A
 10
359.604452
 20
199.439924
 30
0.0
 11
355.614852
 21
199.439924
 31
0.0
  0
LINE
  8
0B
  5
70B
 10
349.131752
 20
198.442524
 30
0.0
 11
349.131752
 21
196.598759
 31
0.0
  0
LINE
  8
0B
  5
70C
 10
336.165552
 20
198.442524
 30
0.0
 11
336.165552
 21
197.097459
 31
0.0
  0
LINE
  8
0B
  5
70D
 10
339.157752
 20
198.442524
 30
0.0
 11
339.157752
 21
197.596159
 31
0.0
  0
LINE
  8
0B
  5
70E
 10
348.134352
 20
198.442524
 30
0.0
 11
348.134352
 21
197.596159
 31
0.0
  0
LINE
  8
0B
  5
70F
 10
336.664252
 20
196.598759
 30
0.0
 11
338.160352
 21
196.598759
 31
0.0
  0
LINE
  8
0B
  5
710
 10
338.160352
 20
198.442524
 30
0.0
 11
338.160352
 21
196.598759
 31
0.0
  0
LINE
  8
0B
  5
711
 10
349.131752
 20
196.598759
 30
0.0
 11
350.627852
 21
196.598759
 31
0.0
  0
LINE
  8
0B
  5
712
 10
351.126552
 20
197.943824
 30
0.0
 11
351.126552
 21
197.097459
 31
0.0
  0
LINE
  8
0B
  5
713
 10
339.157752
 20
197.596159
 30
0.0
 11
348.134352
 21
197.596159
 31
0.0
  0
LINE
  8
0C
  5
714
 10
333.273093
 20
201.434724
 30
0.0
 11
343.047612
 21
201.434724
 31
0.0
  0
LINE
  8
0C
  5
715
 10
346.239292
 20
201.434724
 30
0.0
 11
356.013812
 21
201.434724
 31
0.0
  0
LINE
  8
0C
  5
716
 10
346.239292
 20
198.442524
 30
0.0
 11
348.134352
 21
198.442524
 31
0.0
  0
LINE
  8
0C
  5
717
 10
336.165552
 20
198.442524
 30
0.0
 11
338.160352
 21
198.442524
 31
0.0
  0
LINE
  8
0C
  5
718
 10
346.239292
 20
199.838884
 30
0.0
 11
353.668498
 21
199.838884
 31
0.0
  0
LINE
  8
0C
  5
719
 10
335.168152
 20
199.838884
 30
0.0
 11
343.047612
 21
199.838884
 31
0.0
  0
LINE
  8
0B
  5
71A
 10
335.168152
 20
198.941224
 30
0.0
 11
335.168152
 21
199.838884
 31
0.0
  0
LINE
  8
0C
  5
71B
 10
352.123952
 20
198.941224
 30
0.0
 11
352.123952
 21
199.838884
 31
0.0
  0
LINE
  8
FF
  5
71C
 10
317.214953
 20
170.803146
 30
0.0
 11
313.225353
 21
170.803146
 31
0.0
  0
LINE
  8
FF
  5
71D
 10
325.194153
 20
170.803146
 30
0.0
 11
329.180903
 21
170.803146
 31
0.0
  0
LINE
  8
FF
  5
71F
 10
343.047612
 20
182.971426
 30
0.0
 11
347.034363
 21
182.971426
 31
0.0
  0
LINE
  8
FF
  5
720
 10
323.170855
 20
258.161137
 30
0.0
 11
297.940055
 21
283.309865
 31
0.0
  0
LINE
  8
FF
  5
721
 10
335.900529
 20
258.366316
 30
0.0
 11
297.940055
 21
283.309865
 31
0.0
  0
LINE
  8
FF
  5
722
 10
348.821134
 20
258.352068
 30
0.0
 11
297.940055
 21
283.309865
 31
0.0
  0
LINE
  8
FF
  5
723
 10
337.054663
 20
273.162033
 30
0.0
 11
339.305938
 21
282.406506
 31
0.0
  0
LINE
  8
FF
  5
724
 10
452.966792
 20
277.336864
 30
0.0
 11
452.966792
 21
334.852647
 31
0.0
  0
LINE
  8
FF
  5
725
 10
477.796352
 20
201.08136
 30
0.0
 11
473.359347
 21
195.567163
 31
0.0
  0
LINE
  8
38
  6
CENTER
  5
726
 10
467.135571
 20
233.052304
 30
0.0
 11
526.38683
 21
233.052304
 31
0.0
  0
LINE
  8
FF
  5
727
 10
461.353501
 20
173.593016
 30
0.0
 11
477.796352
 21
201.08136
 31
0.0
  0
LINE
  8
38
  5
728
 10
482.883092
 20
258.984704
 30
0.0
 11
476.694284
 21
258.984704
 31
0.0
  0
LINE
  8
38
  5
729
 10
476.442738
 20
203.130304
 30
0.0
 11
482.313149
 21
203.130304
 31
0.0
  0
LINE
  8
38
  5
72A
 10
511.388784
 20
262.974304
 30
0.0
 11
517.21075
 21
262.974304
 31
0.0
  0
LINE
  8
38
  5
72B
 10
514.201452
 20
265.892412
 30
0.0
 11
514.201452
 21
259.771225
 31
0.0
  0
LINE
  8
FF
  5
72C
 10
481.167564
 20
255.220232
 30
0.0
 11
512.32349
 21
210.887227
 31
0.0
  0
LINE
  8
38
  5
72D
 10
479.292452
 20
200.223596
 30
0.0
 11
479.292452
 21
206.344782
 31
0.0
  0
LINE
  8
33
  5
72E
 10
511.457177
 20
207.119904
 30
0.0
 11
511.457177
 21
209.114704
 31
0.0
  0
LINE
  8
33
  5
72F
 10
515.945477
 20
209.114704
 30
0.0
 11
515.945477
 21
207.119904
 31
0.0
  0
LINE
  8
33
  5
730
 10
477.545577
 20
256.989904
 30
0.0
 11
477.545577
 21
258.984704
 31
0.0
  0
LINE
  8
33
  5
731
 10
482.033877
 20
258.984704
 30
0.0
 11
482.033877
 21
256.989904
 31
0.0
  0
LINE
  8
38
  6
CENTER
  5
732
 10
496.746952
 20
281.916355
 30
0.0
 11
496.746952
 21
193.714848
 31
0.0
  0
LINE
  8
FF
  5
733
 10
475.385494
 20
194.427277
 30
0.0
 11
477.796352
 21
201.08136
 31
0.0
  0
LINE
  8
FF
  5
734
 10
512.32349
 20
210.887227
 30
0.0
 11
508.741399
 21
214.44652
 31
0.0
  0
LINE
  8
FF
  5
735
 10
512.32349
 20
210.887227
 30
0.0
 11
510.02947
 21
215.386925
 31
0.0
  0
LINE
  8
FF
  5
736
 10
512.884884
 20
261.156187
 30
0.0
 11
511.009772
 21
256.465557
 31
0.0
  0
LINE
  8
FF
  5
737
 10
512.884884
 20
261.156187
 30
0.0
 11
509.641909
 21
257.286275
 31
0.0
  0
LINE
  8
FF
  5
738
 10
481.167564
 20
255.220232
 30
0.0
 11
484.749655
 21
251.660939
 31
0.0
  0
LINE
  8
FF
  5
739
 10
481.167564
 20
255.220232
 30
0.0
 11
483.461584
 21
250.720533
 31
0.0
  0
LINE
  8
FF
  5
73A
 10
480.60617
 20
204.948422
 30
0.0
 11
482.481282
 21
209.639052
 31
0.0
  0
LINE
  8
FF
  5
73B
 10
512.884884
 20
261.156187
 30
0.0
 11
480.60617
 21
204.948422
 31
0.0
  0
LINE
  8
FF
  5
73C
 10
480.60617
 20
204.948422
 30
0.0
 11
483.849145
 21
208.821184
 31
0.0
  0
LINE
  8
FF
  5
73D
 10
411.19283
 20
173.593016
 30
0.0
 11
461.353501
 21
173.593016
 31
0.0
  0
LINE
  8
34
  6
PHANTOM
 62
     3
  5
73E
 10
483.182312
 20
198.442524
 30
0.0
 11
483.182312
 21
200.890429
 31
0.0
  0
LINE
  8
34
  6
PHANTOM
  5
73F
 10
486.373992
 20
198.442524
 30
0.0
 11
486.373992
 21
199.439924
 31
0.0
  0
LINE
  8
34
  6
PHANTOM
  5
740
 10
495.151112
 20
277.237124
 30
0.0
 11
495.344893
 21
267.063644
 31
0.0
  0
LINE
  8
34
  6
PHANTOM
  5
741
 10
498.339942
 20
277.242824
 30
0.0
 11
498.16611
 21
268.160784
 31
0.0
  0
LINE
  8
34
  6
PHANTOM
  5
742
 10
508.217052
 20
197.943824
 30
0.0
 11
513.204052
 21
197.943824
 31
0.0
  0
LINE
  8
34
  6
PHANTOM
  5
743
 10
514.201452
 20
202.560362
 30
0.0
 11
514.201452
 21
198.941224
 31
0.0
  0
LINE
  8
34
  6
PHANTOM
  5
744
 10
523.178052
 20
233.052304
 30
0.0
 11
523.178052
 21
259.084444
 31
0.0
  0
LINE
  8
34
  6
PHANTOM
  5
745
 10
522.180652
 20
262.675084
 30
0.0
 11
521.032217
 21
262.675084
 31
0.0
  0
LINE
  8
34
  6
PHANTOM
  5
746
 10
523.178052
 20
259.084444
 30
0.0
 11
523.178052
 21
261.677684
 31
0.0
  0
LINE
  8
34
  6
PHANTOM
  5
747
 10
522.180652
 20
203.429524
 30
0.0
 11
521.032217
 21
203.429524
 31
0.0
  0
LINE
  8
34
  6
PHANTOM
  5
748
 10
521.057865
 20
262.675084
 30
0.0
 11
522.180652
 21
262.675084
 31
0.0
  0
LINE
  8
34
  6
PHANTOM
  5
749
 10
521.057865
 20
203.429524
 30
0.0
 11
522.180652
 21
203.429524
 31
0.0
  0
LINE
  8
34
  6
PHANTOM
  5
74A
 10
520.559165
 20
206.920424
 30
0.0
 11
520.559165
 21
203.928224
 31
0.0
  0
LINE
  8
34
  6
PHANTOM
  5
74B
 10
504.227452
 20
197.943824
 30
0.0
 11
508.217052
 21
197.943824
 31
0.0
  0
LINE
  8
34
  6
PHANTOM
  5
74C
 10
482.831797
 20
263.572744
 30
0.0
 11
479.791152
 21
263.572744
 31
0.0
  0
LINE
  8
34
  6
PHANTOM
  5
74D
 10
491.261252
 20
196.946424
 30
0.0
 11
502.232652
 21
196.946424
 31
0.0
  0
LINE
  8
34
  6
PHANTOM
  5
74E
 10
488.767752
 20
198.442524
 30
0.0
 11
489.266452
 21
198.442524
 31
0.0
  0
LINE
  8
34
  6
PHANTOM
  5
74F
 10
488.269052
 20
199.439924
 30
0.0
 11
486.373992
 21
199.439924
 31
0.0
  0
LINE
  8
34
  6
PHANTOM
  5
750
 10
488.269052
 20
199.439924
 30
0.0
 11
488.269052
 21
198.941224
 31
0.0
  0
LINE
  8
34
  6
PHANTOM
  5
751
 10
489.266452
 20
197.097459
 30
0.0
 11
489.266452
 21
198.442524
 31
0.0
  0
LINE
  8
34
  6
PHANTOM
  5
752
 10
493.455532
 20
277.536344
 30
0.0
 11
494.851892
 21
277.536344
 31
0.0
  0
LINE
  8
34
  6
PHANTOM
  5
753
 10
485.376592
 20
276.040244
 30
0.0
 11
485.376592
 21
275.541544
 31
0.0
  0
LINE
  8
34
  6
PHANTOM
  5
754
 10
485.376592
 20
275.541544
 30
0.0
 11
493.156312
 21
275.541544
 31
0.0
  0
LINE
  8
34
  6
PHANTOM
  5
755
 10
508.117312
 20
276.040244
 30
0.0
 11
508.117312
 21
275.541544
 31
0.0
  0
LINE
  8
34
  6
PHANTOM
  5
756
 10
508.995024
 20
276.538944
 30
0.0
 11
508.616012
 21
276.538944
 31
0.0
  0
LINE
  8
34
  6
PHANTOM
  5
757
 10
500.337592
 20
275.541544
 30
0.0
 11
508.117312
 21
275.541544
 31
0.0
  0
LINE
  8
34
  6
PHANTOM
  5
758
 10
493.156312
 20
275.541544
 30
0.0
 11
493.156312
 21
277.237124
 31
0.0
  0
LINE
  8
34
  6
PHANTOM
  5
759
 10
500.337592
 20
275.541544
 30
0.0
 11
500.337592
 21
277.237124
 31
0.0
  0
LINE
  8
34
  6
PHANTOM
  5
75A
 10
484.49603
 20
276.538944
 30
0.0
 11
484.877892
 21
276.538944
 31
0.0
  0
LINE
  8
34
  6
PHANTOM
  5
75B
 10
482.831797
 20
269.656884
 30
0.0
 11
484.00588
 21
276.128585
 31
0.0
  0
LINE
  8
34
  6
PHANTOM
  5
75C
 10
510.659257
 20
269.656884
 30
0.0
 11
509.488025
 21
276.128585
 31
0.0
  0
LINE
  8
34
  6
PHANTOM
  5
75D
 10
496.148512
 20
267.662084
 30
0.0
 11
496.148512
 21
267.063644
 31
0.0
  0
LINE
  8
34
  6
PHANTOM
  5
75E
 10
496.647212
 20
268.160784
 30
0.0
 11
498.16611
 21
268.160784
 31
0.0
  0
LINE
  8
34
  6
PHANTOM
  5
75F
 10
522.180652
 20
262.675084
 30
0.0
 11
520.485072
 21
262.675084
 31
0.0
  0
LINE
  8
34
  6
PHANTOM
  5
760
 10
518.689752
 20
259.184184
 30
0.0
 11
519.986372
 21
259.184184
 31
0.0
  0
LINE
  8
34
  6
PHANTOM
  5
761
 10
495.344893
 20
267.063644
 30
0.0
 11
496.148512
 21
267.063644
 31
0.0
  0
LINE
  8
34
  6
PHANTOM
  5
762
 10
510.659257
 20
266.664684
 30
0.0
 11
511.645258
 21
266.664684
 31
0.0
  0
LINE
  8
34
  6
PHANTOM
  5
763
 10
471.313252
 20
266.664684
 30
0.0
 11
472.909092
 21
266.664684
 31
0.0
  0
LINE
  8
34
  6
PHANTOM
  5
764
 10
518.689752
 20
262.974304
 30
0.0
 11
518.689752
 21
259.184184
 31
0.0
  0
LINE
  8
34
  6
PHANTOM
  5
765
 10
482.831797
 20
269.656884
 30
0.0
 11
482.831797
 21
263.572744
 31
0.0
  0
LINE
  8
34
  6
PHANTOM
  5
766
 10
510.659257
 20
269.656884
 30
0.0
 11
510.659257
 21
266.664684
 31
0.0
  0
LINE
  8
34
  6
PHANTOM
  5
767
 10
473.407792
 20
262.475604
 30
0.0
 11
473.407792
 21
266.165984
 31
0.0
  0
LINE
  8
34
  6
PHANTOM
  5
768
 10
470.315852
 20
200.437324
 30
0.0
 11
470.315852
 21
265.667284
 31
0.0
  0
LINE
  8
34
  6
PHANTOM
  5
769
 10
473.407792
 20
262.475604
 30
0.0
 11
476.850247
 21
262.475604
 31
0.0
  0
LINE
  8
34
  6
PHANTOM
  5
76A
 10
472.909092
 20
199.439924
 30
0.0
 11
471.313252
 21
199.439924
 31
0.0
  0
LINE
  8
34
  6
PHANTOM
  5
76B
 10
474.8298
 20
203.629004
 30
0.0
 11
473.407792
 21
203.629004
 31
0.0
  0
LINE
  8
34
  6
PHANTOM
  5
76C
 10
485.875292
 20
197.943824
 30
0.0
 11
483.681012
 21
197.943824
 31
0.0
  0
LINE
  8
34
  6
PHANTOM
  5
76D
 10
473.407792
 20
203.629004
 30
0.0
 11
473.407792
 21
199.938624
 31
0.0
  0
LINE
  8
34
  6
PHANTOM
  5
76E
 10
520.559165
 20
206.920424
 30
0.0
 11
518.185353
 21
206.920424
 31
0.0
  0
LINE
  8
34
  6
PHANTOM
  5
76F
 10
523.178052
 20
233.052304
 30
0.0
 11
523.178052
 21
204.426924
 31
0.0
  0
LINE
  8
34
  6
PHANTOM
  5
770
 10
504.227452
 20
197.943824
 30
0.0
 11
513.204052
 21
197.943824
 31
0.0
  0
LINE
  8
34
  6
PHANTOM
  5
771
 10
519.986372
 20
259.184184
 30
0.0
 11
519.986372
 21
262.176384
 31
0.0
  0
LINE
  8
34
  6
PHANTOM
  5
772
 10
514.201452
 20
202.660102
 30
0.0
 11
514.201452
 21
198.941224
 31
0.0
  0
LINE
  8
34
  6
PHANTOM
  5
773
 10
500.038372
 20
277.536344
 30
0.0
 11
498.639162
 21
277.536344
 31
0.0
  0
LINE
  8
34
  6
PHANTOM
  5
774
 10
502.232652
 20
196.946424
 30
0.0
 11
502.232652
 21
196.598759
 31
0.0
  0
LINE
  8
34
  6
PHANTOM
  5
775
 10
489.765152
 20
196.598759
 30
0.0
 11
491.261252
 21
196.598759
 31
0.0
  0
LINE
  8
34
  6
PHANTOM
  5
776
 10
491.261252
 20
196.946424
 30
0.0
 11
491.261252
 21
196.598759
 31
0.0
  0
LINE
  8
34
  6
PHANTOM
  5
777
 10
502.232652
 20
196.598759
 30
0.0
 11
503.728752
 21
196.598759
 31
0.0
  0
LINE
  8
34
  6
PHANTOM
  5
778
 10
504.227452
 20
197.943824
 30
0.0
 11
504.227452
 21
197.097459
 31
0.0
  0
LINE
  8
34
  6
PHANTOM
  5
779
 10
488.767752
 20
198.442524
 30
0.0
 11
489.266452
 21
198.442524
 31
0.0
  0
LINE
  8
38
  6
CENTER
  5
77A
 10
496.746952
 20
281.916355
 30
0.0
 11
496.746952
 21
193.389981
 31
0.0
  0
LINE
  8
0B
  5
77B
 10
326.690253
 20
263.572744
 30
0.0
 11
329.730898
 21
263.572744
 31
0.0
  0
LINE
  8
0D
  6
PHANTOM
  5
77C
 10
317.246299
 20
263.136738
 30
0.0
 11
304.778799
 21
263.136738
 31
0.0
  0
LINE
  8
0D
  6
PHANTOM
  5
77D
 10
304.778799
 20
263.136738
 30
0.0
 11
304.778799
 21
203.292738
 31
0.0
  0
LINE
  8
0D
  6
PHANTOM
  5
77E
 10
317.246299
 20
203.292738
 30
0.0
 11
304.778799
 21
203.292738
 31
0.0
  0
LINE
  8
0D
  6
PHANTOM
  5
77F
 10
369.966014
 20
263.136738
 30
0.0
 11
382.433514
 21
263.136738
 31
0.0
  0
LINE
  8
0D
  6
PHANTOM
  5
780
 10
382.433514
 20
263.136738
 30
0.0
 11
382.433514
 21
203.292738
 31
0.0
  0
LINE
  8
0D
  6
PHANTOM
  5
781
 10
369.966014
 20
203.292738
 30
0.0
 11
382.433514
 21
203.292738
 31
0.0
  0
LINE
  8
FF
  5
782
 10
376.212587
 20
282.429304
 30
0.0
 11
431.465697
 21
282.429304
 31
0.0
  0
LINE
  8
FF
  5
783
 10
297.940055
 20
283.309865
 30
0.0
 11
255.093248
 21
283.309865
 31
0.0
  0
LINE
  8
38
  5
784
 10
476.937447
 20
256.989904
 30
0.0
 11
482.925838
 21
256.989904
 31
0.0
  0
LINE
  8
38
  5
785
 10
479.791152
 20
262.116338
 30
0.0
 11
479.791152
 21
254.308323
 31
0.0
  0
LINE
  8
38
  5
786
 10
510.643061
 20
209.114704
 30
0.0
 11
516.466975
 21
209.114704
 31
0.0
  0
LINE
  8
38
  5
787
 10
513.702752
 20
211.209244
 30
0.0
 11
513.702752
 21
204.580809
 31
0.0
  0
DIMENSION
  8
FF
  5
E5E
  2
*D8
 10
544.665564
 20
277.536344
 30
0.0
 11
538.865564
 21
303.169678
 31
0.0
  1
14.5
 13
517.21075
 23
262.974304
 33
0.0
 14
500.038372
 24
277.536344
 34
0.0
 50
90.0
  3
FSTD2
1001
ACAD
1000
DSTYLE
1002
{
1070
    41
1040
7.0
1002
}
  0
DIMENSION
  8
FF
  5
117C
  2
*D9
 10
366.885472
 20
171.086371
 30
0.0
 11
390.185472
 21
176.886371
 31
0.0
  1
7.7
 13
359.105752
 23
199.938624
 33
0.0
 14
366.885472
 24
203.928224
 34
0.0
  3
FSTD2
  0
LINE
  8
FF
  5
130C
 10
317.214953
 20
200.437324
 30
0.0
 11
317.214953
 21
192.553326
 31
0.0
  0
DIMENSION
  8
FF
  5
17A8
  2
*D23
 10
351.126552
 20
154.558743
 30
0.0
 11
372.093219
 21
160.358743
 31
0.0
  1
13
 13
338.160352
 23
196.598759
 33
0.0
 14
351.126552
 24
197.097459
 34
0.0
  3
FSTD1
  0
TEXT
  8
FF
  5
1886
 10
99.385625
 20
32.624204
 30
0.0
 40
8.0
  1
Magnetic Contactor Type
  0
ARC
  8
FF
  5
1887
 10
82.460032
 20
38.159878
 30
0.0
 40
6.691933
 50
98.442625
 51
137.3304
1001
ACAD
1000
ASC_BOUNDS
1002
{
1070
    19
1002
}
  0
POLYLINE
  8
FF
  5
1888
 66
     1
 10
0.0
 20
0.0
 30
0.0
 70
   128
  0
VERTEX
  8
FF
  5
18C2
 10
82.119619
 20
44.068121
 30
0.0
  0
VERTEX
  8
FF
  5
18C3
 10
81.086868
 20
43.919384
 30
0.0
  0
VERTEX
  8
FF
  5
18C4
 10
80.072765
 20
43.558873
 30
0.0
  0
VERTEX
  8
FF
  5
18C5
 10
79.11012
 20
42.998251
 30
0.0
  0
VERTEX
  8
FF
  5
18C6
 10
78.230079
 20
42.255657
 30
0.0
  0
VERTEX
  8
FF
  5
18C7
 10
77.461116
 20
41.355117
 30
0.0
  0
VERTEX
  8
FF
  5
18C8
 10
76.82811
 20
40.325768
 30
0.0
  0
VERTEX
  8
FF
  5
18C9
 10
76.351541
 20
39.200915
 30
0.0
  0
SEQEND
  8
FF
  5
18CA
  0
LINE
  8
FF
  5
1889
 10
77.93308
 20
40.040204
 30
0.0
 11
86.623706
 21
40.040204
 31
0.0
  0
LINE
  8
FF
  5
188A
 10
77.749829
 20
39.176204
 30
0.0
 11
87.385625
 21
39.176204
 31
0.0
  0
ARC
  8
FF
  5
188B
 10
80.558588
 20
37.651854
 30
0.0
 40
4.506129
 50
186.002385
 51
276.412304
1001
ACAD
1000
ASC_BOUNDS
1002
{
1070
    19
1002
}
  0
ARC
  8
FF
  5
188C
 10
80.352699
 20
37.424182
 30
0.0
 40
5.04
 50
182.729155
 51
279.960292
1001
ACAD
1000
ASC_BOUNDS
1002
{
1070
    19
1002
}
  0
ARC
  8
FF
  5
188D
 10
70.396266
 20
42.524204
 30
0.0
 40
2.1
 50
90.0
 51
168.003101
  0
LINE
  8
FF
  5
188E
 10
66.145625
 20
32.624204
 30
0.0
 11
69.764669
 21
32.624204
 31
0.0
  0
LINE
  8
FF
  5
188F
 10
66.145625
 20
32.624204
 30
0.0
 11
68.342132
 21
42.960707
 31
0.0
  0
POLYLINE
  8
FF
  5
1890
 66
     1
 10
0.0
 20
0.0
 30
0.0
 70
   128
  0
VERTEX
  8
FF
  5
18CB
 10
76.351541
 20
39.200915
 30
0.0
  0
VERTEX
  8
FF
  5
18CC
 10
76.125562
 20
38.172919
 30
0.0
  0
VERTEX
  8
FF
  5
18CD
 10
76.077163
 20
37.168993
 30
0.0
  0
SEQEND
  8
FF
  5
18CE
  0
LINE
  8
FF
  5
1891
 10
70.733669
 20
37.184204
 30
0.0
 11
75.318416
 21
37.184204
 31
0.0
  0
LINE
  8
FF
  5
1892
 10
69.764669
 20
32.624204
 30
0.0
 11
70.733669
 21
37.184204
 31
0.0
  0
LINE
  8
FF
  5
1893
 10
70.396266
 20
44.624204
 30
0.0
 11
77.935625
 21
44.624204
 31
0.0
  0
LINE
  8
FF
  5
1894
 10
71.340569
 20
40.040204
 30
0.0
 11
75.859294
 21
40.040204
 31
0.0
  0
LINE
  8
FF
  5
1895
 10
72.147766
 20
41.552204
 30
0.0
 11
76.685596
 21
41.552204
 31
0.0
  0
ARC
  8
FF
  5
1896
 10
72.147766
 20
40.952204
 30
0.0
 40
0.6
 50
90.0
 51
168.003101
  0
LINE
  8
FF
  5
1897
 10
71.340569
 20
40.040204
 30
0.0
 11
71.560871
 21
41.076919
 31
0.0
  0
LINE
  8
FF
  5
1898
 10
77.935625
 20
44.624204
 30
0.0
 11
77.539625
 21
42.695467
 31
0.0
  0
LINE
  8
FF
  5
1899
 10
77.93308
 20
40.040204
 30
0.0
 11
77.749829
 21
39.176204
 31
0.0
  0
ARC
  8
FF
  5
189A
 10
82.60327
 20
37.336436
 30
0.0
 40
7.26578
 50
144.533818
 51
158.153358
  0
LINE
  8
FF
  5
189B
 10
86.977625
 20
37.424204
 30
0.0
 11
86.162103
 21
37.424204
 31
0.0
  0
ARC
  8
FF
  5
189C
 10
80.071129
 20
39.612703
 30
0.0
 40
7.244944
 50
279.159834
 51
342.417868
1001
ACAD
1000
ASC_BOUNDS
1002
{
1070
    19
1002
}
  0
ARC
  8
FF
  5
189D
 10
79.859903
 20
39.801467
 30
0.0
 40
6.735659
 50
280.279158
 51
339.332945
1001
ACAD
1000
ASC_BOUNDS
1002
{
1070
    19
1002
}
  0
ARC
  8
FF
  5
189E
 10
82.393378
 20
39.870228
 30
0.0
 40
4.993958
 50
1.499529
 51
100.57959
1001
ACAD
1000
ASC_BOUNDS
1002
{
1070
    19
1002
}
  0
ARC
  8
FF
  5
189F
 10
82.373982
 20
39.820321
 30
0.0
 40
4.255409
 50
2.961866
 51
93.426847
  0
LINE
  8
FF
  5
18A0
 10
87.385625
 20
39.176204
 30
0.0
 11
87.385625
 21
40.000914
 31
0.0
  0
TEXT
  8
FF
  5
18A2
 10
281.324553
 20
18.224204
 30
0.0
 40
8.0
  1
SC-4-1/G , SC-4-1H/G
  0
TEXT
  8
FF
  5
18A3
 10
281.324553
 20
32.624204
 30
0.0
 40
8.0
  1
SC-4-0/G , SC-4-0H/G
  0
TEXT
  8
FF
  6
CONTINUOUS
  5
18A4
 10
500.179028
 20
18.516136
 30
0.0
 40
4.0
  1
SC-4-0G
  0
LINE
  8
FF
  5
18A5
 10
449.449839
 20
8.624204
 30
0.0
 11
601.449839
 21
8.624204
 31
0.0
  0
LINE
  8
FF
  5
18A6
 10
449.449839
 20
16.624204
 30
0.0
 11
601.449839
 21
16.624204
 31
0.0
  0
LINE
  8
FF
  5
18A7
 10
449.449839
 20
24.624204
 30
0.0
 11
601.449839
 21
24.624204
 31
0.0
  0
LINE
  8
FF
  5
18A8
 10
449.449839
 20
32.624204
 30
0.0
 11
601.449839
 21
32.624204
 31
0.0
  0
TEXT
  8
FF
  6
CONTINUOUS
  5
18A9
 10
511.228283
 20
34.51369
 30
0.0
 40
4.0
  1
ﾌｧｲﾙ名
  0
LINE
  8
FF
  5
18AA
 10
449.449839
 20
40.624204
 30
0.0
 11
601.449839
 21
40.624204
 31
0.0
  0
TEXT
  8
FF
  6
CONTINUOUS
  5
18AC
 10
470.29388
 20
18.516136
 30
0.0
 40
4.0
  1
2005-12
  0
LINE
  8
FF
  5
18AE
 10
465.449839
 20
40.624204
 30
0.0
 11
465.449839
 21
8.624204
 31
0.0
  0
LINE
  8
FF
  5
18AF
 10
449.449839
 20
40.624204
 30
0.0
 11
449.449839
 21
8.624204
 31
0.0
  0
TEXT
  8
FF
  6
CONTINUOUS
  5
18B0
 10
453.344861
 20
18.835297
 30
0.0
 40
4.0
  1
変更
  0
TEXT
  8
FF
  6
CONTINUOUS
  5
18B1
 10
453.344861
 20
26.392296
 30
0.0
 40
4.0
  1
作成
  0
LINE
  8
FF
  5
18B2
 10
497.449839
 20
40.624204
 30
0.0
 11
497.449839
 21
8.624204
 31
0.0
  0
TEXT
  8
FF
  6
CONTINUOUS
  5
18B3
 10
476.59384
 20
34.51369
 30
0.0
 40
4.0
  1
日付
  0
TEXT
  8
FF
  6
CONTINUOUS
  5
18B6
 10
551.324574
 20
34.51369
 30
0.0
 40
4.0
  1
図面番号
  0
LINE
  8
FF
  5
18B7
 10
537.449839
 20
40.624204
 30
0.0
 11
537.449839
 21
8.624204
 31
0.0
  0
LINE
  8
FF
  5
18B8
 10
601.449839
 20
40.624204
 30
0.0
 11
601.449839
 21
8.624204
 31
0.0
  0
LINE
  8
FF
  5
18B9
 10
585.449839
 20
40.624204
 30
0.0
 11
585.449839
 21
8.624204
 31
0.0
  0
TEXT
  8
FF
  6
CONTINUOUS
  5
18BC
 10
589.624204
 20
34.51369
 30
0.0
 40
4.0
  1
変更
  0
ENDSEC
  0
EOF
