  0
SECTION
  2
HEADER
  9
$ACADVER
  1
AC1009
  9
$INSBASE
 10
0.0
 20
0.0
 30
0.0
  9
$EXTMIN
 10
-109.191211
 20
-235.373169
 30
0.0
  9
$EXTMAX
 10
430.943121
 20
85.409375
 30
0.0
  9
$LIMMIN
 10
0.0
 20
0.0
  9
$LIMMAX
 10
420.0
 20
297.0
  9
$ORTHOMODE
 70
     0
  9
$REGENMODE
 70
     1
  9
$FILLMODE
 70
     1
  9
$QTEXTMODE
 70
     0
  9
$MIRRTEXT
 70
     1
  9
$DRAGMODE
 70
     2
  9
$LTSCALE
 40
1.0
  9
$OSMODE
 70
    33
  9
$ATTMODE
 70
     1
  9
$TEXTSIZE
 40
3.0
  9
$TRACEWID
 40
1.0
  9
$TEXTSTYLE
  7
STANDARD
  9
$CLAYER
  8
F05_PRO
  9
$CELTYPE
  6
BYLAYER
  9
$CECOLOR
 62
   256
  9
$DIMSCALE
 40
1.0
  9
$DIMASZ
 40
3.0
  9
$DIMEXO
 40
1.0
  9
$DIMDLI
 40
0.38
  9
$DIMRND
 40
0.0
  9
$DIMDLE
 40
0.0
  9
$DIMEXE
 40
1.0
  9
$DIMTP
 40
0.2
  9
$DIMTM
 40
0.0
  9
$DIMTXT
 40
4.0
  9
$DIMCEN
 40
0.09
  9
$DIMTSZ
 40
0.0
  9
$DIMTOL
 70
     0
  9
$DIMLIM
 70
     0
  9
$DIMTIH
 70
     0
  9
$DIMTOH
 70
     0
  9
$DIMSE1
 70
     0
  9
$DIMSE2
 70
     0
  9
$DIMTAD
 70
     1
  9
$DIMZIN
 70
     8
  9
$DIMBLK
  1

  9
$DIMASO
 70
     1
  9
$DIMSHO
 70
     1
  9
$DIMPOST
  1

  9
$DIMAPOST
  1

  9
$DIMALT
 70
     0
  9
$DIMALTD
 70
     4
  9
$DIMALTF
 40
0.0394
  9
$DIMLFAC
 40
1.0
  9
$DIMTOFL
 70
     1
  9
$DIMTVP
 40
0.0
  9
$DIMTIX
 70
     0
  9
$DIMSOXD
 70
     0
  9
$DIMSAH
 70
     1
  9
$DIMBLK1
  1
_OPEN30
  9
$DIMBLK2
  1
_OPEN30
  9
$DIMSTYLE
  2
FSTD1
  9
$DIMCLRD
 70
     0
  9
$DIMCLRE
 70
     0
  9
$DIMCLRT
 70
     0
  9
$DIMTFAC
 40
0.7
  9
$DIMGAP
 40
1.0
  9
$LUNITS
 70
     2
  9
$LUPREC
 70
     4
  9
$SKETCHINC
 40
1.0
  9
$FILLETRAD
 40
0.3
  9
$AUNITS
 70
     0
  9
$AUPREC
 70
     0
  9
$MENU
  1
acad
  9
$ELEVATION
 40
0.0
  9
$PELEVATION
 40
0.0
  9
$THICKNESS
 40
0.0
  9
$LIMCHECK
 70
     0
  9
$BLIPMODE
 70
     0
  9
$CHAMFERA
 40
2.5
  9
$CHAMFERB
 40
2.5
  9
$SKPOLY
 70
     0
  9
$TDCREATE
 40
2454768.395636608
  9
$TDUPDATE
 40
2454858.658189815
  9
$TDINDWG
 40
0.1813868287
  9
$TDUSRTIMER
 40
0.1813868287
  9
$USRTIMER
 70
     1
  9
$ANGBASE
 50
0.0
  9
$ANGDIR
 70
     0
  9
$PDMODE
 70
     0
  9
$PDSIZE
 40
0.0
  9
$PLINEWID
 40
0.0
  9
$COORDS
 70
     1
  9
$SPLFRAME
 70
     0
  9
$SPLINETYPE
 70
     6
  9
$SPLINESEGS
 70
     8
  9
$ATTDIA
 70
     0
  9
$ATTREQ
 70
     1
  9
$HANDLING
 70
     1
  9
$HANDSEED
  5
5F5A
  9
$SURFTAB1
 70
     6
  9
$SURFTAB2
 70
     6
  9
$SURFTYPE
 70
     6
  9
$SURFU
 70
     6
  9
$SURFV
 70
     6
  9
$UCSNAME
  2

  9
$UCSORG
 10
0.0
 20
0.0
 30
0.0
  9
$UCSXDIR
 10
1.0
 20
0.0
 30
0.0
  9
$UCSYDIR
 10
0.0
 20
1.0
 30
0.0
  9
$PUCSNAME
  2

  9
$PUCSORG
 10
0.0
 20
0.0
 30
0.0
  9
$PUCSXDIR
 10
1.0
 20
0.0
 30
0.0
  9
$PUCSYDIR
 10
0.0
 20
1.0
 30
0.0
  9
$USERI1
 70
     0
  9
$USERI2
 70
     0
  9
$USERI3
 70
     0
  9
$USERI4
 70
     0
  9
$USERI5
 70
     0
  9
$USERR1
 40
0.0
  9
$USERR2
 40
0.0
  9
$USERR3
 40
0.0
  9
$USERR4
 40
0.0
  9
$USERR5
 40
0.0
  9
$WORLDVIEW
 70
     1
  9
$SHADEDGE
 70
     3
  9
$SHADEDIF
 70
    70
  9
$TILEMODE
 70
     1
  9
$MAXACTVP
 70
    16
  9
$PINSBASE
 10
0.0
 20
0.0
 30
0.0
  9
$PLIMCHECK
 70
     0
  9
$PEXTMIN
 10
1.000000E+20
 20
1.000000E+20
 30
1.000000E+20
  9
$PEXTMAX
 10
-1.000000E+20
 20
-1.000000E+20
 30
-1.000000E+20
  9
$PLIMMIN
 10
0.0
 20
0.0
  9
$PLIMMAX
 10
420.0
 20
297.0
  9
$UNITMODE
 70
     0
  9
$VISRETAIN
 70
     1
  9
$PLINEGEN
 70
     0
  9
$PSLTSCALE
 70
     1
  9
$TREEDEPTH
 70
  3020
  9
$DWGCODEPAGE
  3
dos932
  0
ENDSEC
  0
SECTION
  2
TABLES
  0
TABLE
  2
VPORT
 70
     2
  0
VPORT
  2
*ACTIVE
 70
     0
 10
0.0
 20
0.0
 11
1.0
 21
1.0
 12
160.872296
 22
-47.003322
 13
0.0
 23
0.0
 14
10.0
 24
10.0
 15
10.0
 25
10.0
 16
0.0
 26
0.0
 36
1.0
 17
0.0
 27
0.0
 37
0.0
 40
379.734742
 41
1.475202
 42
50.0
 43
0.0
 44
0.0
 50
0.0
 51
0.0
 71
     0
 72
   100
 73
     1
 74
     1
 75
     0
 76
     0
 77
     0
 78
     0
  0
ENDTAB
  0
TABLE
  2
LTYPE
 70
     4
  0
LTYPE
  2
CONTINUOUS
 70
    64
  3
Solid line
 72
    65
 73
     0
 40
0.0
  0
LTYPE
  2
CENTER
 70
    64
  3
Center ____ _ ____ _ ____ _ ____ _ ____ _ ____
 72
    65
 73
     4
 40
50.8
 49
31.75
 49
-6.35
 49
6.35
 49
-6.35
  0
LTYPE
  2
DASHED
 70
    64
  3
Dashed __ __ __ __ __ __ __ __ __ __ __ __ __ _
 72
    65
 73
     2
 40
19.05
 49
12.7
 49
-6.35
  0
LTYPE
  2
PHANTOM
 70
    64
  3
Phantom ______  __  __  ______  __  __  ______
 72
    65
 73
     6
 40
63.5
 49
31.75
 49
-6.35
 49
6.35
 49
-6.35
 49
6.35
 49
-6.35
  0
ENDTAB
  0
TABLE
  2
LAYER
 70
    10
  0
LAYER
  2
0
 70
    64
 62
     7
  6
CONTINUOUS
  0
LAYER
  2
DEFPOINTS
 70
    64
 62
     7
  6
CONTINUOUS
  0
LAYER
  2
F03_CNT
 70
    64
 62
     1
  6
CENTER
  0
LAYER
  2
F02_DIM
 70
    64
 62
     4
  6
CONTINUOUS
  0
LAYER
  2
F05_PRO
 70
    64
 62
     4
  6
CONTINUOUS
  0
LAYER
  2
F01_OUT
 70
    64
 62
     6
  6
CONTINUOUS
  0
LAYER
  2
F06_CUT
 70
    64
 62
     6
  6
CONTINUOUS
  0
LAYER
  2
F04_HID
 70
    64
 62
     3
  6
DASHED
  0
LAYER
  2
F07_COO
 70
    64
 62
     3
  6
PHANTOM
  0
LAYER
  2
F08_IMG
 70
    64
 62
     2
  6
PHANTOM
  0
ENDTAB
  0
TABLE
  2
STYLE
 70
     2
  0
STYLE
  2
STANDARD
 70
    64
 40
0.0
 41
1.0
 50
0.0
 71
     0
 42
3.0
  3
txt.shx
  4
bigfont.shx
  0
STYLE
  2
FSTD1
 70
    64
 40
0.0
 41
1.0
 50
0.0
 71
     0
 42
4.1656
  3
txt.shx
  4
extfont.shx
  0
ENDTAB
  0
TABLE
  2
VIEW
 70
     0
  0
ENDTAB
  0
TABLE
  2
UCS
 70
     0
  0
ENDTAB
  0
TABLE
  2
APPID
 70
     2
  0
APPID
  2
ACAD
 70
    64
  0
ENDTAB
  0
TABLE
  2
DIMSTYLE
 70
     2
  0
DIMSTYLE
  2
STANDARD
 70
     0
  3

  4

  5

  6

  7

 40
1.0
 41
2.5
 42
0.625
 43
3.75
 44
1.25
 45
0.0
 46
0.0
 47
0.0
 48
0.0
140
2.5
141
2.5
142
0.0
143
0.0394
144
1.0
145
0.0
146
1.0
147
0.625
 71
     0
 72
     0
 73
     0
 74
     0
 75
     0
 76
     0
 77
     1
 78
     8
170
     0
171
     4
172
     1
173
     0
174
     0
175
     0
176
     0
177
     0
178
     0
  0
DIMSTYLE
  2
FSTD1
 70
    64
  3

  4

  5

  6
_OPEN30
  7
_OPEN30
 40
1.0
 41
3.0
 42
1.0
 43
0.38
 44
1.0
 45
0.0
 46
0.0
 47
0.2
 48
0.0
140
4.0
141
0.09
142
0.0
143
0.0394
144
1.0
145
0.0
146
0.7
147
1.0
 71
     0
 72
     0
 73
     0
 74
     0
 75
     0
 76
     0
 77
     1
 78
     8
170
     0
171
     4
172
     1
173
     1
174
     0
175
     0
176
     0
177
     0
178
     0
  0
ENDTAB
  0
ENDSEC
  0
SECTION
  2
BLOCKS
  0
BLOCK
  8
0
  5
24
  2
_OPEN30
 70
    66
 10
0.0
 20
0.0
 30
0.0
  3
_OPEN30
  0
LINE
  8
0
  6
BYBLOCK
 62
     0
  5
21
 10
-1.0
 20
0.267949
 30
0.0
 11
0.0
 21
0.0
 31
0.0
  0
LINE
  8
0
  6
BYBLOCK
 62
     0
  5
22
 10
0.0
 20
0.0
 30
0.0
 11
-1.0
 21
-0.267949
 31
0.0
  0
LINE
  8
0
  6
BYBLOCK
 62
     0
  5
23
 10
0.0
 20
0.0
 30
0.0
 11
-1.0
 21
0.0
 31
0.0
  0
ENDBLK
  8
0
  5
25
  0
BLOCK
  8
0
  5
4052
  2
*D1
 70
    65
 10
0.0
 20
0.0
 30
0.0
  3
*D1
  0
LINE
  8
0
  6
BYBLOCK
 62
     0
  5
4053
 10
-11.055047
 20
-7.512297
 30
0.0
 11
-11.055047
 21
-9.432854
 31
0.0
  0
LINE
  8
0
  6
BYBLOCK
 62
     0
  5
4054
 10
11.054939
 20
-7.512297
 30
0.0
 11
11.054939
 21
-9.432854
 31
0.0
  0
LINE
  8
0
  6
BYBLOCK
 62
     0
  5
4055
 10
-8.055047
 20
-8.432854
 30
0.0
 11
8.054939
 21
-8.432854
 31
0.0
  0
INSERT
  8
0
  6
BYBLOCK
 62
     0
  5
4056
  2
_OPEN30
 10
-11.055047
 20
-8.432854
 30
0.0
 41
3.0
 42
3.0
 50
180.0
 43
3.0
  0
INSERT
  8
0
  6
BYBLOCK
 62
     0
  5
4057
  2
_OPEN30
 10
11.054939
 20
-8.432854
 30
0.0
 41
3.0
 42
3.0
 43
3.0
  0
TEXT
  8
0
  6
BYBLOCK
 62
     0
  5
4058
 10
1.088568
 20
-7.432854
 30
0.0
 40
4.0
  1
22
  0
POINT
  8
DEFPOINTS
  6
BYBLOCK
 62
     0
  5
4059
 10
-11.055047
 20
-6.512297
 30
0.0
  0
POINT
  8
DEFPOINTS
  6
BYBLOCK
 62
     0
  5
405A
 10
11.054939
 20
-6.512297
 30
0.0
  0
POINT
  8
DEFPOINTS
  6
BYBLOCK
 62
     0
  5
405B
 10
11.054939
 20
-8.432854
 30
0.0
  0
ENDBLK
  8
0
  5
405C
  0
BLOCK
  8
0
  5
42BD
  2
*D2
 70
    65
 10
0.0
 20
0.0
 30
0.0
  3
*D3
  0
LINE
  8
0
  6
BYBLOCK
 62
     0
  5
42BE
 10
326.496686
 20
-24.999994
 30
0.0
 11
326.496686
 21
-65.229004
 31
0.0
  0
LINE
  8
0
  6
BYBLOCK
 62
     0
  5
42BF
 10
396.496666
 20
-24.999994
 30
0.0
 11
396.496666
 21
-65.229004
 31
0.0
  0
LINE
  8
0
  6
BYBLOCK
 62
     0
  5
42C0
 10
329.496686
 20
-64.229004
 30
0.0
 11
393.496666
 21
-64.229004
 31
0.0
  0
INSERT
  8
0
  6
BYBLOCK
 62
     0
  5
42C1
  2
_OPEN30
 10
326.496686
 20
-64.229004
 30
0.0
 41
3.0
 42
3.0
 50
180.0
 43
3.0
  0
INSERT
  8
0
  6
BYBLOCK
 62
     0
  5
42C2
  2
_OPEN30
 10
396.496666
 20
-64.229004
 30
0.0
 41
3.0
 42
3.0
 43
3.0
  0
TEXT
  8
0
  6
BYBLOCK
 62
     0
  5
42C3
 10
352.830009
 20
-63.229004
 30
0.0
 40
4.0
  1
Min.74
  0
POINT
  8
DEFPOINTS
  6
BYBLOCK
 62
     0
  5
42C4
 10
326.496686
 20
-23.999994
 30
0.0
  0
POINT
  8
DEFPOINTS
  6
BYBLOCK
 62
     0
  5
42C5
 10
396.496666
 20
-23.999994
 30
0.0
  0
POINT
  8
DEFPOINTS
  6
BYBLOCK
 62
     0
  5
42C6
 10
396.496666
 20
-64.229004
 30
0.0
  0
ENDBLK
  8
0
  5
42C7
  0
BLOCK
  8
0
  5
42AA
  2
*D3
 70
    65
 10
0.0
 20
0.0
 30
0.0
  3
*D4
  0
LINE
  8
0
  6
BYBLOCK
 62
     0
  5
42AB
 10
303.567372
 20
46.247908
 30
0.0
 11
327.004501
 21
25.331677
 31
0.0
  0
TEXT
  8
0
  6
BYBLOCK
 62
     0
  5
42AC
 10
304.979307
 20
46.328158
 30
0.0
 40
4.0
  1
Max.R2
 50
318.253003
  0
LINE
  8
0
  6
BYBLOCK
 62
     0
  5
42AD
 10
328.496686
 20
23.999992
 30
0.0
 11
327.004501
 21
25.331677
 31
0.0
  0
INSERT
  8
0
  6
BYBLOCK
 62
     0
  5
42AE
  2
_OPEN30
 10
327.004501
 20
25.331677
 30
0.0
 41
3.0
 42
3.0
 50
318.253003
 43
3.0
  0
POINT
  8
DEFPOINTS
  6
BYBLOCK
 62
     0
  5
42AF
 10
327.004501
 20
25.331677
 30
0.0
  0
POINT
  8
DEFPOINTS
  6
BYBLOCK
 62
     0
  5
42B0
 10
328.496686
 20
23.999992
 30
0.0
  0
ENDBLK
  8
0
  5
42B1
  0
BLOCK
  8
0
  5
428F
  2
*D4
 70
    65
 10
0.0
 20
0.0
 30
0.0
  3
*D5
  0
LINE
  8
0
  6
BYBLOCK
 62
     0
  5
4290
 10
243.471297
 20
41.999988
 30
0.0
 11
298.548782
 21
41.999988
 31
0.0
  0
LINE
  8
0
  6
BYBLOCK
 62
     0
  5
4291
 10
267.837273
 20
-41.999988
 30
0.0
 11
298.548782
 21
-41.999988
 31
0.0
  0
LINE
  8
0
  6
BYBLOCK
 62
     0
  5
4292
 10
297.548782
 20
38.999988
 30
0.0
 11
297.548782
 21
-38.999988
 31
0.0
  0
INSERT
  8
0
  6
BYBLOCK
 62
     0
  5
4293
  2
_OPEN30
 10
297.548782
 20
41.999988
 30
0.0
 41
3.0
 42
3.0
 50
90.0
 43
3.0
  0
INSERT
  8
0
  6
BYBLOCK
 62
     0
  5
4294
  2
_OPEN30
 10
297.548782
 20
-41.999988
 30
0.0
 41
3.0
 42
3.0
 50
270.0
 43
3.0
  0
TEXT
  8
0
  6
BYBLOCK
 62
     0
  5
4295
 10
296.548782
 20
-3.333333
 30
0.0
 40
4.0
  1
84
 50
90.0
  0
POINT
  8
DEFPOINTS
  6
BYBLOCK
 62
     0
  5
4296
 10
242.471297
 20
41.999988
 30
0.0
  0
POINT
  8
DEFPOINTS
  6
BYBLOCK
 62
     0
  5
4297
 10
266.837273
 20
-41.999988
 30
0.0
  0
POINT
  8
DEFPOINTS
  6
BYBLOCK
 62
     0
  5
4298
 10
297.548782
 20
-41.999988
 30
0.0
  0
ENDBLK
  8
0
  5
4299
  0
BLOCK
  8
0
  5
429A
  2
*D5
 70
    65
 10
0.0
 20
0.0
 30
0.0
  3
*D6
  0
LINE
  8
0
  6
BYBLOCK
 62
     0
  5
429B
 10
234.244981
 20
32.450284
 30
0.0
 11
234.244981
 21
-65.229004
 31
0.0
  0
LINE
  8
0
  6
BYBLOCK
 62
     0
  5
429C
 10
259.244975
 20
-53.44942
 30
0.0
 11
259.244975
 21
-65.229004
 31
0.0
  0
LINE
  8
0
  6
BYBLOCK
 62
     0
  5
429D
 10
237.244981
 20
-64.229004
 30
0.0
 11
256.244975
 21
-64.229004
 31
0.0
  0
INSERT
  8
0
  6
BYBLOCK
 62
     0
  5
429E
  2
_OPEN30
 10
234.244981
 20
-64.229004
 30
0.0
 41
3.0
 42
3.0
 50
180.0
 43
3.0
  0
INSERT
  8
0
  6
BYBLOCK
 62
     0
  5
429F
  2
_OPEN30
 10
259.244975
 20
-64.229004
 30
0.0
 41
3.0
 42
3.0
 43
3.0
  0
TEXT
  8
0
  6
BYBLOCK
 62
     0
  5
42A0
 10
243.411645
 20
-63.229004
 30
0.0
 40
4.0
  1
25
  0
POINT
  8
DEFPOINTS
  6
BYBLOCK
 62
     0
  5
42A1
 10
234.244981
 20
33.450284
 30
0.0
  0
POINT
  8
DEFPOINTS
  6
BYBLOCK
 62
     0
  5
42A2
 10
259.244975
 20
-52.44942
 30
0.0
  0
POINT
  8
DEFPOINTS
  6
BYBLOCK
 62
     0
  5
42A3
 10
259.244975
 20
-64.229004
 30
0.0
  0
ENDBLK
  8
0
  5
42A4
  0
BLOCK
  8
0
  5
42B2
  2
*D6
 70
    65
 10
0.0
 20
0.0
 30
0.0
  3
*D7
  0
LINE
  8
0
  6
BYBLOCK
 62
     0
  5
42B3
 10
395.496668
 20
25.999992
 30
0.0
 11
413.261643
 21
25.999992
 31
0.0
  0
LINE
  8
0
  6
BYBLOCK
 62
     0
  5
42B4
 10
395.496668
 20
-25.999994
 30
0.0
 11
413.261643
 21
-25.999994
 31
0.0
  0
LINE
  8
0
  6
BYBLOCK
 62
     0
  5
42B5
 10
412.261643
 20
22.999992
 30
0.0
 11
412.261643
 21
-22.999994
 31
0.0
  0
INSERT
  8
0
  6
BYBLOCK
 62
     0
  5
42B6
  2
_OPEN30
 10
412.261643
 20
25.999992
 30
0.0
 41
3.0
 42
3.0
 50
90.0
 43
3.0
  0
INSERT
  8
0
  6
BYBLOCK
 62
     0
  5
42B7
  2
_OPEN30
 10
412.261643
 20
-25.999994
 30
0.0
 41
3.0
 42
3.0
 50
270.0
 43
3.0
  0
TEXT
  8
0
  6
BYBLOCK
 62
     0
  5
42B8
 10
411.261643
 20
-8.666668
 30
0.0
 40
4.0
  1
Min.52
 50
90.0
  0
POINT
  8
DEFPOINTS
  6
BYBLOCK
 62
     0
  5
42B9
 10
394.496668
 20
25.999992
 30
0.0
  0
POINT
  8
DEFPOINTS
  6
BYBLOCK
 62
     0
  5
42BA
 10
394.496668
 20
-25.999994
 30
0.0
  0
POINT
  8
DEFPOINTS
  6
BYBLOCK
 62
     0
  5
42BB
 10
412.261643
 20
-25.999994
 30
0.0
  0
ENDBLK
  8
0
  5
42BC
  0
BLOCK
  8
0
  5
55C5
  2
*D7
 70
    65
 10
0.0
 20
0.0
 30
0.0
  3
*D9
  0
LINE
  8
0
  6
BYBLOCK
 62
     0
  5
55C6
 10
-36.269731
 20
-49.165389
 30
0.0
 11
-36.269731
 21
-72.641196
 31
0.0
  0
LINE
  8
0
  6
BYBLOCK
 62
     0
  5
55C7
 10
13.730269
 20
-49.465389
 30
0.0
 11
13.730269
 21
-72.641196
 31
0.0
  0
LINE
  8
0
  6
BYBLOCK
 62
     0
  5
55C8
 10
-33.269731
 20
-71.641196
 30
0.0
 11
10.730269
 21
-71.641196
 31
0.0
  0
INSERT
  8
0
  6
BYBLOCK
 62
     0
  5
55C9
  2
_OPEN30
 10
-36.269731
 20
-71.641196
 30
0.0
 41
3.0
 42
3.0
 50
180.0
 43
3.0
  0
INSERT
  8
0
  6
BYBLOCK
 62
     0
  5
55CA
  2
_OPEN30
 10
13.730269
 20
-71.641196
 30
0.0
 41
3.0
 42
3.0
 43
3.0
  0
TEXT
  8
0
  6
BYBLOCK
 62
     0
  5
55CB
 10
-14.269731
 20
-70.641196
 30
0.0
 40
4.0
  1
50
  0
POINT
  8
DEFPOINTS
  6
BYBLOCK
 62
     0
  5
55CC
 10
-36.269731
 20
-48.165389
 30
0.0
  0
POINT
  8
DEFPOINTS
  6
BYBLOCK
 62
     0
  5
55CD
 10
13.730269
 20
-48.465389
 30
0.0
  0
POINT
  8
DEFPOINTS
  6
BYBLOCK
 62
     0
  5
55CE
 10
13.730269
 20
-71.641196
 30
0.0
  0
ENDBLK
  8
0
  5
55CF
  0
BLOCK
  8
0
  5
55D0
  2
*D8
 70
    65
 10
0.0
 20
0.0
 30
0.0
  3
*D10
  0
LINE
  8
0
  6
BYBLOCK
 62
     0
  5
55D1
 10
-47.269731
 20
-25.000032
 30
0.0
 11
-47.269731
 21
-81.932717
 31
0.0
  0
LINE
  8
0
  6
BYBLOCK
 62
     0
  5
55D2
 10
24.730269
 20
-25.000032
 30
0.0
 11
24.730269
 21
-81.932717
 31
0.0
  0
LINE
  8
0
  6
BYBLOCK
 62
     0
  5
55D3
 10
-44.269731
 20
-80.932717
 30
0.0
 11
21.730269
 21
-80.932717
 31
0.0
  0
INSERT
  8
0
  6
BYBLOCK
 62
     0
  5
55D4
  2
_OPEN30
 10
-47.269731
 20
-80.932717
 30
0.0
 41
3.0
 42
3.0
 50
180.0
 43
3.0
  0
INSERT
  8
0
  6
BYBLOCK
 62
     0
  5
55D5
  2
_OPEN30
 10
24.730269
 20
-80.932717
 30
0.0
 41
3.0
 42
3.0
 43
3.0
  0
TEXT
  8
0
  6
BYBLOCK
 62
     0
  5
55D6
 10
-14.603064
 20
-79.932717
 30
0.0
 40
4.0
  1
72
  0
POINT
  8
DEFPOINTS
  6
BYBLOCK
 62
     0
  5
55D7
 10
-47.269731
 20
-24.000032
 30
0.0
  0
POINT
  8
DEFPOINTS
  6
BYBLOCK
 62
     0
  5
55D8
 10
24.730269
 20
-24.000032
 30
0.0
  0
POINT
  8
DEFPOINTS
  6
BYBLOCK
 62
     0
  5
55D9
 10
24.730269
 20
-80.932717
 30
0.0
  0
ENDBLK
  8
0
  5
55DA
  0
BLOCK
  8
0
  5
55DB
  2
*D9
 70
    65
 10
0.0
 20
0.0
 30
0.0
  3
*D11
  0
LINE
  8
0
  6
BYBLOCK
 62
     0
  5
55DC
 10
-48.769731
 20
-47.5
 30
0.0
 11
-48.769731
 21
-92.133124
 31
0.0
  0
LINE
  8
0
  6
BYBLOCK
 62
     0
  5
55DD
 10
26.230269
 20
-47.5
 30
0.0
 11
26.230269
 21
-92.133124
 31
0.0
  0
LINE
  8
0
  6
BYBLOCK
 62
     0
  5
55DE
 10
-45.769731
 20
-91.133124
 30
0.0
 11
23.230269
 21
-91.133124
 31
0.0
  0
INSERT
  8
0
  6
BYBLOCK
 62
     0
  5
55DF
  2
_OPEN30
 10
-48.769731
 20
-91.133124
 30
0.0
 41
3.0
 42
3.0
 50
180.0
 43
3.0
  0
INSERT
  8
0
  6
BYBLOCK
 62
     0
  5
55E0
  2
_OPEN30
 10
26.230269
 20
-91.133124
 30
0.0
 41
3.0
 42
3.0
 43
3.0
  0
TEXT
  8
0
  6
BYBLOCK
 62
     0
  5
55E1
 10
-14.603064
 20
-90.133124
 30
0.0
 40
4.0
  1
75
  0
POINT
  8
DEFPOINTS
  6
BYBLOCK
 62
     0
  5
55E2
 10
-48.769731
 20
-46.5
 30
0.0
  0
POINT
  8
DEFPOINTS
  6
BYBLOCK
 62
     0
  5
55E3
 10
26.230269
 20
-46.5
 30
0.0
  0
POINT
  8
DEFPOINTS
  6
BYBLOCK
 62
     0
  5
55E4
 10
26.230269
 20
-91.133124
 30
0.0
  0
ENDBLK
  8
0
  5
55E5
  0
BLOCK
  8
0
  5
420A
  2
*D10
 70
    65
 10
0.0
 20
0.0
 30
0.0
  3
*D12
  0
LINE
  8
0
  6
BYBLOCK
 62
     0
  5
420B
 10
124.134383
 20
38.1
 30
0.0
 11
110.882267
 21
38.1
 31
0.0
  0
LINE
  8
0
  6
BYBLOCK
 62
     0
  5
420C
 10
124.134383
 20
45.9
 30
0.0
 11
110.882267
 21
45.9
 31
0.0
  0
LINE
  8
0
  6
BYBLOCK
 62
     0
  5
420D
 10
111.882267
 20
35.1
 30
0.0
 11
111.882267
 21
32.1
 31
0.0
  0
LINE
  8
0
  6
BYBLOCK
 62
     0
  5
420E
 10
111.882267
 20
48.9
 30
0.0
 11
111.882267
 21
65.9
 31
0.0
  0
LINE
  8
0
  6
BYBLOCK
 62
     0
  5
420F
 10
111.882267
 20
38.1
 30
0.0
 11
111.882267
 21
45.9
 31
0.0
  0
INSERT
  8
0
  6
BYBLOCK
 62
     0
  5
4210
  2
_OPEN30
 10
111.882267
 20
38.1
 30
0.0
 41
3.0
 42
3.0
 50
90.0
 43
3.0
  0
INSERT
  8
0
  6
BYBLOCK
 62
     0
  5
4211
  2
_OPEN30
 10
111.882267
 20
45.9
 30
0.0
 41
3.0
 42
3.0
 50
270.0
 43
3.0
  0
TEXT
  8
0
  6
BYBLOCK
 62
     0
  5
4212
 10
110.882267
 20
52.9
 30
0.0
 40
4.0
  1
%%c7.8
 50
90.0
  0
POINT
  8
DEFPOINTS
  6
BYBLOCK
 62
     0
  5
4213
 10
125.134383
 20
38.1
 30
0.0
  0
POINT
  8
DEFPOINTS
  6
BYBLOCK
 62
     0
  5
4214
 10
125.134383
 20
45.9
 30
0.0
  0
POINT
  8
DEFPOINTS
  6
BYBLOCK
 62
     0
  5
4215
 10
111.882267
 20
45.9
 30
0.0
  0
ENDBLK
  8
0
  5
4216
  0
BLOCK
  8
0
  5
41E3
  2
*D11
 70
    65
 10
0.0
 20
0.0
 30
0.0
  3
*D13
  0
LINE
  8
0
  6
BYBLOCK
 62
     0
  5
41E4
 10
177.134383
 20
39.55
 30
0.0
 11
187.38161
 21
39.55
 31
0.0
  0
LINE
  8
0
  6
BYBLOCK
 62
     0
  5
41E5
 10
176.935053
 20
44.45
 30
0.0
 11
187.38161
 21
44.45
 31
0.0
  0
LINE
  8
0
  6
BYBLOCK
 62
     0
  5
41E6
 10
186.38161
 20
36.55
 30
0.0
 11
186.38161
 21
33.55
 31
0.0
  0
LINE
  8
0
  6
BYBLOCK
 62
     0
  5
41E7
 10
186.38161
 20
47.45
 30
0.0
 11
186.38161
 21
64.45
 31
0.0
  0
LINE
  8
0
  6
BYBLOCK
 62
     0
  5
41E8
 10
186.38161
 20
39.55
 30
0.0
 11
186.38161
 21
44.45
 31
0.0
  0
INSERT
  8
0
  6
BYBLOCK
 62
     0
  5
41E9
  2
_OPEN30
 10
186.38161
 20
39.55
 30
0.0
 41
3.0
 42
3.0
 50
90.0
 43
3.0
  0
INSERT
  8
0
  6
BYBLOCK
 62
     0
  5
41EA
  2
_OPEN30
 10
186.38161
 20
44.45
 30
0.0
 41
3.0
 42
3.0
 50
270.0
 43
3.0
  0
TEXT
  8
0
  6
BYBLOCK
 62
     0
  5
41EB
 10
185.38161
 20
51.45
 30
0.0
 40
4.0
  1
%%c4.9
 50
90.0
  0
POINT
  8
DEFPOINTS
  6
BYBLOCK
 62
     0
  5
41EC
 10
176.134383
 20
39.55
 30
0.0
  0
POINT
  8
DEFPOINTS
  6
BYBLOCK
 62
     0
  5
41ED
 10
175.935053
 20
44.45
 30
0.0
  0
POINT
  8
DEFPOINTS
  6
BYBLOCK
 62
     0
  5
41EE
 10
186.38161
 20
44.45
 30
0.0
  0
ENDBLK
  8
0
  5
41EF
  0
BLOCK
  8
0
  5
41F1
  2
*D12
 70
    65
 10
0.0
 20
0.0
 30
0.0
  3
*D14
  0
LINE
  8
0
  6
BYBLOCK
 62
     0
  5
41F2
 10
176.134383
 20
38.55
 30
0.0
 11
176.134383
 21
28.385379
 31
0.0
  0
LINE
  8
0
  6
BYBLOCK
 62
     0
  5
41F3
 10
133.134383
 20
37.1
 30
0.0
 11
133.134383
 21
28.385379
 31
0.0
  0
LINE
  8
0
  6
BYBLOCK
 62
     0
  5
41F4
 10
173.134383
 20
29.385379
 30
0.0
 11
136.134383
 21
29.385379
 31
0.0
  0
INSERT
  8
0
  6
BYBLOCK
 62
     0
  5
41F5
  2
_OPEN30
 10
176.134383
 20
29.385379
 30
0.0
 41
3.0
 42
3.0
 43
3.0
  0
INSERT
  8
0
  6
BYBLOCK
 62
     0
  5
41F6
  2
_OPEN30
 10
133.134383
 20
29.385379
 30
0.0
 41
3.0
 42
3.0
 50
180.0
 43
3.0
  0
TEXT
  8
0
  6
BYBLOCK
 62
     0
  5
41F7
 10
151.30105
 20
30.385379
 30
0.0
 40
4.0
  1
43
  0
POINT
  8
DEFPOINTS
  6
BYBLOCK
 62
     0
  5
41F8
 10
176.134383
 20
39.55
 30
0.0
  0
POINT
  8
DEFPOINTS
  6
BYBLOCK
 62
     0
  5
41F9
 10
133.134383
 20
38.1
 30
0.0
  0
POINT
  8
DEFPOINTS
  6
BYBLOCK
 62
     0
  5
41FA
 10
133.134383
 20
29.385379
 30
0.0
  0
ENDBLK
  8
0
  5
41FB
  0
BLOCK
  8
0
  5
560F
  2
*D13
 70
    65
 10
0.0
 20
0.0
 30
0.0
  3
*D15
  0
LINE
  8
0
  6
BYBLOCK
 62
     0
  5
5610
 10
176.134383
 20
-44.277884
 30
0.0
 11
176.134383
 21
-81.932717
 31
0.0
  0
LINE
  8
0
  6
BYBLOCK
 62
     0
  5
5611
 10
116.134383
 20
-38.5
 30
0.0
 11
116.134383
 21
-81.932717
 31
0.0
  0
LINE
  8
0
  6
BYBLOCK
 62
     0
  5
5612
 10
173.134383
 20
-80.932717
 30
0.0
 11
119.134383
 21
-80.932717
 31
0.0
  0
INSERT
  8
0
  6
BYBLOCK
 62
     0
  5
5613
  2
_OPEN30
 10
176.134383
 20
-80.932717
 30
0.0
 41
3.0
 42
3.0
 43
3.0
  0
INSERT
  8
0
  6
BYBLOCK
 62
     0
  5
5614
  2
_OPEN30
 10
116.134383
 20
-80.932717
 30
0.0
 41
3.0
 42
3.0
 50
180.0
 43
3.0
  0
TEXT
  8
0
  6
BYBLOCK
 62
     0
  5
5615
 10
143.134383
 20
-79.932717
 30
0.0
 40
4.0
  1
60
  0
POINT
  8
DEFPOINTS
  6
BYBLOCK
 62
     0
  5
5616
 10
176.134383
 20
-43.277884
 30
0.0
  0
POINT
  8
DEFPOINTS
  6
BYBLOCK
 62
     0
  5
5617
 10
116.134383
 20
-37.5
 30
0.0
  0
POINT
  8
DEFPOINTS
  6
BYBLOCK
 62
     0
  5
5618
 10
116.134383
 20
-80.932717
 30
0.0
  0
ENDBLK
  8
0
  5
5619
  0
BLOCK
  8
0
  5
5604
  2
*D14
 70
    65
 10
0.0
 20
0.0
 30
0.0
  3
*D16
  0
LINE
  8
0
  6
BYBLOCK
 62
     0
  5
5605
 10
176.134383
 20
-44.277884
 30
0.0
 11
176.134383
 21
-92.133124
 31
0.0
  0
LINE
  8
0
  6
BYBLOCK
 62
     0
  5
5606
 10
92.134383
 20
8.5475
 30
0.0
 11
92.134383
 21
-92.133124
 31
0.0
  0
LINE
  8
0
  6
BYBLOCK
 62
     0
  5
5607
 10
173.134383
 20
-91.133124
 30
0.0
 11
95.134383
 21
-91.133124
 31
0.0
  0
INSERT
  8
0
  6
BYBLOCK
 62
     0
  5
5608
  2
_OPEN30
 10
176.134383
 20
-91.133124
 30
0.0
 41
3.0
 42
3.0
 43
3.0
  0
INSERT
  8
0
  6
BYBLOCK
 62
     0
  5
5609
  2
_OPEN30
 10
92.134383
 20
-91.133124
 30
0.0
 41
3.0
 42
3.0
 50
180.0
 43
3.0
  0
TEXT
  8
0
  6
BYBLOCK
 62
     0
  5
560A
 10
130.80105
 20
-90.133124
 30
0.0
 40
4.0
  1
84
  0
POINT
  8
DEFPOINTS
  6
BYBLOCK
 62
     0
  5
560B
 10
176.134383
 20
-43.277884
 30
0.0
  0
POINT
  8
DEFPOINTS
  6
BYBLOCK
 62
     0
  5
560C
 10
92.134383
 20
9.5475
 30
0.0
  0
POINT
  8
DEFPOINTS
  6
BYBLOCK
 62
     0
  5
560D
 10
92.134383
 20
-91.133124
 30
0.0
  0
ENDBLK
  8
0
  5
560E
  0
BLOCK
  8
0
  5
427F
  2
*D15
 70
    65
 10
0.0
 20
0.0
 30
0.0
  3
*D17
  0
LINE
  8
0
  6
BYBLOCK
 62
     0
  5
4280
 10
115.634383
 20
38.0
 30
0.0
 11
79.920019
 21
38.0
 31
0.0
  0
LINE
  8
0
  6
BYBLOCK
 62
     0
  5
4281
 10
115.634383
 20
-38.0
 30
0.0
 11
79.920019
 21
-38.0
 31
0.0
  0
LINE
  8
0
  6
BYBLOCK
 62
     0
  5
4282
 10
80.920019
 20
35.0
 30
0.0
 11
80.920019
 21
-35.0
 31
0.0
  0
INSERT
  8
0
  6
BYBLOCK
 62
     0
  5
4283
  2
_OPEN30
 10
80.920019
 20
38.0
 30
0.0
 41
3.0
 42
3.0
 50
90.0
 43
3.0
  0
INSERT
  8
0
  6
BYBLOCK
 62
     0
  5
4284
  2
_OPEN30
 10
80.920019
 20
-38.0
 30
0.0
 41
3.0
 42
3.0
 50
270.0
 43
3.0
  0
TEXT
  8
0
  6
BYBLOCK
 62
     0
  5
4285
 10
79.920019
 20
-3.333333
 30
0.0
 40
4.0
  1
76
 50
90.0
  0
POINT
  8
DEFPOINTS
  6
BYBLOCK
 62
     0
  5
4286
 10
116.634383
 20
38.0
 30
0.0
  0
POINT
  8
DEFPOINTS
  6
BYBLOCK
 62
     0
  5
4287
 10
116.634383
 20
-38.0
 30
0.0
  0
POINT
  8
DEFPOINTS
  6
BYBLOCK
 62
     0
  5
4288
 10
80.920019
 20
-38.0
 30
0.0
  0
ENDBLK
  8
0
  5
4289
  0
BLOCK
  8
0
  5
561A
  2
*D16
 70
    65
 10
0.0
 20
0.0
 30
0.0
  3
*D18
  0
LINE
  8
0
  6
BYBLOCK
 62
     0
  5
561B
 10
176.134383
 20
-44.277884
 30
0.0
 11
176.134383
 21
-72.641196
 31
0.0
  0
LINE
  8
0
  6
BYBLOCK
 62
     0
  5
561C
 10
125.134383
 20
-47.5
 30
0.0
 11
125.134383
 21
-72.641196
 31
0.0
  0
LINE
  8
0
  6
BYBLOCK
 62
     0
  5
561D
 10
173.134383
 20
-71.641196
 30
0.0
 11
128.134383
 21
-71.641196
 31
0.0
  0
INSERT
  8
0
  6
BYBLOCK
 62
     0
  5
561E
  2
_OPEN30
 10
176.134383
 20
-71.641196
 30
0.0
 41
3.0
 42
3.0
 43
3.0
  0
INSERT
  8
0
  6
BYBLOCK
 62
     0
  5
561F
  2
_OPEN30
 10
125.134383
 20
-71.641196
 30
0.0
 41
3.0
 42
3.0
 50
180.0
 43
3.0
  0
TEXT
  8
0
  6
BYBLOCK
 62
     0
  5
5620
 10
147.967716
 20
-70.641196
 30
0.0
 40
4.0
  1
51
  0
POINT
  8
DEFPOINTS
  6
BYBLOCK
 62
     0
  5
5621
 10
176.134383
 20
-43.277884
 30
0.0
  0
POINT
  8
DEFPOINTS
  6
BYBLOCK
 62
     0
  5
5622
 10
125.134383
 20
-46.5
 30
0.0
  0
POINT
  8
DEFPOINTS
  6
BYBLOCK
 62
     0
  5
5623
 10
125.134383
 20
-71.641196
 30
0.0
  0
ENDBLK
  8
0
  5
5624
  0
BLOCK
  8
0
  5
5625
  2
*D17
 70
    65
 10
0.0
 20
0.0
 30
0.0
  3
*D19
  0
LINE
  8
0
  6
BYBLOCK
 62
     0
  5
5626
 10
116.134383
 20
-38.5
 30
0.0
 11
116.134383
 21
-81.932717
 31
0.0
  0
LINE
  8
0
  6
BYBLOCK
 62
     0
  5
5627
 10
108.134383
 20
-25.975032
 30
0.0
 11
108.134383
 21
-81.932717
 31
0.0
  0
LINE
  8
0
  6
BYBLOCK
 62
     0
  5
5628
 10
119.134383
 20
-80.932717
 30
0.0
 11
122.134383
 21
-80.932717
 31
0.0
  0
LINE
  8
0
  6
BYBLOCK
 62
     0
  5
5629
 10
105.134383
 20
-80.932717
 30
0.0
 11
102.134383
 21
-80.932717
 31
0.0
  0
LINE
  8
0
  6
BYBLOCK
 62
     0
  5
562A
 10
116.134383
 20
-80.932717
 30
0.0
 11
108.134383
 21
-80.932717
 31
0.0
  0
INSERT
  8
0
  6
BYBLOCK
 62
     0
  5
562B
  2
_OPEN30
 10
116.134383
 20
-80.932717
 30
0.0
 41
3.0
 42
3.0
 50
180.0
 43
3.0
  0
INSERT
  8
0
  6
BYBLOCK
 62
     0
  5
562C
  2
_OPEN30
 10
108.134383
 20
-80.932717
 30
0.0
 41
3.0
 42
3.0
 43
3.0
  0
TEXT
  8
0
  6
BYBLOCK
 62
     0
  5
562D
 10
110.80105
 20
-79.932717
 30
0.0
 40
4.0
  1
8
  0
POINT
  8
DEFPOINTS
  6
BYBLOCK
 62
     0
  5
562E
 10
116.134383
 20
-37.5
 30
0.0
  0
POINT
  8
DEFPOINTS
  6
BYBLOCK
 62
     0
  5
562F
 10
108.134383
 20
-24.975032
 30
0.0
  0
POINT
  8
DEFPOINTS
  6
BYBLOCK
 62
     0
  5
5630
 10
108.134383
 20
-80.932717
 30
0.0
  0
ENDBLK
  8
0
  5
5631
  0
BLOCK
  8
0
  5
5632
  2
*D18
 70
    65
 10
0.0
 20
0.0
 30
0.0
  3
*D20
  0
LINE
  8
0
  6
BYBLOCK
 62
     0
  5
5633
 10
108.134383
 20
-25.95
 30
0.0
 11
108.134383
 21
-72.641196
 31
0.0
  0
LINE
  8
0
  6
BYBLOCK
 62
     0
  5
5634
 10
104.134383
 20
-25.65
 30
0.0
 11
104.134383
 21
-72.641196
 31
0.0
  0
LINE
  8
0
  6
BYBLOCK
 62
     0
  5
5635
 10
111.134383
 20
-71.641196
 30
0.0
 11
114.134383
 21
-71.641196
 31
0.0
  0
LINE
  8
0
  6
BYBLOCK
 62
     0
  5
5636
 10
101.134383
 20
-71.641196
 30
0.0
 11
93.467716
 21
-71.641196
 31
0.0
  0
LINE
  8
0
  6
BYBLOCK
 62
     0
  5
5637
 10
108.134383
 20
-71.641196
 30
0.0
 11
104.134383
 21
-71.641196
 31
0.0
  0
INSERT
  8
0
  6
BYBLOCK
 62
     0
  5
5638
  2
_OPEN30
 10
108.134383
 20
-71.641196
 30
0.0
 41
3.0
 42
3.0
 50
180.0
 43
3.0
  0
INSERT
  8
0
  6
BYBLOCK
 62
     0
  5
5639
  2
_OPEN30
 10
104.134383
 20
-71.641196
 30
0.0
 41
3.0
 42
3.0
 43
3.0
  0
TEXT
  8
0
  6
BYBLOCK
 62
     0
  5
563A
 10
94.467716
 20
-70.641196
 30
0.0
 40
4.0
  1
4
  0
POINT
  8
DEFPOINTS
  6
BYBLOCK
 62
     0
  5
563B
 10
108.134383
 20
-24.95
 30
0.0
  0
POINT
  8
DEFPOINTS
  6
BYBLOCK
 62
     0
  5
563C
 10
104.134383
 20
-24.65
 30
0.0
  0
POINT
  8
DEFPOINTS
  6
BYBLOCK
 62
     0
  5
563D
 10
104.134383
 20
-71.641196
 30
0.0
  0
ENDBLK
  8
0
  5
563E
  0
BLOCK
  8
0
  5
5095
  2
*D19
 70
    65
 10
0.0
 20
0.0
 30
0.0
  3
*D21
  0
LINE
  8
0
  6
BYBLOCK
 62
     0
  5
5096
 10
31.658023
 20
0.0
 30
0.0
 11
47.177814
 21
0.0
 31
0.0
  0
LINE
  8
0
  6
BYBLOCK
 62
     0
  5
5097
 10
20.960641
 20
-42.0
 30
0.0
 11
47.177814
 21
-42.0
 31
0.0
  0
LINE
  8
0
  6
BYBLOCK
 62
     0
  5
5098
 10
46.177814
 20
-3.0
 30
0.0
 11
46.177814
 21
-39.0
 31
0.0
  0
INSERT
  8
0
  6
BYBLOCK
 62
     0
  5
5099
  2
_OPEN30
 10
46.177814
 20
0.0
 30
0.0
 41
3.0
 42
3.0
 50
90.0
 43
3.0
  0
INSERT
  8
0
  6
BYBLOCK
 62
     0
  5
509A
  2
_OPEN30
 10
46.177814
 20
-42.0
 30
0.0
 41
3.0
 42
3.0
 50
270.0
 43
3.0
  0
TEXT
  8
0
  6
BYBLOCK
 62
     0
  5
509B
 10
45.177814
 20
-24.333333
 30
0.0
 40
4.0
  1
42
 50
90.0
  0
POINT
  8
DEFPOINTS
  6
BYBLOCK
 62
     0
  5
509C
 10
30.658023
 20
0.0
 30
0.0
  0
POINT
  8
DEFPOINTS
  6
BYBLOCK
 62
     0
  5
509D
 10
19.960641
 20
-42.0
 30
0.0
  0
POINT
  8
DEFPOINTS
  6
BYBLOCK
 62
     0
  5
509E
 10
46.177814
 20
-42.0
 30
0.0
  0
ENDBLK
  8
0
  5
509F
  0
BLOCK
  8
0
  5
50A2
  2
*D20
 70
    65
 10
0.0
 20
0.0
 30
0.0
  3
*D22
  0
LINE
  8
0
  6
BYBLOCK
 62
     0
  5
50A3
 10
31.658023
 20
0.0
 30
0.0
 11
47.177814
 21
0.0
 31
0.0
  0
LINE
  8
0
  6
BYBLOCK
 62
     0
  5
50A4
 10
20.960641
 20
40.0
 30
0.0
 11
47.177814
 21
40.0
 31
0.0
  0
LINE
  8
0
  6
BYBLOCK
 62
     0
  5
50A5
 10
46.177814
 20
3.0
 30
0.0
 11
46.177814
 21
37.0
 31
0.0
  0
INSERT
  8
0
  6
BYBLOCK
 62
     0
  5
50A6
  2
_OPEN30
 10
46.177814
 20
0.0
 30
0.0
 41
3.0
 42
3.0
 50
270.0
 43
3.0
  0
INSERT
  8
0
  6
BYBLOCK
 62
     0
  5
50A7
  2
_OPEN30
 10
46.177814
 20
40.0
 30
0.0
 41
3.0
 42
3.0
 50
90.0
 43
3.0
  0
TEXT
  8
0
  6
BYBLOCK
 62
     0
  5
50A8
 10
45.177814
 20
17.0
 30
0.0
 40
4.0
  1
40
 50
90.0
  0
POINT
  8
DEFPOINTS
  6
BYBLOCK
 62
     0
  5
50A9
 10
30.658023
 20
0.0
 30
0.0
  0
POINT
  8
DEFPOINTS
  6
BYBLOCK
 62
     0
  5
50AA
 10
19.960641
 20
40.0
 30
0.0
  0
POINT
  8
DEFPOINTS
  6
BYBLOCK
 62
     0
  5
50AB
 10
46.177814
 20
40.0
 30
0.0
  0
ENDBLK
  8
0
  5
50AC
  0
BLOCK
  8
0
  5
50AF
  2
*D21
 70
    65
 10
0.0
 20
0.0
 30
0.0
  3
*D23
  0
LINE
  8
0
  6
BYBLOCK
 62
     0
  5
50B0
 10
20.960641
 20
40.0
 30
0.0
 11
47.177814
 21
40.0
 31
0.0
  0
LINE
  8
0
  6
BYBLOCK
 62
     0
  5
50B1
 10
25.608646
 20
50.0
 30
0.0
 11
47.177814
 21
50.0
 31
0.0
  0
LINE
  8
0
  6
BYBLOCK
 62
     0
  5
50B2
 10
46.177814
 20
43.0
 30
0.0
 11
46.177814
 21
47.0
 31
0.0
  0
INSERT
  8
0
  6
BYBLOCK
 62
     0
  5
50B3
  2
_OPEN30
 10
46.177814
 20
40.0
 30
0.0
 41
3.0
 42
3.0
 50
270.0
 43
3.0
  0
INSERT
  8
0
  6
BYBLOCK
 62
     0
  5
50B4
  2
_OPEN30
 10
46.177814
 20
50.0
 30
0.0
 41
3.0
 42
3.0
 50
90.0
 43
3.0
  0
TEXT
  8
0
  6
BYBLOCK
 62
     0
  5
50B5
 10
45.177814
 20
42.666667
 30
0.0
 40
4.0
  1
10
 50
90.0
  0
POINT
  8
DEFPOINTS
  6
BYBLOCK
 62
     0
  5
50B6
 10
19.960641
 20
40.0
 30
0.0
  0
POINT
  8
DEFPOINTS
  6
BYBLOCK
 62
     0
  5
50B7
 10
24.608646
 20
50.0
 30
0.0
  0
POINT
  8
DEFPOINTS
  6
BYBLOCK
 62
     0
  5
50B8
 10
46.177814
 20
50.0
 30
0.0
  0
ENDBLK
  8
0
  5
50B9
  0
BLOCK
  8
0
  5
50BC
  2
*D22
 70
    65
 10
0.0
 20
0.0
 30
0.0
  3
*D24
  0
LINE
  8
0
  6
BYBLOCK
 62
     0
  5
50BD
 10
20.960641
 20
-42.0
 30
0.0
 11
47.177814
 21
-42.0
 31
0.0
  0
LINE
  8
0
  6
BYBLOCK
 62
     0
  5
50BE
 10
25.608646
 20
-50.0
 30
0.0
 11
47.177814
 21
-50.0
 31
0.0
  0
LINE
  8
0
  6
BYBLOCK
 62
     0
  5
50BF
 10
46.177814
 20
-39.0
 30
0.0
 11
46.177814
 21
-36.0
 31
0.0
  0
LINE
  8
0
  6
BYBLOCK
 62
     0
  5
50C0
 10
46.177814
 20
-53.0
 30
0.0
 11
46.177814
 21
-56.0
 31
0.0
  0
LINE
  8
0
  6
BYBLOCK
 62
     0
  5
50C1
 10
46.177814
 20
-42.0
 30
0.0
 11
46.177814
 21
-50.0
 31
0.0
  0
INSERT
  8
0
  6
BYBLOCK
 62
     0
  5
50C2
  2
_OPEN30
 10
46.177814
 20
-42.0
 30
0.0
 41
3.0
 42
3.0
 50
270.0
 43
3.0
  0
INSERT
  8
0
  6
BYBLOCK
 62
     0
  5
50C3
  2
_OPEN30
 10
46.177814
 20
-50.0
 30
0.0
 41
3.0
 42
3.0
 50
90.0
 43
3.0
  0
TEXT
  8
0
  6
BYBLOCK
 62
     0
  5
50C4
 10
45.177814
 20
-47.333333
 30
0.0
 40
4.0
  1
8
 50
90.0
  0
POINT
  8
DEFPOINTS
  6
BYBLOCK
 62
     0
  5
50C5
 10
19.960641
 20
-42.0
 30
0.0
  0
POINT
  8
DEFPOINTS
  6
BYBLOCK
 62
     0
  5
50C6
 10
24.608646
 20
-50.0
 30
0.0
  0
POINT
  8
DEFPOINTS
  6
BYBLOCK
 62
     0
  5
50C7
 10
46.177814
 20
-50.0
 30
0.0
  0
ENDBLK
  8
0
  5
50C8
  0
BLOCK
  8
0
  5
50CB
  2
*D23
 70
    65
 10
0.0
 20
0.0
 30
0.0
  3
*D25
  0
LINE
  8
0
  6
BYBLOCK
 62
     0
  5
50CC
 10
-47.269731
 20
24.99997
 30
0.0
 11
-63.373728
 21
24.99997
 31
0.0
  0
LINE
  8
0
  6
BYBLOCK
 62
     0
  5
50CD
 10
-47.269731
 20
-25.000032
 30
0.0
 11
-63.373728
 21
-25.000032
 31
0.0
  0
LINE
  8
0
  6
BYBLOCK
 62
     0
  5
50CE
 10
-62.373728
 20
21.99997
 30
0.0
 11
-62.373728
 21
-22.000032
 31
0.0
  0
INSERT
  8
0
  6
BYBLOCK
 62
     0
  5
50CF
  2
_OPEN30
 10
-62.373728
 20
24.99997
 30
0.0
 41
3.0
 42
3.0
 50
90.0
 43
3.0
  0
INSERT
  8
0
  6
BYBLOCK
 62
     0
  5
50D0
  2
_OPEN30
 10
-62.373728
 20
-25.000032
 30
0.0
 41
3.0
 42
3.0
 50
270.0
 43
3.0
  0
TEXT
  8
0
  6
BYBLOCK
 62
     0
  5
50D1
 10
-63.373728
 20
-3.000031
 30
0.0
 40
4.0
  1
50
 50
90.0
  0
POINT
  8
DEFPOINTS
  6
BYBLOCK
 62
     0
  5
50D2
 10
-46.269731
 20
24.99997
 30
0.0
  0
POINT
  8
DEFPOINTS
  6
BYBLOCK
 62
     0
  5
50D3
 10
-46.269731
 20
-25.000032
 30
0.0
  0
POINT
  8
DEFPOINTS
  6
BYBLOCK
 62
     0
  5
50D4
 10
-62.373728
 20
-25.000032
 30
0.0
  0
ENDBLK
  8
0
  5
50D5
  0
BLOCK
  8
0
  5
50D8
  2
*D24
 70
    65
 10
0.0
 20
0.0
 30
0.0
  3
*D26
  0
LINE
  8
0
  6
BYBLOCK
 62
     0
  5
50D9
 10
-28.299497
 20
42.0
 30
0.0
 11
-74.392999
 21
42.0
 31
0.0
  0
LINE
  8
0
  6
BYBLOCK
 62
     0
  5
50DA
 10
-3.174481
 20
-42.0
 30
0.0
 11
-74.392999
 21
-42.0
 31
0.0
  0
LINE
  8
0
  6
BYBLOCK
 62
     0
  5
50DB
 10
-73.392999
 20
39.0
 30
0.0
 11
-73.392999
 21
-39.0
 31
0.0
  0
INSERT
  8
0
  6
BYBLOCK
 62
     0
  5
50DC
  2
_OPEN30
 10
-73.392999
 20
42.0
 30
0.0
 41
3.0
 42
3.0
 50
90.0
 43
3.0
  0
INSERT
  8
0
  6
BYBLOCK
 62
     0
  5
50DD
  2
_OPEN30
 10
-73.392999
 20
-42.0
 30
0.0
 41
3.0
 42
3.0
 50
270.0
 43
3.0
  0
TEXT
  8
0
  6
BYBLOCK
 62
     0
  5
50DE
 10
-74.392999
 20
-3.333333
 30
0.0
 40
4.0
  1
84
 50
90.0
  0
POINT
  8
DEFPOINTS
  6
BYBLOCK
 62
     0
  5
50DF
 10
-27.299497
 20
42.0
 30
0.0
  0
POINT
  8
DEFPOINTS
  6
BYBLOCK
 62
     0
  5
50E0
 10
-2.174481
 20
-42.0
 30
0.0
  0
POINT
  8
DEFPOINTS
  6
BYBLOCK
 62
     0
  5
50E1
 10
-73.392999
 20
-42.0
 30
0.0
  0
ENDBLK
  8
0
  5
50E2
  0
BLOCK
  8
0
  5
50E5
  2
*D25
 70
    65
 10
0.0
 20
0.0
 30
0.0
  3
*D27
  0
LINE
  8
0
  6
BYBLOCK
 62
     0
  5
50E6
 10
-48.148232
 20
50.0
 30
0.0
 11
-86.115627
 21
50.0
 31
0.0
  0
LINE
  8
0
  6
BYBLOCK
 62
     0
  5
50E7
 10
-48.148232
 20
-50.0
 30
0.0
 11
-86.115627
 21
-50.0
 31
0.0
  0
LINE
  8
0
  6
BYBLOCK
 62
     0
  5
50E8
 10
-85.115627
 20
47.0
 30
0.0
 11
-85.115627
 21
-47.0
 31
0.0
  0
INSERT
  8
0
  6
BYBLOCK
 62
     0
  5
50E9
  2
_OPEN30
 10
-85.115627
 20
50.0
 30
0.0
 41
3.0
 42
3.0
 50
90.0
 43
3.0
  0
INSERT
  8
0
  6
BYBLOCK
 62
     0
  5
50EA
  2
_OPEN30
 10
-85.115627
 20
-50.0
 30
0.0
 41
3.0
 42
3.0
 50
270.0
 43
3.0
  0
TEXT
  8
0
  6
BYBLOCK
 62
     0
  5
50EB
 10
-86.115627
 20
-4.0
 30
0.0
 40
4.0
  1
100
 50
90.0
  0
POINT
  8
DEFPOINTS
  6
BYBLOCK
 62
     0
  5
50EC
 10
-47.148232
 20
50.0
 30
0.0
  0
POINT
  8
DEFPOINTS
  6
BYBLOCK
 62
     0
  5
50ED
 10
-47.148232
 20
-50.0
 30
0.0
  0
POINT
  8
DEFPOINTS
  6
BYBLOCK
 62
     0
  5
50EE
 10
-85.115627
 20
-50.0
 30
0.0
  0
ENDBLK
  8
0
  5
50EF
  0
BLOCK
  8
0
  5
55E9
  2
*D26
 70
    65
 10
0.0
 20
0.0
 30
0.0
  3
*D28
  0
LINE
  8
0
  6
BYBLOCK
 62
     0
  5
55EA
 10
-48.148232
 20
50.0
 30
0.0
 11
-86.115627
 21
50.0
 31
0.0
  0
LINE
  8
0
  6
BYBLOCK
 62
     0
  5
55EB
 10
-47.669716
 20
59.800001
 30
0.0
 11
-86.115627
 21
59.800001
 31
0.0
  0
LINE
  8
0
  6
BYBLOCK
 62
     0
  5
55EC
 10
-85.115627
 20
53.0
 30
0.0
 11
-85.115627
 21
56.800001
 31
0.0
  0
LINE
  8
0
  6
BYBLOCK
 62
     0
  5
55ED
 10
-85.115627
 20
59.800001
 30
0.0
 11
-85.115627
 21
72.800001
 31
0.0
  0
INSERT
  8
0
  6
BYBLOCK
 62
     0
  5
55EE
  2
_OPEN30
 10
-85.115627
 20
50.0
 30
0.0
 41
3.0
 42
3.0
 50
270.0
 43
3.0
  0
INSERT
  8
0
  6
BYBLOCK
 62
     0
  5
55EF
  2
_OPEN30
 10
-85.115627
 20
59.800001
 30
0.0
 41
3.0
 42
3.0
 50
90.0
 43
3.0
  0
TEXT
  8
0
  6
BYBLOCK
 62
     0
  5
55F0
 10
-86.115627
 20
63.800001
 30
0.0
 40
4.0
  1
9.8
 50
90.0
  0
POINT
  8
DEFPOINTS
  6
BYBLOCK
 62
     0
  5
55F1
 10
-47.148232
 20
50.0
 30
0.0
  0
POINT
  8
DEFPOINTS
  6
BYBLOCK
 62
     0
  5
55F2
 10
-46.669716
 20
59.800001
 30
0.0
  0
POINT
  8
DEFPOINTS
  6
BYBLOCK
 62
     0
  5
55F3
 10
-85.115627
 20
59.800001
 30
0.0
  0
ENDBLK
  8
0
  5
55F4
  0
BLOCK
  8
0
  5
55F7
  2
*D27
 70
    65
 10
0.0
 20
0.0
 30
0.0
  3
*D29
  0
LINE
  8
0
  6
BYBLOCK
 62
     0
  5
55F8
 10
-48.148232
 20
-50.0
 30
0.0
 11
-86.115627
 21
-50.0
 31
0.0
  0
LINE
  8
0
  6
BYBLOCK
 62
     0
  5
55F9
 10
-47.669715
 20
-59.800001
 30
0.0
 11
-86.115627
 21
-59.800001
 31
0.0
  0
LINE
  8
0
  6
BYBLOCK
 62
     0
  5
55FA
 10
-85.115627
 20
-53.0
 30
0.0
 11
-85.115627
 21
-56.800001
 31
0.0
  0
LINE
  8
0
  6
BYBLOCK
 62
     0
  5
55FB
 10
-85.115627
 20
-59.800001
 30
0.0
 11
-85.115627
 21
-72.800001
 31
0.0
  0
INSERT
  8
0
  6
BYBLOCK
 62
     0
  5
55FC
  2
_OPEN30
 10
-85.115627
 20
-50.0
 30
0.0
 41
3.0
 42
3.0
 50
90.0
 43
3.0
  0
INSERT
  8
0
  6
BYBLOCK
 62
     0
  5
55FD
  2
_OPEN30
 10
-85.115627
 20
-59.800001
 30
0.0
 41
3.0
 42
3.0
 50
270.0
 43
3.0
  0
TEXT
  8
0
  6
BYBLOCK
 62
     0
  5
55FE
 10
-86.115627
 20
-71.800001
 30
0.0
 40
4.0
  1
9.8
 50
90.0
  0
POINT
  8
DEFPOINTS
  6
BYBLOCK
 62
     0
  5
55FF
 10
-47.148232
 20
-50.0
 30
0.0
  0
POINT
  8
DEFPOINTS
  6
BYBLOCK
 62
     0
  5
5600
 10
-46.669715
 20
-59.800001
 30
0.0
  0
POINT
  8
DEFPOINTS
  6
BYBLOCK
 62
     0
  5
5601
 10
-85.115627
 20
-59.800001
 30
0.0
  0
ENDBLK
  8
0
  5
5602
  0
BLOCK
  8
0
  5
5E44
  2
*D28
 70
    65
 10
0.0
 20
0.0
 30
0.0
  3
*D30
  0
LINE
  8
0
  6
BYBLOCK
 62
     0
  5
5E45
 10
-192.511308
 20
-130.484614
 30
0.0
 11
-199.105326
 21
-130.484614
 31
0.0
  0
LINE
  8
0
  6
BYBLOCK
 62
     0
  5
5E46
 10
-192.511308
 20
-115.484614
 30
0.0
 11
-199.105326
 21
-115.484614
 31
0.0
  0
LINE
  8
0
  6
BYBLOCK
 62
     0
  5
5E47
 10
-198.105326
 20
-127.484614
 30
0.0
 11
-198.105326
 21
-118.484614
 31
0.0
  0
LINE
  8
0
  6
BYBLOCK
 62
     0
  5
5E48
 10
-198.105326
 20
-115.484614
 30
0.0
 11
-198.105326
 21
-91.817947
 31
0.0
  0
INSERT
  8
0
  6
BYBLOCK
 62
     0
  5
5E49
  2
_OPEN30
 10
-198.105326
 20
-130.484614
 30
0.0
 41
3.0
 42
3.0
 50
270.0
 43
3.0
  0
INSERT
  8
0
  6
BYBLOCK
 62
     0
  5
5E4A
  2
_OPEN30
 10
-198.105326
 20
-115.484614
 30
0.0
 41
3.0
 42
3.0
 50
90.0
 43
3.0
  0
TEXT
  8
0
  6
BYBLOCK
 62
     0
  5
5E4B
 10
-199.105326
 20
-111.484614
 30
0.0
 40
4.0
  1
Max.15
 50
90.0
  0
POINT
  8
DEFPOINTS
  6
BYBLOCK
 62
     0
  5
5E4C
 10
-191.511308
 20
-130.484614
 30
0.0
  0
POINT
  8
DEFPOINTS
  6
BYBLOCK
 62
     0
  5
5E4D
 10
-191.511308
 20
-115.484614
 30
0.0
  0
POINT
  8
DEFPOINTS
  6
BYBLOCK
 62
     0
  5
5E4E
 10
-198.105326
 20
-115.484614
 30
0.0
  0
ENDBLK
  8
0
  5
5E4F
  0
BLOCK
  8
0
  5
5E50
  2
*D29
 70
    65
 10
0.0
 20
0.0
 30
0.0
  3
*D31
  0
LINE
  8
0
  6
BYBLOCK
 62
     0
  5
5E51
 10
-184.511307
 20
-131.734614
 30
0.0
 11
-184.511307
 21
-140.413991
 31
0.0
  0
LINE
  8
0
  6
BYBLOCK
 62
     0
  5
5E52
 10
-191.511308
 20
-131.484614
 30
0.0
 11
-191.511308
 21
-140.413991
 31
0.0
  0
LINE
  8
0
  6
BYBLOCK
 62
     0
  5
5E53
 10
-181.511307
 20
-139.413991
 30
0.0
 11
-178.511307
 21
-139.413991
 31
0.0
  0
LINE
  8
0
  6
BYBLOCK
 62
     0
  5
5E54
 10
-194.511308
 20
-139.413991
 30
0.0
 11
-197.511308
 21
-139.413991
 31
0.0
  0
LINE
  8
0
  6
BYBLOCK
 62
     0
  5
5E55
 10
-184.511307
 20
-139.413991
 30
0.0
 11
-191.511308
 21
-139.413991
 31
0.0
  0
INSERT
  8
0
  6
BYBLOCK
 62
     0
  5
5E56
  2
_OPEN30
 10
-184.511307
 20
-139.413991
 30
0.0
 41
3.0
 42
3.0
 50
180.0
 43
3.0
  0
INSERT
  8
0
  6
BYBLOCK
 62
     0
  5
5E57
  2
_OPEN30
 10
-191.511308
 20
-139.413991
 30
0.0
 41
3.0
 42
3.0
 43
3.0
  0
TEXT
  8
0
  6
BYBLOCK
 62
     0
  5
5E58
 10
-189.344641
 20
-138.413991
 30
0.0
 40
4.0
  1
7
  0
POINT
  8
DEFPOINTS
  6
BYBLOCK
 62
     0
  5
5E59
 10
-184.511307
 20
-130.734614
 30
0.0
  0
POINT
  8
DEFPOINTS
  6
BYBLOCK
 62
     0
  5
5E5A
 10
-191.511308
 20
-130.484614
 30
0.0
  0
POINT
  8
DEFPOINTS
  6
BYBLOCK
 62
     0
  5
5E5B
 10
-191.511308
 20
-139.413991
 30
0.0
  0
ENDBLK
  8
0
  5
5E5C
  0
BLOCK
  8
0
  5
5E5D
  2
*D30
 70
    65
 10
0.0
 20
0.0
 30
0.0
  3
*D32
  0
LINE
  8
0
  6
BYBLOCK
 62
     0
  5
5E5E
 10
-331.172918
 20
-132.694251
 30
0.0
 11
-331.172918
 21
-143.909794
 31
0.0
  0
LINE
  8
0
  6
BYBLOCK
 62
     0
  5
5E5F
 10
-348.172918
 20
-132.694251
 30
0.0
 11
-348.172918
 21
-143.909794
 31
0.0
  0
LINE
  8
0
  6
BYBLOCK
 62
     0
  5
5E60
 10
-334.172918
 20
-142.909794
 30
0.0
 11
-345.172918
 21
-142.909794
 31
0.0
  0
INSERT
  8
0
  6
BYBLOCK
 62
     0
  5
5E61
  2
_OPEN30
 10
-331.172918
 20
-142.909794
 30
0.0
 41
3.0
 42
3.0
 43
3.0
  0
INSERT
  8
0
  6
BYBLOCK
 62
     0
  5
5E62
  2
_OPEN30
 10
-348.172918
 20
-142.909794
 30
0.0
 41
3.0
 42
3.0
 50
180.0
 43
3.0
  0
TEXT
  8
0
  6
BYBLOCK
 62
     0
  5
5E63
 10
-342.339585
 20
-141.909794
 30
0.0
 40
4.0
  1
17
  0
POINT
  8
DEFPOINTS
  6
BYBLOCK
 62
     0
  5
5E64
 10
-331.172918
 20
-131.694251
 30
0.0
  0
POINT
  8
DEFPOINTS
  6
BYBLOCK
 62
     0
  5
5E65
 10
-348.172918
 20
-131.694251
 30
0.0
  0
POINT
  8
DEFPOINTS
  6
BYBLOCK
 62
     0
  5
5E66
 10
-348.172918
 20
-142.909794
 30
0.0
  0
ENDBLK
  8
0
  5
5E67
  0
BLOCK
  8
0
  5
5E68
  2
*D31
 70
    65
 10
0.0
 20
0.0
 30
0.0
  3
*D33
  0
LINE
  8
0
  6
BYBLOCK
 62
     0
  5
5E69
 10
-328.922918
 20
-123.694251
 30
0.0
 11
-318.023866
 21
-123.694251
 31
0.0
  0
LINE
  8
0
  6
BYBLOCK
 62
     0
  5
5E6A
 10
-330.172918
 20
-116.694251
 30
0.0
 11
-318.023866
 21
-116.694251
 31
0.0
  0
LINE
  8
0
  6
BYBLOCK
 62
     0
  5
5E6B
 10
-319.023866
 20
-126.694251
 30
0.0
 11
-319.023866
 21
-129.694251
 31
0.0
  0
LINE
  8
0
  6
BYBLOCK
 62
     0
  5
5E6C
 10
-319.023866
 20
-113.694251
 30
0.0
 11
-319.023866
 21
-110.694251
 31
0.0
  0
LINE
  8
0
  6
BYBLOCK
 62
     0
  5
5E6D
 10
-319.023866
 20
-123.694251
 30
0.0
 11
-319.023866
 21
-116.694251
 31
0.0
  0
INSERT
  8
0
  6
BYBLOCK
 62
     0
  5
5E6E
  2
_OPEN30
 10
-319.023866
 20
-123.694251
 30
0.0
 41
3.0
 42
3.0
 50
90.0
 43
3.0
  0
INSERT
  8
0
  6
BYBLOCK
 62
     0
  5
5E6F
  2
_OPEN30
 10
-319.023866
 20
-116.694251
 30
0.0
 41
3.0
 42
3.0
 50
270.0
 43
3.0
  0
TEXT
  8
0
  6
BYBLOCK
 62
     0
  5
5E70
 10
-320.023866
 20
-121.527584
 30
0.0
 40
4.0
  1
7
 50
90.0
  0
POINT
  8
DEFPOINTS
  6
BYBLOCK
 62
     0
  5
5E71
 10
-329.922918
 20
-123.694251
 30
0.0
  0
POINT
  8
DEFPOINTS
  6
BYBLOCK
 62
     0
  5
5E72
 10
-331.172918
 20
-116.694251
 30
0.0
  0
POINT
  8
DEFPOINTS
  6
BYBLOCK
 62
     0
  5
5E73
 10
-319.023866
 20
-116.694251
 30
0.0
  0
ENDBLK
  8
0
  5
5E74
  0
BLOCK
  8
0
  5
5E75
  2
*D32
 70
    65
 10
0.0
 20
0.0
 30
0.0
  3
*D34
  0
LINE
  8
0
  6
BYBLOCK
 62
     0
  5
5E76
 10
-256.351949
 20
-132.694251
 30
0.0
 11
-256.351949
 21
-143.909794
 31
0.0
  0
LINE
  8
0
  6
BYBLOCK
 62
     0
  5
5E77
 10
-280.351949
 20
-132.444251
 30
0.0
 11
-280.351949
 21
-143.909794
 31
0.0
  0
LINE
  8
0
  6
BYBLOCK
 62
     0
  5
5E78
 10
-259.351949
 20
-142.909794
 30
0.0
 11
-277.351949
 21
-142.909794
 31
0.0
  0
INSERT
  8
0
  6
BYBLOCK
 62
     0
  5
5E79
  2
_OPEN30
 10
-256.351949
 20
-142.909794
 30
0.0
 41
3.0
 42
3.0
 43
3.0
  0
INSERT
  8
0
  6
BYBLOCK
 62
     0
  5
5E7A
  2
_OPEN30
 10
-280.351949
 20
-142.909794
 30
0.0
 41
3.0
 42
3.0
 50
180.0
 43
3.0
  0
TEXT
  8
0
  6
BYBLOCK
 62
     0
  5
5E7B
 10
-271.685283
 20
-141.909794
 30
0.0
 40
4.0
  1
24
  0
POINT
  8
DEFPOINTS
  6
BYBLOCK
 62
     0
  5
5E7C
 10
-256.351949
 20
-131.694251
 30
0.0
  0
POINT
  8
DEFPOINTS
  6
BYBLOCK
 62
     0
  5
5E7D
 10
-280.351949
 20
-131.444251
 30
0.0
  0
POINT
  8
DEFPOINTS
  6
BYBLOCK
 62
     0
  5
5E7E
 10
-280.351949
 20
-142.909794
 30
0.0
  0
ENDBLK
  8
0
  5
5E7F
  0
BLOCK
  8
0
  5
5E80
  2
*D33
 70
    65
 10
0.0
 20
0.0
 30
0.0
  3
*D35
  0
LINE
  8
0
  6
BYBLOCK
 62
     0
  5
5E81
 10
-164.910256
 20
-105.74213
 30
0.0
 11
-178.880038
 21
-118.030947
 31
0.0
  0
LINE
  8
0
  6
BYBLOCK
 62
     0
  5
5E82
 10
-190.142576
 20
-127.93828
 30
0.0
 11
-192.395084
 21
-129.919746
 31
0.0
  0
TEXT
  8
0
  6
BYBLOCK
 62
     0
  5
5E83
 10
-171.327154
 20
-110.055042
 30
0.0
 40
4.0
  1
%%c9
 50
41.337164
  0
LINE
  8
0
  6
BYBLOCK
 62
     0
  5
5E84
 10
-187.890069
 20
-125.956813
 30
0.0
 11
-181.132546
 21
-120.012414
 31
0.0
  0
INSERT
  8
0
  6
BYBLOCK
 62
     0
  5
5E85
  2
_OPEN30
 10
-187.890069
 20
-125.956813
 30
0.0
 41
3.0
 42
3.0
 50
41.337164
 43
3.0
  0
INSERT
  8
0
  6
BYBLOCK
 62
     0
  5
5E86
  2
_OPEN30
 10
-181.132546
 20
-120.012414
 30
0.0
 41
3.0
 42
3.0
 50
221.337164
 43
3.0
  0
POINT
  8
DEFPOINTS
  6
BYBLOCK
 62
     0
  5
5E87
 10
-181.132546
 20
-120.012414
 30
0.0
  0
POINT
  8
DEFPOINTS
  6
BYBLOCK
 62
     0
  5
5E88
 10
-187.890069
 20
-125.956813
 30
0.0
  0
ENDBLK
  8
0
  5
5E89
  0
BLOCK
  8
0
  5
5F2B
  2
*X34
 70
    65
 10
0.0
 20
0.0
 30
0.0
  3
*X36
  0
LINE
  8
F05_PRO
 62
     0
  5
5F16
 10
228.288327
 20
-131.694251
 30
0.0
 11
229.191409
 21
-130.791169
 31
0.0
  0
LINE
  8
F05_PRO
 62
     0
  5
5F17
 10
225.4599
 20
-131.694251
 30
0.0
 11
229.191409
 21
-127.962742
 31
0.0
  0
LINE
  8
F05_PRO
 62
     0
  5
5F18
 10
225.191409
 20
-129.134315
 30
0.0
 11
229.191409
 21
-125.134315
 31
0.0
  0
LINE
  8
F05_PRO
 62
     0
  5
5F19
 10
225.191409
 20
-126.305888
 30
0.0
 11
229.191409
 21
-122.305888
 31
0.0
  0
LINE
  8
F05_PRO
 62
     0
  5
5F1A
 10
225.191409
 20
-123.477461
 30
0.0
 11
229.191409
 21
-119.477461
 31
0.0
  0
LINE
  8
F05_PRO
 62
     0
  5
5F1B
 10
225.191409
 20
-120.649034
 30
0.0
 11
229.191409
 21
-116.649034
 31
0.0
  0
LINE
  8
F05_PRO
 62
     0
  5
5F1C
 10
225.191409
 20
-117.820607
 30
0.0
 11
229.191409
 21
-113.820607
 31
0.0
  0
LINE
  8
F05_PRO
 62
     0
  5
5F1D
 10
223.489338
 20
-116.69425
 30
0.0
 11
228.802772
 21
-111.380816
 31
0.0
  0
LINE
  8
F05_PRO
 62
     0
  5
5F1E
 10
220.660911
 20
-116.69425
 30
0.0
 11
225.974345
 21
-111.380816
 31
0.0
  0
LINE
  8
F05_PRO
 62
     0
  5
5F1F
 10
205.66091
 20
-131.694251
 30
0.0
 11
208.191409
 21
-129.163752
 31
0.0
  0
LINE
  8
F05_PRO
 62
     0
  5
5F20
 10
217.832483
 20
-116.69425
 30
0.0
 11
223.145918
 21
-111.380816
 31
0.0
  0
LINE
  8
F05_PRO
 62
     0
  5
5F21
 10
204.191409
 20
-130.335325
 30
0.0
 11
208.191409
 21
-126.335325
 31
0.0
  0
LINE
  8
F05_PRO
 62
     0
  5
5F22
 10
215.004056
 20
-116.69425
 30
0.0
 11
220.317491
 21
-111.380816
 31
0.0
  0
LINE
  8
F05_PRO
 62
     0
  5
5F23
 10
204.191409
 20
-127.506898
 30
0.0
 11
208.191409
 21
-123.506898
 31
0.0
  0
LINE
  8
F05_PRO
 62
     0
  5
5F24
 10
212.175629
 20
-116.69425
 30
0.0
 11
217.489064
 21
-111.380816
 31
0.0
  0
LINE
  8
F05_PRO
 62
     0
  5
5F25
 10
204.191409
 20
-124.678471
 30
0.0
 11
208.191409
 21
-120.678471
 31
0.0
  0
LINE
  8
F05_PRO
 62
     0
  5
5F26
 10
209.347202
 20
-116.69425
 30
0.0
 11
214.660636
 21
-111.380816
 31
0.0
  0
LINE
  8
F05_PRO
 62
     0
  5
5F27
 10
204.191409
 20
-121.850044
 30
0.0
 11
208.191409
 21
-117.850044
 31
0.0
  0
LINE
  8
F05_PRO
 62
     0
  5
5F28
 10
204.191409
 20
-119.021617
 30
0.0
 11
211.832209
 21
-111.380816
 31
0.0
  0
LINE
  8
F05_PRO
 62
     0
  5
5F29
 10
204.191409
 20
-116.19319
 30
0.0
 11
209.003782
 21
-111.380816
 31
0.0
  0
LINE
  8
F05_PRO
 62
     0
  5
5F2A
 10
204.191409
 20
-113.364762
 30
0.0
 11
206.175355
 21
-111.380816
 31
0.0
  0
ENDBLK
  8
0
  5
5F2C
  0
BLOCK
  8
0
  5
5F48
  2
*X35
 70
    65
 10
0.0
 20
0.0
 30
0.0
  3
*X37
  0
LINE
  8
F05_PRO
 62
     0
  5
5F2E
 10
297.963636
 20
-131.69425
 30
0.0
 11
300.012377
 21
-129.645509
 31
0.0
  0
LINE
  8
F05_PRO
 62
     0
  5
5F2F
 10
295.135209
 20
-131.69425
 30
0.0
 11
300.012377
 21
-126.817082
 31
0.0
  0
LINE
  8
F05_PRO
 62
     0
  5
5F30
 10
292.306782
 20
-131.69425
 30
0.0
 11
300.012377
 21
-123.988655
 31
0.0
  0
LINE
  8
F05_PRO
 62
     0
  5
5F31
 10
289.478354
 20
-131.69425
 30
0.0
 11
300.012377
 21
-121.160227
 31
0.0
  0
LINE
  8
F05_PRO
 62
     0
  5
5F32
 10
286.649927
 20
-131.69425
 30
0.0
 11
300.012377
 21
-118.3318
 31
0.0
  0
LINE
  8
F05_PRO
 62
     0
  5
5F33
 10
288.512377
 20
-127.003374
 30
0.0
 11
300.012377
 21
-115.503373
 31
0.0
  0
LINE
  8
F05_PRO
 62
     0
  5
5F34
 10
283.8215
 20
-131.69425
 30
0.0
 11
286.8215
 21
-128.694251
 31
0.0
  0
LINE
  8
F05_PRO
 62
     0
  5
5F35
 10
288.512377
 20
-124.174947
 30
0.0
 11
300.012377
 21
-112.674946
 31
0.0
  0
LINE
  8
F05_PRO
 62
     0
  5
5F36
 10
280.993073
 20
-131.69425
 30
0.0
 11
283.993073
 21
-128.694251
 31
0.0
  0
LINE
  8
F05_PRO
 62
     0
  5
5F37
 10
288.512377
 20
-121.34652
 30
0.0
 11
298.464646
 21
-111.39425
 31
0.0
  0
LINE
  8
F05_PRO
 62
     0
  5
5F38
 10
278.512377
 20
-131.34652
 30
0.0
 11
281.164646
 21
-128.694251
 31
0.0
  0
LINE
  8
F05_PRO
 62
     0
  5
5F39
 10
288.336219
 20
-118.694251
 30
0.0
 11
295.636219
 21
-111.39425
 31
0.0
  0
LINE
  8
F05_PRO
 62
     0
  5
5F3A
 10
285.507792
 20
-118.694251
 30
0.0
 11
292.807792
 21
-111.39425
 31
0.0
  0
LINE
  8
F05_PRO
 62
     0
  5
5F3B
 10
282.679364
 20
-118.694251
 30
0.0
 11
289.979365
 21
-111.39425
 31
0.0
  0
LINE
  8
F05_PRO
 62
     0
  5
5F3C
 10
279.850937
 20
-118.694251
 30
0.0
 11
287.150937
 21
-111.39425
 31
0.0
  0
LINE
  8
F05_PRO
 62
     0
  5
5F3D
 10
278.512377
 20
-117.204384
 30
0.0
 11
284.32251
 21
-111.39425
 31
0.0
  0
LINE
  8
F05_PRO
 62
     0
  5
5F3E
 10
276.20971
 20
-116.678624
 30
0.0
 11
281.494083
 21
-111.39425
 31
0.0
  0
LINE
  8
F05_PRO
 62
     0
  5
5F3F
 10
273.400348
 20
-116.659559
 30
0.0
 11
278.665656
 21
-111.39425
 31
0.0
  0
LINE
  8
F05_PRO
 62
     0
  5
5F40
 10
270.590985
 20
-116.640494
 30
0.0
 11
275.837229
 21
-111.39425
 31
0.0
  0
LINE
  8
F05_PRO
 62
     0
  5
5F41
 10
267.781623
 20
-116.621429
 30
0.0
 11
273.008802
 21
-111.39425
 31
0.0
  0
LINE
  8
F05_PRO
 62
     0
  5
5F42
 10
264.972261
 20
-116.602364
 30
0.0
 11
270.180375
 21
-111.39425
 31
0.0
  0
LINE
  8
F05_PRO
 62
     0
  5
5F43
 10
262.162899
 20
-116.583299
 30
0.0
 11
267.351948
 21
-111.39425
 31
0.0
  0
LINE
  8
F05_PRO
 62
     0
  5
5F44
 10
259.353537
 20
-116.564234
 30
0.0
 11
264.52352
 21
-111.39425
 31
0.0
  0
LINE
  8
F05_PRO
 62
     0
  5
5F45
 10
256.544175
 20
-116.545169
 30
0.0
 11
261.695093
 21
-111.39425
 31
0.0
  0
LINE
  8
F05_PRO
 62
     0
  5
5F46
 10
255.212388
 20
-115.048528
 30
0.0
 11
258.866666
 21
-111.39425
 31
0.0
  0
LINE
  8
F05_PRO
 62
     0
  5
5F47
 10
255.212388
 20
-112.220101
 30
0.0
 11
256.038239
 21
-111.39425
 31
0.0
  0
ENDBLK
  8
0
  5
5F49
  0
ENDSEC
  0
SECTION
  2
ENTITIES
  0
DIMENSION
  8
F02_DIM
  6
CONTINUOUS
  5
14D7
  2
*D1
 10
-19.290376
 20
-8.432854
 30
0.0
 11
-25.923414
 21
-8.432854
 31
0.0
 12
-30.345315
 22
0.0
 32
0.0
 70
   128
  1
22
 13
-41.400362
 23
-6.512297
 33
0.0
 14
-19.290376
 24
-6.512297
 34
0.0
  3
FSTD1
1001
ACAD
1000
DSTYLE
1002
{
1070
    40
1040
1.0
1002
}
  0
LINE
  8
F01_OUT
  5
14D9
 10
-20.295315
 20
-23.995
 30
0.0
 11
-19.290315
 21
-24.575238
 31
0.0
  0
LINE
  8
F01_OUT
  5
14DA
 10
-20.295315
 20
23.995
 30
0.0
 11
-19.290315
 21
24.575237
 31
0.0
  0
ARC
  8
F01_OUT
  5
14DB
 10
-17.782815
 20
42.00994
 30
0.0
 40
3.9195
 50
105.291591
 51
38.630973
  0
CIRCLE
  8
F01_OUT
  5
14DC
 10
-17.845315
 20
-42.0
 30
0.0
 40
2.46225
  0
ARC
  8
F01_OUT
  5
14DD
 10
-17.845315
 20
-42.0
 30
0.0
 40
3.9195
 50
284.451588
 51
217.311417
  0
LINE
  8
F01_OUT
  5
14DE
 10
4.654685
 20
24.99997
 30
0.0
 11
-65.345315
 21
24.99997
 31
0.0
  0
LINE
  8
F01_OUT
  5
14DF
 10
-12.757876
 20
-38.0
 30
0.0
 11
-22.807876
 21
-38.0
 31
0.0
  0
LINE
  8
F01_OUT
  5
14E0
 10
-12.757876
 20
38.0
 30
0.0
 11
-22.807876
 21
38.0
 31
0.0
  0
LINE
  8
F01_OUT
  5
14E1
 10
-20.860376
 20
-46.281252
 30
0.0
 11
-17.242376
 21
-46.281252
 31
0.0
  0
LINE
  8
F01_OUT
  5
14E3
 10
-65.345315
 20
-25.000032
 30
0.0
 11
4.654685
 21
-25.000032
 31
0.0
  0
LINE
  8
F03_CNT
  5
14E4
 10
-14.315565
 20
-42.0
 30
0.0
 11
-21.250065
 21
-42.0
 31
0.0
  0
LINE
  8
F03_CNT
  5
14E5
 10
-72.685799
 20
0.0
 30
0.0
 11
11.582439
 21
0.0
 31
0.0
  0
LINE
  8
F01_OUT
  5
14E7
 10
-22.807876
 20
32.9685
 30
0.0
 11
-22.807876
 21
50.0
 31
0.0
  0
LINE
  8
F01_OUT
  5
14E8
 10
-37.882877
 20
50.0
 30
0.0
 11
-37.882877
 21
32.9685
 31
0.0
  0
LINE
  8
F01_OUT
  5
14E9
 10
-47.932877
 20
32.9685
 30
0.0
 11
-47.932877
 21
50.0
 31
0.0
  0
LINE
  8
F01_OUT
  5
14EA
 10
-63.007877
 20
50.0
 30
0.0
 11
-63.007877
 21
32.9685
 31
0.0
  0
LINE
  8
F01_OUT
  5
14EB
 10
-67.845315
 20
46.5
 30
0.0
 11
-67.845315
 21
-46.5
 31
0.0
  0
LINE
  8
F03_CNT
  5
14EC
 10
-55.345315
 20
47.37135
 30
0.0
 11
-55.345315
 21
33.397583
 31
0.0
  0
LINE
  8
F03_CNT
  5
14ED
 10
-30.345315
 20
65.938573
 30
0.0
 11
-30.345315
 21
-64.056421
 31
0.0
  0
LINE
  8
F01_OUT
  5
14EF
 10
-63.007877
 20
-38.0
 30
0.0
 11
-67.845315
 21
-38.0
 31
0.0
  0
LINE
  8
F01_OUT
  5
14F1
 10
-66.223816
 20
-46.5
 30
0.0
 11
-66.223816
 21
-50.0
 31
0.0
  0
LINE
  8
F01_OUT
  5
14F2
 10
-66.223816
 20
-46.5
 30
0.0
 11
-67.845315
 21
-46.5
 31
0.0
  0
ARC
  8
F01_OUT
  5
14F3
 10
-42.907831
 20
-42.00994
 30
0.0
 40
3.9195
 50
285.289943
 51
218.628427
  0
LINE
  8
F01_OUT
  5
14F4
 10
-37.882877
 20
-38.0
 30
0.0
 11
-47.932877
 21
-38.0
 31
0.0
  0
LINE
  8
F01_OUT
  5
14F5
 10
-45.860392
 20
-46.281252
 30
0.0
 11
-42.242392
 21
-46.281252
 31
0.0
  0
LINE
  8
F01_OUT
  5
14F6
 10
-45.860392
 20
-44.768889
 30
0.0
 11
-45.860392
 21
-50.0
 31
0.0
  0
LINE
  8
F01_OUT
  5
14F7
 10
-63.007877
 20
-50.0
 30
0.0
 11
-63.007877
 21
-35.0
 31
0.0
  0
LINE
  8
F01_OUT
  5
14F8
 10
-47.932877
 20
-50.0
 30
0.0
 11
-47.932877
 21
-35.0
 31
0.0
  0
LINE
  8
F03_CNT
  5
14F9
 10
-55.345315
 20
-35.954614
 30
0.0
 11
-55.345315
 21
-48.165389
 31
0.0
  0
LINE
  8
F01_OUT
  5
14FA
 10
-66.223816
 20
-50.0
 30
0.0
 11
-45.860392
 21
-50.0
 31
0.0
  0
LINE
  8
F01_OUT
  5
14FC
 10
-47.932877
 20
-35.0
 30
0.0
 11
-63.007877
 21
-35.0
 31
0.0
  0
LINE
  8
F03_CNT
  5
14FD
 10
-61.575688
 20
-42.0
 30
0.0
 11
-49.364944
 21
-42.0
 31
0.0
  0
LINE
  8
F01_OUT
  5
14FF
 10
-20.860376
 20
-44.678866
 30
0.0
 11
-20.860376
 21
-50.0
 31
0.0
  0
LINE
  8
F01_OUT
  5
1500
 10
-22.807876
 20
-50.0
 30
0.0
 11
-22.807876
 21
-35.0
 31
0.0
  0
LINE
  8
F01_OUT
  5
1501
 10
-37.882877
 20
-35.0
 30
0.0
 11
-37.882877
 21
-50.0
 31
0.0
  0
LINE
  8
F01_OUT
  5
1502
 10
-42.242392
 20
-50.0
 30
0.0
 11
-20.860376
 21
-50.0
 31
0.0
  0
LINE
  8
F01_OUT
  5
1504
 10
-42.242392
 20
-46.273006
 30
0.0
 11
-42.242392
 21
-50.0
 31
0.0
  0
LINE
  8
F01_OUT
  5
1507
 10
-22.807876
 20
-35.0
 30
0.0
 11
-37.882877
 21
-35.0
 31
0.0
  0
LINE
  8
F03_CNT
  5
1508
 10
-36.450688
 20
-42.0
 30
0.0
 11
-24.239943
 21
-42.0
 31
0.0
  0
LINE
  8
F01_OUT
  5
150A
 10
-21.702315
 20
-42.006027
 30
0.0
 11
-21.702315
 21
-42.020969
 31
0.0
  0
LINE
  8
F01_OUT
  5
150E
 10
-66.345315
 20
23.99997
 30
0.0
 11
-66.345315
 21
-24.000032
 31
0.0
  0
LINE
  8
F01_OUT
  5
1511
 10
-23.812808
 20
18.34128
 30
0.0
 11
-23.812808
 21
0.75378
 31
0.0
  0
LINE
  8
F01_OUT
  5
1512
 10
-36.877823
 20
18.34128
 30
0.0
 11
-36.877823
 21
0.75378
 31
0.0
  0
LINE
  8
F01_OUT
  5
1513
 10
-40.395315
 20
23.995
 30
0.0
 11
-40.395315
 21
-23.995
 31
0.0
  0
LINE
  8
F01_OUT
  5
1514
 10
-20.295315
 20
23.995
 30
0.0
 11
-20.295315
 21
-23.995
 31
0.0
  0
LINE
  8
F01_OUT
  5
1515
 10
-41.400362
 20
24.644648
 30
0.0
 11
-41.400362
 21
-24.64471
 31
0.0
  0
LINE
  8
F01_OUT
  5
1516
 10
-20.295315
 20
-23.995
 30
0.0
 11
-40.395315
 21
-23.995
 31
0.0
  0
LINE
  8
F01_OUT
  5
1517
 10
-40.395315
 20
-23.995
 30
0.0
 11
-41.400315
 21
-24.575238
 31
0.0
  0
ARC
  8
F01_OUT
  5
1518
 10
-41.045041
 20
-24.64471
 30
0.0
 40
0.355321
 50
180.0
 51
270.0
  0
LINE
  8
F01_OUT
  5
1519
 10
-36.877823
 20
0.75378
 30
0.0
 11
-23.812808
 21
0.75378
 31
0.0
  0
LINE
  8
F01_OUT
  5
151A
 10
-47.932877
 20
32.9685
 30
0.0
 11
-63.007877
 21
32.9685
 31
0.0
  0
ARC
  8
F01_OUT
  5
151B
 10
-34.666823
 20
19.733495
 30
0.0
 40
1.75875
 50
90.0
 51
180.0
  0
ARC
  8
F01_OUT
  5
151C
 10
-26.023815
 20
19.733495
 30
0.0
 40
1.75875
 50
0.0
 51
90.0
  0
LINE
  8
F01_OUT
  5
151D
 10
-24.965452
 20
17.36392
 30
0.0
 11
-35.635965
 21
17.36392
 31
0.0
  0
LINE
  8
F01_OUT
  5
151E
 10
-36.877823
 20
3.91953
 30
0.0
 11
-23.812808
 21
3.91953
 31
0.0
  0
LINE
  8
F01_OUT
  5
151F
 10
-36.425573
 20
9.325476
 30
0.0
 11
-24.265065
 21
9.325476
 31
0.0
  0
LINE
  8
F01_OUT
  5
1520
 10
-36.425573
 20
19.733495
 30
0.0
 11
-36.425573
 21
3.91953
 31
0.0
  0
LINE
  8
F01_OUT
  5
1521
 10
-36.877823
 20
15.17553
 30
0.0
 11
-36.425573
 21
15.17553
 31
0.0
  0
LINE
  8
F01_OUT
  5
1522
 10
-36.877823
 20
18.34128
 30
0.0
 11
-36.425573
 21
18.34128
 31
0.0
  0
LINE
  8
F01_OUT
  5
1523
 10
-24.265065
 20
19.733495
 30
0.0
 11
-24.265065
 21
3.91953
 31
0.0
  0
LINE
  8
F01_OUT
  5
1524
 10
-24.265065
 20
15.17553
 30
0.0
 11
-23.812808
 21
15.17553
 31
0.0
  0
LINE
  8
F01_OUT
  5
1525
 10
-24.265065
 20
18.34128
 30
0.0
 11
-23.812808
 21
18.34128
 31
0.0
  0
LINE
  8
F01_OUT
  5
1526
 10
-26.023815
 20
21.492245
 30
0.0
 11
-34.666823
 21
21.492245
 31
0.0
  0
LINE
  8
F01_OUT
  5
1527
 10
-20.295315
 20
23.995
 30
0.0
 11
-40.395315
 21
23.995
 31
0.0
  0
LINE
  8
F01_OUT
  5
1528
 10
-22.807876
 20
32.9685
 30
0.0
 11
-37.882877
 21
32.9685
 31
0.0
  0
LINE
  8
F01_OUT
  5
1529
 10
-40.395315
 20
23.995
 30
0.0
 11
-41.400362
 21
24.575264
 31
0.0
  0
ARC
  8
F01_OUT
  5
152A
 10
-41.045041
 20
24.644648
 30
0.0
 40
0.355321
 50
90.0
 51
180.0
  0
LINE
  8
F05_PRO
  5
152B
 10
-72.153923
 20
80.79636
 30
0.0
 11
-104.086292
 21
80.79636
 31
0.0
  0
LINE
  8
F01_OUT
  5
152F
 10
-63.007877
 20
38.0
 30
0.0
 11
-67.845315
 21
38.0
 31
0.0
  0
LINE
  8
F01_OUT
  5
1531
 10
-66.223816
 20
46.5
 30
0.0
 11
-67.845315
 21
46.5
 31
0.0
  0
LINE
  8
F01_OUT
  5
1532
 10
-66.223816
 20
46.5
 30
0.0
 11
-66.223816
 21
50.0
 31
0.0
  0
CIRCLE
  8
F01_OUT
  5
1534
 10
-42.845315
 20
42.0
 30
0.0
 40
2.46225
  0
ARC
  8
F01_OUT
  5
1535
 10
-42.845315
 20
42.0
 30
0.0
 40
3.9195
 50
104.453243
 51
37.314061
  0
LINE
  8
F01_OUT
  5
1536
 10
-37.882877
 20
38.0
 30
0.0
 11
-47.932877
 21
38.0
 31
0.0
  0
LINE
  8
F01_OUT
  5
1537
 10
-43.448377
 20
46.281251
 30
0.0
 11
-39.830377
 21
46.281251
 31
0.0
  0
LINE
  8
F03_CNT
  5
1538
 10
-39.440581
 20
42.0
 30
0.0
 11
-46.375081
 21
42.0
 31
0.0
  0
LINE
  8
F01_OUT
  5
1539
 10
-66.223816
 20
50.0
 30
0.0
 11
-43.448377
 21
50.0
 31
0.0
  0
LINE
  8
F03_CNT
  5
153A
 10
-61.575688
 20
40.0
 30
0.0
 11
-49.364944
 21
40.0
 31
0.0
  0
LINE
  8
F01_OUT
  5
153D
 10
-43.448377
 20
46.27963
 30
0.0
 11
-43.448377
 21
50.0
 31
0.0
  0
LINE
  8
F01_OUT
  5
153E
 10
-39.830377
 20
50.0
 30
0.0
 11
-18.448376
 21
50.0
 31
0.0
  0
LINE
  8
F03_CNT
  5
153F
 10
-36.450688
 20
40.0
 30
0.0
 11
-24.239943
 21
40.0
 31
0.0
  0
LINE
  8
F03_CNT
  5
1541
 10
-42.845315
 20
45.47719
 30
0.0
 11
-42.845315
 21
38.542689
 31
0.0
  0
LINE
  8
F01_OUT
  5
1542
 10
-39.830377
 20
44.679028
 30
0.0
 11
-39.830377
 21
50.0
 31
0.0
  0
TEXT
  8
F02_DIM
  6
CONTINUOUS
  5
1544
 10
-30.047722
 20
66.835338
 30
0.0
 40
3.015
  1
L
  0
TEXT
  8
F02_DIM
  6
CONTINUOUS
  5
1545
 10
-31.514229
 20
68.254826
 30
0.0
 40
3.015
  1
C
  0
LINE
  8
F01_OUT
  5
1549
 10
176.134383
 20
43.277941
 30
0.0
 11
176.134383
 21
15.879048
 31
0.0
  0
LINE
  8
F01_OUT
  5
154A
 10
116.134383
 20
37.5
 30
0.0
 11
116.134383
 21
-37.5
 31
0.0
  0
LINE
  8
F01_OUT
  5
154B
 10
2.317124
 20
50.0
 30
0.0
 11
2.317124
 21
32.9685
 31
0.0
  0
LINE
  8
F01_OUT
  5
154C
 10
-12.757876
 20
50.0
 30
0.0
 11
-12.757876
 21
32.9685
 31
0.0
  0
LINE
  8
F01_OUT
  5
154D
 10
7.154685
 20
46.5
 30
0.0
 11
7.154685
 21
-46.5
 31
0.0
  0
LINE
  8
F03_CNT
  5
154E
 10
-5.345315
 20
47.37135
 30
0.0
 11
-5.345315
 21
33.397583
 31
0.0
  0
LINE
  8
F01_OUT
  5
1551
 10
96.778886
 20
21.364008
 30
0.0
 11
104.134383
 21
18.392194
 31
0.0
  0
LINE
  8
F01_OUT
  5
1552
 10
94.896489
 20
16.704909
 30
0.0
 11
104.134383
 21
12.972557
 31
0.0
  0
LINE
  8
F01_OUT
  5
1553
 10
97.385177
 20
19.49316
 30
0.0
 11
104.134383
 21
16.766303
 31
0.0
  0
LINE
  8
F01_OUT
  5
1554
 10
104.134383
 20
14.59846
 30
0.0
 11
96.625623
 21
17.632177
 31
0.0
  0
LINE
  8
F03_CNT
  5
1555
 10
97.412441
 20
0.0
 30
0.0
 11
180.099531
 21
0.0
 31
0.0
  0
LINE
  8
F05_PRO
  5
1557
 10
2.601726
 20
-13.711506
 30
0.0
 11
25.467017
 21
-63.698559
 31
0.0
  0
TEXT
  8
F05_PRO
  5
1559
 10
27.588465
 20
-67.77493
 30
0.0
 40
3.0
  1
(%%c3.8)
  0
LINE
  8
F05_PRO
  5
155A
 10
25.467017
 20
-63.698559
 30
0.0
 11
53.499756
 21
-63.698559
 31
0.0
  0
LINE
  8
F01_OUT
  5
155D
 10
7.154685
 20
-38.0
 30
0.0
 11
2.317124
 21
-38.0
 31
0.0
  0
LINE
  8
F01_OUT
  5
155F
 10
-17.242376
 20
-50.0
 30
0.0
 11
5.533062
 21
-50.0
 31
0.0
  0
LINE
  8
F01_OUT
  5
1560
 10
2.317124
 20
-50.0
 30
0.0
 11
2.317124
 21
-35.0
 31
0.0
  0
LINE
  8
F01_OUT
  5
1561
 10
-12.757876
 20
-35.0
 30
0.0
 11
-12.757876
 21
-50.0
 31
0.0
  0
LINE
  8
F03_CNT
  5
1562
 10
-5.345315
 20
-36.254614
 30
0.0
 11
-5.345315
 21
-48.465389
 31
0.0
  0
LINE
  8
F01_OUT
  5
1565
 10
-17.242376
 20
-46.279662
 30
0.0
 11
-17.242376
 21
-50.0
 31
0.0
  0
LINE
  8
F01_OUT
  5
1566
 10
2.317124
 20
-35.0
 30
0.0
 11
-12.757876
 21
-35.0
 31
0.0
  0
LINE
  8
F03_CNT
  5
1567
 10
-11.325687
 20
-42.0
 30
0.0
 11
0.885057
 21
-42.0
 31
0.0
  0
LINE
  8
F03_CNT
  5
1568
 10
-17.845315
 20
-38.54269
 30
0.0
 11
-17.845315
 21
-45.477191
 31
0.0
  0
LINE
  8
F01_OUT
  5
1569
 10
5.533062
 20
-46.5
 30
0.0
 11
5.533062
 21
-50.0
 31
0.0
  0
LINE
  8
F01_OUT
  5
156A
 10
5.533062
 20
-46.5
 30
0.0
 11
7.154685
 21
-46.5
 31
0.0
  0
LINE
  8
F01_OUT
  5
156B
 10
-19.290376
 20
24.644648
 30
0.0
 11
-19.290376
 21
-24.64471
 31
0.0
  0
LINE
  8
F01_OUT
  5
156C
 10
5.654685
 20
23.99997
 30
0.0
 11
5.654685
 21
-24.000032
 31
0.0
  0
CIRCLE
  8
F01_OUT
  5
1572
 10
2.354685
 20
-13.5
 30
0.0
 40
1.9095
  0
LINE
  8
F03_CNT
  5
1576
 10
5.269185
 20
-13.5
 30
0.0
 11
-0.559815
 21
-13.5
 31
0.0
  0
LINE
  8
F03_CNT
  5
1579
 10
2.354685
 20
-10.552856
 30
0.0
 11
2.354685
 21
-16.381856
 31
0.0
  0
ARC
  8
F01_OUT
  5
157E
 10
-19.645698
 20
-24.64471
 30
0.0
 40
0.355321
 50
270.0
 51
0.0
  0
LINE
  8
F01_OUT
  5
1593
 10
2.317124
 20
32.9685
 30
0.0
 11
-12.757876
 21
32.9685
 31
0.0
  0
ARC
  8
F01_OUT
  5
1594
 10
-19.645698
 20
24.644648
 30
0.0
 40
0.355321
 50
0.0
 51
90.0
  0
TEXT
  8
F02_DIM
  6
CONTINUOUS
  5
1598
 10
94.588774
 20
-2.024355
 30
0.0
 40
3.015
  1
L
  0
TEXT
  8
F02_DIM
  6
CONTINUOUS
  5
1599
 10
93.122268
 20
-0.604867
 30
0.0
 40
3.015
  1
C
  0
LINE
  8
F01_OUT
  5
159A
 10
94.489362
 20
20.392163
 30
0.0
 11
93.924643
 21
18.994433
 31
0.0
  0
ARC
  8
F02_DIM
  5
159B
 10
119.319633
 20
9.5475
 30
0.0
 40
27.18525
 50
163.666331
 51
180.0
  0
CIRCLE
  8
F01_OUT
  5
159C
 10
97.002113
 20
18.564027
 30
0.0
 40
1.005
  0
ARC
  8
F01_OUT
  5
159D
 10
95.555328
 20
18.335593
 30
0.0
 40
1.75875
 50
158.0
 51
248.0
  0
TEXT
  8
F05_PRO
  5
159E
 10
90.876179
 20
24.840745
 30
0.0
 40
3.0
  1
ON
  0
ARC
  8
F01_OUT
  5
159F
 10
96.120047
 20
19.733323
 30
0.0
 40
1.75875
 50
68.0
 51
158.0
  0
LINE
  8
F01_OUT
  5
15A1
 10
176.134383
 20
-20.207053
 30
0.0
 11
176.134383
 21
-43.277884
 31
0.0
  0
LINE
  8
F01_OUT
  5
15A3
 10
125.134383
 20
-46.5
 30
0.0
 11
175.589591
 21
-46.5
 31
0.0
  0
LINE
  8
F01_OUT
  5
15A4
 10
127.634383
 20
-49.998752
 30
0.0
 11
173.251622
 21
-49.998752
 31
0.0
  0
LINE
  8
F01_OUT
  5
15A6
 10
125.134383
 20
-38.0
 30
0.0
 11
125.134383
 21
-47.498752
 31
0.0
  0
LINE
  8
F01_OUT
  5
15A8
 10
125.134383
 20
-38.0
 30
0.0
 11
116.634383
 21
-38.0
 31
0.0
  0
LINE
  8
F01_OUT
  5
15A9
 10
175.233169
 20
-48.577
 30
0.0
 11
176.134383
 21
-43.277884
 31
0.0
  0
ARC
  8
F01_OUT
  5
15AA
 10
173.251622
 20
-47.988752
 30
0.0
 40
2.01
 50
270.0
 51
350.348137
  0
LINE
  8
F01_OUT
  5
15AB
 10
105.139383
 20
24.22622
 30
0.0
 11
105.139383
 21
-17.45
 31
0.0
  0
LINE
  8
F01_OUT
  5
15AC
 10
108.134383
 20
24.97497
 30
0.0
 11
108.134383
 21
-24.975032
 31
0.0
  0
LINE
  8
F01_OUT
  5
15AD
 10
104.134383
 20
23.97497
 30
0.0
 11
104.134383
 21
-23.975032
 31
0.0
  0
LINE
  8
F01_OUT
  5
15B1
 10
108.134383
 20
-24.975032
 30
0.0
 11
116.134383
 21
-24.975032
 31
0.0
  0
LINE
  8
F01_OUT
  5
15B4
 10
116.134383
 20
24.97497
 30
0.0
 11
108.134383
 21
24.97497
 31
0.0
  0
LINE
  8
F01_OUT
  5
15B5
 10
108.134383
 20
24.97497
 30
0.0
 11
104.134383
 21
23.97497
 31
0.0
  0
LINE
  8
F01_OUT
  5
15B6
 10
172.365633
 20
17.888987
 30
0.0
 11
172.365633
 21
-17.654884
 31
0.0
  0
LINE
  8
F01_OUT
  5
15B7
 10
173.320221
 20
-15.728118
 30
0.0
 11
175.631721
 21
-18.039618
 31
0.0
  0
LINE
  8
F01_OUT
  5
15B8
 10
172.676236
 20
-17.738118
 30
0.0
 11
172.817721
 21
-17.738118
 31
0.0
  0
LINE
  8
F01_OUT
  5
15B9
 10
173.320221
 20
-15.728118
 30
0.0
 11
172.817721
 21
-17.738118
 31
0.0
  0
LINE
  8
F01_OUT
  5
15BA
 10
175.631721
 20
-18.039618
 30
0.0
 11
175.734817
 21
-19.004305
 31
0.0
  0
ARC
  8
F01_OUT
  5
15BB
 10
174.124383
 20
-20.207053
 30
0.0
 40
2.01
 50
0.0
 51
75.0
  0
LINE
  8
F01_OUT
  5
15BC
 10
172.365633
 20
-17.654892
 30
0.0
 11
174.644609
 21
-18.265542
 31
0.0
  0
ARC
  8
F01_OUT
  5
15BD
 10
174.112885
 20
16.840474
 30
0.0
 40
0.3015
 50
190.0
 51
229.0
  0
ARC
  8
F01_OUT
  5
15BE
 10
174.112885
 20
16.840474
 30
0.0
 40
0.3015
 50
190.0
 51
229.0
  0
ARC
  8
F01_OUT
  5
15BF
 10
175.631852
 20
15.879048
 30
0.0
 40
0.5025
 50
270.0
 51
0.0
  0
LINE
  8
F01_OUT
  5
15C0
 10
173.621852
 20
17.888987
 30
0.0
 11
173.815965
 21
16.78812
 31
0.0
  0
LINE
  8
F01_OUT
  5
15C1
 10
175.337377
 20
15.376548
 30
0.0
 11
175.631852
 21
15.376548
 31
0.0
  0
LINE
  8
F01_OUT
  5
15C2
 10
173.915083
 20
16.612929
 30
0.0
 11
175.337377
 21
15.376548
 31
0.0
  0
LINE
  8
F01_OUT
  5
15C3
 10
172.365633
 20
17.888987
 30
0.0
 11
173.621852
 21
17.888987
 31
0.0
  0
LINE
  8
F01_OUT
  5
15CA
 10
7.154685
 20
38.0
 30
0.0
 11
2.317124
 21
38.0
 31
0.0
  0
LINE
  8
F01_OUT
  5
15CC
 10
-14.830376
 20
50.0
 30
0.0
 11
5.533062
 21
50.0
 31
0.0
  0
LINE
  8
F03_CNT
  5
15CD
 10
-11.325687
 20
40.0
 30
0.0
 11
0.885057
 21
40.0
 31
0.0
  0
LINE
  8
F01_OUT
  5
15D1
 10
-14.830376
 20
44.769042
 30
0.0
 11
-14.830376
 21
50.0
 31
0.0
  0
LINE
  8
F01_OUT
  5
15D2
 10
-18.448376
 20
46.281251
 30
0.0
 11
-14.830376
 21
46.281251
 31
0.0
  0
LINE
  8
F01_OUT
  5
15D3
 10
-18.448376
 20
46.272972
 30
0.0
 11
-18.448376
 21
50.0
 31
0.0
  0
LINE
  8
F01_OUT
  5
15D4
 10
5.533062
 20
46.5
 30
0.0
 11
5.533062
 21
50.0
 31
0.0
  0
LINE
  8
F01_OUT
  5
15D5
 10
5.533062
 20
46.5
 30
0.0
 11
7.154685
 21
46.5
 31
0.0
  0
LINE
  8
F04_HID
  5
15D8
 10
133.134383
 20
39.55
 30
0.0
 11
176.134383
 21
39.55
 31
0.0
  0
LINE
  8
F04_HID
  5
15D9
 10
133.134383
 20
44.45
 30
0.0
 11
175.935053
 21
44.45
 31
0.0
  0
LINE
  8
F01_OUT
  5
15DA
 10
125.134383
 20
46.5
 30
0.0
 11
175.589601
 21
46.5
 31
0.0
  0
LINE
  8
F01_OUT
  5
15DB
 10
127.634383
 20
49.998751
 30
0.0
 11
173.251632
 21
49.998751
 31
0.0
  0
LINE
  8
F04_HID
  5
15DC
 10
125.134383
 20
38.1
 30
0.0
 11
133.134383
 21
38.1
 31
0.0
  0
LINE
  8
F04_HID
  5
15DD
 10
125.134383
 20
45.9
 30
0.0
 11
133.134383
 21
45.9
 31
0.0
  0
LINE
  8
F01_OUT
  5
15DF
 10
125.134383
 20
47.498751
 30
0.0
 11
125.134383
 21
38.0
 31
0.0
  0
LINE
  8
F01_OUT
  5
15E0
 10
125.134383
 20
38.0
 30
0.0
 11
116.634383
 21
38.0
 31
0.0
  0
LINE
  8
F04_HID
  5
15E2
 10
133.134383
 20
38.1
 30
0.0
 11
133.134383
 21
45.9
 31
0.0
  0
LINE
  8
F01_OUT
  5
15E3
 10
175.23318
 20
48.576999
 30
0.0
 11
176.134383
 21
43.277941
 31
0.0
  0
ARC
  8
F01_OUT
  5
15E4
 10
173.251632
 20
47.988751
 30
0.0
 40
2.01
 50
9.651861
 51
90.0
  0
DIMENSION
  8
F02_DIM
  5
26B5
  2
*D2
 10
414.178144
 20
-64.229004
 30
0.0
 11
379.178154
 21
-61.229004
 31
0.0
 12
17.681478
 22
0.0
 32
0.0
  1
Min.74
 13
344.178164
 23
-23.999994
 33
0.0
 14
414.178144
 24
-23.999994
 34
0.0
  3
FSTD1
1001
ACAD
1000
DSTYLE
1002
{
1070
    40
1040
1.0
1002
}
  0
LINE
  8
F03_CNT
  5
26B6
 10
336.678166
 20
0.0
 30
0.0
 11
421.678144
 21
0.0
 31
0.0
  0
LINE
  8
F06_CUT
  5
26B7
 10
346.178164
 20
25.999992
 30
0.0
 11
412.178146
 21
25.999992
 31
0.0
  0
LINE
  8
F06_CUT
  5
26B8
 10
346.178164
 20
-25.999994
 30
0.0
 11
412.178146
 21
-25.999994
 31
0.0
  0
LINE
  8
F07_COO
  5
26B9
 10
341.678166
 20
49.998751
 30
0.0
 11
416.678144
 21
49.998751
 31
0.0
  0
LINE
  8
F07_COO
  5
26BA
 10
341.678166
 20
-49.998752
 30
0.0
 11
416.678144
 21
-49.998752
 31
0.0
  0
DIMENSION
  8
F02_DIM
  5
26BB
  2
*D3
 10
346.178164
 20
23.999992
 30
0.0
 11
329.455865
 21
38.92364
 31
0.0
 12
17.681478
 22
0.0
 32
0.0
 70
   132
  1
Max.<>
 15
344.685979
 25
25.331677
 35
0.0
  3
FSTD1
1001
ACAD
1000
DSTYLE
1002
{
1070
   288
1070
     1
1070
    40
1040
1.0
1002
}
  0
DIMENSION
  8
F02_DIM
  5
26BC
  2
*D4
 10
300.311512
 20
-41.999988
 30
0.0
 11
297.311512
 21
0.0
 31
0.0
 12
2.762731
 22
0.0
 32
0.0
 13
245.234027
 23
41.999988
 33
0.0
 14
269.600003
 24
-41.999988
 34
0.0
 50
90.0
  3
FSTD1
1001
ACAD
1000
DSTYLE
1002
{
1070
    40
1040
1.0
1002
}
  0
LINE
  8
F03_CNT
  5
26BD
 10
237.007711
 20
51.59999
 30
0.0
 11
237.007711
 21
33.450284
 31
0.0
  0
LINE
  8
F03_CNT
  5
26BE
 10
249.507709
 20
-54.939988
 30
0.0
 11
249.507709
 21
53.670736
 31
0.0
  0
LINE
  8
F03_CNT
  5
26BF
 10
379.178154
 20
-54.939988
 30
0.0
 11
379.178154
 21
53.670736
 31
0.0
  0
LINE
  8
F07_COO
  5
26C0
 10
287.007697
 20
-49.998752
 30
0.0
 11
287.007697
 21
49.998751
 31
0.0
  0
LINE
  8
F07_COO
  5
26C1
 10
212.007719
 20
-49.998752
 30
0.0
 11
212.007719
 21
49.998751
 31
0.0
  0
LINE
  8
F07_COO
  5
26C2
 10
341.678166
 20
-49.998752
 30
0.0
 11
341.678166
 21
49.998751
 31
0.0
  0
LINE
  8
F03_CNT
  5
26C3
 10
207.007719
 20
0.0
 30
0.0
 11
292.007697
 21
0.0
 31
0.0
  0
DIMENSION
  8
F02_DIM
  5
26C4
  2
*D5
 10
262.007705
 20
-64.229004
 30
0.0
 11
249.507708
 21
-61.229004
 31
0.0
 12
2.762731
 22
0.0
 32
0.0
 13
237.007711
 23
33.450284
 33
0.0
 14
262.007705
 24
-52.44942
 34
0.0
  3
FSTD1
1001
ACAD
1000
DSTYLE
1002
{
1070
    40
1040
1.0
1002
}
  0
TEXT
  8
F05_PRO
  5
26C5
 10
223.441847
 20
-79.077956
 30
0.0
 40
5.0
  1
Panel drilling
 72
     1
 11
249.52518
 21
-79.077956
 31
0.0
  0
LINE
  8
F07_COO
  5
26C6
 10
212.007719
 20
-49.998752
 30
0.0
 11
287.007697
 21
-49.998752
 31
0.0
  0
LINE
  8
F03_CNT
  5
26C7
 10
253.554159
 20
-41.999988
 30
0.0
 11
269.600003
 21
-41.999988
 31
0.0
  0
LINE
  8
F03_CNT
  5
26C8
 10
262.007705
 20
-32.799994
 30
0.0
 11
262.007705
 21
-52.44942
 31
0.0
  0
CIRCLE
  8
F06_CUT
  5
26CA
 10
262.007705
 20
-41.999988
 30
0.0
 40
2.5
  0
TEXT
  8
F02_DIM
  6
CONTINUOUS
  5
26CB
 10
202.288597
 20
-0.604867
 30
0.0
 40
3.015
  1
C
  0
TEXT
  8
F02_DIM
  6
CONTINUOUS
  5
26CC
 10
203.755103
 20
-2.024355
 30
0.0
 40
3.015
  1
L
  0
TEXT
  8
F05_PRO
  5
26CD
 10
337.445624
 20
-79.077956
 30
0.0
 40
5.0
  1
Front panel cutting
 72
     1
 11
379.195624
 21
-79.077956
 31
0.0
  0
LINE
  8
F06_CUT
  5
26CE
 10
344.178164
 20
-23.999994
 30
0.0
 11
344.178164
 21
23.999992
 31
0.0
  0
ARC
  8
F06_CUT
  5
26CF
 10
346.178164
 20
-23.999994
 30
0.0
 40
2.0
 50
180.001002
 51
270.0
  0
TEXT
  8
F02_DIM
  6
CONTINUOUS
  5
26D0
 10
331.959041
 20
-0.604867
 30
0.0
 40
3.015
  1
C
  0
TEXT
  8
F02_DIM
  6
CONTINUOUS
  5
26D1
 10
333.425548
 20
-2.024355
 30
0.0
 40
3.015
  1
L
  0
ARC
  8
F06_CUT
  5
26D2
 10
346.178164
 20
23.999992
 30
0.0
 40
2.0
 50
90.0
 51
180.000005
  0
LINE
  8
F05_PRO
  5
26D3
 10
263.20548
 20
66.615339
 30
0.0
 11
276.938327
 21
66.615339
 31
0.0
  0
LINE
  8
F03_CNT
  5
26D4
 10
229.132259
 20
41.999988
 30
0.0
 11
245.234027
 21
41.999988
 31
0.0
  0
LINE
  8
F07_COO
  5
26D5
 10
212.007719
 20
49.998751
 30
0.0
 11
287.007697
 21
49.998751
 31
0.0
  0
TEXT
  8
F05_PRO
  5
26D6
 10
218.732861
 20
66.583849
 30
0.0
 40
3.0
  1
M4 or %%c5
  0
INSERT
  8
F05_PRO
  5
26D7
  2
_OPEN30
 10
235.040242
 20
43.880585
 30
0.0
 41
5.0
 42
5.0
 50
308.448608
 43
5.0
1001
ACAD
1000
DSTYLE
1002
{
1070
    40
1040
1.0
1002
}
  0
LINE
  8
F05_PRO
  5
3C96
 10
231.93118
 20
47.796416
 30
0.0
 11
217.72428
 21
65.689857
 31
0.0
1001
ACAD
1000
R13OBJECT
1002
{
1005
26D7
1002
}
  0
LINE
  8
F05_PRO
  5
26D8
 10
217.72428
 20
65.689857
 30
0.0
 11
241.186497
 21
65.689857
 31
0.0
  0
CIRCLE
  8
F06_CUT
  5
26DA
 10
237.007711
 20
41.999988
 30
0.0
 40
2.5
  0
TEXT
  8
F05_PRO
  5
26DB
 10
264.136289
 20
67.889521
 30
0.0
 40
3.0
  1
ELCB
  0
TEXT
  8
F02_DIM
  6
CONTINUOUS
  5
26DC
 10
247.75034
 20
57.044988
 30
0.0
 40
3.015
  1
C
  0
TEXT
  8
F02_DIM
  6
CONTINUOUS
  5
26DD
 10
249.216846
 20
55.6255
 30
0.0
 40
3.015
  1
L
  0
INSERT
  8
F05_PRO
  5
26DE
  2
_OPEN30
 10
255.586457
 20
49.998751
 30
0.0
 41
5.0
 42
5.0
 50
245.367639
 43
5.0
1001
ACAD
1000
DSTYLE
1002
{
1070
    40
1040
1.0
1002
}
  0
LINE
  8
F05_PRO
  5
3C97
 10
257.670428
 20
54.543755
 30
0.0
 11
263.20548
 21
66.615339
 31
0.0
1001
ACAD
1000
R13OBJECT
1002
{
1005
26DE
1002
}
  0
TEXT
  8
F02_DIM
  6
CONTINUOUS
  5
26DF
 10
378.887291
 20
55.6255
 30
0.0
 40
3.015
  1
L
  0
TEXT
  8
F02_DIM
  6
CONTINUOUS
  5
26E0
 10
377.420784
 20
57.044988
 30
0.0
 40
3.015
  1
C
  0
LINE
  8
F07_COO
  5
26E1
 10
416.678144
 20
-49.998752
 30
0.0
 11
416.678144
 21
49.998751
 31
0.0
  0
DIMENSION
  8
F02_DIM
  5
26E2
  2
*D6
 10
429.943121
 20
-25.999994
 30
0.0
 11
426.943121
 21
-0.000001
 31
0.0
 12
17.681478
 22
0.0
 32
0.0
  1
Min.<>
 13
412.178146
 23
25.999992
 33
0.0
 14
412.178146
 24
-25.999994
 34
0.0
 50
90.0
  3
FSTD1
1001
ACAD
1000
DSTYLE
1002
{
1070
    40
1040
1.0
1002
}
  0
LINE
  8
F06_CUT
  5
26E3
 10
414.178144
 20
-23.999994
 30
0.0
 11
414.178144
 21
23.999992
 31
0.0
  0
ARC
  8
F06_CUT
  5
26E4
 10
412.178146
 20
-23.999994
 30
0.0
 40
2.0
 50
270.0
 51
359.998999
  0
ARC
  8
F06_CUT
  5
26E5
 10
412.178146
 20
23.999992
 30
0.0
 40
2.0
 50
359.997742
 51
90.0
  0
DIMENSION
  8
F02_DIM
  5
4011
  2
*D7
 10
-5.345315
 20
-71.641196
 30
0.0
 11
-30.345315
 21
-68.641196
 31
0.0
 12
-19.075584
 22
0.0
 32
0.0
 13
-55.345315
 23
-48.165389
 33
0.0
 14
-5.345315
 24
-48.465389
 34
0.0
  3
FSTD1
  0
ARC
  8
F01_OUT
  5
4017
 10
-65.345315
 20
-24.000032
 30
0.0
 40
1.0
 50
180.0
 51
270.0
  0
ARC
  8
F01_OUT
  5
4018
 10
-65.345315
 20
23.99997
 30
0.0
 40
1.0
 50
90.0
 51
180.0
  0
ARC
  8
F01_OUT
  5
4019
 10
4.654685
 20
23.99997
 30
0.0
 40
1.0
 50
0.0
 51
90.0
  0
ARC
  8
F01_OUT
  5
401A
 10
4.654685
 20
-24.000032
 30
0.0
 40
1.0
 50
270.0
 51
0.0
  0
LINE
  8
F01_OUT
  5
4041
 10
2.317124
 20
47.5
 30
0.0
 11
5.533062
 21
47.5
 31
0.0
  0
LINE
  8
F01_OUT
  5
4042
 10
-66.223816
 20
47.5
 30
0.0
 11
-63.007877
 21
47.5
 31
0.0
  0
LINE
  8
F01_OUT
  5
4043
 10
2.317124
 20
-47.5
 30
0.0
 11
5.533062
 21
-47.5
 31
0.0
  0
LINE
  8
F01_OUT
  5
4044
 10
-66.223816
 20
-47.5
 30
0.0
 11
-63.007877
 21
-47.5
 31
0.0
  0
DIMENSION
  8
F02_DIM
  5
417F
  2
*D8
 10
5.654685
 20
-80.932717
 30
0.0
 11
-30.345315
 21
-77.932717
 31
0.0
 12
-19.075584
 22
0.0
 32
0.0
 13
-66.345315
 23
-24.000032
 33
0.0
 14
5.654685
 24
-24.000032
 34
0.0
  3
FSTD1
  0
DIMENSION
  8
F02_DIM
  5
418C
  2
*D9
 10
7.154685
 20
-91.133124
 30
0.0
 11
-30.345315
 21
-88.133124
 31
0.0
 12
-19.075584
 22
0.0
 32
0.0
 13
-67.845315
 23
-46.5
 33
0.0
 14
7.154685
 24
-46.5
 34
0.0
  3
FSTD1
  0
LINE
  8
F01_OUT
  5
41AC
 10
125.134383
 20
-47.498752
 30
0.0
 11
127.634383
 21
-49.998752
 31
0.0
  0
LINE
  8
F01_OUT
  5
41AD
 10
125.134383
 20
47.498751
 30
0.0
 11
127.634383
 21
49.998751
 31
0.0
  0
ARC
  8
F01_OUT
  5
41C2
 10
116.634383
 20
37.5
 30
0.0
 40
0.5
 50
90.0
 51
180.0
  0
ARC
  8
F01_OUT
  5
41C3
 10
116.634383
 20
-37.5
 30
0.0
 40
0.5
 50
180.0
 51
270.0
  0
DIMENSION
  8
F02_DIM
  5
41D3
  2
*D10
 10
111.882267
 20
45.9
 30
0.0
 11
108.882267
 21
58.9
 31
0.0
  1
%%c<>
 13
125.134383
 23
38.1
 33
0.0
 14
125.134383
 24
45.9
 34
0.0
 50
90.0
  3
FSTD1
  0
DIMENSION
  8
F02_DIM
  5
41E2
  2
*D11
 10
186.38161
 20
44.45
 30
0.0
 11
183.38161
 21
57.45
 31
0.0
  1
%%c<>
 13
176.134383
 23
39.55
 33
0.0
 14
175.935053
 24
44.45
 34
0.0
 50
90.0
  3
FSTD1
  0
DIMENSION
  8
F02_DIM
  5
41FC
  2
*D12
 10
133.134383
 20
29.385379
 30
0.0
 11
154.634383
 21
32.385379
 31
0.0
 13
176.134383
 23
39.55
 33
0.0
 14
133.134383
 24
38.1
 34
0.0
  3
FSTD1
  0
DIMENSION
  8
F02_DIM
  5
4223
  2
*D13
 10
116.134383
 20
-80.932717
 30
0.0
 11
146.134383
 21
-77.932717
 31
0.0
 13
176.134383
 23
-43.277884
 33
0.0
 14
116.134383
 24
-37.5
 34
0.0
  3
FSTD1
  0
DIMENSION
  8
F02_DIM
  5
4276
  2
*D14
 10
92.134383
 20
-91.133124
 30
0.0
 11
134.134383
 21
-88.133124
 31
0.0
 13
176.134383
 23
-43.277884
 33
0.0
 14
92.134383
 24
9.5475
 34
0.0
  3
FSTD1
  0
TEXT
  8
F05_PRO
  5
427D
 10
27.410582
 20
-61.991055
 30
0.0
 40
3.0
  1
Trip button
 41
0.8
  0
DIMENSION
  8
F02_DIM
  5
428A
  2
*D15
 10
80.920019
 20
-38.0
 30
0.0
 11
77.920019
 21
0.0
 31
0.0
 13
116.634383
 23
38.0
 33
0.0
 14
116.634383
 24
-38.0
 34
0.0
 50
90.0
  3
FSTD1
  0
TEXT
  8
F05_PRO
  5
428B
 10
-102.059435
 20
82.409375
 30
0.0
 40
3.0
  1
Mounting hole
 41
0.8
  0
TEXT
  8
F05_PRO
  5
42A6
 10
393.806736
 20
67.889521
 30
0.0
 40
3.0
  1
ELCB
  0
LINE
  8
F05_PRO
  5
42A7
 10
392.875927
 20
66.615339
 30
0.0
 11
406.608774
 21
66.615339
 31
0.0
  0
LINE
  8
F05_PRO
  5
42A8
 10
387.340875
 20
54.543755
 30
0.0
 11
392.875927
 21
66.615339
 31
0.0
1001
ACAD
1000
R13OBJECT
1002
{
1005
26DE
1002
}
  0
INSERT
  8
F05_PRO
  5
42A9
  2
_OPEN30
 10
385.256904
 20
49.998751
 30
0.0
 41
5.0
 42
5.0
 50
245.367639
 43
5.0
1001
ACAD
1000
DSTYLE
1002
{
1070
    40
1040
1.0
1002
}
  0
TEXT
  8
F05_PRO
  5
42F7
 10
361.422287
 20
-193.449746
 30
0.0
 40
5.0
  1
Dimension : mm
  0
TEXT
  8
F05_PRO
  5
4333
 10
-40.195576
 20
-215.299066
 30
0.0
 40
8.0
  1
Type
  0
ARC
  8
F05_PRO
  5
4334
 10
-55.123001
 20
-206.327488
 30
0.0
 40
8.419574
 50
280.279158
 51
339.332945
1001
ACAD
1000
ASC_BOUNDS
1002
{
1070
    19
1002
}
  0
POLYLINE
  8
F05_PRO
  5
4335
 66
     1
 10
0.0
 20
0.0
 30
0.0
 70
   128
  0
VERTEX
  8
F05_PRO
  5
5F4A
 10
-52.298356
 20
-200.99417
 30
0.0
  0
VERTEX
  8
F05_PRO
  5
5F4B
 10
-53.589295
 20
-201.180091
 30
0.0
  0
VERTEX
  8
F05_PRO
  5
5F4C
 10
-54.856924
 20
-201.63073
 30
0.0
  0
VERTEX
  8
F05_PRO
  5
5F4D
 10
-56.06023
 20
-202.331508
 30
0.0
  0
VERTEX
  8
F05_PRO
  5
5F4E
 10
-57.160281
 20
-203.25975
 30
0.0
  0
VERTEX
  8
F05_PRO
  5
5F4F
 10
-58.121485
 20
-204.385425
 30
0.0
  0
VERTEX
  8
F05_PRO
  5
5F50
 10
-58.912743
 20
-205.672111
 30
0.0
  0
VERTEX
  8
F05_PRO
  5
5F51
 10
-59.508453
 20
-207.078178
 30
0.0
  0
SEQEND
  8
F05_PRO
  5
5F52
  0
LINE
  8
F05_PRO
  5
4336
 10
-57.760594
 20
-207.109066
 30
0.0
 11
-45.715848
 21
-207.109066
 31
0.0
  0
LINE
  8
F05_PRO
  5
4337
 10
-57.531529
 20
-206.029066
 30
0.0
 11
-46.668247
 21
-206.029066
 31
0.0
  0
ARC
  8
F05_PRO
  5
4338
 10
-51.87284
 20
-208.379474
 30
0.0
 40
8.364916
 50
98.442625
 51
137.3304
1001
ACAD
1000
ASC_BOUNDS
1002
{
1070
    19
1002
}
  0
ARC
  8
F05_PRO
  5
4339
 10
-54.858968
 20
-206.563442
 30
0.0
 40
9.05618
 50
279.159834
 51
342.417868
1001
ACAD
1000
ASC_BOUNDS
1002
{
1070
    19
1002
}
  0
ARC
  8
F05_PRO
  5
433A
 10
-54.507006
 20
-209.299094
 30
0.0
 40
6.3
 50
182.729155
 51
279.960292
1001
ACAD
1000
ASC_BOUNDS
1002
{
1070
    19
1002
}
  0
ARC
  8
F05_PRO
  5
433B
 10
-66.952547
 20
-202.924066
 30
0.0
 40
2.625
 50
90.0
 51
168.003101
  0
LINE
  8
F05_PRO
  5
433C
 10
-72.265848
 20
-215.299066
 30
0.0
 11
-67.742044
 21
-215.299066
 31
0.0
  0
LINE
  8
F05_PRO
  5
433D
 10
-72.265848
 20
-215.299066
 30
0.0
 11
-69.520214
 21
-202.378437
 31
0.0
  0
ARC
  8
F05_PRO
  5
433E
 10
-51.693793
 20
-209.408776
 30
0.0
 40
9.082225
 50
144.533818
 51
158.153358
  0
ARC
  8
F05_PRO
  5
433F
 10
-64.763172
 20
-204.889066
 30
0.0
 40
0.75
 50
90.0
 51
168.003101
  0
LINE
  8
F05_PRO
  5
4340
 10
-65.772169
 20
-206.029066
 30
0.0
 11
-60.123762
 21
-206.029066
 31
0.0
  0
ARC
  8
F05_PRO
  5
4341
 10
-54.249645
 20
-209.014504
 30
0.0
 40
5.632662
 50
186.002385
 51
276.412304
1001
ACAD
1000
ASC_BOUNDS
1002
{
1070
    19
1002
}
  0
LINE
  8
F05_PRO
  5
4342
 10
-67.742044
 20
-215.299066
 30
0.0
 11
-66.530794
 21
-209.599066
 31
0.0
  0
LINE
  8
F05_PRO
  5
4343
 10
-65.772169
 20
-206.029066
 30
0.0
 11
-65.496791
 21
-204.733172
 31
0.0
  0
LINE
  8
F05_PRO
  5
4344
 10
-66.530794
 20
-209.599066
 30
0.0
 11
-60.79986
 21
-209.599066
 31
0.0
  0
POLYLINE
  8
F05_PRO
  5
4345
 66
     1
 10
0.0
 20
0.0
 30
0.0
 70
   128
  0
VERTEX
  8
F05_PRO
  5
5F53
 10
-59.508453
 20
-207.078178
 30
0.0
  0
VERTEX
  8
F05_PRO
  5
5F54
 10
-59.790927
 20
-208.363173
 30
0.0
  0
VERTEX
  8
F05_PRO
  5
5F55
 10
-59.851425
 20
-209.61808
 30
0.0
  0
SEQEND
  8
F05_PRO
  5
5F56
  0
LINE
  8
F05_PRO
  5
4346
 10
-57.531529
 20
-206.029066
 30
0.0
 11
-57.760594
 21
-207.109066
 31
0.0
  0
LINE
  8
F05_PRO
  5
4347
 10
-66.952547
 20
-200.299066
 30
0.0
 11
-57.528348
 21
-200.299066
 31
0.0
  0
LINE
  8
F05_PRO
  5
4348
 10
-64.763172
 20
-204.139066
 30
0.0
 11
-59.090885
 21
-204.139066
 31
0.0
  0
LINE
  8
F05_PRO
  5
4349
 10
-57.528348
 20
-200.299066
 30
0.0
 11
-58.023348
 21
-202.709988
 31
0.0
  0
ARC
  8
F05_PRO
  5
434A
 10
-51.956157
 20
-206.241536
 30
0.0
 40
6.242447
 50
1.499529
 51
100.57959
1001
ACAD
1000
ASC_BOUNDS
1002
{
1070
    19
1002
}
  0
ARC
  8
F05_PRO
  5
434B
 10
-51.980402
 20
-206.303919
 30
0.0
 40
5.319261
 50
2.961866
 51
93.426847
  0
LINE
  8
F05_PRO
  5
434C
 10
-46.225848
 20
-209.299066
 30
0.0
 11
-47.245251
 21
-209.299066
 31
0.0
  0
LINE
  8
F05_PRO
  5
434D
 10
-45.715848
 20
-207.109066
 30
0.0
 11
-45.715848
 21
-206.078179
 31
0.0
  0
TEXT
  8
F05_PRO
  6
CONTINUOUS
  5
434E
 10
338.194014
 20
-212.628667
 30
0.0
 40
3.0
  1
FILE NAME
  7
FSTD1
  0
LINE
  8
F05_PRO
  5
434F
 10
283.386867
 20
-207.373169
 30
0.0
 11
420.850798
 21
-207.373169
 31
0.0
  0
TEXT
  8
F05_PRO
  6
CONTINUOUS
  5
4350
 10
334.231451
 20
-219.254098
 30
0.0
 40
3.0
  1
EW100U3
  7
FSTD1
  0
LINE
  8
F05_PRO
  5
4355
 10
309.450741
 20
-207.373169
 30
0.0
 11
309.450741
 21
-235.373169
 31
0.0
  0
LINE
  8
F05_PRO
  5
4356
 10
283.386867
 20
-207.373169
 30
0.0
 11
283.386867
 21
-235.373169
 31
0.0
  0
LINE
  8
F05_PRO
  5
4357
 10
331.869003
 20
-207.373169
 30
0.0
 11
331.869003
 21
-235.373169
 31
0.0
  0
TEXT
  8
F05_PRO
  6
CONTINUOUS
  5
4358
 10
311.813958
 20
-219.254097
 30
0.0
 40
3.0
  1
2009-01
  7
FSTD1
  0
TEXT
  8
F05_PRO
  6
CONTINUOUS
  5
4359
 10
315.24267
 20
-212.628667
 30
0.0
 40
3.0
  1
DATE
  7
FSTD1
  0
TEXT
  8
F05_PRO
  6
CONTINUOUS
  5
435A
 10
288.255645
 20
-219.254098
 30
0.0
 40
3.0
  1
DRAWN
  7
FSTD1
  0
TEXT
  8
F05_PRO
  6
CONTINUOUS
  5
435B
 10
288.255645
 20
-226.508314
 30
0.0
 40
3.0
  1
CHANGE
  7
FSTD1
  0
LINE
  8
F05_PRO
  5
435C
 10
420.850798
 20
-207.373169
 30
0.0
 11
420.850798
 21
-235.373169
 31
0.0
  0
LINE
  8
F05_PRO
  5
435D
 10
407.526488
 20
-207.373169
 30
0.0
 11
407.526488
 21
-235.373169
 31
0.0
  0
LINE
  8
F05_PRO
  5
435E
 10
369.089825
 20
-207.373169
 30
0.0
 11
369.089825
 21
-235.373169
 31
0.0
  0
TEXT
  8
F05_PRO
  6
CONTINUOUS
  5
4360
 10
373.723225
 20
-212.628667
 30
0.0
 40
3.0
  1
DRAWING NO.
  7
FSTD1
  0
TEXT
  8
F05_PRO
  6
CONTINUOUS
  5
4361
 10
409.677266
 20
-212.438056
 30
0.0
 40
3.0
  1
INDEX
 41
0.7
  7
FSTD1
  0
TEXT
  8
F05_PRO
  5
436A
 10
-5.672929
 20
-216.29235
 30
0.0
 40
8.0
  1
EW100EAGU-2P
 41
0.8
  0
ARC
  8
F01_OUT
  5
438C
 10
-43.948377
 20
46.27963
 30
0.0
 40
0.5
 50
284.453243
 51
0.0
  0
ARC
  8
F01_OUT
  5
438D
 10
-39.330377
 20
44.679028
 30
0.0
 40
0.5
 50
180.0
 51
217.314061
  0
ARC
  8
F01_OUT
  5
438E
 10
-18.948376
 20
46.272972
 30
0.0
 40
0.5
 50
285.291591
 51
0.0
  0
ARC
  8
F01_OUT
  5
438F
 10
-14.330376
 20
44.769042
 30
0.0
 40
0.5
 50
180.0
 51
218.630973
  0
ARC
  8
F01_OUT
  5
439D
 10
-21.360376
 20
-44.678866
 30
0.0
 40
0.5
 50
0.0
 51
37.311417
  0
ARC
  8
F01_OUT
  5
439E
 10
-16.742376
 20
-46.279662
 30
0.0
 40
0.5
 50
104.451588
 51
180.0
  0
ARC
  8
F01_OUT
  5
439F
 10
-46.360392
 20
-44.768889
 30
0.0
 40
0.5
 50
0.0
 51
38.628427
  0
ARC
  8
F01_OUT
  5
43A0
 10
-41.742392
 20
-46.273006
 30
0.0
 40
0.5
 50
105.289943
 51
180.0
  0
DIMENSION
  8
F02_DIM
  5
4417
  2
*D16
 10
125.134383
 20
-71.641196
 30
0.0
 11
150.634383
 21
-68.641196
 31
0.0
 13
176.134383
 23
-43.277884
 33
0.0
 14
125.134383
 24
-46.5
 34
0.0
  3
FSTD1
  0
LINE
  8
F05_PRO
  5
4422
 10
283.386867
 20
-214.373169
 30
0.0
 11
420.850798
 21
-214.373169
 31
0.0
  0
LINE
  8
F05_PRO
  5
4423
 10
283.386867
 20
-221.373169
 30
0.0
 11
420.850798
 21
-221.373169
 31
0.0
  0
LINE
  8
F05_PRO
  5
4424
 10
283.386867
 20
-228.373169
 30
0.0
 11
420.850798
 21
-228.373169
 31
0.0
  0
LINE
  8
F05_PRO
  5
4425
 10
283.386867
 20
-235.373169
 30
0.0
 11
420.850798
 21
-235.373169
 31
0.0
  0
CIRCLE
  8
F01_OUT
  5
4FC8
 10
-6.145315
 20
-21.2
 30
0.0
 40
2.5
  0
CIRCLE
  8
F01_OUT
  5
4FC9
 10
-6.145315
 20
-21.2
 30
0.0
 40
3.75
  0
CIRCLE
  8
F01_OUT
  5
4FCA
 10
-6.145315
 20
-21.2
 30
0.0
 40
2.75
  0
CIRCLE
  8
F01_OUT
  5
4FCC
 10
-4.645315
 20
-6.7
 30
0.0
 40
2.75
  0
LINE
  8
F01_OUT
  5
4FD9
 10
104.134383
 20
-18.7
 30
0.0
 11
104.134383
 21
-23.7
 31
0.0
  0
LINE
  8
F01_OUT
  5
4FDA
 10
101.934383
 20
-19.2
 30
0.0
 11
101.934383
 21
-23.2
 31
0.0
  0
LINE
  8
F01_OUT
  5
4FDB
 10
104.434383
 20
-24.95
 30
0.0
 11
108.134383
 21
-24.95
 31
0.0
  0
LINE
  8
F01_OUT
  5
4FDC
 10
104.134383
 20
-23.7
 30
0.0
 11
104.134383
 21
-24.65
 31
0.0
  0
ARC
  8
F01_OUT
  5
4FDE
 10
102.434383
 20
-23.2
 30
0.0
 40
0.5
 50
180.0
 51
270.0
  0
LINE
  8
F01_OUT
  5
4FE0
 10
102.434383
 20
-23.7
 30
0.0
 11
104.134383
 21
-23.7
 31
0.0
  0
LINE
  8
F01_OUT
  5
4FE2
 10
104.434383
 20
-17.45
 30
0.0
 11
108.134383
 21
-17.45
 31
0.0
  0
ARC
  8
F01_OUT
  5
4FE3
 10
104.434383
 20
-17.75
 30
0.0
 40
0.3
 50
90.0
 51
180.0
  0
ARC
  8
F01_OUT
  5
4FE4
 10
102.434383
 20
-19.2
 30
0.0
 40
0.5
 50
90.0
 51
180.0
  0
LINE
  8
F01_OUT
  5
4FE5
 10
102.434383
 20
-18.7
 30
0.0
 11
104.134383
 21
-18.7
 31
0.0
  0
ARC
  8
F01_OUT
  5
4FE6
 10
104.434383
 20
-24.65
 30
0.0
 40
0.3
 50
180.0
 51
270.0
  0
LINE
  8
F05_PRO
  5
501B
 10
25.467017
 20
65.170952
 30
0.0
 11
63.584402
 21
65.170952
 31
0.0
  0
LINE
  8
F05_PRO
  5
501C
 10
-6.145315
 20
-21.2
 30
0.0
 11
25.467017
 21
-77.995446
 31
0.0
  0
LINE
  8
F05_PRO
  5
501E
 10
25.467017
 20
-77.995446
 30
0.0
 11
54.267171
 21
-77.995446
 31
0.0
  0
TEXT
  8
F05_PRO
  5
5020
 10
27.886662
 20
-76.38253
 30
0.0
 40
3.0
  1
Test button
 41
0.8
  0
TEXT
  8
F05_PRO
  5
5021
 10
27.987697
 20
71.840049
 30
0.0
 40
3.0
  1
EL trip
 41
0.8
  0
TEXT
  8
F05_PRO
  5
5022
 10
27.987697
 20
67.126393
 30
0.0
 40
3.0
  1
indicating button
 41
0.8
  0
TEXT
  8
F02_DIM
  6
CONTINUOUS
  5
5065
 10
-77.011741
 20
-0.645146
 30
0.0
 40
3.015
  1
C
  0
TEXT
  8
F02_DIM
  6
CONTINUOUS
  5
5066
 10
-75.545234
 20
-2.064634
 30
0.0
 40
3.015
  1
L
  0
DIMENSION
  8
F02_DIM
  5
507C
  2
*D17
 10
108.134383
 20
-80.932717
 30
0.0
 11
112.134383
 21
-77.932717
 31
0.0
 13
116.134383
 23
-37.5
 33
0.0
 14
108.134383
 24
-24.975032
 34
0.0
  3
FSTD1
  0
DIMENSION
  8
F02_DIM
  5
508B
  2
*D18
 10
104.134383
 20
-71.641196
 30
0.0
 11
95.80105
 21
-68.641196
 31
0.0
 13
108.134383
 23
-24.95
 33
0.0
 14
104.134383
 24
-24.65
 34
0.0
  3
FSTD1
  0
DIMENSION
  8
F02_DIM
  5
50A0
  2
*D19
 10
27.10223
 20
-42.0
 30
0.0
 11
24.10223
 21
-21.0
 31
0.0
 12
-19.075584
 22
0.0
 32
0.0
 13
11.582439
 23
0.0
 33
0.0
 14
0.885057
 24
-42.0
 34
0.0
 50
90.0
  3
FSTD1
  0
DIMENSION
  8
F02_DIM
  5
50AD
  2
*D20
 10
27.10223
 20
40.0
 30
0.0
 11
24.10223
 21
20.0
 31
0.0
 12
-19.075584
 22
0.0
 32
0.0
 13
11.582439
 23
0.0
 33
0.0
 14
0.885057
 24
40.0
 34
0.0
 50
90.0
  3
FSTD1
  0
DIMENSION
  8
F02_DIM
  5
50BA
  2
*D21
 10
27.10223
 20
50.0
 30
0.0
 11
24.10223
 21
45.0
 31
0.0
 12
-19.075584
 22
0.0
 32
0.0
 13
0.885057
 23
40.0
 33
0.0
 14
5.533062
 24
50.0
 34
0.0
 50
90.0
  3
FSTD1
  0
DIMENSION
  8
F02_DIM
  5
50C9
  2
*D22
 10
27.10223
 20
-50.0
 30
0.0
 11
24.10223
 21
-46.0
 31
0.0
 12
-19.075584
 22
0.0
 32
0.0
 13
0.885057
 23
-42.0
 33
0.0
 14
5.533062
 24
-50.0
 34
0.0
 50
90.0
  3
FSTD1
  0
DIMENSION
  8
F02_DIM
  5
50D6
  2
*D23
 10
-81.449312
 20
-25.000032
 30
0.0
 11
-84.449312
 21
-0.000031
 31
0.0
 12
-19.075584
 22
0.0
 32
0.0
 13
-65.345315
 23
24.99997
 33
0.0
 14
-65.345315
 24
-25.000032
 34
0.0
 50
90.0
  3
FSTD1
  0
DIMENSION
  8
F02_DIM
  5
50E3
  2
*D24
 10
-92.468583
 20
-42.0
 30
0.0
 11
-95.468583
 21
0.0
 31
0.0
 12
-19.075584
 22
0.0
 32
0.0
 13
-46.375081
 23
42.0
 33
0.0
 14
-21.250065
 24
-42.0
 34
0.0
 50
90.0
  3
FSTD1
  0
DIMENSION
  8
F02_DIM
  5
50F0
  2
*D25
 10
-104.191211
 20
-50.0
 30
0.0
 11
-107.191211
 21
0.0
 31
0.0
 12
-19.075584
 22
0.0
 32
0.0
 13
-66.223816
 23
50.0
 33
0.0
 14
-66.223816
 24
-50.0
 34
0.0
 50
90.0
  3
FSTD1
  0
ARC
  8
F08_IMG
  5
5361
 10
-49.145315
 20
44.500001
 30
0.0
 40
0.2
 50
180.0
 51
270.0
  0
ARC
  8
F08_IMG
  5
5362
 10
-47.845315
 20
49.700001
 30
0.0
 40
1.5
 50
90.0
 51
180.0
  0
LINE
  8
F08_IMG
  5
5363
 10
-49.04533
 20
57.200001
 30
0.0
 11
-50.84533
 21
57.200001
 31
0.0
  0
LINE
  8
F08_IMG
  5
5364
 10
-49.0453
 20
55.800001
 30
0.0
 11
-50.8453
 21
55.800001
 31
0.0
  0
LINE
  8
F08_IMG
  5
5365
 10
5.05467
 20
59.800001
 30
0.0
 11
-65.7453
 21
59.800001
 31
0.0
  0
ARC
  8
F08_IMG
  5
5366
 10
-49.3453
 20
36.500001
 30
0.0
 40
1.0
 50
270.0
 51
0.0
  0
LINE
  8
F08_IMG
  5
5367
 10
-49.3453
 20
40.000001
 30
0.0
 11
-48.3453
 21
41.000001
 31
0.0
  0
LINE
  8
F08_IMG
  5
5368
 10
-49.3453
 20
38.800001
 30
0.0
 11
-48.3453
 21
37.800001
 31
0.0
  0
ARC
  8
F08_IMG
  5
5369
 10
-49.345299
 20
-36.500001
 30
0.0
 40
1.0
 50
0.0
 51
90.0
  0
LINE
  8
F08_IMG
  5
536A
 10
-48.345299
 20
-37.800001
 30
0.0
 11
-49.345299
 21
-38.800001
 31
0.0
  0
LINE
  8
F08_IMG
  5
536B
 10
-49.345299
 20
-40.000001
 30
0.0
 11
-48.345299
 21
-41.000001
 31
0.0
  0
LINE
  8
F08_IMG
  5
536C
 10
-50.845299
 20
-57.200001
 30
0.0
 11
-49.045299
 21
-57.200001
 31
0.0
  0
LINE
  8
F08_IMG
  5
536D
 10
-49.045299
 20
-55.800001
 30
0.0
 11
-50.845299
 21
-55.800001
 31
0.0
  0
LINE
  8
F08_IMG
  5
536E
 10
-65.745299
 20
-59.800001
 30
0.0
 11
5.05467
 21
-59.800001
 31
0.0
  0
LINE
  8
F08_IMG
  5
5370
 10
-66.645299
 20
-47.900001
 30
0.0
 11
-62.345299
 21
-47.900001
 31
0.0
  0
LINE
  8
F08_IMG
  5
5371
 10
-67.745299
 20
-46.600001
 30
0.0
 11
-63.84644
 21
-46.600001
 31
0.0
  0
LINE
  8
F08_IMG
  5
5372
 10
-63.445299
 20
-55.800001
 30
0.0
 11
-67.745299
 21
-55.800001
 31
0.0
  0
LINE
  8
F08_IMG
  5
5373
 10
-65.845299
 20
-51.40002
 30
0.0
 11
-66.645299
 21
-50.60002
 31
0.0
  0
ARC
  8
F08_IMG
  5
5374
 10
-65.745299
 20
-57.800001
 30
0.0
 40
2.0
 50
180.0
 51
270.0
  0
LINE
  8
F08_IMG
  5
5375
 10
-66.645299
 20
-50.60002
 30
0.0
 11
-66.645299
 21
-47.900001
 31
0.0
  0
LINE
  8
F08_IMG
  5
5376
 10
-67.745299
 20
-57.750001
 30
0.0
 11
-67.745299
 21
-46.600001
 31
0.0
  0
LINE
  8
F08_IMG
  5
5377
 10
-50.845299
 20
-46.900001
 30
0.0
 11
-50.845299
 21
-50.600001
 31
0.0
  0
LINE
  8
F08_IMG
  5
5378
 10
-52.645299
 20
-46.900001
 30
0.0
 11
-52.645299
 21
-50.600001
 31
0.0
  0
LINE
  8
F08_IMG
  5
5379
 10
-54.445299
 20
-46.900001
 30
0.0
 11
-54.445299
 21
-50.600001
 31
0.0
  0
LINE
  8
F08_IMG
  5
537A
 10
-56.245299
 20
-46.900001
 30
0.0
 11
-56.245299
 21
-50.600001
 31
0.0
  0
LINE
  8
F08_IMG
  5
537B
 10
-58.045299
 20
-46.900001
 30
0.0
 11
-58.045299
 21
-50.600001
 31
0.0
  0
LINE
  8
F08_IMG
  5
537C
 10
-59.845299
 20
-46.900001
 30
0.0
 11
-59.845299
 21
-50.600001
 31
0.0
  0
LINE
  8
F08_IMG
  5
537D
 10
-65.845299
 20
-49.750002
 30
0.0
 11
-65.845299
 21
-51.40002
 31
0.0
  0
LINE
  8
F08_IMG
  5
537E
 10
-62.345299
 20
-47.900001
 30
0.0
 11
-62.345299
 21
-51.40002
 31
0.0
  0
ARC
  8
F08_IMG
  5
537F
 10
-58.945299
 20
-50.600001
 30
0.0
 40
0.9
 50
270.0
 51
0.0
  0
LINE
  8
F08_IMG
  5
5380
 10
-58.045299
 20
-57.200001
 30
0.0
 11
-56.245299
 21
-57.200001
 31
0.0
  0
LINE
  8
F08_IMG
  5
5381
 10
-56.245299
 20
-55.800001
 30
0.0
 11
-58.045299
 21
-55.800001
 31
0.0
  0
ARC
  8
F08_IMG
  5
5382
 10
-62.545299
 20
-54.700001
 30
0.0
 40
0.9
 50
0.0
 51
180.0
  0
LINE
  8
F08_IMG
  5
5383
 10
-63.445299
 20
-57.200001
 30
0.0
 11
-61.645299
 21
-57.200001
 31
0.0
  0
LINE
  8
F08_IMG
  5
5384
 10
-64.145299
 20
-57.200001
 30
0.0
 11
-63.445299
 21
-57.200001
 31
0.0
  0
LINE
  8
F08_IMG
  5
5385
 10
-65.145299
 20
-53.10002
 30
0.0
 11
-65.145299
 21
-56.200001
 31
0.0
  0
LINE
  8
F08_IMG
  5
5386
 10
-63.445299
 20
-54.700001
 30
0.0
 11
-63.445299
 21
-59.800001
 31
0.0
  0
LINE
  8
F08_IMG
  5
5387
 10
-65.845299
 20
-51.40002
 30
0.0
 11
-65.845299
 21
-52.40002
 31
0.0
  0
ARC
  8
F08_IMG
  5
5388
 10
-64.145299
 20
-56.200001
 30
0.0
 40
1.0
 50
180.0
 51
270.0
  0
LINE
  8
F08_IMG
  5
5389
 10
-65.845299
 20
-51.40002
 30
0.0
 11
-62.345299
 21
-51.40002
 31
0.0
  0
LINE
  8
F08_IMG
  5
538A
 10
-65.145299
 20
-53.10002
 30
0.0
 11
-65.845299
 21
-52.40002
 31
0.0
  0
LINE
  8
F08_IMG
  5
538B
 10
-58.045299
 20
-54.700001
 30
0.0
 11
-58.045299
 21
-59.800001
 31
0.0
  0
LINE
  8
F08_IMG
  5
538C
 10
-61.645299
 20
-57.200001
 30
0.0
 11
-59.845299
 21
-57.200001
 31
0.0
  0
LINE
  8
F08_IMG
  5
538D
 10
-61.645299
 20
-54.700001
 30
0.0
 11
-61.645299
 21
-59.800001
 31
0.0
  0
LINE
  8
F08_IMG
  5
538E
 10
-59.845299
 20
-55.800001
 30
0.0
 11
-61.645299
 21
-55.800001
 31
0.0
  0
LINE
  8
F08_IMG
  5
538F
 10
-59.845299
 20
-54.700001
 30
0.0
 11
-59.845299
 21
-59.800001
 31
0.0
  0
ARC
  8
F08_IMG
  5
5390
 10
-58.945299
 20
-54.700001
 30
0.0
 40
0.9
 50
0.0
 51
180.0
  0
LINE
  8
F08_IMG
  5
5391
 10
-59.845299
 20
-57.200001
 30
0.0
 11
-58.045299
 21
-57.200001
 31
0.0
  0
ARC
  8
F08_IMG
  5
5392
 10
-58.945299
 20
-50.600001
 30
0.0
 40
0.9
 50
180.0
 51
270.0
  0
LINE
  8
F08_IMG
  5
5393
 10
-54.445299
 20
-57.200001
 30
0.0
 11
-52.645299
 21
-57.200001
 31
0.0
  0
LINE
  8
F08_IMG
  5
5394
 10
-52.645299
 20
-55.800001
 30
0.0
 11
-54.445299
 21
-55.800001
 31
0.0
  0
ARC
  8
F08_IMG
  5
5395
 10
-55.345299
 20
-54.700001
 30
0.0
 40
0.9
 50
90.0
 51
180.0
  0
ARC
  8
F08_IMG
  5
5396
 10
-55.345299
 20
-54.700001
 30
0.0
 40
0.9
 50
0.0
 51
90.0
  0
LINE
  8
F08_IMG
  5
5397
 10
-56.245299
 20
-57.200001
 30
0.0
 11
-54.445299
 21
-57.200001
 31
0.0
  0
LINE
  8
F08_IMG
  5
5398
 10
-54.445299
 20
-54.700001
 30
0.0
 11
-54.445299
 21
-59.800001
 31
0.0
  0
LINE
  8
F08_IMG
  5
5399
 10
-56.245299
 20
-54.700001
 30
0.0
 11
-56.245299
 21
-59.800001
 31
0.0
  0
ARC
  8
F08_IMG
  5
539A
 10
-55.345299
 20
-50.600001
 30
0.0
 40
0.9
 50
270.0
 51
0.0
  0
ARC
  8
F08_IMG
  5
539B
 10
-55.345299
 20
-50.600001
 30
0.0
 40
0.9
 50
180.0
 51
270.0
  0
ARC
  8
F08_IMG
  5
539C
 10
-51.745299
 20
-54.700001
 30
0.0
 40
0.9
 50
0.0
 51
180.0
  0
LINE
  8
F08_IMG
  5
539D
 10
-52.645299
 20
-57.200001
 30
0.0
 11
-50.845299
 21
-57.200001
 31
0.0
  0
LINE
  8
F08_IMG
  5
539E
 10
-50.845299
 20
-54.700001
 30
0.0
 11
-50.845299
 21
-59.800001
 31
0.0
  0
LINE
  8
F08_IMG
  5
539F
 10
-52.645299
 20
-54.700001
 30
0.0
 11
-52.645299
 21
-59.800001
 31
0.0
  0
ARC
  8
F08_IMG
  5
53A0
 10
-51.745299
 20
-50.600001
 30
0.0
 40
0.9
 50
180.0
 51
0.0
  0
LINE
  8
F08_IMG
  5
53A1
 10
-57.07735
 20
-40.000001
 30
0.0
 11
-61.345299
 21
-40.000001
 31
0.0
  0
ARC
  8
F08_IMG
  5
53A2
 10
-58.945299
 20
-46.900001
 30
0.0
 40
0.9
 50
0.0
 51
90.0
  0
LINE
  8
F08_IMG
  5
53A3
 10
-49.345299
 20
-38.800001
 30
0.0
 11
-61.345299
 21
-38.800001
 31
0.0
  0
LINE
  8
F08_IMG
  5
53A4
 10
-49.345299
 20
-35.500001
 30
0.0
 11
-61.345299
 21
-35.500001
 31
0.0
  0
LINE
  8
F08_IMG
  5
53A5
 10
-61.345299
 20
-40.000001
 30
0.0
 11
-62.345299
 21
-41.000001
 31
0.0
  0
LINE
  8
F08_IMG
  5
53A6
 10
-62.345299
 20
-36.500001
 30
0.0
 11
-62.345299
 21
-44.499949
 31
0.0
  0
ARC
  8
F08_IMG
  5
53A7
 10
-63.84644
 20
-46.100001
 30
0.0
 40
0.5
 50
270.0
 51
330.0
  0
LINE
  8
F08_IMG
  5
53A8
 10
-63.413428
 20
-46.350001
 30
0.0
 11
-62.345299
 21
-44.499949
 31
0.0
  0
LINE
  8
F08_IMG
  5
53A9
 10
-65.845299
 20
-46.600001
 30
0.0
 11
-65.845299
 21
-49.750002
 31
0.0
  0
ARC
  8
F08_IMG
  5
53AA
 10
-58.945299
 20
-46.900001
 30
0.0
 40
0.9
 50
90.0
 51
180.0
  0
ARC
  8
F08_IMG
  5
53AB
 10
-61.345299
 20
-36.500001
 30
0.0
 40
1.0
 50
90.0
 51
180.0
  0
LINE
  8
F08_IMG
  5
53AC
 10
-61.345299
 20
-38.800001
 30
0.0
 11
-62.345299
 21
-37.800001
 31
0.0
  0
ARC
  8
F08_IMG
  5
53AD
 10
-55.345299
 20
-41.000001
 30
0.0
 40
2.5
 50
156.421822
 51
23.578178
  0
CIRCLE
  8
F08_IMG
  5
53AE
 10
-55.345299
 20
-41.000001
 30
0.0
 40
2.0
  0
ARC
  8
F08_IMG
  5
53AF
 10
-55.345299
 20
-46.900001
 30
0.0
 40
0.9
 50
90.0
 51
180.0
  0
ARC
  8
F08_IMG
  5
53B0
 10
-55.345299
 20
-46.900001
 30
0.0
 40
0.9
 50
0.0
 51
90.0
  0
ARC
  8
F08_IMG
  5
53B1
 10
-51.745299
 20
-46.900001
 30
0.0
 40
0.9
 50
0.0
 51
180.0
  0
LINE
  8
F08_IMG
  5
53B2
 10
-49.345299
 20
-40.000001
 30
0.0
 11
-53.613248
 21
-40.000001
 31
0.0
  0
LINE
  8
F08_IMG
  5
53B3
 10
-65.8453
 20
51.400019
 30
0.0
 11
-65.8453
 21
52.400019
 31
0.0
  0
LINE
  8
F08_IMG
  5
53B4
 10
-67.7453
 20
57.750001
 30
0.0
 11
-67.7453
 21
46.600001
 31
0.0
  0
LINE
  8
F08_IMG
  5
53B5
 10
-65.8453
 20
51.400019
 30
0.0
 11
-66.6453
 21
50.600019
 31
0.0
  0
LINE
  8
F08_IMG
  5
53B6
 10
-66.6453
 20
47.900001
 30
0.0
 11
-62.3453
 21
47.900001
 31
0.0
  0
LINE
  8
F08_IMG
  5
53B7
 10
-67.7453
 20
46.600001
 30
0.0
 11
-63.84638
 21
46.600001
 31
0.0
  0
LINE
  8
F08_IMG
  5
53B8
 10
-66.6453
 20
50.600019
 30
0.0
 11
-66.6453
 21
47.900001
 31
0.0
  0
LINE
  8
F08_IMG
  5
53B9
 10
-61.3453
 20
40.000001
 30
0.0
 11
-57.077351
 21
40.000001
 31
0.0
  0
LINE
  8
F08_IMG
  5
53BA
 10
-61.3453
 20
38.800001
 30
0.0
 11
-49.3453
 21
38.800001
 31
0.0
  0
LINE
  8
F08_IMG
  5
53BB
 10
-58.3453
 20
37.500001
 30
0.0
 11
-52.3453
 21
37.500001
 31
0.0
  0
LINE
  8
F08_IMG
  5
53BC
 10
-49.3453
 20
35.500001
 30
0.0
 11
-61.3453
 21
35.500001
 31
0.0
  0
LINE
  8
F08_IMG
  5
53BD
 10
-62.3453
 20
36.500001
 30
0.0
 11
-62.3453
 21
44.500001
 31
0.0
  0
ARC
  8
F08_IMG
  5
53BE
 10
-61.3453
 20
36.500001
 30
0.0
 40
1.0
 50
180.0
 51
270.0
  0
LINE
  8
F08_IMG
  5
53BF
 10
-61.3453
 20
40.000001
 30
0.0
 11
-62.3453
 21
41.000001
 31
0.0
  0
LINE
  8
F08_IMG
  5
53C0
 10
-62.3453
 20
37.800001
 30
0.0
 11
-61.3453
 21
38.800001
 31
0.0
  0
LINE
  8
F08_IMG
  5
53C1
 10
-58.3453
 20
37.500001
 30
0.0
 11
-58.3453
 21
35.500001
 31
0.0
  0
ARC
  8
F08_IMG
  5
53C2
 10
-63.84638
 20
46.100001
 30
0.0
 40
0.5
 50
30.0
 51
90.0
  0
LINE
  8
F08_IMG
  5
53C3
 10
-62.3453
 20
47.900001
 30
0.0
 11
-62.3453
 21
51.400019
 31
0.0
  0
LINE
  8
F08_IMG
  5
53C4
 10
-62.345269
 20
44.499948
 30
0.0
 11
-63.415961
 21
46.35444
 31
0.0
  0
LINE
  8
F08_IMG
  5
53C5
 10
-65.8453
 20
49.750001
 30
0.0
 11
-65.8453
 21
51.400019
 31
0.0
  0
LINE
  8
F08_IMG
  5
53C6
 10
-65.8453
 20
46.600001
 30
0.0
 11
-65.8453
 21
49.750001
 31
0.0
  0
LINE
  8
F08_IMG
  5
53C7
 10
-65.8453
 20
51.400019
 30
0.0
 11
-62.3453
 21
51.400019
 31
0.0
  0
LINE
  8
F08_IMG
  5
53C8
 10
-58.04533
 20
46.900001
 30
0.0
 11
-58.04533
 21
50.600001
 31
0.0
  0
LINE
  8
F08_IMG
  5
53C9
 10
-59.84533
 20
46.900001
 30
0.0
 11
-59.84533
 21
50.600001
 31
0.0
  0
ARC
  8
F08_IMG
  5
53CA
 10
-58.94533
 20
50.600001
 30
0.0
 40
0.9
 50
0.0
 51
180.0
  0
ARC
  8
F08_IMG
  5
53CB
 10
-58.94533
 20
46.900001
 30
0.0
 40
0.9
 50
180.0
 51
0.0
  0
CIRCLE
  8
F08_IMG
  5
53CC
 10
-55.3453
 20
41.000001
 30
0.0
 40
2.0
  0
ARC
  8
F08_IMG
  5
53CD
 10
-55.3453
 20
41.000001
 30
0.0
 40
2.5
 50
336.421822
 51
203.578178
  0
LINE
  8
F08_IMG
  5
53CE
 10
-53.613249
 20
40.000001
 30
0.0
 11
-49.3453
 21
40.000001
 31
0.0
  0
LINE
  8
F08_IMG
  5
53CF
 10
-53.8453
 20
38.000001
 30
0.0
 11
-53.8453
 21
37.500001
 31
0.0
  0
LINE
  8
F08_IMG
  5
53D0
 10
-56.8453
 20
38.000001
 30
0.0
 11
-56.8453
 21
37.500001
 31
0.0
  0
LINE
  8
F08_IMG
  5
53D1
 10
-56.8453
 20
38.000001
 30
0.0
 11
-53.8453
 21
38.000001
 31
0.0
  0
LINE
  8
F08_IMG
  5
53D2
 10
-52.3453
 20
37.500001
 30
0.0
 11
-52.3453
 21
35.500001
 31
0.0
  0
ARC
  8
F08_IMG
  5
53D3
 10
-55.34533
 20
46.900001
 30
0.0
 40
0.9
 50
180.0
 51
0.0
  0
ARC
  8
F08_IMG
  5
53D4
 10
-55.34533
 20
50.600001
 30
0.0
 40
0.9
 50
0.0
 51
180.0
  0
LINE
  8
F08_IMG
  5
53D5
 10
-56.24533
 20
46.900001
 30
0.0
 11
-56.24533
 21
50.600001
 31
0.0
  0
LINE
  8
F08_IMG
  5
53D6
 10
-54.44533
 20
46.900001
 30
0.0
 11
-54.44533
 21
50.600001
 31
0.0
  0
LINE
  8
F08_IMG
  5
53D7
 10
-49.345315
 20
49.700001
 30
0.0
 11
-49.345315
 21
44.500001
 31
0.0
  0
ARC
  8
F08_IMG
  5
53D8
 10
-51.74533
 20
50.600001
 30
0.0
 40
0.9
 50
0.0
 51
180.0
  0
ARC
  8
F08_IMG
  5
53D9
 10
-51.74533
 20
46.900001
 30
0.0
 40
0.9
 50
180.0
 51
0.0
  0
LINE
  8
F08_IMG
  5
53DA
 10
-50.84533
 20
46.900001
 30
0.0
 11
-50.84533
 21
50.600001
 31
0.0
  0
LINE
  8
F08_IMG
  5
53DB
 10
-52.64533
 20
46.900001
 30
0.0
 11
-52.64533
 21
50.600001
 31
0.0
  0
LINE
  8
F08_IMG
  5
53DC
 10
-63.4453
 20
55.750001
 30
0.0
 11
-67.7453
 21
55.750001
 31
0.0
  0
ARC
  8
F08_IMG
  5
53DD
 10
-65.7453
 20
57.800001
 30
0.0
 40
2.0
 50
90.0
 51
180.0
  0
LINE
  8
F08_IMG
  5
53DE
 10
-56.24533
 20
57.200001
 30
0.0
 11
-58.04533
 21
57.200001
 31
0.0
  0
LINE
  8
F08_IMG
  5
53DF
 10
-56.2453
 20
55.800001
 30
0.0
 11
-58.0453
 21
55.800001
 31
0.0
  0
ARC
  8
F08_IMG
  5
53E0
 10
-62.54533
 20
54.700001
 30
0.0
 40
0.9
 50
270.0
 51
0.0
  0
LINE
  8
F08_IMG
  5
53E1
 10
-61.64533
 20
57.200001
 30
0.0
 11
-63.44533
 21
57.200001
 31
0.0
  0
ARC
  8
F08_IMG
  5
53E2
 10
-62.54533
 20
54.700001
 30
0.0
 40
0.9
 50
180.0
 51
270.0
  0
LINE
  8
F08_IMG
  5
53E3
 10
-65.1453
 20
53.100019
 30
0.0
 11
-65.1453
 21
56.200001
 31
0.0
  0
LINE
  8
F08_IMG
  5
53E4
 10
-63.44533
 20
57.200001
 30
0.0
 11
-64.1453
 21
57.200001
 31
0.0
  0
LINE
  8
F08_IMG
  5
53E5
 10
-63.44533
 20
54.700001
 30
0.0
 11
-63.44533
 21
59.800001
 31
0.0
  0
ARC
  8
F08_IMG
  5
53E6
 10
-64.1453
 20
56.200001
 30
0.0
 40
1.0
 50
90.0
 51
180.0
  0
LINE
  8
F08_IMG
  5
53E7
 10
-65.1453
 20
53.100019
 30
0.0
 11
-65.8453
 21
52.400019
 31
0.0
  0
LINE
  8
F08_IMG
  5
53E8
 10
-58.04533
 20
54.700001
 30
0.0
 11
-58.04533
 21
59.800001
 31
0.0
  0
LINE
  8
F08_IMG
  5
53E9
 10
-59.84533
 20
57.200001
 30
0.0
 11
-61.64533
 21
57.200001
 31
0.0
  0
LINE
  8
F08_IMG
  5
53EA
 10
-59.84533
 20
54.700001
 30
0.0
 11
-59.84533
 21
59.800001
 31
0.0
  0
LINE
  8
F08_IMG
  5
53EB
 10
-61.64533
 20
54.700001
 30
0.0
 11
-61.64533
 21
59.800001
 31
0.0
  0
LINE
  8
F08_IMG
  5
53EC
 10
-59.8453
 20
55.800001
 30
0.0
 11
-61.6453
 21
55.800001
 31
0.0
  0
ARC
  8
F08_IMG
  5
53ED
 10
-58.94533
 20
54.700001
 30
0.0
 40
0.9
 50
180.0
 51
0.0
  0
LINE
  8
F08_IMG
  5
53EE
 10
-58.04533
 20
57.200001
 30
0.0
 11
-59.84533
 21
57.200001
 31
0.0
  0
LINE
  8
F08_IMG
  5
53EF
 10
-52.64533
 20
57.200001
 30
0.0
 11
-54.44533
 21
57.200001
 31
0.0
  0
LINE
  8
F08_IMG
  5
53F0
 10
-52.6453
 20
55.800001
 30
0.0
 11
-54.4453
 21
55.800001
 31
0.0
  0
ARC
  8
F08_IMG
  5
53F1
 10
-55.34533
 20
54.700001
 30
0.0
 40
0.9
 50
180.0
 51
0.0
  0
LINE
  8
F08_IMG
  5
53F2
 10
-56.24533
 20
54.700001
 30
0.0
 11
-56.24533
 21
59.800001
 31
0.0
  0
LINE
  8
F08_IMG
  5
53F3
 10
-54.44533
 20
54.700001
 30
0.0
 11
-54.44533
 21
59.800001
 31
0.0
  0
LINE
  8
F08_IMG
  5
53F4
 10
-54.44533
 20
57.200001
 30
0.0
 11
-56.24533
 21
57.200001
 31
0.0
  0
ARC
  8
F08_IMG
  5
53F5
 10
-51.74533
 20
54.700001
 30
0.0
 40
0.9
 50
180.0
 51
0.0
  0
LINE
  8
F08_IMG
  5
53F6
 10
-52.64533
 20
54.700001
 30
0.0
 11
-52.64533
 21
59.800001
 31
0.0
  0
LINE
  8
F08_IMG
  5
53F7
 10
-50.84533
 20
54.700001
 30
0.0
 11
-50.84533
 21
59.800001
 31
0.0
  0
LINE
  8
F08_IMG
  5
53F8
 10
-50.84533
 20
57.200001
 30
0.0
 11
-52.64533
 21
57.200001
 31
0.0
  0
LINE
  8
F08_IMG
  5
53FA
 10
-15.713951
 20
-46.831365
 30
0.0
 11
-14.277652
 21
-48.267663
 31
0.0
  0
LINE
  8
F08_IMG
  5
53FB
 10
-14.376678
 20
-46.831365
 30
0.0
 11
-15.812977
 21
-48.267663
 31
0.0
  0
LINE
  8
F08_IMG
  5
53FC
 10
-14.986736
 20
-45.441423
 30
0.0
 11
-13.845314
 21
-44.300001
 31
0.0
  0
CIRCLE
  8
F08_IMG
  5
53FD
 10
-15.045314
 20
-47.500001
 30
0.0
 40
2.0
  0
LINE
  8
F08_IMG
  5
53FE
 10
-16.945314
 20
-50.700001
 30
0.0
 11
-12.845314
 21
-50.700001
 31
0.0
  0
LINE
  8
F08_IMG
  5
53FF
 10
-16.945314
 20
-51.200001
 30
0.0
 11
-12.845314
 21
-51.200001
 31
0.0
  0
LINE
  8
F08_IMG
  5
5400
 10
-17.345101
 20
-57.200001
 30
0.0
 11
-13.445299
 21
-57.200001
 31
0.0
  0
LINE
  8
F08_IMG
  5
5401
 10
-22.24533
 20
-55.800001
 30
0.0
 11
-13.44533
 21
-55.800001
 31
0.0
  0
LINE
  8
F08_IMG
  5
5402
 10
-33.045299
 20
-57.200001
 30
0.0
 11
-31.245299
 21
-57.200001
 31
0.0
  0
LINE
  8
F08_IMG
  5
5403
 10
-31.245299
 20
-55.800001
 30
0.0
 11
-33.045299
 21
-55.800001
 31
0.0
  0
ARC
  8
F08_IMG
  5
5404
 10
-30.34533
 20
-41.000001
 30
0.0
 40
2.5
 50
156.421822
 51
23.578178
  0
CIRCLE
  8
F08_IMG
  5
5405
 10
-30.34533
 20
-41.000001
 30
0.0
 40
2.0
  0
LINE
  8
F08_IMG
  5
5406
 10
-36.345299
 20
-35.500001
 30
0.0
 11
-24.34533
 21
-35.500001
 31
0.0
  0
LINE
  8
F08_IMG
  5
5407
 10
-24.34533
 20
-38.800001
 30
0.0
 11
-36.34533
 21
-38.800001
 31
0.0
  0
LINE
  8
F08_IMG
  5
5408
 10
-33.045299
 20
-46.900001
 30
0.0
 11
-33.045299
 21
-50.600001
 31
0.0
  0
LINE
  8
F08_IMG
  5
5409
 10
-34.845299
 20
-46.900001
 30
0.0
 11
-34.845299
 21
-50.600001
 31
0.0
  0
LINE
  8
F08_IMG
  5
540A
 10
-44.745528
 20
-50.000001
 30
0.0
 11
-44.745528
 21
-56.150001
 31
0.0
  0
LINE
  8
F08_IMG
  5
540B
 10
-43.145528
 20
-50.000001
 30
0.0
 11
-43.145528
 21
-56.150001
 31
0.0
  0
LINE
  8
F08_IMG
  5
540C
 10
-42.145528
 20
-57.200001
 30
0.0
 11
-38.445299
 21
-57.200001
 31
0.0
  0
LINE
  8
F08_IMG
  5
540D
 10
-38.445299
 20
-55.800001
 30
0.0
 11
-47.245299
 21
-55.800001
 31
0.0
  0
ARC
  8
F08_IMG
  5
540E
 10
-45.745528
 20
-56.150001
 30
0.0
 40
1.0
 50
270.0
 51
0.0
  0
LINE
  8
F08_IMG
  5
540F
 10
-47.245299
 20
-57.200001
 30
0.0
 11
-45.745528
 21
-57.200001
 31
0.0
  0
LINE
  8
F08_IMG
  5
5410
 10
-47.245299
 20
-54.700001
 30
0.0
 11
-47.245299
 21
-59.800001
 31
0.0
  0
LINE
  8
F08_IMG
  5
5411
 10
-49.045299
 20
-54.700001
 30
0.0
 11
-49.045299
 21
-59.800001
 31
0.0
  0
ARC
  8
F08_IMG
  5
5412
 10
-48.145299
 20
-54.700001
 30
0.0
 40
0.9
 50
0.0
 51
180.0
  0
LINE
  8
F08_IMG
  5
5413
 10
-49.045299
 20
-57.200001
 30
0.0
 11
-47.245299
 21
-57.200001
 31
0.0
  0
ARC
  8
F08_IMG
  5
5414
 10
-42.145528
 20
-56.150001
 30
0.0
 40
1.0
 50
180.0
 51
270.0
  0
LINE
  8
F08_IMG
  5
5415
 10
-36.645299
 20
-57.200001
 30
0.0
 11
-34.845299
 21
-57.200001
 31
0.0
  0
LINE
  8
F08_IMG
  5
5416
 10
-34.845299
 20
-55.800001
 30
0.0
 11
-36.645299
 21
-55.800001
 31
0.0
  0
ARC
  8
F08_IMG
  5
5417
 10
-37.545299
 20
-54.700001
 30
0.0
 40
0.9
 50
0.0
 51
180.0
  0
LINE
  8
F08_IMG
  5
5418
 10
-38.445299
 20
-57.200001
 30
0.0
 11
-36.645299
 21
-57.200001
 31
0.0
  0
LINE
  8
F08_IMG
  5
5419
 10
-36.645299
 20
-54.700001
 30
0.0
 11
-36.645299
 21
-59.800001
 31
0.0
  0
LINE
  8
F08_IMG
  5
541A
 10
-38.445299
 20
-54.700001
 30
0.0
 11
-38.445299
 21
-59.800001
 31
0.0
  0
LINE
  8
F08_IMG
  5
541B
 10
-33.045299
 20
-54.700001
 30
0.0
 11
-33.045299
 21
-59.800001
 31
0.0
  0
LINE
  8
F08_IMG
  5
541C
 10
-34.845299
 20
-54.700001
 30
0.0
 11
-34.845299
 21
-59.800001
 31
0.0
  0
ARC
  8
F08_IMG
  5
541D
 10
-33.945299
 20
-54.700001
 30
0.0
 40
0.9
 50
0.0
 51
180.0
  0
ARC
  8
F08_IMG
  5
541E
 10
-33.945299
 20
-50.600001
 30
0.0
 40
0.9
 50
180.0
 51
0.0
  0
LINE
  8
F08_IMG
  5
541F
 10
-34.845299
 20
-57.200001
 30
0.0
 11
-33.045299
 21
-57.200001
 31
0.0
  0
LINE
  8
F08_IMG
  5
5420
 10
-39.045299
 20
-50.000001
 30
0.0
 11
-46.64533
 21
-50.000001
 31
0.0
  0
LINE
  8
F08_IMG
  5
5421
 10
-48.345299
 20
-36.500001
 30
0.0
 11
-48.345299
 21
-44.500001
 31
0.0
  0
LINE
  8
F08_IMG
  5
5422
 10
-45.145757
 20
-46.600001
 30
0.0
 11
-42.745299
 21
-46.600001
 31
0.0
  0
LINE
  8
F08_IMG
  5
5423
 10
-44.745528
 20
-47.900001
 30
0.0
 11
-45.145757
 21
-47.900001
 31
0.0
  0
ARC
  8
F08_IMG
  5
5424
 10
-45.145757
 20
-46.900001
 30
0.0
 40
0.3
 50
90.0
 51
180.0
  0
ARC
  8
F08_IMG
  5
5425
 10
-46.64533
 20
-49.500001
 30
0.0
 40
0.5
 50
180.0
 51
270.0
  0
ARC
  8
F08_IMG
  5
5426
 10
-45.145757
 20
-47.600001
 30
0.0
 40
0.3
 50
180.0
 51
270.0
  0
LINE
  8
F08_IMG
  5
5427
 10
-47.14533
 20
-46.57841
 30
0.0
 11
-47.14533
 21
-49.500001
 31
0.0
  0
LINE
  8
F08_IMG
  5
5428
 10
-45.445757
 20
-46.900001
 30
0.0
 11
-45.445757
 21
-47.600001
 31
0.0
  0
LINE
  8
F08_IMG
  5
5429
 10
-48.34533
 20
-44.499949
 30
0.0
 11
-47.14533
 21
-46.57841
 31
0.0
  0
ARC
  8
F08_IMG
  5
542A
 10
-42.745299
 20
-47.600001
 30
0.0
 40
0.3
 50
270.0
 51
0.0
  0
ARC
  8
F08_IMG
  5
542B
 10
-42.745299
 20
-46.900001
 30
0.0
 40
0.3
 50
0.0
 51
90.0
  0
LINE
  8
F08_IMG
  5
542C
 10
-43.145528
 20
-47.900001
 30
0.0
 11
-42.745299
 21
-47.900001
 31
0.0
  0
LINE
  8
F08_IMG
  5
542D
 10
-42.445299
 20
-46.900001
 30
0.0
 11
-42.445299
 21
-47.600001
 31
0.0
  0
LINE
  8
F08_IMG
  5
542E
 10
-43.145528
 20
-47.900001
 30
0.0
 11
-43.145528
 21
-50.000001
 31
0.0
  0
LINE
  8
F08_IMG
  5
542F
 10
-44.745528
 20
-47.900001
 30
0.0
 11
-44.745528
 21
-50.000001
 31
0.0
  0
LINE
  8
F08_IMG
  5
5430
 10
-36.34533
 20
-40.000001
 30
0.0
 11
-37.34533
 21
-41.000001
 31
0.0
  0
LINE
  8
F08_IMG
  5
5431
 10
-37.345299
 20
-36.500001
 30
0.0
 11
-37.345299
 21
-44.499896
 31
0.0
  0
ARC
  8
F08_IMG
  5
5432
 10
-39.045299
 20
-49.500001
 30
0.0
 40
0.5
 50
270.0
 51
0.0
  0
LINE
  8
F08_IMG
  5
5433
 10
-38.545299
 20
-46.578357
 30
0.0
 11
-38.545299
 21
-49.500001
 31
0.0
  0
LINE
  8
F08_IMG
  5
5434
 10
-37.345299
 20
-44.499896
 30
0.0
 11
-38.545299
 21
-46.578357
 31
0.0
  0
ARC
  8
F08_IMG
  5
5435
 10
-33.945299
 20
-46.900001
 30
0.0
 40
0.9
 50
0.0
 51
180.0
  0
LINE
  8
F08_IMG
  5
5436
 10
-32.077381
 20
-40.000001
 30
0.0
 11
-36.34533
 21
-40.000001
 31
0.0
  0
ARC
  8
F08_IMG
  5
5437
 10
-36.345299
 20
-36.500001
 30
0.0
 40
1.0
 50
90.0
 51
180.0
  0
LINE
  8
F08_IMG
  5
5438
 10
-36.34533
 20
-38.800001
 30
0.0
 11
-37.34533
 21
-37.800001
 31
0.0
  0
LINE
  8
F08_IMG
  5
5439
 10
-16.945314
 20
-48.400001
 30
0.0
 11
-16.945314
 21
-51.200001
 31
0.0
  0
LINE
  8
F08_IMG
  5
543A
 10
-19.945101
 20
-50.000001
 30
0.0
 11
-19.945101
 21
-56.150001
 31
0.0
  0
LINE
  8
F08_IMG
  5
543B
 10
-18.345101
 20
-50.000001
 30
0.0
 11
-18.345101
 21
-56.150001
 31
0.0
  0
LINE
  8
F08_IMG
  5
543C
 10
-25.845299
 20
-46.900001
 30
0.0
 11
-25.845299
 21
-50.600001
 31
0.0
  0
LINE
  8
F08_IMG
  5
543D
 10
-29.445299
 20
-46.900001
 30
0.0
 11
-29.445299
 21
-50.600001
 31
0.0
  0
LINE
  8
F08_IMG
  5
543E
 10
-27.645299
 20
-46.900001
 30
0.0
 11
-27.645299
 21
-50.600001
 31
0.0
  0
LINE
  8
F08_IMG
  5
543F
 10
-31.245299
 20
-46.900001
 30
0.0
 11
-31.245299
 21
-50.600001
 31
0.0
  0
ARC
  8
F08_IMG
  5
5440
 10
-23.145299
 20
-54.700001
 30
0.0
 40
0.9
 50
0.0
 51
180.0
  0
LINE
  8
F08_IMG
  5
5441
 10
-24.045299
 20
-57.200001
 30
0.0
 11
-22.245299
 21
-57.200001
 31
0.0
  0
ARC
  8
F08_IMG
  5
5442
 10
-26.745299
 20
-54.700001
 30
0.0
 40
0.9
 50
0.0
 51
180.0
  0
ARC
  8
F08_IMG
  5
5443
 10
-26.745299
 20
-50.600001
 30
0.0
 40
0.9
 50
180.0
 51
0.0
  0
LINE
  8
F08_IMG
  5
5444
 10
-27.645299
 20
-57.200001
 30
0.0
 11
-25.845299
 21
-57.200001
 31
0.0
  0
LINE
  8
F08_IMG
  5
5445
 10
-29.445299
 20
-57.200001
 30
0.0
 11
-27.645299
 21
-57.200001
 31
0.0
  0
LINE
  8
F08_IMG
  5
5446
 10
-29.44533
 20
-55.800001
 30
0.0
 11
-27.64533
 21
-55.800001
 31
0.0
  0
LINE
  8
F08_IMG
  5
5447
 10
-27.645299
 20
-54.700001
 30
0.0
 11
-27.645299
 21
-59.800001
 31
0.0
  0
LINE
  8
F08_IMG
  5
5448
 10
-29.445299
 20
-54.700001
 30
0.0
 11
-29.445299
 21
-59.800001
 31
0.0
  0
LINE
  8
F08_IMG
  5
5449
 10
-31.245299
 20
-54.700001
 30
0.0
 11
-31.245299
 21
-59.800001
 31
0.0
  0
ARC
  8
F08_IMG
  5
544A
 10
-30.345299
 20
-54.700001
 30
0.0
 40
0.9
 50
0.0
 51
180.0
  0
LINE
  8
F08_IMG
  5
544B
 10
-31.245299
 20
-57.200001
 30
0.0
 11
-29.445299
 21
-57.200001
 31
0.0
  0
ARC
  8
F08_IMG
  5
544C
 10
-30.345299
 20
-50.600001
 30
0.0
 40
0.9
 50
180.0
 51
0.0
  0
LINE
  8
F08_IMG
  5
544D
 10
-24.045299
 20
-54.700001
 30
0.0
 11
-24.045299
 21
-59.800001
 31
0.0
  0
LINE
  8
F08_IMG
  5
544E
 10
-25.845299
 20
-54.700001
 30
0.0
 11
-25.845299
 21
-59.800001
 31
0.0
  0
LINE
  8
F08_IMG
  5
544F
 10
-25.845299
 20
-57.200001
 30
0.0
 11
-24.045299
 21
-57.200001
 31
0.0
  0
LINE
  8
F08_IMG
  5
5450
 10
-25.84533
 20
-55.800001
 30
0.0
 11
-24.04533
 21
-55.800001
 31
0.0
  0
ARC
  8
F08_IMG
  5
5451
 10
-20.945101
 20
-56.150001
 30
0.0
 40
1.0
 50
270.0
 51
0.0
  0
LINE
  8
F08_IMG
  5
5452
 10
-22.245299
 20
-54.700001
 30
0.0
 11
-22.245299
 21
-59.800001
 31
0.0
  0
LINE
  8
F08_IMG
  5
5453
 10
-22.245299
 20
-57.200001
 30
0.0
 11
-20.945101
 21
-57.200001
 31
0.0
  0
ARC
  8
F08_IMG
  5
5454
 10
-17.345101
 20
-56.150001
 30
0.0
 40
1.0
 50
180.0
 51
270.0
  0
LINE
  8
F08_IMG
  5
5455
 10
-23.34533
 20
-44.499896
 30
0.0
 11
-22.14533
 21
-46.578357
 31
0.0
  0
LINE
  8
F08_IMG
  5
5456
 10
-24.34533
 20
-40.000001
 30
0.0
 11
-23.34533
 21
-41.000001
 31
0.0
  0
LINE
  8
F08_IMG
  5
5457
 10
-23.34533
 20
-36.500001
 30
0.0
 11
-23.34533
 21
-44.499896
 31
0.0
  0
ARC
  8
F08_IMG
  5
5458
 10
-26.745299
 20
-46.900001
 30
0.0
 40
0.9
 50
0.0
 51
180.0
  0
ARC
  8
F08_IMG
  5
5459
 10
-30.345299
 20
-46.900001
 30
0.0
 40
0.9
 50
0.0
 51
180.0
  0
LINE
  8
F08_IMG
  5
545A
 10
-24.34533
 20
-40.000001
 30
0.0
 11
-28.613279
 21
-40.000001
 31
0.0
  0
ARC
  8
F08_IMG
  5
545B
 10
-24.34533
 20
-36.500001
 30
0.0
 40
1.0
 50
0.0
 51
90.0
  0
LINE
  8
F08_IMG
  5
545C
 10
-23.34533
 20
-37.800001
 30
0.0
 11
-24.34533
 21
-38.800001
 31
0.0
  0
LINE
  8
F08_IMG
  5
545D
 10
-21.64533
 20
-50.000001
 30
0.0
 11
-16.945314
 21
-50.000001
 31
0.0
  0
LINE
  8
F08_IMG
  5
545E
 10
-17.944872
 20
-46.600001
 30
0.0
 11
-20.34533
 21
-46.600001
 31
0.0
  0
ARC
  8
F08_IMG
  5
545F
 10
-20.34533
 20
-46.900001
 30
0.0
 40
0.3
 50
90.0
 51
180.0
  0
ARC
  8
F08_IMG
  5
5460
 10
-20.34533
 20
-47.600001
 30
0.0
 40
0.3
 50
180.0
 51
270.0
  0
LINE
  8
F08_IMG
  5
5461
 10
-19.945101
 20
-47.900001
 30
0.0
 11
-19.945101
 21
-50.000001
 31
0.0
  0
LINE
  8
F08_IMG
  5
5462
 10
-19.945101
 20
-47.900001
 30
0.0
 11
-20.34533
 21
-47.900001
 31
0.0
  0
LINE
  8
F08_IMG
  5
5463
 10
-20.64533
 20
-46.900001
 30
0.0
 11
-20.64533
 21
-47.600001
 31
0.0
  0
LINE
  8
F08_IMG
  5
5464
 10
-22.14533
 20
-46.578357
 30
0.0
 11
-22.14533
 21
-49.500001
 31
0.0
  0
ARC
  8
F08_IMG
  5
5465
 10
-21.64533
 20
-49.500001
 30
0.0
 40
0.5
 50
180.0
 51
270.0
  0
ARC
  8
F08_IMG
  5
5466
 10
-17.944872
 20
-46.900001
 30
0.0
 40
0.3
 50
0.0
 51
90.0
  0
ARC
  8
F08_IMG
  5
5467
 10
-17.944872
 20
-47.600001
 30
0.0
 40
0.3
 50
270.0
 51
0.0
  0
LINE
  8
F08_IMG
  5
5468
 10
-18.345101
 20
-50.000001
 30
0.0
 11
-18.345101
 21
-47.900001
 31
0.0
  0
LINE
  8
F08_IMG
  5
5469
 10
-18.345101
 20
-47.900001
 30
0.0
 11
-17.944872
 21
-47.900001
 31
0.0
  0
LINE
  8
F08_IMG
  5
546A
 10
-17.644872
 20
-46.900001
 30
0.0
 11
-17.644872
 21
-47.600001
 31
0.0
  0
ARC
  8
F08_IMG
  5
546B
 10
3.15575
 20
-46.100001
 30
0.0
 40
0.5
 50
210.0
 51
270.0
  0
LINE
  8
F08_IMG
  5
546C
 10
5.95467
 20
-47.900001
 30
0.0
 11
1.65467
 21
-47.900001
 31
0.0
  0
LINE
  8
F08_IMG
  5
546D
 10
2.754701
 20
-57.200001
 30
0.0
 11
3.45467
 21
-57.200001
 31
0.0
  0
LINE
  8
F08_IMG
  5
546E
 10
5.15467
 20
-51.40002
 30
0.0
 11
1.65467
 21
-51.40002
 31
0.0
  0
LINE
  8
F08_IMG
  5
546F
 10
2.75467
 20
-55.750001
 30
0.0
 11
7.05467
 21
-55.750001
 31
0.0
  0
LINE
  8
F08_IMG
  5
5470
 10
1.65467
 20
-47.900001
 30
0.0
 11
1.65467
 21
-51.40002
 31
0.0
  0
LINE
  8
F08_IMG
  5
5471
 10
-0.845299
 20
-46.900001
 30
0.0
 11
-0.845299
 21
-50.600001
 31
0.0
  0
LINE
  8
F08_IMG
  5
5472
 10
-2.645299
 20
-46.900001
 30
0.0
 11
-2.645299
 21
-50.600001
 31
0.0
  0
LINE
  8
F08_IMG
  5
5473
 10
-6.245299
 20
-46.900001
 30
0.0
 11
-6.245299
 21
-50.600001
 31
0.0
  0
LINE
  8
F08_IMG
  5
5474
 10
-4.445299
 20
-46.900001
 30
0.0
 11
-4.445299
 21
-50.600001
 31
0.0
  0
LINE
  8
F08_IMG
  5
5475
 10
-8.045299
 20
-46.900001
 30
0.0
 11
-8.045299
 21
-50.600001
 31
0.0
  0
LINE
  8
F08_IMG
  5
5476
 10
-9.845299
 20
-46.900001
 30
0.0
 11
-9.845299
 21
-50.600001
 31
0.0
  0
ARC
  8
F08_IMG
  5
5477
 10
-12.845314
 20
-49.700001
 30
0.0
 40
1.0
 50
270.0
 51
0.0
  0
ARC
  8
F08_IMG
  5
5478
 10
-12.845314
 20
-49.700001
 30
0.0
 40
1.5
 50
270.0
 51
0.0
  0
ARC
  8
F08_IMG
  5
5479
 10
-5.345299
 20
-54.700001
 30
0.0
 40
0.9
 50
0.0
 51
180.0
  0
LINE
  8
F08_IMG
  5
547A
 10
-6.245299
 20
-57.200001
 30
0.0
 11
-4.445299
 21
-57.200001
 31
0.0
  0
ARC
  8
F08_IMG
  5
547B
 10
-5.345299
 20
-50.600001
 30
0.0
 40
0.9
 50
180.0
 51
0.0
  0
LINE
  8
F08_IMG
  5
547C
 10
-11.645299
 20
-57.200001
 30
0.0
 11
-9.845299
 21
-57.200001
 31
0.0
  0
LINE
  8
F08_IMG
  5
547D
 10
-11.64533
 20
-55.800001
 30
0.0
 11
-9.84533
 21
-55.800001
 31
0.0
  0
LINE
  8
F08_IMG
  5
547E
 10
-11.645299
 20
-54.700001
 30
0.0
 11
-11.645299
 21
-59.800001
 31
0.0
  0
LINE
  8
F08_IMG
  5
547F
 10
-13.445299
 20
-54.700001
 30
0.0
 11
-13.445299
 21
-59.800001
 31
0.0
  0
ARC
  8
F08_IMG
  5
5480
 10
-12.545299
 20
-54.700001
 30
0.0
 40
0.9
 50
0.0
 51
180.0
  0
LINE
  8
F08_IMG
  5
5481
 10
-13.445299
 20
-57.200001
 30
0.0
 11
-11.645299
 21
-57.200001
 31
0.0
  0
LINE
  8
F08_IMG
  5
5482
 10
-6.245299
 20
-54.700001
 30
0.0
 11
-6.245299
 21
-59.800001
 31
0.0
  0
ARC
  8
F08_IMG
  5
5483
 10
-8.945299
 20
-54.700001
 30
0.0
 40
0.9
 50
0.0
 51
180.0
  0
LINE
  8
F08_IMG
  5
5484
 10
-9.845299
 20
-57.200001
 30
0.0
 11
-8.045299
 21
-57.200001
 31
0.0
  0
LINE
  8
F08_IMG
  5
5485
 10
-9.845299
 20
-54.700001
 30
0.0
 11
-9.845299
 21
-59.800001
 31
0.0
  0
LINE
  8
F08_IMG
  5
5486
 10
-8.045299
 20
-54.700001
 30
0.0
 11
-8.045299
 21
-59.800001
 31
0.0
  0
LINE
  8
F08_IMG
  5
5487
 10
-8.045299
 20
-57.200001
 30
0.0
 11
-6.245299
 21
-57.200001
 31
0.0
  0
LINE
  8
F08_IMG
  5
5488
 10
-8.04533
 20
-55.800001
 30
0.0
 11
-6.24533
 21
-55.800001
 31
0.0
  0
ARC
  8
F08_IMG
  5
5489
 10
-8.945299
 20
-50.600001
 30
0.0
 40
0.9
 50
180.0
 51
0.0
  0
ARC
  8
F08_IMG
  5
548A
 10
-1.745299
 20
-54.700001
 30
0.0
 40
0.9
 50
0.0
 51
180.0
  0
LINE
  8
F08_IMG
  5
548B
 10
-2.645299
 20
-57.200001
 30
0.0
 11
-0.845299
 21
-57.200001
 31
0.0
  0
ARC
  8
F08_IMG
  5
548C
 10
-1.745299
 20
-50.600001
 30
0.0
 40
0.9
 50
180.0
 51
0.0
  0
LINE
  8
F08_IMG
  5
548D
 10
-2.645299
 20
-54.700001
 30
0.0
 11
-2.645299
 21
-59.800001
 31
0.0
  0
LINE
  8
F08_IMG
  5
548E
 10
-4.445299
 20
-54.700001
 30
0.0
 11
-4.445299
 21
-59.800001
 31
0.0
  0
LINE
  8
F08_IMG
  5
548F
 10
-4.445299
 20
-57.200001
 30
0.0
 11
-2.645299
 21
-57.200001
 31
0.0
  0
LINE
  8
F08_IMG
  5
5490
 10
-4.44533
 20
-55.800001
 30
0.0
 11
-2.64533
 21
-55.800001
 31
0.0
  0
ARC
  8
F08_IMG
  5
5491
 10
1.854701
 20
-54.700001
 30
0.0
 40
0.9
 50
0.0
 51
90.0
  0
LINE
  8
F08_IMG
  5
5492
 10
2.754701
 20
-54.700001
 30
0.0
 11
2.754701
 21
-59.800001
 31
0.0
  0
LINE
  8
F08_IMG
  5
5493
 10
-0.845299
 20
-57.200001
 30
0.0
 11
0.954701
 21
-57.200001
 31
0.0
  0
LINE
  8
F08_IMG
  5
5494
 10
-0.84533
 20
-55.800001
 30
0.0
 11
0.95467
 21
-55.800001
 31
0.0
  0
LINE
  8
F08_IMG
  5
5495
 10
0.954701
 20
-54.700001
 30
0.0
 11
0.954701
 21
-59.800001
 31
0.0
  0
LINE
  8
F08_IMG
  5
5496
 10
-0.845299
 20
-54.700001
 30
0.0
 11
-0.845299
 21
-59.800001
 31
0.0
  0
ARC
  8
F08_IMG
  5
5497
 10
1.854701
 20
-54.700001
 30
0.0
 40
0.9
 50
90.0
 51
180.0
  0
LINE
  8
F08_IMG
  5
5498
 10
0.954701
 20
-57.200001
 30
0.0
 11
2.754701
 21
-57.200001
 31
0.0
  0
LINE
  8
F08_IMG
  5
5499
 10
-2.34533
 20
-37.500001
 30
0.0
 11
-8.34533
 21
-37.500001
 31
0.0
  0
LINE
  8
F08_IMG
  5
549A
 10
-3.84533
 20
-38.000001
 30
0.0
 11
-6.84533
 21
-38.000001
 31
0.0
  0
ARC
  8
F08_IMG
  5
549B
 10
-5.345299
 20
-46.900001
 30
0.0
 40
0.9
 50
0.0
 51
180.0
  0
CIRCLE
  8
F08_IMG
  5
549C
 10
-5.34533
 20
-41.000001
 30
0.0
 40
2.0
  0
ARC
  8
F08_IMG
  5
549D
 10
-5.34533
 20
-41.000001
 30
0.0
 40
2.5
 50
156.421822
 51
23.578178
  0
LINE
  8
F08_IMG
  5
549E
 10
-11.34533
 20
-35.500001
 30
0.0
 11
0.65467
 21
-35.500001
 31
0.0
  0
LINE
  8
F08_IMG
  5
549F
 10
0.65467
 20
-38.800001
 30
0.0
 11
-11.34533
 21
-38.800001
 31
0.0
  0
LINE
  8
F08_IMG
  5
54A0
 10
-11.34533
 20
-40.000001
 30
0.0
 11
-12.34533
 21
-41.000001
 31
0.0
  0
LINE
  8
F08_IMG
  5
54A1
 10
-12.34533
 20
-36.500001
 30
0.0
 11
-12.34533
 21
-44.300001
 31
0.0
  0
ARC
  8
F08_IMG
  5
54A2
 10
-12.045314
 20
-44.500001
 30
0.0
 40
0.2
 50
0.0
 51
90.0
  0
ARC
  8
F08_IMG
  5
54A3
 10
-11.545314
 20
-44.500001
 30
0.0
 40
0.2
 50
0.0
 51
90.0
  0
LINE
  8
F08_IMG
  5
54A4
 10
-11.845314
 20
-49.700001
 30
0.0
 11
-11.845314
 21
-44.500001
 31
0.0
  0
LINE
  8
F08_IMG
  5
54A5
 10
-11.345314
 20
-49.700001
 30
0.0
 11
-11.345314
 21
-44.500001
 31
0.0
  0
LINE
  8
F08_IMG
  5
54A6
 10
-13.845314
 20
-44.300001
 30
0.0
 11
-11.545314
 21
-44.300001
 31
0.0
  0
ARC
  8
F08_IMG
  5
54A7
 10
-8.945299
 20
-46.900001
 30
0.0
 40
0.9
 50
0.0
 51
180.0
  0
LINE
  8
F08_IMG
  5
54A8
 10
-7.077381
 20
-40.000001
 30
0.0
 11
-11.34533
 21
-40.000001
 31
0.0
  0
ARC
  8
F08_IMG
  5
54A9
 10
-11.34533
 20
-36.500001
 30
0.0
 40
1.0
 50
90.0
 51
180.0
  0
LINE
  8
F08_IMG
  5
54AA
 10
-11.34533
 20
-38.800001
 30
0.0
 11
-12.34533
 21
-37.800001
 31
0.0
  0
LINE
  8
F08_IMG
  5
54AB
 10
-6.84533
 20
-38.000001
 30
0.0
 11
-6.84533
 21
-37.500001
 31
0.0
  0
LINE
  8
F08_IMG
  5
54AC
 10
-8.34533
 20
-37.500001
 30
0.0
 11
-8.34533
 21
-35.500001
 31
0.0
  0
LINE
  8
F08_IMG
  5
54AD
 10
1.65467
 20
-36.500001
 30
0.0
 11
1.65467
 21
-44.500001
 31
0.0
  0
LINE
  8
F08_IMG
  5
54AE
 10
0.65467
 20
-40.000001
 30
0.0
 11
1.65467
 21
-41.000001
 31
0.0
  0
ARC
  8
F08_IMG
  5
54AF
 10
-1.745299
 20
-46.900001
 30
0.0
 40
0.9
 50
0.0
 51
180.0
  0
LINE
  8
F08_IMG
  5
54B0
 10
1.65464
 20
-44.499949
 30
0.0
 11
2.725331
 21
-46.35444
 31
0.0
  0
LINE
  8
F08_IMG
  5
54B1
 10
0.65467
 20
-40.000001
 30
0.0
 11
-3.613279
 21
-40.000001
 31
0.0
  0
LINE
  8
F08_IMG
  5
54B2
 10
-2.34533
 20
-37.500001
 30
0.0
 11
-2.34533
 21
-35.500001
 31
0.0
  0
LINE
  8
F08_IMG
  5
54B3
 10
-3.84533
 20
-38.000001
 30
0.0
 11
-3.84533
 21
-37.500001
 31
0.0
  0
ARC
  8
F08_IMG
  5
54B4
 10
0.65467
 20
-36.500001
 30
0.0
 40
1.0
 50
0.0
 51
90.0
  0
LINE
  8
F08_IMG
  5
54B5
 10
1.65467
 20
-37.800001
 30
0.0
 11
0.65467
 21
-38.800001
 31
0.0
  0
LINE
  8
F08_IMG
  5
54B6
 10
5.95467
 20
-50.60002
 30
0.0
 11
5.95467
 21
-47.900001
 31
0.0
  0
LINE
  8
F08_IMG
  5
54B7
 10
7.05467
 20
-57.750001
 30
0.0
 11
7.05467
 21
-46.600001
 31
0.0
  0
LINE
  8
F08_IMG
  5
54B8
 10
5.15467
 20
-49.750002
 30
0.0
 11
5.15467
 21
-51.40002
 31
0.0
  0
ARC
  8
F08_IMG
  5
54B9
 10
5.05467
 20
-57.800001
 30
0.0
 40
2.0
 50
270.0
 51
0.0
  0
LINE
  8
F08_IMG
  5
54BA
 10
4.45467
 20
-53.10002
 30
0.0
 11
4.45467
 21
-56.200001
 31
0.0
  0
LINE
  8
F08_IMG
  5
54BB
 10
4.45467
 20
-53.10002
 30
0.0
 11
5.15467
 21
-52.40002
 31
0.0
  0
LINE
  8
F08_IMG
  5
54BC
 10
5.15467
 20
-51.40002
 30
0.0
 11
5.15467
 21
-52.40002
 31
0.0
  0
ARC
  8
F08_IMG
  5
54BD
 10
3.45467
 20
-56.200001
 30
0.0
 40
1.0
 50
270.0
 51
0.0
  0
LINE
  8
F08_IMG
  5
54BE
 10
5.15467
 20
-51.40002
 30
0.0
 11
5.95467
 21
-50.60002
 31
0.0
  0
LINE
  8
F08_IMG
  5
54BF
 10
5.15467
 20
-46.600001
 30
0.0
 11
5.15467
 21
-49.750002
 31
0.0
  0
LINE
  8
F08_IMG
  5
54C0
 10
7.05467
 20
-46.600001
 30
0.0
 11
3.15575
 21
-46.600001
 31
0.0
  0
LINE
  8
F08_IMG
  5
54C1
 10
-13.44533
 20
57.200001
 30
0.0
 11
-14.945101
 21
57.200001
 31
0.0
  0
LINE
  8
F08_IMG
  5
54C2
 10
-21.64533
 20
50.000001
 30
0.0
 11
-14.0453
 21
50.000001
 31
0.0
  0
LINE
  8
F08_IMG
  5
54C3
 10
-22.24533
 20
55.800001
 30
0.0
 11
-13.44533
 21
55.800001
 31
0.0
  0
LINE
  8
F08_IMG
  5
54C4
 10
-17.545101
 20
50.000001
 30
0.0
 11
-17.545101
 21
56.150001
 31
0.0
  0
LINE
  8
F08_IMG
  5
54C5
 10
-15.945101
 20
50.000001
 30
0.0
 11
-15.945101
 21
56.150001
 31
0.0
  0
LINE
  8
F08_IMG
  5
54C6
 10
-42.345529
 20
50.000001
 30
0.0
 11
-42.345529
 21
56.150001
 31
0.0
  0
LINE
  8
F08_IMG
  5
54C7
 10
-40.745529
 20
50.000001
 30
0.0
 11
-40.745529
 21
56.150001
 31
0.0
  0
CIRCLE
  8
F08_IMG
  5
54C8
 10
-30.3453
 20
41.000001
 30
0.0
 40
2.0
  0
LINE
  8
F08_IMG
  5
54C9
 10
-36.3453
 20
38.800001
 30
0.0
 11
-24.3453
 21
38.800001
 31
0.0
  0
LINE
  8
F08_IMG
  5
54CA
 10
-24.34533
 20
35.500001
 30
0.0
 11
-36.3453
 21
35.500001
 31
0.0
  0
ARC
  8
F08_IMG
  5
54CB
 10
-30.3453
 20
41.000001
 30
0.0
 40
2.5
 50
336.421822
 51
203.578178
  0
LINE
  8
F08_IMG
  5
54CC
 10
-40.745529
 20
47.900001
 30
0.0
 11
-40.3453
 21
47.900001
 31
0.0
  0
LINE
  8
F08_IMG
  5
54CD
 10
-42.745758
 20
46.600001
 30
0.0
 11
-40.3453
 21
46.600001
 31
0.0
  0
LINE
  8
F08_IMG
  5
54CE
 10
-39.0453
 20
50.000001
 30
0.0
 11
-43.745315
 21
50.000001
 31
0.0
  0
LINE
  8
F08_IMG
  5
54CF
 10
-48.3453
 20
36.500001
 30
0.0
 11
-48.3453
 21
44.300001
 31
0.0
  0
CIRCLE
  8
F08_IMG
  5
54D0
 10
-45.645315
 20
47.500001
 30
0.0
 40
2.0
  0
LINE
  8
F08_IMG
  5
54D1
 10
-43.745315
 20
51.200001
 30
0.0
 11
-47.845315
 21
51.200001
 31
0.0
  0
LINE
  8
F08_IMG
  5
54D2
 10
-43.745315
 20
50.700001
 30
0.0
 11
-47.845315
 21
50.700001
 31
0.0
  0
LINE
  8
F08_IMG
  5
54D3
 10
-44.976679
 20
48.168637
 30
0.0
 11
-46.412977
 21
46.732339
 31
0.0
  0
LINE
  8
F08_IMG
  5
54D4
 10
-45.703894
 20
45.441422
 30
0.0
 11
-46.845315
 21
44.300001
 31
0.0
  0
ARC
  8
F08_IMG
  5
54D5
 10
-47.845315
 20
49.700001
 30
0.0
 40
1.0
 50
90.0
 51
180.0
  0
ARC
  8
F08_IMG
  5
54D6
 10
-48.645315
 20
44.500001
 30
0.0
 40
0.2
 50
180.0
 51
270.0
  0
LINE
  8
F08_IMG
  5
54D7
 10
-48.845315
 20
49.700001
 30
0.0
 11
-48.845315
 21
44.500001
 31
0.0
  0
LINE
  8
F08_IMG
  5
54D8
 10
-46.845315
 20
44.300001
 30
0.0
 11
-49.145315
 21
44.300001
 31
0.0
  0
LINE
  8
F08_IMG
  5
54D9
 10
-46.313952
 20
48.168637
 30
0.0
 11
-44.877653
 21
46.732339
 31
0.0
  0
LINE
  8
F08_IMG
  5
54DA
 10
-40.745529
 20
47.900001
 30
0.0
 11
-40.745529
 21
50.000001
 31
0.0
  0
ARC
  8
F08_IMG
  5
54DB
 10
-42.745758
 20
47.600001
 30
0.0
 40
0.3
 50
90.0
 51
180.0
  0
ARC
  8
F08_IMG
  5
54DC
 10
-42.745758
 20
46.900001
 30
0.0
 40
0.3
 50
180.0
 51
270.0
  0
LINE
  8
F08_IMG
  5
54DD
 10
-43.045758
 20
46.900001
 30
0.0
 11
-43.045758
 21
47.600001
 31
0.0
  0
LINE
  8
F08_IMG
  5
54DE
 10
-42.345529
 20
47.900001
 30
0.0
 11
-42.745758
 21
47.900001
 31
0.0
  0
LINE
  8
F08_IMG
  5
54DF
 10
-42.345529
 20
50.000001
 30
0.0
 11
-42.345529
 21
47.900001
 31
0.0
  0
LINE
  8
F08_IMG
  5
54E0
 10
-43.745315
 20
48.400001
 30
0.0
 11
-43.745315
 21
51.200001
 31
0.0
  0
LINE
  8
F08_IMG
  5
54E1
 10
-37.3453
 20
36.500001
 30
0.0
 11
-37.3453
 21
44.499895
 31
0.0
  0
LINE
  8
F08_IMG
  5
54E2
 10
-36.3453
 20
40.000001
 30
0.0
 11
-32.077351
 21
40.000001
 31
0.0
  0
ARC
  8
F08_IMG
  5
54E3
 10
-36.3453
 20
36.500001
 30
0.0
 40
1.0
 50
180.0
 51
270.0
  0
LINE
  8
F08_IMG
  5
54E4
 10
-36.3453
 20
40.000001
 30
0.0
 11
-37.3453
 21
41.000001
 31
0.0
  0
LINE
  8
F08_IMG
  5
54E5
 10
-37.3453
 20
37.800001
 30
0.0
 11
-36.3453
 21
38.800001
 31
0.0
  0
ARC
  8
F08_IMG
  5
54E6
 10
-39.0453
 20
49.500001
 30
0.0
 40
0.5
 50
0.0
 51
90.0
  0
LINE
  8
F08_IMG
  5
54E7
 10
-38.5453
 20
46.578356
 30
0.0
 11
-38.5453
 21
49.500001
 31
0.0
  0
LINE
  8
F08_IMG
  5
54E8
 10
-37.3453
 20
44.499895
 30
0.0
 11
-38.5453
 21
46.578356
 31
0.0
  0
ARC
  8
F08_IMG
  5
54E9
 10
-40.3453
 20
47.600001
 30
0.0
 40
0.3
 50
0.0
 51
90.0
  0
ARC
  8
F08_IMG
  5
54EA
 10
-40.3453
 20
46.900001
 30
0.0
 40
0.3
 50
270.0
 51
0.0
  0
LINE
  8
F08_IMG
  5
54EB
 10
-40.0453
 20
46.900001
 30
0.0
 11
-40.0453
 21
47.600001
 31
0.0
  0
LINE
  8
F08_IMG
  5
54EC
 10
-33.04533
 20
46.900001
 30
0.0
 11
-33.04533
 21
50.600001
 31
0.0
  0
LINE
  8
F08_IMG
  5
54ED
 10
-34.84533
 20
46.900001
 30
0.0
 11
-34.84533
 21
50.600001
 31
0.0
  0
ARC
  8
F08_IMG
  5
54EE
 10
-33.94533
 20
50.600001
 30
0.0
 40
0.9
 50
0.0
 51
180.0
  0
ARC
  8
F08_IMG
  5
54EF
 10
-33.94533
 20
46.900001
 30
0.0
 40
0.9
 50
180.0
 51
0.0
  0
LINE
  8
F08_IMG
  5
54F0
 10
-23.34533
 20
44.499895
 30
0.0
 11
-22.14533
 21
46.578356
 31
0.0
  0
LINE
  8
F08_IMG
  5
54F1
 10
-23.34533
 20
36.500001
 30
0.0
 11
-23.34533
 21
44.499895
 31
0.0
  0
LINE
  8
F08_IMG
  5
54F2
 10
-28.613249
 20
40.000001
 30
0.0
 11
-24.3453
 21
40.000001
 31
0.0
  0
ARC
  8
F08_IMG
  5
54F3
 10
-24.34533
 20
36.500001
 30
0.0
 40
1.0
 50
270.0
 51
0.0
  0
LINE
  8
F08_IMG
  5
54F4
 10
-24.3453
 20
40.000001
 30
0.0
 11
-23.3453
 21
41.000001
 31
0.0
  0
LINE
  8
F08_IMG
  5
54F5
 10
-24.3453
 20
38.800001
 30
0.0
 11
-23.3453
 21
37.800001
 31
0.0
  0
ARC
  8
F08_IMG
  5
54F6
 10
-26.74533
 20
50.600001
 30
0.0
 40
0.9
 50
0.0
 51
180.0
  0
ARC
  8
F08_IMG
  5
54F7
 10
-26.74533
 20
46.900001
 30
0.0
 40
0.9
 50
180.0
 51
0.0
  0
LINE
  8
F08_IMG
  5
54F8
 10
-29.44533
 20
46.900001
 30
0.0
 11
-29.44533
 21
50.600001
 31
0.0
  0
LINE
  8
F08_IMG
  5
54F9
 10
-27.64533
 20
46.900001
 30
0.0
 11
-27.64533
 21
50.600001
 31
0.0
  0
LINE
  8
F08_IMG
  5
54FA
 10
-31.24533
 20
46.900001
 30
0.0
 11
-31.24533
 21
50.600001
 31
0.0
  0
ARC
  8
F08_IMG
  5
54FB
 10
-30.34533
 20
46.900001
 30
0.0
 40
0.9
 50
180.0
 51
0.0
  0
ARC
  8
F08_IMG
  5
54FC
 10
-30.34533
 20
50.600001
 30
0.0
 40
0.9
 50
0.0
 51
180.0
  0
LINE
  8
F08_IMG
  5
54FD
 10
-25.84533
 20
46.900001
 30
0.0
 11
-25.84533
 21
50.600001
 31
0.0
  0
LINE
  8
F08_IMG
  5
54FE
 10
-22.14533
 20
46.578356
 30
0.0
 11
-22.14533
 21
49.500001
 31
0.0
  0
ARC
  8
F08_IMG
  5
54FF
 10
-21.64533
 20
49.500001
 30
0.0
 40
0.5
 50
90.0
 51
180.0
  0
ARC
  8
F08_IMG
  5
5500
 10
-15.544873
 20
47.600001
 30
0.0
 40
0.3
 50
0.0
 51
90.0
  0
ARC
  8
F08_IMG
  5
5501
 10
-15.544873
 20
46.900001
 30
0.0
 40
0.3
 50
270.0
 51
0.0
  0
LINE
  8
F08_IMG
  5
5502
 10
-15.244873
 20
46.900001
 30
0.0
 11
-15.244873
 21
47.600001
 31
0.0
  0
ARC
  8
F08_IMG
  5
5503
 10
-17.94533
 20
46.900001
 30
0.0
 40
0.3
 50
180.0
 51
270.0
  0
ARC
  8
F08_IMG
  5
5504
 10
-17.94533
 20
47.600001
 30
0.0
 40
0.3
 50
90.0
 51
180.0
  0
LINE
  8
F08_IMG
  5
5505
 10
-15.945101
 20
47.900001
 30
0.0
 11
-15.945101
 21
50.000001
 31
0.0
  0
LINE
  8
F08_IMG
  5
5506
 10
-17.545101
 20
47.900001
 30
0.0
 11
-17.545101
 21
50.000001
 31
0.0
  0
LINE
  8
F08_IMG
  5
5507
 10
-18.24533
 20
46.900001
 30
0.0
 11
-18.24533
 21
47.600001
 31
0.0
  0
LINE
  8
F08_IMG
  5
5508
 10
-17.545101
 20
47.900001
 30
0.0
 11
-17.94533
 21
47.900001
 31
0.0
  0
LINE
  8
F08_IMG
  5
5509
 10
-15.945101
 20
47.900001
 30
0.0
 11
-15.544873
 21
47.900001
 31
0.0
  0
LINE
  8
F08_IMG
  5
550A
 10
-15.544873
 20
46.600001
 30
0.0
 11
-17.94533
 21
46.600001
 31
0.0
  0
LINE
  8
F08_IMG
  5
550B
 10
-31.24533
 20
57.200001
 30
0.0
 11
-33.04533
 21
57.200001
 31
0.0
  0
LINE
  8
F08_IMG
  5
550C
 10
-31.2453
 20
55.800001
 30
0.0
 11
-33.0453
 21
55.800001
 31
0.0
  0
ARC
  8
F08_IMG
  5
550D
 10
-39.745529
 20
56.150001
 30
0.0
 40
1.0
 50
90.0
 51
180.0
  0
LINE
  8
F08_IMG
  5
550E
 10
-38.4453
 20
55.800001
 30
0.0
 11
-47.2453
 21
55.800001
 31
0.0
  0
LINE
  8
F08_IMG
  5
550F
 10
-43.345529
 20
57.200001
 30
0.0
 11
-47.24533
 21
57.200001
 31
0.0
  0
LINE
  8
F08_IMG
  5
5510
 10
-47.24533
 20
54.700001
 30
0.0
 11
-47.24533
 21
59.800001
 31
0.0
  0
LINE
  8
F08_IMG
  5
5511
 10
-49.04533
 20
54.700001
 30
0.0
 11
-49.04533
 21
59.800001
 31
0.0
  0
ARC
  8
F08_IMG
  5
5512
 10
-48.14533
 20
54.700001
 30
0.0
 40
0.9
 50
180.0
 51
0.0
  0
LINE
  8
F08_IMG
  5
5513
 10
-47.24533
 20
57.200001
 30
0.0
 11
-49.04533
 21
57.200001
 31
0.0
  0
ARC
  8
F08_IMG
  5
5514
 10
-43.345529
 20
56.150001
 30
0.0
 40
1.0
 50
0.0
 51
90.0
  0
LINE
  8
F08_IMG
  5
5515
 10
-34.84533
 20
57.200001
 30
0.0
 11
-36.64533
 21
57.200001
 31
0.0
  0
LINE
  8
F08_IMG
  5
5516
 10
-34.8453
 20
55.800001
 30
0.0
 11
-36.6453
 21
55.800001
 31
0.0
  0
ARC
  8
F08_IMG
  5
5517
 10
-37.54533
 20
54.700001
 30
0.0
 40
0.9
 50
180.0
 51
0.0
  0
LINE
  8
F08_IMG
  5
5518
 10
-38.44533
 20
54.700001
 30
0.0
 11
-38.44533
 21
59.800001
 31
0.0
  0
LINE
  8
F08_IMG
  5
5519
 10
-36.64533
 20
54.700001
 30
0.0
 11
-36.64533
 21
59.800001
 31
0.0
  0
LINE
  8
F08_IMG
  5
551A
 10
-36.64533
 20
57.200001
 30
0.0
 11
-38.44533
 21
57.200001
 31
0.0
  0
LINE
  8
F08_IMG
  5
551B
 10
-38.44533
 20
57.200001
 30
0.0
 11
-39.745529
 21
57.200001
 31
0.0
  0
LINE
  8
F08_IMG
  5
551C
 10
-33.04533
 20
54.700001
 30
0.0
 11
-33.04533
 21
59.800001
 31
0.0
  0
LINE
  8
F08_IMG
  5
551D
 10
-34.84533
 20
54.700001
 30
0.0
 11
-34.84533
 21
59.800001
 31
0.0
  0
ARC
  8
F08_IMG
  5
551E
 10
-33.94533
 20
54.700001
 30
0.0
 40
0.9
 50
180.0
 51
0.0
  0
LINE
  8
F08_IMG
  5
551F
 10
-33.04533
 20
57.200001
 30
0.0
 11
-34.84533
 21
57.200001
 31
0.0
  0
ARC
  8
F08_IMG
  5
5520
 10
-23.14533
 20
54.700001
 30
0.0
 40
0.9
 50
180.0
 51
0.0
  0
LINE
  8
F08_IMG
  5
5521
 10
-22.24533
 20
57.200001
 30
0.0
 11
-24.04533
 21
57.200001
 31
0.0
  0
ARC
  8
F08_IMG
  5
5522
 10
-26.74533
 20
54.700001
 30
0.0
 40
0.9
 50
180.0
 51
0.0
  0
LINE
  8
F08_IMG
  5
5523
 10
-25.84533
 20
57.200001
 30
0.0
 11
-27.64533
 21
57.200001
 31
0.0
  0
LINE
  8
F08_IMG
  5
5524
 10
-27.64533
 20
57.200001
 30
0.0
 11
-29.44533
 21
57.200001
 31
0.0
  0
LINE
  8
F08_IMG
  5
5525
 10
-27.64533
 20
54.700001
 30
0.0
 11
-27.64533
 21
59.800001
 31
0.0
  0
LINE
  8
F08_IMG
  5
5526
 10
-29.44533
 20
54.700001
 30
0.0
 11
-29.44533
 21
59.800001
 31
0.0
  0
LINE
  8
F08_IMG
  5
5527
 10
-29.44533
 20
55.800001
 30
0.0
 11
-27.64533
 21
55.800001
 31
0.0
  0
LINE
  8
F08_IMG
  5
5528
 10
-31.24533
 20
54.700001
 30
0.0
 11
-31.24533
 21
59.800001
 31
0.0
  0
ARC
  8
F08_IMG
  5
5529
 10
-30.34533
 20
54.700001
 30
0.0
 40
0.9
 50
180.0
 51
0.0
  0
LINE
  8
F08_IMG
  5
552A
 10
-29.44533
 20
57.200001
 30
0.0
 11
-31.24533
 21
57.200001
 31
0.0
  0
LINE
  8
F08_IMG
  5
552B
 10
-24.04533
 20
54.700001
 30
0.0
 11
-24.04533
 21
59.800001
 31
0.0
  0
LINE
  8
F08_IMG
  5
552C
 10
-25.84533
 20
54.700001
 30
0.0
 11
-25.84533
 21
59.800001
 31
0.0
  0
LINE
  8
F08_IMG
  5
552D
 10
-24.04533
 20
57.200001
 30
0.0
 11
-25.84533
 21
57.200001
 31
0.0
  0
LINE
  8
F08_IMG
  5
552E
 10
-25.84533
 20
55.800001
 30
0.0
 11
-24.04533
 21
55.800001
 31
0.0
  0
LINE
  8
F08_IMG
  5
552F
 10
-18.545101
 20
57.200001
 30
0.0
 11
-22.24533
 21
57.200001
 31
0.0
  0
LINE
  8
F08_IMG
  5
5530
 10
-22.24533
 20
54.700001
 30
0.0
 11
-22.24533
 21
59.800001
 31
0.0
  0
ARC
  8
F08_IMG
  5
5531
 10
-18.545101
 20
56.150001
 30
0.0
 40
1.0
 50
0.0
 51
90.0
  0
ARC
  8
F08_IMG
  5
5532
 10
-14.945101
 20
56.150001
 30
0.0
 40
1.0
 50
90.0
 51
180.0
  0
LINE
  8
F08_IMG
  5
5533
 10
5.15467
 20
51.400019
 30
0.0
 11
5.15467
 21
52.400019
 31
0.0
  0
LINE
  8
F08_IMG
  5
5534
 10
7.05467
 20
57.750001
 30
0.0
 11
7.05467
 21
46.600001
 31
0.0
  0
ARC
  8
F08_IMG
  5
5535
 10
3.155811
 20
46.100001
 30
0.0
 40
0.5
 50
90.0
 51
150.0
  0
LINE
  8
F08_IMG
  5
5536
 10
5.15467
 20
51.400019
 30
0.0
 11
1.65467
 21
51.400019
 31
0.0
  0
LINE
  8
F08_IMG
  5
5537
 10
5.95467
 20
47.900001
 30
0.0
 11
1.65467
 21
47.900001
 31
0.0
  0
ARC
  8
F08_IMG
  5
5538
 10
-5.34533
 20
46.900001
 30
0.0
 40
0.9
 50
180.0
 51
270.0
  0
ARC
  8
F08_IMG
  5
5539
 10
-5.34533
 20
50.600001
 30
0.0
 40
0.9
 50
90.0
 51
180.0
  0
CIRCLE
  8
F08_IMG
  5
553A
 10
-5.34533
 20
41.000001
 30
0.0
 40
2.0
  0
LINE
  8
F08_IMG
  5
553B
 10
-11.34533
 20
35.500001
 30
0.0
 11
0.65467
 21
35.500001
 31
0.0
  0
LINE
  8
F08_IMG
  5
553C
 10
-11.34533
 20
38.800001
 30
0.0
 11
0.65467
 21
38.800001
 31
0.0
  0
ARC
  8
F08_IMG
  5
553D
 10
-5.34533
 20
41.000001
 30
0.0
 40
2.5
 50
336.421822
 51
203.578178
  0
LINE
  8
F08_IMG
  5
553E
 10
-12.34533
 20
36.500001
 30
0.0
 11
-12.34533
 21
44.500001
 31
0.0
  0
LINE
  8
F08_IMG
  5
553F
 10
-11.34533
 20
40.000001
 30
0.0
 11
-7.077381
 21
40.000001
 31
0.0
  0
ARC
  8
F08_IMG
  5
5540
 10
-11.34533
 20
36.500001
 30
0.0
 40
1.0
 50
180.0
 51
270.0
  0
LINE
  8
F08_IMG
  5
5541
 10
-11.34533
 20
40.000001
 30
0.0
 11
-12.34533
 21
41.000001
 31
0.0
  0
LINE
  8
F08_IMG
  5
5542
 10
-12.34533
 20
37.800001
 30
0.0
 11
-11.34533
 21
38.800001
 31
0.0
  0
ARC
  8
F08_IMG
  5
5543
 10
-14.0453
 20
49.500001
 30
0.0
 40
0.5
 50
0.0
 51
90.0
  0
LINE
  8
F08_IMG
  5
5544
 10
-13.5453
 20
46.578409
 30
0.0
 11
-13.5453
 21
49.500001
 31
0.0
  0
LINE
  8
F08_IMG
  5
5545
 10
-12.3453
 20
44.499948
 30
0.0
 11
-13.5453
 21
46.578409
 31
0.0
  0
LINE
  8
F08_IMG
  5
5546
 10
-6.24533
 20
46.900001
 30
0.0
 11
-6.24533
 21
50.600001
 31
0.0
  0
ARC
  8
F08_IMG
  5
5547
 10
-8.94533
 20
50.600001
 30
0.0
 40
0.9
 50
0.0
 51
180.0
  0
ARC
  8
F08_IMG
  5
5548
 10
-8.94533
 20
46.900001
 30
0.0
 40
0.9
 50
180.0
 51
0.0
  0
LINE
  8
F08_IMG
  5
5549
 10
-8.04533
 20
46.900001
 30
0.0
 11
-8.04533
 21
50.600001
 31
0.0
  0
LINE
  8
F08_IMG
  5
554A
 10
-9.84533
 20
46.900001
 30
0.0
 11
-9.84533
 21
50.600001
 31
0.0
  0
LINE
  8
F08_IMG
  5
554B
 10
1.65467
 20
36.500001
 30
0.0
 11
1.65467
 21
44.499948
 31
0.0
  0
LINE
  8
F08_IMG
  5
554C
 10
-3.61328
 20
40.000001
 30
0.0
 11
0.65467
 21
40.000001
 31
0.0
  0
ARC
  8
F08_IMG
  5
554D
 10
0.65467
 20
36.500001
 30
0.0
 40
1.0
 50
270.0
 51
0.0
  0
LINE
  8
F08_IMG
  5
554E
 10
0.65467
 20
40.000001
 30
0.0
 11
1.65467
 21
41.000001
 31
0.0
  0
LINE
  8
F08_IMG
  5
554F
 10
0.65467
 20
38.800001
 30
0.0
 11
1.65467
 21
37.800001
 31
0.0
  0
ARC
  8
F08_IMG
  5
5550
 10
-1.74533
 20
50.600001
 30
0.0
 40
0.9
 50
0.0
 51
90.0
  0
ARC
  8
F08_IMG
  5
5551
 10
-1.74533
 20
46.900001
 30
0.0
 40
0.9
 50
270.0
 51
0.0
  0
ARC
  8
F08_IMG
  5
5552
 10
-1.74533
 20
46.900001
 30
0.0
 40
0.9
 50
180.0
 51
270.0
  0
ARC
  8
F08_IMG
  5
5553
 10
-1.74533
 20
50.600001
 30
0.0
 40
0.9
 50
90.0
 51
180.0
  0
LINE
  8
F08_IMG
  5
5554
 10
-2.64533
 20
46.900001
 30
0.0
 11
-2.64533
 21
50.600001
 31
0.0
  0
LINE
  8
F08_IMG
  5
5555
 10
-4.44533
 20
46.900001
 30
0.0
 11
-4.44533
 21
50.600001
 31
0.0
  0
ARC
  8
F08_IMG
  5
5556
 10
-5.34533
 20
50.600001
 30
0.0
 40
0.9
 50
0.0
 51
90.0
  0
ARC
  8
F08_IMG
  5
5557
 10
-5.34533
 20
46.900001
 30
0.0
 40
0.9
 50
270.0
 51
0.0
  0
LINE
  8
F08_IMG
  5
5558
 10
1.65467
 20
47.900001
 30
0.0
 11
1.65467
 21
51.400019
 31
0.0
  0
LINE
  8
F08_IMG
  5
5559
 10
2.722798
 20
46.350001
 30
0.0
 11
1.65467
 21
44.499948
 31
0.0
  0
LINE
  8
F08_IMG
  5
555A
 10
-0.84533
 20
46.900001
 30
0.0
 11
-0.84533
 21
50.600001
 31
0.0
  0
LINE
  8
F08_IMG
  5
555B
 10
5.15467
 20
46.600001
 30
0.0
 11
5.15467
 21
49.750001
 31
0.0
  0
LINE
  8
F08_IMG
  5
555C
 10
5.15467
 20
49.750001
 30
0.0
 11
5.15467
 21
51.400019
 31
0.0
  0
LINE
  8
F08_IMG
  5
555D
 10
5.95467
 20
50.600019
 30
0.0
 11
5.95467
 21
47.900001
 31
0.0
  0
LINE
  8
F08_IMG
  5
555E
 10
5.15467
 20
51.400019
 30
0.0
 11
5.95467
 21
50.600019
 31
0.0
  0
LINE
  8
F08_IMG
  5
555F
 10
7.05467
 20
46.600001
 30
0.0
 11
3.155811
 21
46.600001
 31
0.0
  0
LINE
  8
F08_IMG
  5
5560
 10
3.45467
 20
57.200001
 30
0.0
 11
2.75467
 21
57.200001
 31
0.0
  0
LINE
  8
F08_IMG
  5
5561
 10
2.75467
 20
55.800001
 30
0.0
 11
7.05467
 21
55.800001
 31
0.0
  0
ARC
  8
F08_IMG
  5
5562
 10
-5.34533
 20
54.700001
 30
0.0
 40
0.9
 50
180.0
 51
270.0
  0
LINE
  8
F08_IMG
  5
5563
 10
-4.44533
 20
57.200001
 30
0.0
 11
-6.24533
 21
57.200001
 31
0.0
  0
LINE
  8
F08_IMG
  5
5564
 10
-9.84533
 20
57.200001
 30
0.0
 11
-11.64533
 21
57.200001
 31
0.0
  0
LINE
  8
F08_IMG
  5
5565
 10
-11.64533
 20
55.800001
 30
0.0
 11
-9.84533
 21
55.800001
 31
0.0
  0
LINE
  8
F08_IMG
  5
5566
 10
-11.64533
 20
54.700001
 30
0.0
 11
-11.64533
 21
59.800001
 31
0.0
  0
LINE
  8
F08_IMG
  5
5567
 10
-13.44533
 20
54.700001
 30
0.0
 11
-13.44533
 21
59.800001
 31
0.0
  0
ARC
  8
F08_IMG
  5
5568
 10
-12.54533
 20
54.700001
 30
0.0
 40
0.9
 50
180.0
 51
0.0
  0
LINE
  8
F08_IMG
  5
5569
 10
-11.64533
 20
57.200001
 30
0.0
 11
-13.44533
 21
57.200001
 31
0.0
  0
LINE
  8
F08_IMG
  5
556A
 10
-6.24533
 20
54.700001
 30
0.0
 11
-6.24533
 21
59.800001
 31
0.0
  0
ARC
  8
F08_IMG
  5
556B
 10
-8.94533
 20
54.700001
 30
0.0
 40
0.9
 50
180.0
 51
0.0
  0
LINE
  8
F08_IMG
  5
556C
 10
-8.04533
 20
54.700001
 30
0.0
 11
-8.04533
 21
59.800001
 31
0.0
  0
LINE
  8
F08_IMG
  5
556D
 10
-9.84533
 20
54.700001
 30
0.0
 11
-9.84533
 21
59.800001
 31
0.0
  0
LINE
  8
F08_IMG
  5
556E
 10
-8.04533
 20
57.200001
 30
0.0
 11
-9.84533
 21
57.200001
 31
0.0
  0
LINE
  8
F08_IMG
  5
556F
 10
-6.24533
 20
57.200001
 30
0.0
 11
-8.04533
 21
57.200001
 31
0.0
  0
LINE
  8
F08_IMG
  5
5570
 10
-8.04533
 20
55.800001
 30
0.0
 11
-6.24533
 21
55.800001
 31
0.0
  0
ARC
  8
F08_IMG
  5
5571
 10
-1.74533
 20
54.700001
 30
0.0
 40
0.9
 50
180.0
 51
0.0
  0
LINE
  8
F08_IMG
  5
5572
 10
-0.84533
 20
57.200001
 30
0.0
 11
-2.64533
 21
57.200001
 31
0.0
  0
LINE
  8
F08_IMG
  5
5573
 10
-2.64533
 20
54.700001
 30
0.0
 11
-2.64533
 21
59.800001
 31
0.0
  0
LINE
  8
F08_IMG
  5
5574
 10
-4.44533
 20
54.700001
 30
0.0
 11
-4.44533
 21
59.800001
 31
0.0
  0
ARC
  8
F08_IMG
  5
5575
 10
-5.34533
 20
54.700001
 30
0.0
 40
0.9
 50
270.0
 51
0.0
  0
LINE
  8
F08_IMG
  5
5576
 10
-2.64533
 20
57.200001
 30
0.0
 11
-4.44533
 21
57.200001
 31
0.0
  0
LINE
  8
F08_IMG
  5
5577
 10
-4.44533
 20
55.800001
 30
0.0
 11
-2.64533
 21
55.800001
 31
0.0
  0
LINE
  8
F08_IMG
  5
5578
 10
2.75467
 20
54.700001
 30
0.0
 11
2.75467
 21
59.800001
 31
0.0
  0
LINE
  8
F08_IMG
  5
5579
 10
0.95467
 20
57.200001
 30
0.0
 11
-0.84533
 21
57.200001
 31
0.0
  0
LINE
  8
F08_IMG
  5
557A
 10
-0.84533
 20
54.700001
 30
0.0
 11
-0.84533
 21
59.800001
 31
0.0
  0
LINE
  8
F08_IMG
  5
557B
 10
-0.84533
 20
55.800001
 30
0.0
 11
0.95467
 21
55.800001
 31
0.0
  0
LINE
  8
F08_IMG
  5
557C
 10
0.95467
 20
54.700001
 30
0.0
 11
0.95467
 21
59.800001
 31
0.0
  0
ARC
  8
F08_IMG
  5
557D
 10
1.85467
 20
54.700001
 30
0.0
 40
0.9
 50
180.0
 51
0.0
  0
LINE
  8
F08_IMG
  5
557E
 10
2.75467
 20
57.200001
 30
0.0
 11
0.95467
 21
57.200001
 31
0.0
  0
ARC
  8
F08_IMG
  5
557F
 10
5.05467
 20
57.800001
 30
0.0
 40
2.0
 50
0.0
 51
90.0
  0
LINE
  8
F08_IMG
  5
5580
 10
4.45467
 20
53.100019
 30
0.0
 11
5.15467
 21
52.400019
 31
0.0
  0
LINE
  8
F08_IMG
  5
5581
 10
4.45467
 20
53.100019
 30
0.0
 11
4.45467
 21
56.200001
 31
0.0
  0
ARC
  8
F08_IMG
  5
5582
 10
3.45467
 20
56.200001
 30
0.0
 40
1.0
 50
0.0
 51
90.0
  0
LINE
  8
F08_IMG
  5
5583
 10
173.634383
 20
-57.200001
 30
0.0
 11
127.711338
 21
-57.200001
 31
0.0
  0
LINE
  8
F08_IMG
  5
5584
 10
173.634383
 20
-59.800001
 30
0.0
 11
126.634383
 21
-59.800001
 31
0.0
  0
LINE
  8
F08_IMG
  5
5585
 10
166.134863
 20
-46.600001
 30
0.0
 11
122.634383
 21
-46.600001
 31
0.0
  0
LINE
  8
F08_IMG
  5
5586
 10
125.134383
 20
-49.749941
 30
0.0
 11
125.134383
 21
-54.623046
 31
0.0
  0
LINE
  8
F08_IMG
  5
5587
 10
121.134383
 20
-44.300001
 30
0.0
 11
121.134383
 21
-50.700001
 31
0.0
  0
LINE
  8
F08_IMG
  5
5588
 10
122.634383
 20
-40.000001
 30
0.0
 11
122.634383
 21
-55.800001
 31
0.0
  0
LINE
  8
F08_IMG
  5
5589
 10
122.634383
 20
-55.800001
 30
0.0
 11
126.634383
 21
-59.800001
 31
0.0
  0
LINE
  8
F08_IMG
  5
558A
 10
121.134383
 20
-50.700001
 30
0.0
 11
122.634383
 21
-51.200001
 31
0.0
  0
LINE
  8
F08_IMG
  5
558B
 10
125.134383
 20
-54.623046
 30
0.0
 11
127.711338
 21
-57.200001
 31
0.0
  0
LINE
  8
F08_IMG
  5
558C
 10
122.634383
 20
-38.800001
 30
0.0
 11
123.134383
 21
-38.800001
 31
0.0
  0
LINE
  8
F08_IMG
  5
558D
 10
122.634383
 20
-40.000001
 30
0.0
 11
123.134383
 21
-40.000001
 31
0.0
  0
LINE
  8
F08_IMG
  5
558F
 10
121.134383
 20
-45.500001
 30
0.0
 11
120.034383
 21
-45.500001
 31
0.0
  0
LINE
  8
F08_IMG
  5
5590
 10
121.134383
 20
-49.500001
 30
0.0
 11
120.034383
 21
-49.500001
 31
0.0
  0
LINE
  8
F08_IMG
  5
5591
 10
121.134383
 20
-45.441423
 30
0.0
 11
122.634383
 21
-45.441423
 31
0.0
  0
LINE
  8
F08_IMG
  5
5592
 10
121.134383
 20
-44.300001
 30
0.0
 11
122.634383
 21
-44.300001
 31
0.0
  0
LINE
  8
F08_IMG
  5
5593
 10
119.034383
 20
-48.500001
 30
0.0
 11
119.034383
 21
-46.500001
 31
0.0
  0
ARC
  8
F08_IMG
  5
5594
 10
120.034383
 20
-46.500001
 30
0.0
 40
1.0
 50
90.0
 51
180.0
  0
ARC
  8
F08_IMG
  5
5595
 10
120.034383
 20
-48.500001
 30
0.0
 40
1.0
 50
180.0
 51
270.0
  0
LINE
  8
F08_IMG
  5
5596
 10
122.634383
 20
-35.500001
 30
0.0
 11
122.634383
 21
-38.800001
 31
0.0
  0
LINE
  8
F08_IMG
  5
5597
 10
125.134383
 20
-46.600001
 30
0.0
 11
125.134383
 21
-40.000001
 31
0.0
  0
LINE
  8
F08_IMG
  5
5598
 10
125.134383
 20
-49.749941
 30
0.0
 11
125.134383
 21
-46.600001
 31
0.0
  0
LINE
  8
F08_IMG
  5
5599
 10
124.334383
 20
-38.800001
 30
0.0
 11
125.134383
 21
-38.800001
 31
0.0
  0
LINE
  8
F08_IMG
  5
559A
 10
124.334383
 20
-40.000001
 30
0.0
 11
124.334383
 21
-38.800001
 31
0.0
  0
LINE
  8
F08_IMG
  5
559B
 10
123.134383
 20
-40.000001
 30
0.0
 11
123.134383
 21
-38.800001
 31
0.0
  0
LINE
  8
F08_IMG
  5
559C
 10
124.334383
 20
-40.000001
 30
0.0
 11
125.134383
 21
-40.000001
 31
0.0
  0
LINE
  8
F08_IMG
  5
559D
 10
166.134863
 20
-46.600001
 30
0.0
 11
167.134863
 21
-47.600001
 31
0.0
  0
LINE
  8
F08_IMG
  5
559E
 10
173.634383
 20
-59.800001
 30
0.0
 11
173.634383
 21
-49.600001
 31
0.0
  0
LINE
  8
F08_IMG
  5
559F
 10
171.634383
 20
-47.600001
 30
0.0
 11
167.134863
 21
-47.600001
 31
0.0
  0
ARC
  8
F08_IMG
  5
55A0
 10
171.634383
 20
-49.600001
 30
0.0
 40
2.0
 50
0.0
 51
90.0
  0
LINE
  8
F08_IMG
  5
55A1
 10
173.634383
 20
57.200001
 30
0.0
 11
127.711338
 21
57.200001
 31
0.0
  0
LINE
  8
F08_IMG
  5
55A2
 10
166.134863
 20
46.600001
 30
0.0
 11
122.634383
 21
46.600001
 31
0.0
  0
LINE
  8
F08_IMG
  5
55A3
 10
173.634383
 20
59.800001
 30
0.0
 11
126.634383
 21
59.800001
 31
0.0
  0
LINE
  8
F08_IMG
  5
55A4
 10
125.134383
 20
49.750062
 30
0.0
 11
125.134383
 21
54.623045
 31
0.0
  0
LINE
  8
F08_IMG
  5
55A5
 10
122.634383
 20
40.000001
 30
0.0
 11
122.634383
 21
55.800001
 31
0.0
  0
LINE
  8
F08_IMG
  5
55A6
 10
122.634383
 20
40.000001
 30
0.0
 11
123.134383
 21
40.000001
 31
0.0
  0
LINE
  8
F08_IMG
  5
55A7
 10
122.634383
 20
38.800001
 30
0.0
 11
123.134383
 21
38.800001
 31
0.0
  0
LINE
  8
F08_IMG
  5
55A9
 10
122.634383
 20
35.500001
 30
0.0
 11
122.634383
 21
38.800001
 31
0.0
  0
LINE
  8
F08_IMG
  5
55AA
 10
121.134383
 20
49.500001
 30
0.0
 11
120.034383
 21
49.500001
 31
0.0
  0
LINE
  8
F08_IMG
  5
55AB
 10
121.134383
 20
45.500001
 30
0.0
 11
120.034383
 21
45.500001
 31
0.0
  0
LINE
  8
F08_IMG
  5
55AC
 10
121.134383
 20
44.300001
 30
0.0
 11
121.134383
 21
50.700001
 31
0.0
  0
LINE
  8
F08_IMG
  5
55AD
 10
121.134383
 20
50.700001
 30
0.0
 11
122.634383
 21
51.200001
 31
0.0
  0
LINE
  8
F08_IMG
  5
55AE
 10
121.134383
 20
44.300001
 30
0.0
 11
122.634383
 21
44.300001
 31
0.0
  0
LINE
  8
F08_IMG
  5
55AF
 10
121.134383
 20
45.441422
 30
0.0
 11
122.634383
 21
45.441422
 31
0.0
  0
LINE
  8
F08_IMG
  5
55B0
 10
119.034383
 20
48.500001
 30
0.0
 11
119.034383
 21
46.500001
 31
0.0
  0
ARC
  8
F08_IMG
  5
55B1
 10
120.034383
 20
48.500001
 30
0.0
 40
1.0
 50
90.0
 51
180.0
  0
ARC
  8
F08_IMG
  5
55B2
 10
120.034383
 20
46.500001
 30
0.0
 40
1.0
 50
180.0
 51
270.0
  0
LINE
  8
F08_IMG
  5
55B3
 10
125.134383
 20
46.600001
 30
0.0
 11
125.134383
 21
40.000001
 31
0.0
  0
LINE
  8
F08_IMG
  5
55B4
 10
124.334383
 20
40.000001
 30
0.0
 11
125.134383
 21
40.000001
 31
0.0
  0
LINE
  8
F08_IMG
  5
55B5
 10
123.134383
 20
40.000001
 30
0.0
 11
123.134383
 21
38.800001
 31
0.0
  0
LINE
  8
F08_IMG
  5
55B6
 10
124.334383
 20
40.000001
 30
0.0
 11
124.334383
 21
38.800001
 31
0.0
  0
LINE
  8
F08_IMG
  5
55B7
 10
124.334383
 20
38.800001
 30
0.0
 11
125.134383
 21
38.800001
 31
0.0
  0
LINE
  8
F08_IMG
  5
55B8
 10
125.134383
 20
49.750062
 30
0.0
 11
125.134383
 21
46.600001
 31
0.0
  0
LINE
  8
F08_IMG
  5
55B9
 10
122.634383
 20
55.800001
 30
0.0
 11
126.634383
 21
59.800001
 31
0.0
  0
LINE
  8
F08_IMG
  5
55BA
 10
125.134383
 20
54.623045
 30
0.0
 11
127.711338
 21
57.200001
 31
0.0
  0
LINE
  8
F08_IMG
  5
55BB
 10
173.634383
 20
59.800001
 30
0.0
 11
173.634383
 21
49.600001
 31
0.0
  0
LINE
  8
F08_IMG
  5
55BC
 10
166.134863
 20
46.600001
 30
0.0
 11
167.134863
 21
47.600001
 31
0.0
  0
LINE
  8
F08_IMG
  5
55BD
 10
171.634383
 20
47.600001
 30
0.0
 11
167.134863
 21
47.600001
 31
0.0
  0
ARC
  8
F08_IMG
  5
55BE
 10
171.634383
 20
49.600001
 30
0.0
 40
2.0
 50
270.0
 51
0.0
  0
LINE
  8
F08_IMG
  5
55BF
 10
125.134383
 20
38.800001
 30
0.0
 11
125.134383
 21
35.500001
 31
0.0
  0
LINE
  8
F08_IMG
  5
55C0
 10
125.134383
 20
-38.800001
 30
0.0
 11
125.134383
 21
-35.500001
 31
0.0
  0
LINE
  8
F08_IMG
  5
55C3
 10
122.634383
 20
35.500001
 30
0.0
 11
125.134383
 21
35.500001
 31
0.0
  0
LINE
  8
F08_IMG
  5
55C4
 10
122.634383
 20
-35.500001
 30
0.0
 11
125.134383
 21
-35.500001
 31
0.0
  0
DIMENSION
  8
F02_DIM
  5
55F5
  2
*D26
 10
-104.191211
 20
59.800001
 30
0.0
 11
-107.191211
 21
67.800001
 31
0.0
 12
-19.075584
 22
0.0
 32
0.0
 13
-66.223816
 23
50.0
 33
0.0
 14
-65.7453
 24
59.800001
 34
0.0
 50
90.0
  3
FSTD1
  0
DIMENSION
  8
F02_DIM
  5
5603
  2
*D27
 10
-104.191211
 20
-59.800001
 30
0.0
 11
-107.191211
 21
-67.800001
 31
0.0
 12
-19.075584
 22
0.0
 32
0.0
 13
-66.223816
 23
-50.0
 33
0.0
 14
-65.745299
 24
-59.800001
 34
0.0
 50
90.0
  3
FSTD1
  0
TEXT
  8
F05_PRO
  5
5B40
 10
349.830489
 20
-153.19322
 30
0.0
 40
5.0
  1
Busbar cutting
  0
DIMENSION
  8
F02_DIM
  5
5B41
  2
*D28
 10
358.259
 20
-115.484614
 30
0.0
 11
355.259
 21
-102.15128
 31
0.0
 12
556.364326
 22
0.0
 32
0.0
  1
Max.<>
 13
364.853018
 23
-130.484614
 33
0.0
 14
364.853018
 24
-115.484614
 34
0.0
 50
90.0
  3
FSTD1
1001
ACAD
1000
DSTYLE
1002
{
1070
    40
1040
1.0
1002
}
  0
LINE
  8
F03_CNT
  5
5B42
 10
371.853019
 20
-115.234614
 30
0.0
 11
371.853019
 21
-130.734614
 31
0.0
  0
LINE
  8
F01_OUT
  5
5B43
 10
364.853018
 20
-115.484614
 30
0.0
 11
364.853018
 21
-130.484614
 31
0.0
  0
DIMENSION
  8
F02_DIM
  5
5B44
  2
*D29
 10
364.853018
 20
-139.413991
 30
0.0
 11
368.353018
 21
-136.413991
 31
0.0
 12
556.364326
 22
0.0
 32
0.0
 13
371.853019
 23
-130.734614
 33
0.0
 14
364.853018
 24
-130.484614
 34
0.0
  3
FSTD1
1001
ACAD
1000
DSTYLE
1002
{
1070
    40
1040
1.0
1002
}
  0
LINE
  8
F01_OUT
  5
5B45
 10
364.853018
 20
-130.484614
 30
0.0
 11
394.229102
 21
-130.484614
 31
0.0
  0
LINE
  8
F03_CNT
  5
5B46
 10
379.603019
 20
-122.984614
 30
0.0
 11
364.103019
 21
-122.984614
 31
0.0
  0
LINE
  8
F01_OUT
  5
5B47
 10
364.853018
 20
-115.484614
 30
0.0
 11
394.229102
 21
-115.484614
 31
0.0
  0
TEXT
  8
F05_PRO
  5
5B48
 10
399.916143
 20
-124.797839
 30
0.0
 40
4.0
  1
t  6
  0
LINE
  8
F01_OUT
  5
5B49
 10
213.332651
 20
-127.053008
 30
0.0
 11
220.050166
 21
-120.335494
 31
0.0
  0
LINE
  8
F01_OUT
  5
5B4A
 10
221.641156
 20
-128.643998
 30
0.0
 11
211.741661
 21
-118.744503
 31
0.0
  0
ARC
  8
F01_OUT
  5
5B4B
 10
216.691408
 20
-123.694251
 30
0.0
 40
7.75
 50
115.414617
 51
64.585383
  0
CIRCLE
  8
F01_OUT
  5
5B4C
 10
216.691408
 20
-123.694251
 30
0.0
 40
7.0
  0
LINE
  8
F01_OUT
  5
5B4D
 10
278.512377
 20
-119.694251
 30
0.0
 11
287.412377
 21
-119.694251
 31
0.0
  0
LINE
  8
F01_OUT
  5
5B4E
 10
278.512377
 20
-127.694251
 30
0.0
 11
287.412377
 21
-127.694251
 31
0.0
  0
LINE
  8
F01_OUT
  5
5B4F
 10
287.412377
 20
-127.694251
 30
0.0
 11
287.412377
 21
-119.694251
 31
0.0
  0
ARC
  8
F01_OUT
  5
5B50
 10
270.454329
 20
-119.294251
 30
0.0
 40
2.6
 50
90.0
 51
163.39845
  0
ARC
  8
F01_OUT
  5
5B51
 10
270.454329
 20
-128.094251
 30
0.0
 40
2.6
 50
196.60155
 51
270.0
  0
ARC
  8
F01_OUT
  5
5B52
 10
285.212377
 20
-123.694251
 30
0.0
 40
18.0
 50
163.39845
 51
196.60155
  0
LINE
  8
F01_OUT
  5
5B53
 10
270.454329
 20
-116.694251
 30
0.0
 11
272.451622
 21
-116.694251
 31
0.0
  0
LINE
  8
F01_OUT
  5
5B54
 10
270.454329
 20
-130.694251
 30
0.0
 11
272.412377
 21
-130.694251
 31
0.0
  0
LINE
  8
F01_OUT
  5
5B55
 10
272.412377
 20
-130.944251
 30
0.0
 11
274.412377
 21
-130.944251
 31
0.0
  0
LINE
  8
F01_OUT
  5
5B56
 10
272.412377
 20
-130.944251
 30
0.0
 11
272.412377
 21
-116.694251
 31
0.0
  0
LINE
  8
F01_OUT
  5
5B57
 10
274.412377
 20
-131.444251
 30
0.0
 11
278.512377
 21
-131.444251
 31
0.0
  0
LINE
  8
F01_OUT
  5
5B58
 10
274.412377
 20
-131.444251
 30
0.0
 11
274.412377
 21
-116.694251
 31
0.0
  0
LINE
  8
F01_OUT
  5
5B59
 10
276.012377
 20
-116.694251
 30
0.0
 11
276.012377
 21
-131.444251
 31
0.0
  0
LINE
  8
F01_OUT
  5
5B5A
 10
300.012377
 20
-131.694251
 30
0.0
 11
300.012377
 21
-111.394251
 31
0.0
  0
LINE
  8
F01_OUT
  5
5B5B
 10
204.191408
 20
-131.694251
 30
0.0
 11
229.191408
 21
-131.694251
 31
0.0
  0
LINE
  8
F01_OUT
  5
5B5C
 10
208.191408
 20
-116.694251
 30
0.0
 11
225.191408
 21
-116.694251
 31
0.0
  0
LINE
  8
F01_OUT
  5
5B5D
 10
225.191408
 20
-116.694251
 30
0.0
 11
225.191408
 21
-131.694251
 31
0.0
  0
LINE
  8
F01_OUT
  5
5B5E
 10
208.191408
 20
-116.694251
 30
0.0
 11
208.191408
 21
-131.694251
 31
0.0
  0
LINE
  8
F01_OUT
  5
5B5F
 10
288.512377
 20
-118.694251
 30
0.0
 11
288.512377
 21
-128.694251
 31
0.0
  0
LINE
  8
F01_OUT
  5
5B60
 10
278.512377
 20
-118.694251
 30
0.0
 11
288.512377
 21
-118.694251
 31
0.0
  0
LINE
  8
F01_OUT
  5
5B61
 10
278.512377
 20
-128.694251
 30
0.0
 11
288.512377
 21
-128.694251
 31
0.0
  0
LINE
  8
F01_OUT
  5
5B62
 10
278.512377
 20
-116.694251
 30
0.0
 11
278.512377
 21
-131.694251
 31
0.0
  0
LINE
  8
F01_OUT
  5
5B63
 10
255.212389
 20
-116.694251
 30
0.0
 11
278.512377
 21
-116.694251
 31
0.0
  0
LINE
  8
F01_OUT
  5
5B64
 10
262.212389
 20
-131.694251
 30
0.0
 11
300.012377
 21
-131.694251
 31
0.0
  0
LINE
  8
F01_OUT
  5
5B65
 10
272.412377
 20
-124.694251
 30
0.0
 11
274.412377
 21
-123.848816
 31
0.0
  0
LINE
  8
F01_OUT
  5
5B66
 10
272.412377
 20
-123.694251
 30
0.0
 11
274.412377
 21
-122.848816
 31
0.0
  0
LINE
  8
F01_OUT
  5
5B67
 10
278.512377
 20
-119.694251
 30
0.0
 11
276.012377
 21
-119.694251
 31
0.0
  0
LINE
  8
F01_OUT
  5
5B68
 10
278.512377
 20
-127.694251
 30
0.0
 11
276.012377
 21
-127.694251
 31
0.0
  0
LINE
  8
F01_OUT
  5
5B69
 10
287.412377
 20
-120.694251
 30
0.0
 11
278.512377
 21
-120.694251
 31
0.0
  0
LINE
  8
F01_OUT
  5
5B6A
 10
278.512377
 20
-126.694251
 30
0.0
 11
287.412377
 21
-126.694251
 31
0.0
  0
INSERT
  8
F01_OUT
  6
CONTINUOUS
  5
5B6B
  2
*X35
 10
0.0
 20
0.0
 30
0.0
1001
ACAD
1000
HATCH
1002
{
1070
    19
1000
ANSI31
1040
0.629921
1040
0.0
1000
R14_HATCH_DATA
1000
5B6B
1011
1.0
1021
0.0
1031
0.0
1011
0.0
1021
1.0
1031
0.0
1011
0.0
1021
0.0
1031
1.0
1040
0.0
1010
0.0
1020
0.0
1030
1.0
1000
ANSI31
1070
     0
1070
     0
1071
        1
1071
        2
1070
     0
1070
     1
1071
       11
1040
255.212388
1040
-116.69425
1040
255.212388
1040
-111.39425
1040
300.012377
1040
-111.39425
1040
300.012377
1040
-131.69425
1040
278.512377
1040
-131.69425
1040
278.512377
1040
-128.694251
1040
288.512377
1040
-128.694251
1040
288.512377
1040
-118.694251
1040
278.512377
1040
-118.694251
1040
278.512377
1040
-116.69425
1040
255.34183
1040
-116.537009
1071
        0
1070
     0
1070
     1
1040
0.0
1040
0.629921
1070
     0
1070
     1
1040
0.785398
1040
-22.700758
1040
-418.417519
1040
-1.414214
1040
1.414214
1070
     0
1071
        1
1040
-22.700758
1040
-418.417519
1040
0.0
1002
}
  0
INSERT
  8
F01_OUT
  6
CONTINUOUS
  5
5B6C
  2
*X34
 10
0.0
 20
0.0
 30
0.0
1001
ACAD
1000
HATCH
1002
{
1070
    19
1000
ANSI31
1040
0.629921
1040
0.0
1000
R14_HATCH_DATA
1000
5B6C
1011
1.0
1021
0.0
1031
0.0
1011
0.0
1021
1.0
1031
0.0
1011
0.0
1021
0.0
1031
1.0
1040
0.0
1010
0.0
1020
0.0
1030
1.0
1000
ANSI31
1070
     0
1070
     0
1071
        1
1071
        2
1070
     0
1070
     1
1071
        8
1040
229.191409
1040
-131.694251
1040
229.191409
1040
-111.380816
1040
204.191409
1040
-111.380816
1040
204.191409
1040
-131.694251
1040
208.191409
1040
-131.694251
1040
208.191409
1040
-116.69425
1040
225.191409
1040
-116.69425
1040
225.191409
1040
-131.694251
1071
        0
1070
     0
1070
     1
1040
0.0
1040
0.629921
1070
     0
1070
     1
1040
0.785398
1040
-35.807524
1040
-418.417519
1040
-1.414214
1040
1.414214
1070
     0
1071
        1
1040
-35.807524
1040
-418.417519
1040
0.0
1002
}
  0
LINE
  8
F03_CNT
  5
5B6D
 10
289.412377
 20
-123.694251
 30
0.0
 11
264.922833
 21
-123.694251
 31
0.0
  0
LINE
  8
F03_CNT
  5
5B6E
 10
216.691408
 20
-133.444251
 30
0.0
 11
216.691408
 21
-113.944251
 31
0.0
  0
LINE
  8
F03_CNT
  5
5B6F
 10
226.441408
 20
-123.694251
 30
0.0
 11
206.941408
 21
-123.694251
 31
0.0
  0
DIMENSION
  8
F02_DIM
  5
5B70
  2
*D30
 10
208.191408
 20
-142.909794
 30
0.0
 11
216.691408
 21
-139.909794
 31
0.0
 12
556.364326
 22
0.0
 32
0.0
 13
225.191408
 23
-131.694251
 33
0.0
 14
208.191408
 24
-131.694251
 34
0.0
  3
FSTD1
  0
DIMENSION
  8
F02_DIM
  5
5B71
  2
*D31
 10
237.34046
 20
-116.694251
 30
0.0
 11
234.34046
 21
-120.194251
 31
0.0
 12
556.364326
 22
0.0
 32
0.0
 13
226.441408
 23
-123.694251
 33
0.0
 14
225.191408
 24
-116.694251
 34
0.0
 50
90.0
  3
FSTD1
  0
DIMENSION
  8
F02_DIM
  5
5B72
  2
*D32
 10
276.012377
 20
-142.909794
 30
0.0
 11
288.012377
 21
-139.909794
 31
0.0
 12
556.364326
 22
0.0
 32
0.0
 13
300.012377
 23
-131.694251
 33
0.0
 14
276.012377
 24
-131.444251
 34
0.0
  3
FSTD1
  0
TEXT
  8
F05_PRO
  5
5B73
 10
219.202199
 20
-158.331458
 30
0.0
 40
5.0
  1
Terminal section
 72
     1
 11
252.785533
 21
-158.331458
 31
0.0
  0
TEXT
  8
F02_DIM
  5
5B74
 10
244.373225
 20
-98.708813
 30
0.0
 40
3.0
  1
M8x15
  0
TEXT
  8
F02_DIM
  5
5B75
 10
244.760471
 20
-104.189061
 30
0.0
 40
3.0
  1
Cross recessed
 41
0.8
  0
LINE
  8
F02_DIM
  5
5B76
 10
278.279769
 20
-100.06749
 30
0.0
 11
242.90351
 21
-100.06749
 31
0.0
  0
INSERT
  8
F02_DIM
  5
5B77
  2
_OPEN30
 10
285.432078
 20
-119.742046
 30
0.0
 41
2.5
 42
2.5
 50
289.977771
 43
2.5
  0
POLYLINE
  8
F02_DIM
  5
5B78
 66
     1
 10
0.0
 20
0.0
 30
0.0
  0
VERTEX
  8
F02_DIM
  5
5F57
 10
284.577939
 20
-117.392483
 30
0.0
  0
VERTEX
  8
F02_DIM
  5
5F58
 10
278.279769
 20
-100.06749
 30
0.0
  0
SEQEND
  8
F02_DIM
  5
5F59
  0
CIRCLE
  8
F01_OUT
  5
5B79
 10
371.853019
 20
-122.984614
 30
0.0
 40
4.5
  0
DIMENSION
  8
F02_DIM
  5
5B7A
  2
*D33
 10
368.474257
 20
-125.956813
 30
0.0
 11
388.200448
 21
-108.604249
 31
0.0
 12
556.364326
 22
0.0
 32
0.0
 70
   131
 15
375.23178
 25
-120.012414
 35
0.0
  3
FSTD1
1001
ACAD
1000
DSTYLE
1002
{
1070
   288
1070
     1
1002
}
  0
TEXT
  8
F02_DIM
  5
5B7B
 10
244.760471
 20
-108.426966
 30
0.0
 40
3.0
  1
head screw
 41
0.8
  0
LINE
  8
F05_PRO
  5
5B7C
 10
404.426664
 20
-124.894408
 30
0.0
 11
407.179819
 21
-124.894408
 31
0.0
  0
LINE
  8
F05_PRO
  5
5B7D
 10
407.204846
 20
-123.66879
 30
0.0
 11
404.451692
 21
-123.66879
 31
0.0
  0
LINE
  8
F05_PRO
  5
5B7E
 10
407.179819
 20
-123.018463
 30
0.0
 11
404.501749
 21
-121.84287
 31
0.0
  0
LINE
  8
F05_PRO
  5
5B7F
 10
404.501749
 20
-121.84287
 30
0.0
 11
407.179819
 21
-120.792342
 31
0.0
  0
TEXT
  8
F05_PRO
  5
5B81
 10
-69.664799
 20
-128.177968
 30
0.0
 40
5.0
  1
NOTE)2-Pole breakers are supplied in 3-Pole frame
  0
TEXT
  8
F05_PRO
  5
5B82
 10
-69.664799
 20
-136.30801
 30
0.0
 40
5.0
  1
with current carring parts omitted center pole.
  0
LINE
  8
F01_OUT
  5
5EE4
 10
-34.345376
 20
-15.35
 30
0.0
 11
-26.345376
 21
-15.35
 31
0.0
  0
LINE
  8
F01_OUT
  5
5EE5
 10
-34.345376
 20
-14.85
 30
0.0
 11
-31.345376
 21
-14.85
 31
0.0
  0
LINE
  8
F01_OUT
  5
5EE6
 10
-34.345376
 20
-11.35
 30
0.0
 11
-26.345376
 21
-11.35
 31
0.0
  0
LINE
  8
F01_OUT
  5
5EE7
 10
-34.345376
 20
-11.85
 30
0.0
 11
-31.345376
 21
-11.85
 31
0.0
  0
LINE
  8
F01_OUT
  5
5EE8
 10
-33.845376
 20
-14.35
 30
0.0
 11
-31.845376
 21
-14.35
 31
0.0
  0
LINE
  8
F01_OUT
  5
5EE9
 10
-33.845376
 20
-12.35
 30
0.0
 11
-31.845376
 21
-12.35
 31
0.0
  0
LINE
  8
F01_OUT
  5
5EEA
 10
-34.345376
 20
-15.35
 30
0.0
 11
-34.345376
 21
-11.35
 31
0.0
  0
LINE
  8
F01_OUT
  5
5EEB
 10
-33.845376
 20
-14.35
 30
0.0
 11
-34.345376
 21
-14.85
 31
0.0
  0
LINE
  8
F01_OUT
  5
5EEC
 10
-33.845376
 20
-12.35
 30
0.0
 11
-33.845376
 21
-14.35
 31
0.0
  0
LINE
  8
F01_OUT
  5
5EED
 10
-33.845376
 20
-12.35
 30
0.0
 11
-34.345376
 21
-11.85
 31
0.0
  0
LINE
  8
F01_OUT
  5
5EEE
 10
-31.345376
 20
-11.85
 30
0.0
 11
-31.345376
 21
-14.85
 31
0.0
  0
LINE
  8
F01_OUT
  5
5EEF
 10
-31.845376
 20
-14.35
 30
0.0
 11
-31.345376
 21
-14.85
 31
0.0
  0
LINE
  8
F01_OUT
  5
5EF0
 10
-31.845376
 20
-12.35
 30
0.0
 11
-31.845376
 21
-14.35
 31
0.0
  0
LINE
  8
F01_OUT
  5
5EF1
 10
-31.845376
 20
-12.35
 30
0.0
 11
-31.345376
 21
-11.85
 31
0.0
  0
LINE
  8
F01_OUT
  5
5EF2
 10
-26.345376
 20
-15.35
 30
0.0
 11
-26.345376
 21
-11.35
 31
0.0
  0
LINE
  8
F05_PRO
  5
5EF3
 10
25.467017
 20
-95.901519
 30
0.0
 11
-26.345376
 21
-15.35
 31
0.0
  0
LINE
  8
F05_PRO
  5
5EF4
 10
25.467017
 20
-95.901519
 30
0.0
 11
65.868217
 21
-95.901519
 31
0.0
  0
TEXT
  8
F05_PRO
  5
5EF5
 10
28.006688
 20
-94.500338
 30
0.0
 40
3.0
  1
selective switch
 41
0.8
  0
TEXT
  8
F05_PRO
  5
5EF6
 10
28.006688
 20
-90.505998
 30
0.0
 40
3.0
  1
Sensitive current
 41
0.8
  0
TEXT
  8
F05_PRO
  5
5EF7
 10
-5.672929
 20
-228.207113
 30
0.0
 40
8.0
  1
EW100EAGU-3P
 41
0.8
  0
LINE
  8
F05_PRO
  5
5F0C
 10
-4.645315
 20
-6.7
 30
0.0
 11
25.467017
 21
65.170952
 31
0.0
  0
LINE
  8
F05_PRO
  5
5F0D
 10
-42.907831
 20
42.20994
 30
0.0
 11
-72.153923
 21
80.79636
 31
0.0
  0
ENDSEC
  0
EOF
