  0
SECTION
  2
HEADER
  9
$ACADVER
  1
AC1009
  9
$INSBASE
 10
0.0
 20
0.0
 30
0.0
  9
$EXTMIN
 10
-108.5755
 20
-227.904363
 30
0.0
  9
$EXTMAX
 10
83.544814
 20
28.835892
 30
0.0
  9
$LIMMIN
 10
0.0
 20
0.0
  9
$LIMMAX
 10
210.0
 20
297.0
  9
$ORTHOMODE
 70
     0
  9
$REGENMODE
 70
     1
  9
$FILLMODE
 70
     1
  9
$QTEXTMODE
 70
     0
  9
$MIRRTEXT
 70
     1
  9
$DRAGMODE
 70
     2
  9
$LTSCALE
 40
0.2
  9
$OSMODE
 70
    37
  9
$ATTMODE
 70
     1
  9
$TEXTSIZE
 40
2.0
  9
$TRACEWID
 40
0.05
  9
$TEXTSTYLE
  7
FSTD2
  9
$CLAYER
  8
0
  9
$CELTYPE
  6
BYLAYER
  9
$CECOLOR
 62
   256
  9
$DIMSCALE
 40
0.0
  9
$DIMASZ
 40
3.0
  9
$DIMEXO
 40
1.0
  9
$DIMDLI
 40
0.38
  9
$DIMRND
 40
0.0
  9
$DIMDLE
 40
0.0
  9
$DIMEXE
 40
1.0
  9
$DIMTP
 40
0.2
  9
$DIMTM
 40
0.0
  9
$DIMTXT
 40
3.0
  9
$DIMCEN
 40
0.09
  9
$DIMTSZ
 40
0.0
  9
$DIMTOL
 70
     0
  9
$DIMLIM
 70
     0
  9
$DIMTIH
 70
     0
  9
$DIMTOH
 70
     0
  9
$DIMSE1
 70
     0
  9
$DIMSE2
 70
     0
  9
$DIMTAD
 70
     1
  9
$DIMZIN
 70
     8
  9
$DIMBLK
  1

  9
$DIMASO
 70
     1
  9
$DIMSHO
 70
     1
  9
$DIMPOST
  1

  9
$DIMAPOST
  1

  9
$DIMALT
 70
     0
  9
$DIMALTD
 70
     4
  9
$DIMALTF
 40
0.0394
  9
$DIMLFAC
 40
1.0
  9
$DIMTOFL
 70
     1
  9
$DIMTVP
 40
0.0
  9
$DIMTIX
 70
     0
  9
$DIMSOXD
 70
     0
  9
$DIMSAH
 70
     1
  9
$DIMBLK1
  1
DOTSMALL
  9
$DIMBLK2
  1
DOTSMALL
  9
$DIMSTYLE
  2
FSTD4
  9
$DIMCLRD
 70
     0
  9
$DIMCLRE
 70
     0
  9
$DIMCLRT
 70
     0
  9
$DIMTFAC
 40
0.7
  9
$DIMGAP
 40
1.0
  9
$LUNITS
 70
     2
  9
$LUPREC
 70
     4
  9
$SKETCHINC
 40
0.1
  9
$FILLETRAD
 40
0.0
  9
$AUNITS
 70
     0
  9
$AUPREC
 70
     0
  9
$MENU
  1
acad
  9
$ELEVATION
 40
0.0
  9
$PELEVATION
 40
0.0
  9
$THICKNESS
 40
0.0
  9
$LIMCHECK
 70
     0
  9
$BLIPMODE
 70
     0
  9
$CHAMFERA
 40
0.0
  9
$CHAMFERB
 40
0.0
  9
$SKPOLY
 70
     0
  9
$TDCREATE
 40
2455839.744834884
  9
$TDUPDATE
 40
2456160.398209803
  9
$TDINDWG
 40
0.0758420255
  9
$TDUSRTIMER
 40
0.0758420255
  9
$USRTIMER
 70
     1
  9
$ANGBASE
 50
0.0
  9
$ANGDIR
 70
     0
  9
$PDMODE
 70
     0
  9
$PDSIZE
 40
0.0
  9
$PLINEWID
 40
0.0
  9
$COORDS
 70
     1
  9
$SPLFRAME
 70
     0
  9
$SPLINETYPE
 70
     6
  9
$SPLINESEGS
 70
     8
  9
$ATTDIA
 70
     0
  9
$ATTREQ
 70
     1
  9
$HANDLING
 70
     1
  9
$HANDSEED
  5
166C
  9
$SURFTAB1
 70
     6
  9
$SURFTAB2
 70
     6
  9
$SURFTYPE
 70
     6
  9
$SURFU
 70
     6
  9
$SURFV
 70
     6
  9
$UCSNAME
  2

  9
$UCSORG
 10
0.0
 20
0.0
 30
0.0
  9
$UCSXDIR
 10
1.0
 20
0.0
 30
0.0
  9
$UCSYDIR
 10
0.0
 20
1.0
 30
0.0
  9
$PUCSNAME
  2

  9
$PUCSORG
 10
0.0
 20
0.0
 30
0.0
  9
$PUCSXDIR
 10
1.0
 20
0.0
 30
0.0
  9
$PUCSYDIR
 10
0.0
 20
1.0
 30
0.0
  9
$USERI1
 70
     0
  9
$USERI2
 70
     0
  9
$USERI3
 70
     0
  9
$USERI4
 70
     0
  9
$USERI5
 70
     0
  9
$USERR1
 40
0.0
  9
$USERR2
 40
0.0
  9
$USERR3
 40
0.0
  9
$USERR4
 40
0.0
  9
$USERR5
 40
0.0
  9
$WORLDVIEW
 70
     1
  9
$SHADEDGE
 70
     3
  9
$SHADEDIF
 70
    70
  9
$TILEMODE
 70
     1
  9
$MAXACTVP
 70
    16
  9
$PINSBASE
 10
0.0
 20
0.0
 30
0.0
  9
$PLIMCHECK
 70
     0
  9
$PEXTMIN
 10
1.000000E+20
 20
1.000000E+20
 30
1.000000E+20
  9
$PEXTMAX
 10
-1.000000E+20
 20
-1.000000E+20
 30
-1.000000E+20
  9
$PLIMMIN
 10
0.0
 20
0.0
  9
$PLIMMAX
 10
12.0
 20
9.0
  9
$UNITMODE
 70
     0
  9
$VISRETAIN
 70
     0
  9
$PLINEGEN
 70
     1
  9
$PSLTSCALE
 70
     0
  9
$TREEDEPTH
 70
  3020
  9
$DWGCODEPAGE
  3
dos932
  0
ENDSEC
  0
SECTION
  2
TABLES
  0
TABLE
  2
VPORT
 70
     2
  0
VPORT
  2
*ACTIVE
 70
     0
 10
0.0
 20
0.0
 11
1.0
 21
1.0
 12
39.544331
 22
-91.512698
 13
0.0
 23
0.0
 14
1.0
 24
1.0
 15
0.0
 25
0.0
 16
0.0
 26
0.0
 36
1.0
 17
0.0
 27
0.0
 37
0.0
 40
274.460158
 41
1.478613
 42
50.0
 43
0.0
 44
0.0
 50
0.0
 51
0.0
 71
     0
 72
   100
 73
     1
 74
     1
 75
     0
 76
     0
 77
     0
 78
     0
  0
ENDTAB
  0
TABLE
  2
LTYPE
 70
     4
  0
LTYPE
  2
CONTINUOUS
 70
    64
  3
Solid line
 72
    65
 73
     0
 40
0.0
  0
LTYPE
  2
DASHED
 70
    64
  3
Dashed __ __ __ __ __ __ __ __ __ __ __ __ __ _
 72
    65
 73
     2
 40
19.05
 49
12.7
 49
-6.35
  0
LTYPE
  2
CENTER
 70
    64
  3
Center ____ _ ____ _ ____ _ ____ _ ____ _ ____
 72
    65
 73
     4
 40
50.8
 49
31.75
 49
-6.35
 49
6.35
 49
-6.35
  0
LTYPE
  2
PHANTOM
 70
    64
  3
Phantom ______  __  __  ______  __  __  ______
 72
    65
 73
     6
 40
63.5
 49
31.75
 49
-6.35
 49
6.35
 49
-6.35
 49
6.35
 49
-6.35
  0
ENDTAB
  0
TABLE
  2
LAYER
 70
     8
  0
LAYER
  2
0
 70
    64
 62
     7
  6
CONTINUOUS
  0
LAYER
  2
DEFPOINTS
 70
    64
 62
     7
  6
CONTINUOUS
  0
LAYER
  2
F03_CNT
 70
    64
 62
     1
  6
CENTER
  0
LAYER
  2
F02_DIM
 70
    64
 62
     4
  6
CONTINUOUS
  0
LAYER
  2
F05_PRO
 70
    64
 62
     4
  6
CONTINUOUS
  0
LAYER
  2
F01_OUT
 70
    64
 62
     6
  6
CONTINUOUS
  0
LAYER
  2
F04_HID
 70
    64
 62
     3
  6
DASHED
  0
LAYER
  2
F08_IMG
 70
    64
 62
     2
  6
PHANTOM
  0
ENDTAB
  0
TABLE
  2
STYLE
 70
     4
  0
STYLE
  2
MX_NOTE_STANDARD
 70
    64
 40
0.0
 41
1.0
 50
0.0
 71
     0
 42
4.1656
  3
txt.shx
  4
extfont.shx
  0
STYLE
  2
STANDARD
 70
     0
 40
0.0
 41
1.0
 50
0.0
 71
     0
 42
0.2
  3

  4

  0
STYLE
  2
FSTD1
 70
    64
 40
0.0
 41
1.0
 50
0.0
 71
     0
 42
3.0
  3
txt.shx
  4
bigfont.shx
  0
STYLE
  2
FSTD2
 70
    64
 40
0.0
 41
0.7
 50
0.0
 71
     0
 42
2.0
  3
txt.shx
  4
bigfont.shx
  0
ENDTAB
  0
TABLE
  2
VIEW
 70
     0
  0
ENDTAB
  0
TABLE
  2
UCS
 70
     0
  0
ENDTAB
  0
TABLE
  2
APPID
 70
     3
  0
APPID
  2
ACAD
 70
    64
  0
ENDTAB
  0
TABLE
  2
DIMSTYLE
 70
     3
  0
DIMSTYLE
  2
MXDIMSTYLE
 70
     0
  3

  4

  5

  6
OPEN30
  7
OPEN30
 40
1.0
 41
2.5
 42
0.5
 43
3.75
 44
1.0
 45
0.0
 46
0.0
 47
0.0
 48
0.0
140
4.1656
141
2.5
142
0.0
143
0.03937
144
1.0
145
0.0
146
1.0
147
1.0
 71
     0
 72
     0
 73
     0
 74
     0
 75
     0
 76
     0
 77
     1
 78
     8
170
     0
171
     4
172
     1
173
     1
174
     0
175
     0
176
     0
177
     0
178
     0
  0
DIMSTYLE
  2
FSTD1
 70
    64
  3

  4

  5

  6
OPEN30
  7
OPEN30
 40
0.0
 41
3.0
 42
1.0
 43
0.38
 44
1.0
 45
0.0
 46
0.0
 47
0.2
 48
0.0
140
3.0
141
0.09
142
0.0
143
0.0394
144
1.0
145
0.0
146
0.7
147
1.0
 71
     0
 72
     0
 73
     0
 74
     0
 75
     0
 76
     0
 77
     1
 78
     8
170
     0
171
     4
172
     1
173
     1
174
     0
175
     0
176
     0
177
     0
178
     0
  0
DIMSTYLE
  2
FSTD4
 70
     0
  3

  4

  5

  6
DOTSMALL
  7
DOTSMALL
 40
0.0
 41
3.0
 42
1.0
 43
0.38
 44
1.0
 45
0.0
 46
0.0
 47
0.2
 48
0.0
140
3.0
141
0.09
142
0.0
143
0.0394
144
1.0
145
0.0
146
0.7
147
1.0
 71
     0
 72
     0
 73
     0
 74
     0
 75
     0
 76
     0
 77
     1
 78
     8
170
     0
171
     4
172
     1
173
     1
174
     0
175
     0
176
     0
177
     0
178
     0
  0
ENDTAB
  0
ENDSEC
  0
SECTION
  2
BLOCKS
  0
BLOCK
  8
0
  5
128
  2
_OPEN30
 70
    66
 10
0.0
 20
0.0
 30
0.0
  3
_OPEN30
1001
ACAD
1000
RTLwPs
1070
   158
1000
RTMaterial
1005
0
  0
LINE
  8
0
  6
BYBLOCK
 62
     0
  5
129
 10
-1.0
 20
0.267949
 30
0.0
 11
0.0
 21
0.0
 31
0.0
1001
ACAD
1000
RTLwPs
1070
   158
1000
RTMaterial
1005
0
  0
LINE
  8
0
  6
BYBLOCK
 62
     0
  5
12A
 10
0.0
 20
0.0
 30
0.0
 11
-1.0
 21
-0.267949
 31
0.0
1001
ACAD
1000
RTLwPs
1070
   158
1000
RTMaterial
1005
0
  0
LINE
  8
0
  6
BYBLOCK
 62
     0
  5
12B
 10
0.0
 20
0.0
 30
0.0
 11
-1.0
 21
0.0
 31
0.0
1001
ACAD
1000
RTLwPs
1070
   158
1000
RTMaterial
1005
0
  0
ENDBLK
  8
0
  5
12C
1001
ACAD
1000
RTLwPs
1070
   158
1000
RTMaterial
1005
0
  0
BLOCK
  8
0
  5
148E
  2
_DOTSMALL
 70
    64
 10
0.0
 20
0.0
 30
0.0
  3
_DOTSMALL
  0
POLYLINE
  8
0
  6
BYBLOCK
 62
     0
  5
148F
 66
     1
 10
0.0
 20
0.0
 30
0.0
 70
     1
  0
VERTEX
  8
0
  6
BYBLOCK
 62
     0
  5
1669
 10
-0.0625
 20
0.0
 30
0.0
 40
0.5
 41
0.5
 42
1.0
  0
VERTEX
  8
0
  6
BYBLOCK
 62
     0
  5
166A
 10
0.0625
 20
0.0
 30
0.0
 40
0.5
 41
0.5
 42
1.0
  0
SEQEND
  8
0
  6
BYBLOCK
 62
     0
  5
166B
  0
ENDBLK
  8
0
  5
1493
  0
BLOCK
  8
0
  5
1575
  2
*D2
 70
    65
 10
0.0
 20
0.0
 30
0.0
  3
*D16
  0
LINE
  8
F02_DIM
 62
     0
  5
156A
 10
-17.6
 20
-74.022787
 30
0.0
 11
-17.6
 21
-84.878116
 31
0.0
1001
ACAD
1000
RTLwPs
1070
   158
  0
LINE
  8
F02_DIM
 62
     0
  5
156B
 10
-22.5
 20
-72.603528
 30
0.0
 11
-22.5
 21
-84.878116
 31
0.0
1001
ACAD
1000
RTLwPs
1070
   158
  0
LINE
  8
F02_DIM
 62
     0
  5
156C
 10
-14.6
 20
-83.878116
 30
0.0
 11
-11.6
 21
-83.878116
 31
0.0
1001
ACAD
1000
RTLwPs
1070
   158
  0
LINE
  8
F02_DIM
 62
     0
  5
156D
 10
-25.5
 20
-83.878116
 30
0.0
 11
-28.5
 21
-83.878116
 31
0.0
1001
ACAD
1000
RTLwPs
1070
   158
  0
TEXT
  8
F02_DIM
 62
     0
  5
156E
 10
-35.5
 20
-85.378116
 30
0.0
 40
3.0
  1
4.9
1001
ACAD
1000
MTEXTBEGIN
1070
    73
1070
     1
1070
    44
1040
1.0
1070
    74
1070
     0
1000
MTEXTEND
  0
LINE
  8
F02_DIM
 62
     0
  5
156F
 10
-17.6
 20
-83.878116
 30
0.0
 11
-22.5
 21
-83.878116
 31
0.0
1001
ACAD
1000
RTLwPs
1070
   158
  0
INSERT
  8
F02_DIM
 62
     0
  5
1570
  2
_OPEN30
 10
-17.6
 20
-83.878116
 30
0.0
 41
3.0
 42
3.0
 50
180.0
 43
3.0
1001
ACAD
1000
RTLwPs
1070
   158
  0
INSERT
  8
F02_DIM
 62
     0
  5
1571
  2
_OPEN30
 10
-22.5
 20
-83.878116
 30
0.0
 41
3.0
 42
3.0
 43
3.0
1001
ACAD
1000
RTLwPs
1070
   158
  0
POINT
  8
DEFPOINTS
 62
     0
  5
1572
 10
-17.6
 20
-73.022787
 30
0.0
  0
POINT
  8
DEFPOINTS
 62
     0
  5
1573
 10
-22.5
 20
-71.603528
 30
0.0
  0
POINT
  8
DEFPOINTS
 62
     0
  5
1574
 10
-22.5
 20
-83.878116
 30
0.0
  0
ENDBLK
  8
0
  5
1576
  0
BLOCK
  8
0
  5
1581
  2
*D3
 70
    65
 10
0.0
 20
0.0
 30
0.0
  3
*D17
  0
LINE
  8
F02_DIM
 62
     0
  5
1578
 10
13.569964
 20
-40.1
 30
0.0
 11
-31.343547
 21
-40.1
 31
0.0
1001
ACAD
1000
RTLwPs
1070
   158
  0
LINE
  8
F02_DIM
 62
     0
  5
1579
 10
-26.580947
 20
0.0
 30
0.0
 11
-31.343547
 21
0.0
 31
0.0
1001
ACAD
1000
RTLwPs
1070
   158
  0
LINE
  8
F02_DIM
 62
     0
  5
157A
 10
-30.343547
 20
-37.1
 30
0.0
 11
-30.343547
 21
-3.0
 31
0.0
1001
ACAD
1000
RTLwPs
1070
   158
  0
INSERT
  8
F02_DIM
 62
     0
  5
157B
  2
_OPEN30
 10
-30.343547
 20
-40.1
 30
0.0
 41
3.0
 42
3.0
 50
270.0
 43
3.0
1001
ACAD
1000
RTLwPs
1070
   158
  0
INSERT
  8
F02_DIM
 62
     0
  5
157C
  2
_OPEN30
 10
-30.343547
 20
0.0
 30
0.0
 41
3.0
 42
3.0
 50
90.0
 43
3.0
1001
ACAD
1000
RTLwPs
1070
   158
  0
TEXT
  8
F02_DIM
 62
     0
  5
157D
 10
-31.343547
 20
-22.3
 30
0.0
 40
3.0
  1
40
 50
90.0
1001
ACAD
1000
MTEXTBEGIN
1070
    73
1070
     1
1070
    44
1040
1.0
1070
    74
1070
     0
1000
MTEXTEND
  0
POINT
  8
DEFPOINTS
 62
     0
  5
157E
 10
14.569964
 20
-40.1
 30
0.0
  0
POINT
  8
DEFPOINTS
 62
     0
  5
157F
 10
-25.580947
 20
0.0
 30
0.0
  0
POINT
  8
DEFPOINTS
 62
     0
  5
1580
 10
-30.343547
 20
0.0
 30
0.0
  0
ENDBLK
  8
0
  5
1582
  0
BLOCK
  8
0
  5
158D
  2
*D4
 70
    65
 10
0.0
 20
0.0
 30
0.0
  3
*D18
  0
LINE
  8
F02_DIM
 62
     0
  5
1584
 10
-108.5755
 20
-25.0
 30
0.0
 11
-108.5755
 21
-92.600479
 31
0.0
1001
ACAD
1000
RTLwPs
1070
   158
  0
LINE
  8
F02_DIM
 62
     0
  5
1585
 10
-58.0755
 20
-64.5
 30
0.0
 11
-58.0755
 21
-92.600479
 31
0.0
1001
ACAD
1000
RTLwPs
1070
   158
  0
LINE
  8
F02_DIM
 62
     0
  5
1586
 10
-105.5755
 20
-91.600479
 30
0.0
 11
-61.0755
 21
-91.600479
 31
0.0
1001
ACAD
1000
RTLwPs
1070
   158
  0
INSERT
  8
F02_DIM
 62
     0
  5
1587
  2
_OPEN30
 10
-108.5755
 20
-91.600479
 30
0.0
 41
3.0
 42
3.0
 50
180.0
 43
3.0
1001
ACAD
1000
RTLwPs
1070
   158
  0
INSERT
  8
F02_DIM
 62
     0
  5
1588
  2
_OPEN30
 10
-58.0755
 20
-91.600479
 30
0.0
 41
3.0
 42
3.0
 43
3.0
1001
ACAD
1000
RTLwPs
1070
   158
  0
TEXT
  8
F02_DIM
 62
     0
  5
1589
 10
-85.5755
 20
-90.600479
 30
0.0
 40
3.0
  1
50
1001
ACAD
1000
MTEXTBEGIN
1070
    73
1070
     1
1070
    44
1040
1.0
1070
    74
1070
     0
1000
MTEXTEND
  0
POINT
  8
DEFPOINTS
 62
     0
  5
158A
 10
-108.5755
 20
-24.0
 30
0.0
  0
POINT
  8
DEFPOINTS
 62
     0
  5
158B
 10
-58.0755
 20
-63.5
 30
0.0
  0
POINT
  8
DEFPOINTS
 62
     0
  5
158C
 10
-58.0755
 20
-91.600479
 30
0.0
  0
ENDBLK
  8
0
  5
158E
  0
BLOCK
  8
0
  5
1599
  2
*D5
 70
    65
 10
0.0
 20
0.0
 30
0.0
  3
*D19
  0
LINE
  8
F02_DIM
 62
     0
  5
1590
 10
-108.5755
 20
-25.0
 30
0.0
 11
-108.5755
 21
-83.606128
 31
0.0
1001
ACAD
1000
RTLwPs
1070
   158
  0
LINE
  8
F02_DIM
 62
     0
  5
1591
 10
-71.2755
 20
-69.5
 30
0.0
 11
-71.2755
 21
-83.606128
 31
0.0
1001
ACAD
1000
RTLwPs
1070
   158
  0
LINE
  8
F02_DIM
 62
     0
  5
1592
 10
-105.5755
 20
-82.606128
 30
0.0
 11
-74.2755
 21
-82.606128
 31
0.0
1001
ACAD
1000
RTLwPs
1070
   158
  0
INSERT
  8
F02_DIM
 62
     0
  5
1593
  2
_OPEN30
 10
-108.5755
 20
-82.606128
 30
0.0
 41
3.0
 42
3.0
 50
180.0
 43
3.0
1001
ACAD
1000
RTLwPs
1070
   158
  0
INSERT
  8
F02_DIM
 62
     0
  5
1594
  2
_OPEN30
 10
-71.2755
 20
-82.606128
 30
0.0
 41
3.0
 42
3.0
 43
3.0
1001
ACAD
1000
RTLwPs
1070
   158
  0
TEXT
  8
F02_DIM
 62
     0
  5
1595
 10
-92.4255
 20
-81.606128
 30
0.0
 40
3.0
  1
37
1001
ACAD
1000
MTEXTBEGIN
1070
    73
1070
     1
1070
    44
1040
1.0
1070
    74
1070
     0
1000
MTEXTEND
  0
POINT
  8
DEFPOINTS
 62
     0
  5
1596
 10
-108.5755
 20
-24.0
 30
0.0
  0
POINT
  8
DEFPOINTS
 62
     0
  5
1597
 10
-71.2755
 20
-68.5
 30
0.0
  0
POINT
  8
DEFPOINTS
 62
     0
  5
1598
 10
-71.2755
 20
-82.606128
 30
0.0
  0
ENDBLK
  8
0
  5
159A
  0
BLOCK
  8
0
  5
15A7
  2
*D6
 70
    65
 10
0.0
 20
0.0
 30
0.0
  3
*D20
  0
LINE
  8
F02_DIM
 62
     0
  5
159C
 10
-58.0755
 20
-65.5
 30
0.0
 11
-58.0755
 21
-92.600479
 31
0.0
1001
ACAD
1000
RTLwPs
1070
   158
  0
LINE
  8
F02_DIM
 62
     0
  5
159D
 10
-53.6755
 20
-43.34949
 30
0.0
 11
-53.6755
 21
-92.600479
 31
0.0
1001
ACAD
1000
RTLwPs
1070
   158
  0
LINE
  8
F02_DIM
 62
     0
  5
159E
 10
-61.0755
 20
-91.600479
 30
0.0
 11
-64.0755
 21
-91.600479
 31
0.0
1001
ACAD
1000
RTLwPs
1070
   158
  0
LINE
  8
F02_DIM
 62
     0
  5
159F
 10
-50.6755
 20
-91.600479
 30
0.0
 11
-47.6755
 21
-91.600479
 31
0.0
1001
ACAD
1000
RTLwPs
1070
   158
  0
LINE
  8
F02_DIM
 62
     0
  5
15A0
 10
-58.0755
 20
-91.600479
 30
0.0
 11
-53.6755
 21
-91.600479
 31
0.0
1001
ACAD
1000
RTLwPs
1070
   158
  0
INSERT
  8
F02_DIM
 62
     0
  5
15A1
  2
_OPEN30
 10
-58.0755
 20
-91.600479
 30
0.0
 41
3.0
 42
3.0
 43
3.0
1001
ACAD
1000
RTLwPs
1070
   158
  0
INSERT
  8
F02_DIM
 62
     0
  5
15A2
  2
_OPEN30
 10
-53.6755
 20
-91.600479
 30
0.0
 41
3.0
 42
3.0
 50
180.0
 43
3.0
1001
ACAD
1000
RTLwPs
1070
   158
  0
TEXT
  8
F02_DIM
 62
     0
  5
15A3
 10
-56.8755
 20
-90.600479
 30
0.0
 40
3.0
  1
A
1001
ACAD
1000
MTEXTBEGIN
1070
    73
1070
     1
1070
    44
1040
1.0
1070
    74
1070
     0
1000
MTEXTEND
  0
POINT
  8
DEFPOINTS
 62
     0
  5
15A4
 10
-58.0755
 20
-64.5
 30
0.0
  0
POINT
  8
DEFPOINTS
 62
     0
  5
15A5
 10
-53.6755
 20
-42.34949
 30
0.0
  0
POINT
  8
DEFPOINTS
 62
     0
  5
15A6
 10
-53.6755
 20
-91.600479
 30
0.0
  0
ENDBLK
  8
0
  5
15A8
  0
BLOCK
  8
0
  5
15B3
  2
*D7
 70
    65
 10
0.0
 20
0.0
 30
0.0
  3
*D21
  0
LINE
  8
F02_DIM
 62
     0
  5
15AA
 10
-22.5
 20
-72.603528
 30
0.0
 11
-22.5
 21
-111.105472
 31
0.0
1001
ACAD
1000
RTLwPs
1070
   158
  0
LINE
  8
F02_DIM
 62
     0
  5
15AB
 10
22.5
 20
-74.0
 30
0.0
 11
22.5
 21
-111.105472
 31
0.0
1001
ACAD
1000
RTLwPs
1070
   158
  0
LINE
  8
F02_DIM
 62
     0
  5
15AC
 10
-19.5
 20
-110.105472
 30
0.0
 11
19.5
 21
-110.105472
 31
0.0
1001
ACAD
1000
RTLwPs
1070
   158
  0
INSERT
  8
F02_DIM
 62
     0
  5
15AD
  2
_OPEN30
 10
-22.5
 20
-110.105472
 30
0.0
 41
3.0
 42
3.0
 50
180.0
 43
3.0
1001
ACAD
1000
RTLwPs
1070
   158
  0
INSERT
  8
F02_DIM
 62
     0
  5
15AE
  2
_OPEN30
 10
22.5
 20
-110.105472
 30
0.0
 41
3.0
 42
3.0
 43
3.0
1001
ACAD
1000
RTLwPs
1070
   158
  0
TEXT
  8
F02_DIM
 62
     0
  5
15AF
 10
-2.5
 20
-109.105472
 30
0.0
 40
3.0
  1
45
1001
ACAD
1000
MTEXTBEGIN
1070
    73
1070
     1
1070
    44
1040
1.0
1070
    74
1070
     0
1000
MTEXTEND
  0
POINT
  8
DEFPOINTS
 62
     0
  5
15B0
 10
-22.5
 20
-71.603528
 30
0.0
  0
POINT
  8
DEFPOINTS
 62
     0
  5
15B1
 10
22.5
 20
-73.0
 30
0.0
  0
POINT
  8
DEFPOINTS
 62
     0
  5
15B2
 10
22.5
 20
-110.105472
 30
0.0
  0
ENDBLK
  8
0
  5
15B4
  0
BLOCK
  8
0
  5
15BF
  2
*D8
 70
    65
 10
0.0
 20
0.0
 30
0.0
  3
*D22
  0
LINE
  8
F02_DIM
 62
     0
  5
15B6
 10
-22.5
 20
-72.603528
 30
0.0
 11
-22.5
 21
-103.030988
 31
0.0
1001
ACAD
1000
RTLwPs
1070
   158
  0
LINE
  8
F02_DIM
 62
     0
  5
15B7
 10
17.8
 20
-44.330036
 30
0.0
 11
17.8
 21
-103.030988
 31
0.0
1001
ACAD
1000
RTLwPs
1070
   158
  0
LINE
  8
F02_DIM
 62
     0
  5
15B8
 10
-19.5
 20
-102.030988
 30
0.0
 11
14.8
 21
-102.030988
 31
0.0
1001
ACAD
1000
RTLwPs
1070
   158
  0
INSERT
  8
F02_DIM
 62
     0
  5
15B9
  2
_OPEN30
 10
-22.5
 20
-102.030988
 30
0.0
 41
3.0
 42
3.0
 50
180.0
 43
3.0
1001
ACAD
1000
RTLwPs
1070
   158
  0
INSERT
  8
F02_DIM
 62
     0
  5
15BA
  2
_OPEN30
 10
17.8
 20
-102.030988
 30
0.0
 41
3.0
 42
3.0
 43
3.0
1001
ACAD
1000
RTLwPs
1070
   158
  0
TEXT
  8
F02_DIM
 62
     0
  5
15BB
 10
-6.6
 20
-101.030988
 30
0.0
 40
3.0
  1
40.5
1001
ACAD
1000
MTEXTBEGIN
1070
    73
1070
     1
1070
    44
1040
1.0
1070
    74
1070
     0
1000
MTEXTEND
  0
POINT
  8
DEFPOINTS
 62
     0
  5
15BC
 10
-22.5
 20
-71.603528
 30
0.0
  0
POINT
  8
DEFPOINTS
 62
     0
  5
15BD
 10
17.8
 20
-43.330036
 30
0.0
  0
POINT
  8
DEFPOINTS
 62
     0
  5
15BE
 10
17.8
 20
-102.030988
 30
0.0
  0
ENDBLK
  8
0
  5
15C0
  0
BLOCK
  8
0
  5
15CB
  2
*D9
 70
    65
 10
0.0
 20
0.0
 30
0.0
  3
*D23
  0
LINE
  8
F02_DIM
 62
     0
  5
15C2
 10
23.2
 20
24.0
 30
0.0
 11
83.544814
 21
24.0
 31
0.0
1001
ACAD
1000
RTLwPs
1070
   158
  0
LINE
  8
F02_DIM
 62
     0
  5
15C3
 10
23.2
 20
-73.3
 30
0.0
 11
83.544814
 21
-73.3
 31
0.0
1001
ACAD
1000
RTLwPs
1070
   158
  0
LINE
  8
F02_DIM
 62
     0
  5
15C4
 10
82.544814
 20
21.0
 30
0.0
 11
82.544814
 21
-70.3
 31
0.0
1001
ACAD
1000
RTLwPs
1070
   158
  0
INSERT
  8
F02_DIM
 62
     0
  5
15C5
  2
_OPEN30
 10
82.544814
 20
24.0
 30
0.0
 41
3.0
 42
3.0
 50
90.0
 43
3.0
1001
ACAD
1000
RTLwPs
1070
   158
  0
INSERT
  8
F02_DIM
 62
     0
  5
15C6
  2
_OPEN30
 10
82.544814
 20
-73.3
 30
0.0
 41
3.0
 42
3.0
 50
270.0
 43
3.0
1001
ACAD
1000
RTLwPs
1070
   158
  0
TEXT
  8
F02_DIM
 62
     0
  5
15C7
 10
81.544814
 20
-31.15
 30
0.0
 40
3.0
  1
(97.5)
 50
90.0
1001
ACAD
1000
MTEXTBEGIN
1070
    73
1070
     1
1070
    44
1040
1.0
1070
    74
1070
     0
1000
MTEXTEND
  0
POINT
  8
DEFPOINTS
 62
     0
  5
15C8
 10
22.2
 20
24.0
 30
0.0
  0
POINT
  8
DEFPOINTS
 62
     0
  5
15C9
 10
22.2
 20
-73.3
 30
0.0
  0
POINT
  8
DEFPOINTS
 62
     0
  5
15CA
 10
82.544814
 20
-73.3
 30
0.0
  0
ENDBLK
  8
0
  5
15CC
  0
BLOCK
  8
0
  5
15D7
  2
*D10
 70
    65
 10
0.0
 20
0.0
 30
0.0
  3
*D24
  0
LINE
  8
F02_DIM
 62
     0
  5
15CE
 10
22.1
 20
-29.6
 30
0.0
 11
74.670146
 21
-29.6
 31
0.0
1001
ACAD
1000
RTLwPs
1070
   158
  0
LINE
  8
F02_DIM
 62
     0
  5
15CF
 10
4.25
 20
-11.81
 30
0.0
 11
74.670146
 21
-11.81
 31
0.0
1001
ACAD
1000
RTLwPs
1070
   158
  0
LINE
  8
F02_DIM
 62
     0
  5
15D0
 10
73.670146
 20
-26.6
 30
0.0
 11
73.670146
 21
-14.81
 31
0.0
1001
ACAD
1000
RTLwPs
1070
   158
  0
INSERT
  8
F02_DIM
 62
     0
  5
15D1
  2
_OPEN30
 10
73.670146
 20
-29.6
 30
0.0
 41
3.0
 42
3.0
 50
270.0
 43
3.0
1001
ACAD
1000
RTLwPs
1070
   158
  0
INSERT
  8
F02_DIM
 62
     0
  5
15D2
  2
_OPEN30
 10
73.670146
 20
-11.81
 30
0.0
 41
3.0
 42
3.0
 50
90.0
 43
3.0
1001
ACAD
1000
RTLwPs
1070
   158
  0
TEXT
  8
F02_DIM
 62
     0
  5
15D3
 10
72.670146
 20
-24.705
 30
0.0
 40
3.0
  1
17.5
 50
90.0
1001
ACAD
1000
MTEXTBEGIN
1070
    73
1070
     1
1070
    44
1040
1.0
1070
    74
1070
     0
1000
MTEXTEND
  0
POINT
  8
DEFPOINTS
 62
     0
  5
15D4
 10
21.1
 20
-29.6
 30
0.0
  0
POINT
  8
DEFPOINTS
 62
     0
  5
15D5
 10
3.25
 20
-11.81
 30
0.0
  0
POINT
  8
DEFPOINTS
 62
     0
  5
15D6
 10
73.670146
 20
-11.81
 30
0.0
  0
ENDBLK
  8
0
  5
15D8
  0
BLOCK
  8
0
  5
15E3
  2
*D11
 70
    65
 10
0.0
 20
0.0
 30
0.0
  3
*D25
  0
LINE
  8
F02_DIM
 62
     0
  5
15DA
 10
22.1
 20
-29.6
 30
0.0
 11
74.670146
 21
-29.6
 31
0.0
1001
ACAD
1000
RTLwPs
1070
   158
  0
LINE
  8
F02_DIM
 62
     0
  5
15DB
 10
23.2
 20
-73.3
 30
0.0
 11
74.670146
 21
-73.3
 31
0.0
1001
ACAD
1000
RTLwPs
1070
   158
  0
LINE
  8
F02_DIM
 62
     0
  5
15DC
 10
73.670146
 20
-32.6
 30
0.0
 11
73.670146
 21
-70.3
 31
0.0
1001
ACAD
1000
RTLwPs
1070
   158
  0
INSERT
  8
F02_DIM
 62
     0
  5
15DD
  2
_OPEN30
 10
73.670146
 20
-29.6
 30
0.0
 41
3.0
 42
3.0
 50
90.0
 43
3.0
1001
ACAD
1000
RTLwPs
1070
   158
  0
INSERT
  8
F02_DIM
 62
     0
  5
15DE
  2
_OPEN30
 10
73.670146
 20
-73.3
 30
0.0
 41
3.0
 42
3.0
 50
270.0
 43
3.0
1001
ACAD
1000
RTLwPs
1070
   158
  0
TEXT
  8
F02_DIM
 62
     0
  5
15DF
 10
72.670146
 20
-53.95
 30
0.0
 40
3.0
  1
44
 50
90.0
1001
ACAD
1000
MTEXTBEGIN
1070
    73
1070
     1
1070
    44
1040
1.0
1070
    74
1070
     0
1000
MTEXTEND
  0
POINT
  8
DEFPOINTS
 62
     0
  5
15E0
 10
21.1
 20
-29.6
 30
0.0
  0
POINT
  8
DEFPOINTS
 62
     0
  5
15E1
 10
22.2
 20
-73.3
 30
0.0
  0
POINT
  8
DEFPOINTS
 62
     0
  5
15E2
 10
73.670146
 20
-73.3
 30
0.0
  0
ENDBLK
  8
0
  5
15E4
  0
BLOCK
  8
0
  5
15EF
  2
*D12
 70
    65
 10
0.0
 20
0.0
 30
0.0
  3
*D26
  0
LINE
  8
F02_DIM
 62
     0
  5
15E6
 10
22.1
 20
-29.6
 30
0.0
 11
66.525135
 21
-29.6
 31
0.0
1001
ACAD
1000
RTLwPs
1070
   158
  0
LINE
  8
F02_DIM
 62
     0
  5
15E7
 10
4.622239
 20
-63.5
 30
0.0
 11
66.525135
 21
-63.5
 31
0.0
1001
ACAD
1000
RTLwPs
1070
   158
  0
LINE
  8
F02_DIM
 62
     0
  5
15E8
 10
65.525135
 20
-32.6
 30
0.0
 11
65.525135
 21
-60.5
 31
0.0
1001
ACAD
1000
RTLwPs
1070
   158
  0
INSERT
  8
F02_DIM
 62
     0
  5
15E9
  2
_OPEN30
 10
65.525135
 20
-29.6
 30
0.0
 41
3.0
 42
3.0
 50
90.0
 43
3.0
1001
ACAD
1000
RTLwPs
1070
   158
  0
INSERT
  8
F02_DIM
 62
     0
  5
15EA
  2
_OPEN30
 10
65.525135
 20
-63.5
 30
0.0
 41
3.0
 42
3.0
 50
270.0
 43
3.0
1001
ACAD
1000
RTLwPs
1070
   158
  0
TEXT
  8
F02_DIM
 62
     0
  5
15EB
 10
64.525135
 20
-49.05
 30
0.0
 40
3.0
  1
34
 50
90.0
1001
ACAD
1000
MTEXTBEGIN
1070
    73
1070
     1
1070
    44
1040
1.0
1070
    74
1070
     0
1000
MTEXTEND
  0
POINT
  8
DEFPOINTS
 62
     0
  5
15EC
 10
21.1
 20
-29.6
 30
0.0
  0
POINT
  8
DEFPOINTS
 62
     0
  5
15ED
 10
3.622239
 20
-63.5
 30
0.0
  0
POINT
  8
DEFPOINTS
 62
     0
  5
15EE
 10
65.525135
 20
-63.5
 30
0.0
  0
ENDBLK
  8
0
  5
15F0
  0
BLOCK
  8
0
  5
15FB
  2
*D13
 70
    65
 10
0.0
 20
0.0
 30
0.0
  3
*D27
  0
LINE
  8
F02_DIM
 62
     0
  5
15F2
 10
22.030036
 20
-40.1
 30
0.0
 11
58.46768
 21
-40.1
 31
0.0
1001
ACAD
1000
RTLwPs
1070
   158
  0
LINE
  8
F02_DIM
 62
     0
  5
15F3
 10
22.1
 20
-29.6
 30
0.0
 11
58.46768
 21
-29.6
 31
0.0
1001
ACAD
1000
RTLwPs
1070
   158
  0
LINE
  8
F02_DIM
 62
     0
  5
15F4
 10
57.46768
 20
-37.1
 30
0.0
 11
57.46768
 21
-32.6
 31
0.0
1001
ACAD
1000
RTLwPs
1070
   158
  0
INSERT
  8
F02_DIM
 62
     0
  5
15F5
  2
_OPEN30
 10
57.46768
 20
-40.1
 30
0.0
 41
3.0
 42
3.0
 50
270.0
 43
3.0
1001
ACAD
1000
RTLwPs
1070
   158
  0
INSERT
  8
F02_DIM
 62
     0
  5
15F6
  2
_OPEN30
 10
57.46768
 20
-29.6
 30
0.0
 41
3.0
 42
3.0
 50
90.0
 43
3.0
1001
ACAD
1000
RTLwPs
1070
   158
  0
TEXT
  8
F02_DIM
 62
     0
  5
15F7
 10
56.46768
 20
-38.6
 30
0.0
 40
3.0
  1
10.5
 50
90.0
1001
ACAD
1000
MTEXTBEGIN
1070
    73
1070
     1
1070
    44
1040
1.0
1070
    74
1070
     0
1000
MTEXTEND
  0
POINT
  8
DEFPOINTS
 62
     0
  5
15F8
 10
21.030036
 20
-40.1
 30
0.0
  0
POINT
  8
DEFPOINTS
 62
     0
  5
15F9
 10
21.1
 20
-29.6
 30
0.0
  0
POINT
  8
DEFPOINTS
 62
     0
  5
15FA
 10
57.46768
 20
-29.6
 30
0.0
  0
ENDBLK
  8
0
  5
15FC
  0
BLOCK
  8
0
  5
1609
  2
*D14
 70
    65
 10
0.0
 20
0.0
 30
0.0
  3
*D28
  0
LINE
  8
F02_DIM
 62
     0
  5
15FE
 10
-3.9
 20
-72.681173
 30
0.0
 11
-3.9
 21
-81.699878
 31
0.0
1001
ACAD
1000
RTLwPs
1070
   158
  0
LINE
  8
F02_DIM
 62
     0
  5
15FF
 10
3.9
 20
-72.681173
 30
0.0
 11
3.9
 21
-81.699878
 31
0.0
1001
ACAD
1000
RTLwPs
1070
   158
  0
LINE
  8
F02_DIM
 62
     0
  5
1600
 10
-6.9
 20
-80.699878
 30
0.0
 11
-9.9
 21
-80.699878
 31
0.0
1001
ACAD
1000
RTLwPs
1070
   158
  0
LINE
  8
F02_DIM
 62
     0
  5
1601
 10
6.9
 20
-80.699878
 30
0.0
 11
9.9
 21
-80.699878
 31
0.0
1001
ACAD
1000
RTLwPs
1070
   158
  0
TEXT
  8
F02_DIM
 62
     0
  5
1602
 10
-3.0
 20
-82.199878
 30
0.0
 40
3.0
  1
7.7
1001
ACAD
1000
MTEXTBEGIN
1070
    73
1070
     1
1070
    44
1040
1.0
1070
    74
1070
     0
1000
MTEXTEND
  0
LINE
  8
F02_DIM
 62
     0
  5
1603
 10
-3.9
 20
-80.699878
 30
0.0
 11
3.9
 21
-80.699878
 31
0.0
1001
ACAD
1000
RTLwPs
1070
   158
  0
INSERT
  8
F02_DIM
 62
     0
  5
1604
  2
_OPEN30
 10
-3.9
 20
-80.699878
 30
0.0
 41
3.0
 42
3.0
 43
3.0
1001
ACAD
1000
RTLwPs
1070
   158
  0
INSERT
  8
F02_DIM
 62
     0
  5
1605
  2
_OPEN30
 10
3.9
 20
-80.699878
 30
0.0
 41
3.0
 42
3.0
 50
180.0
 43
3.0
1001
ACAD
1000
RTLwPs
1070
   158
  0
POINT
  8
DEFPOINTS
 62
     0
  5
1606
 10
-3.9
 20
-71.681173
 30
0.0
  0
POINT
  8
DEFPOINTS
 62
     0
  5
1607
 10
3.9
 20
-71.681173
 30
0.0
  0
POINT
  8
DEFPOINTS
 62
     0
  5
1608
 10
3.9
 20
-80.699878
 30
0.0
  0
ENDBLK
  8
0
  5
160A
  0
BLOCK
  8
0
  5
1617
  2
*D15
 70
    65
 10
0.0
 20
0.0
 30
0.0
  3
*D29
  0
LINE
  8
F02_DIM
 62
     0
  5
160C
 10
-17.6
 20
-74.022787
 30
0.0
 11
-17.6
 21
-93.420308
 31
0.0
1001
ACAD
1000
RTLwPs
1070
   158
  0
LINE
  8
F02_DIM
 62
     0
  5
160D
 10
-8.8
 20
-74.022787
 30
0.0
 11
-8.8
 21
-93.420308
 31
0.0
1001
ACAD
1000
RTLwPs
1070
   158
  0
LINE
  8
F02_DIM
 62
     0
  5
160E
 10
-20.6
 20
-92.420308
 30
0.0
 11
-23.6
 21
-92.420308
 31
0.0
1001
ACAD
1000
RTLwPs
1070
   158
  0
LINE
  8
F02_DIM
 62
     0
  5
160F
 10
-5.8
 20
-92.420308
 30
0.0
 11
-2.8
 21
-92.420308
 31
0.0
1001
ACAD
1000
RTLwPs
1070
   158
  0
TEXT
  8
F02_DIM
 62
     0
  5
1610
 10
-16.053461
 20
-93.920308
 30
0.0
 40
3.0
  1
8.7
1001
ACAD
1000
MTEXTBEGIN
1070
    73
1070
     1
1070
    44
1040
1.0
1070
    74
1070
     0
1000
MTEXTEND
  0
LINE
  8
F02_DIM
 62
     0
  5
1611
 10
-17.6
 20
-92.420308
 30
0.0
 11
-8.8
 21
-92.420308
 31
0.0
1001
ACAD
1000
RTLwPs
1070
   158
  0
INSERT
  8
F02_DIM
 62
     0
  5
1612
  2
_OPEN30
 10
-17.6
 20
-92.420308
 30
0.0
 41
3.0
 42
3.0
 43
3.0
1001
ACAD
1000
RTLwPs
1070
   158
  0
INSERT
  8
F02_DIM
 62
     0
  5
1613
  2
_OPEN30
 10
-8.8
 20
-92.420308
 30
0.0
 41
3.0
 42
3.0
 50
180.0
 43
3.0
1001
ACAD
1000
RTLwPs
1070
   158
  0
POINT
  8
DEFPOINTS
 62
     0
  5
1614
 10
-17.6
 20
-73.022787
 30
0.0
  0
POINT
  8
DEFPOINTS
 62
     0
  5
1615
 10
-8.8
 20
-73.022787
 30
0.0
  0
POINT
  8
DEFPOINTS
 62
     0
  5
1616
 10
-8.8
 20
-92.420308
 30
0.0
  0
ENDBLK
  8
0
  5
1618
  0
ENDSEC
  0
SECTION
  2
ENTITIES
  0
LINE
  8
F04_HID
  5
12E
 10
-71.2755
 20
-68.5
 30
0.0
 11
-72.2755
 21
-68.5
 31
0.0
1001
ACAD
1000
RTMaterial
1005
0
  0
LINE
  8
F03_CNT
  5
130
 10
-67.428721
 20
-63.5
 30
0.0
 11
-76.332642
 21
-63.5
 31
0.0
1001
ACAD
1000
RTMaterial
1005
0
  0
LINE
  8
F04_HID
  5
131
 10
-72.2755
 20
-59.9
 30
0.0
 11
-72.2755
 21
-68.5
 31
0.0
1001
ACAD
1000
RTMaterial
1005
0
  0
LINE
  8
F04_HID
  5
132
 10
-71.2755
 20
-59.9
 30
0.0
 11
-71.2755
 21
-68.5
 31
0.0
1001
ACAD
1000
RTMaterial
1005
0
  0
CIRCLE
  8
F01_OUT
  5
133
 10
8.8
 20
-58.5
 30
0.0
 40
3.3
1001
ACAD
1000
RTMaterial
1005
0
  0
CIRCLE
  8
F01_OUT
  5
134
 10
17.6
 20
-58.5
 30
0.0
 40
3.3
1001
ACAD
1000
RTMaterial
1005
0
  0
LINE
  8
F01_OUT
  5
135
 10
5.0
 20
-63.2
 30
0.0
 11
5.0
 21
-61.8
 31
0.0
1001
ACAD
1000
RTMaterial
1005
0
  0
LINE
  8
F01_OUT
  5
136
 10
5.0
 20
-61.8
 30
0.0
 11
5.0
 21
-60.033975
 31
0.0
1001
ACAD
1000
RTMaterial
1005
0
  0
LINE
  8
F01_OUT
  5
137
 10
5.0
 20
-56.966026
 30
0.0
 11
5.0
 21
-55.2
 31
0.0
1001
ACAD
1000
RTMaterial
1005
0
  0
LINE
  8
F01_OUT
  5
138
 10
5.0
 20
-57.988675
 30
0.0
 11
5.0
 21
-56.966026
 31
0.0
1001
ACAD
1000
RTMaterial
1005
0
  0
LINE
  8
F01_OUT
  5
139
 10
5.0
 20
-59.011325
 30
0.0
 11
5.0
 21
-57.988675
 31
0.0
1001
ACAD
1000
RTMaterial
1005
0
  0
LINE
  8
F01_OUT
  5
13A
 10
5.0
 20
-60.033975
 30
0.0
 11
5.0
 21
-59.011325
 31
0.0
1001
ACAD
1000
RTMaterial
1005
0
  0
LINE
  8
F01_OUT
  5
13B
 10
5.0
 20
-63.5
 30
0.0
 11
5.0
 21
-63.2
 31
0.0
1001
ACAD
1000
RTMaterial
1005
0
  0
LINE
  8
F01_OUT
  5
13C
 10
5.0
 20
-55.2
 30
0.0
 11
5.0
 21
-54.9
 31
0.0
1001
ACAD
1000
RTMaterial
1005
0
  0
LINE
  8
F01_OUT
  5
13D
 10
5.0
 20
-54.9
 30
0.0
 11
5.0
 21
-54.6
 31
0.0
1001
ACAD
1000
RTMaterial
1005
0
  0
LINE
  8
F01_OUT
  5
13E
 10
6.5
 20
-54.6
 30
0.0
 11
5.0
 21
-54.6
 31
0.0
1001
ACAD
1000
RTMaterial
1005
0
  0
LINE
  8
F01_OUT
  5
13F
 10
13.35
 20
-62.4
 30
0.0
 11
13.35
 21
-54.9
 31
0.0
1001
ACAD
1000
RTMaterial
1005
0
  0
LINE
  8
F01_OUT
  5
140
 10
13.05
 20
-62.4
 30
0.0
 11
13.05
 21
-54.9
 31
0.0
1001
ACAD
1000
RTMaterial
1005
0
  0
LINE
  8
F01_OUT
  5
141
 10
13.05
 20
-62.4
 30
0.0
 11
12.6
 21
-62.4
 31
0.0
1001
ACAD
1000
RTMaterial
1005
0
  0
LINE
  8
F01_OUT
  5
142
 10
13.8
 20
-62.4
 30
0.0
 11
13.35
 21
-62.4
 31
0.0
1001
ACAD
1000
RTMaterial
1005
0
  0
LINE
  8
F01_OUT
  5
143
 10
12.6
 20
-62.5
 30
0.0
 11
12.7
 21
-62.5
 31
0.0
1001
ACAD
1000
RTMaterial
1005
0
  0
LINE
  8
F01_OUT
  5
144
 10
13.35
 20
-62.4
 30
0.0
 11
13.05
 21
-62.4
 31
0.0
1001
ACAD
1000
RTMaterial
1005
0
  0
LINE
  8
F01_OUT
  5
145
 10
13.05
 20
-54.9
 30
0.0
 11
5.0
 21
-54.9
 31
0.0
1001
ACAD
1000
RTMaterial
1005
0
  0
LINE
  8
F01_OUT
  5
146
 10
22.5
 20
-56.9
 30
0.0
 11
22.5
 21
-54.9
 31
0.0
1001
ACAD
1000
RTMaterial
1005
0
  0
LINE
  8
F01_OUT
  5
147
 10
22.5
 20
-54.9
 30
0.0
 11
13.35
 21
-54.9
 31
0.0
1001
ACAD
1000
RTMaterial
1005
0
  0
LINE
  8
F01_OUT
  5
148
 10
13.05
 20
-54.651795
 30
0.0
 11
13.05
 21
-54.9
 31
0.0
1001
ACAD
1000
RTMaterial
1005
0
  0
LINE
  8
F01_OUT
  5
149
 10
13.35
 20
-54.651795
 30
0.0
 11
13.05
 21
-54.651795
 31
0.0
1001
ACAD
1000
RTMaterial
1005
0
  0
LINE
  8
F01_OUT
  5
14A
 10
13.35
 20
-54.651795
 30
0.0
 11
13.35
 21
-54.9
 31
0.0
1001
ACAD
1000
RTMaterial
1005
0
  0
LINE
  8
F01_OUT
  5
14B
 10
22.5
 20
-62.4
 30
0.0
 11
22.5
 21
-58.7
 31
0.0
1001
ACAD
1000
RTMaterial
1005
0
  0
LINE
  8
F01_OUT
  5
14C
 10
22.5
 20
-58.7
 30
0.0
 11
22.5
 21
-58.0
 31
0.0
1001
ACAD
1000
RTMaterial
1005
0
  0
LINE
  8
F01_OUT
  5
14D
 10
21.4
 20
-62.5
 30
0.0
 11
21.5
 21
-62.5
 31
0.0
1001
ACAD
1000
RTMaterial
1005
0
  0
LINE
  8
F01_OUT
  5
14E
 10
22.5
 20
-56.9
 30
0.0
 11
22.5
 21
-58.0
 31
0.0
1001
ACAD
1000
RTMaterial
1005
0
  0
LINE
  8
F01_OUT
  5
14F
 10
22.5
 20
-62.4
 30
0.0
 11
21.4
 21
-62.4
 31
0.0
1001
ACAD
1000
RTMaterial
1005
0
  0
LINE
  8
F01_OUT
  5
150
 10
19.9
 20
-54.6
 30
0.0
 11
11.6
 21
-54.6
 31
0.0
1001
ACAD
1000
RTMaterial
1005
0
  0
LINE
  8
F01_OUT
  5
151
 10
20.3
 20
-54.6
 30
0.0
 11
19.9
 21
-54.6
 31
0.0
1001
ACAD
1000
RTMaterial
1005
0
  0
LINE
  8
F01_OUT
  5
152
 10
12.6
 20
-63.5
 30
0.0
 11
12.6
 21
-62.5
 31
0.0
1001
ACAD
1000
RTMaterial
1005
0
  0
LINE
  8
F01_OUT
  5
153
 10
12.6
 20
-62.5
 30
0.0
 11
12.6
 21
-62.4
 31
0.0
1001
ACAD
1000
RTMaterial
1005
0
  0
LINE
  8
F01_OUT
  5
154
 10
13.8
 20
-63.5
 30
0.0
 11
13.8
 21
-62.4
 31
0.0
1001
ACAD
1000
RTMaterial
1005
0
  0
LINE
  8
F01_OUT
  5
155
 10
11.6
 20
-54.6
 30
0.0
 11
6.5
 21
-54.6
 31
0.0
1001
ACAD
1000
RTMaterial
1005
0
  0
LINE
  8
F01_OUT
  5
156
 10
12.6
 20
-63.5
 30
0.0
 11
5.0
 21
-63.5
 31
0.0
1001
ACAD
1000
RTMaterial
1005
0
  0
LINE
  8
F01_OUT
  5
157
 10
21.4
 20
-63.5
 30
0.0
 11
21.4
 21
-62.5
 31
0.0
1001
ACAD
1000
RTMaterial
1005
0
  0
LINE
  8
F01_OUT
  5
158
 10
20.8
 20
-54.6
 30
0.0
 11
21.4
 21
-54.6
 31
0.0
1001
ACAD
1000
RTMaterial
1005
0
  0
LINE
  8
F01_OUT
  5
159
 10
21.4
 20
-62.5
 30
0.0
 11
21.4
 21
-62.4
 31
0.0
1001
ACAD
1000
RTMaterial
1005
0
  0
LINE
  8
F01_OUT
  5
15A
 10
20.3
 20
-54.6
 30
0.0
 11
20.8
 21
-54.6
 31
0.0
1001
ACAD
1000
RTMaterial
1005
0
  0
LINE
  8
F01_OUT
  5
15B
 10
21.4
 20
-63.5
 30
0.0
 11
13.8
 21
-63.5
 31
0.0
1001
ACAD
1000
RTMaterial
1005
0
  0
LINE
  8
F01_OUT
  5
15C
 10
12.7
 20
-63.5
 30
0.0
 11
12.6
 21
-63.5
 31
0.0
1001
ACAD
1000
RTMaterial
1005
0
  0
LINE
  8
F01_OUT
  5
15D
 10
21.5
 20
-63.5
 30
0.0
 11
21.4
 21
-63.5
 31
0.0
1001
ACAD
1000
RTMaterial
1005
0
  0
LINE
  8
F01_OUT
  5
15E
 10
22.5
 20
-54.6
 30
0.0
 11
21.5
 21
-54.6
 31
0.0
1001
ACAD
1000
RTMaterial
1005
0
  0
LINE
  8
F01_OUT
  5
15F
 10
21.4
 20
-54.6
 30
0.0
 11
21.5
 21
-54.6
 31
0.0
1001
ACAD
1000
RTMaterial
1005
0
  0
LINE
  8
F01_OUT
  5
160
 10
22.5
 20
-54.9
 30
0.0
 11
22.5
 21
-54.6
 31
0.0
1001
ACAD
1000
RTMaterial
1005
0
  0
CIRCLE
  8
F01_OUT
  5
161
 10
17.6
 20
-67.1
 30
0.0
 40
3.3
1001
ACAD
1000
RTMaterial
1005
0
  0
CIRCLE
  8
F01_OUT
  5
162
 10
8.8
 20
-67.1
 30
0.0
 40
3.3
1001
ACAD
1000
RTMaterial
1005
0
  0
LINE
  8
F01_OUT
  5
163
 10
5.0
 20
-65.566026
 30
0.0
 11
5.0
 21
-63.8
 31
0.0
1001
ACAD
1000
RTMaterial
1005
0
  0
LINE
  8
F01_OUT
  5
164
 10
5.0
 20
-66.588675
 30
0.0
 11
5.0
 21
-65.566026
 31
0.0
1001
ACAD
1000
RTMaterial
1005
0
  0
LINE
  8
F01_OUT
  5
165
 10
5.0
 20
-67.611325
 30
0.0
 11
5.0
 21
-66.588675
 31
0.0
1001
ACAD
1000
RTMaterial
1005
0
  0
LINE
  8
F01_OUT
  5
166
 10
5.0
 20
-68.633975
 30
0.0
 11
5.0
 21
-67.611325
 31
0.0
1001
ACAD
1000
RTMaterial
1005
0
  0
LINE
  8
F01_OUT
  5
167
 10
13.7
 20
-63.2
 30
0.0
 11
13.8
 21
-63.2
 31
0.0
1001
ACAD
1000
RTMaterial
1005
0
  0
LINE
  8
F01_OUT
  5
168
 10
5.0
 20
-63.8
 30
0.0
 11
5.0
 21
-63.5
 31
0.0
1001
ACAD
1000
RTMaterial
1005
0
  0
LINE
  8
F01_OUT
  5
169
 10
5.0
 20
-70.4
 30
0.0
 11
5.0
 21
-68.633975
 31
0.0
1001
ACAD
1000
RTMaterial
1005
0
  0
LINE
  8
F01_OUT
  5
16A
 10
5.0
 20
-72.1
 30
0.0
 11
5.0
 21
-70.4
 31
0.0
1001
ACAD
1000
RTMaterial
1005
0
  0
LINE
  8
F01_OUT
  5
16B
 10
13.8
 20
-63.5
 30
0.0
 11
13.7
 21
-63.5
 31
0.0
1001
ACAD
1000
RTMaterial
1005
0
  0
LINE
  8
F01_OUT
  5
16C
 10
22.5
 20
-64.4
 30
0.0
 11
22.5
 21
-63.5
 31
0.0
1001
ACAD
1000
RTMaterial
1005
0
  0
LINE
  8
F01_OUT
  5
16D
 10
22.5
 20
-63.5
 30
0.0
 11
22.5
 21
-63.2
 31
0.0
1001
ACAD
1000
RTMaterial
1005
0
  0
LINE
  8
F01_OUT
  5
16E
 10
12.6
 20
-71.1
 30
0.0
 11
12.7
 21
-71.1
 31
0.0
1001
ACAD
1000
RTMaterial
1005
0
  0
LINE
  8
F01_OUT
  5
16F
 10
13.35
 20
-71.0
 30
0.0
 11
13.05
 21
-71.0
 31
0.0
1001
ACAD
1000
RTMaterial
1005
0
  0
LINE
  8
F01_OUT
  5
170
 10
12.6
 20
-72.1
 30
0.0
 11
12.6
 21
-71.1
 31
0.0
1001
ACAD
1000
RTMaterial
1005
0
  0
LINE
  8
F01_OUT
  5
171
 10
12.6
 20
-71.1
 30
0.0
 11
12.6
 21
-71.0
 31
0.0
1001
ACAD
1000
RTMaterial
1005
0
  0
LINE
  8
F01_OUT
  5
172
 10
13.05
 20
-71.0
 30
0.0
 11
12.6
 21
-71.0
 31
0.0
1001
ACAD
1000
RTMaterial
1005
0
  0
LINE
  8
F01_OUT
  5
173
 10
12.6
 20
-72.1
 30
0.0
 11
5.0
 21
-72.1
 31
0.0
1001
ACAD
1000
RTMaterial
1005
0
  0
LINE
  8
F01_OUT
  5
174
 10
12.7
 20
-72.1
 30
0.0
 11
12.6
 21
-72.1
 31
0.0
1001
ACAD
1000
RTMaterial
1005
0
  0
LINE
  8
F01_OUT
  5
175
 10
21.4
 20
-72.1
 30
0.0
 11
13.8
 21
-72.1
 31
0.0
1001
ACAD
1000
RTMaterial
1005
0
  0
LINE
  8
F01_OUT
  5
176
 10
13.8
 20
-71.0
 30
0.0
 11
13.35
 21
-71.0
 31
0.0
1001
ACAD
1000
RTMaterial
1005
0
  0
LINE
  8
F01_OUT
  5
177
 10
21.4
 20
-72.1
 30
0.0
 11
21.4
 21
-71.1
 31
0.0
1001
ACAD
1000
RTMaterial
1005
0
  0
LINE
  8
F01_OUT
  5
178
 10
13.8
 20
-72.1
 30
0.0
 11
13.8
 21
-71.0
 31
0.0
1001
ACAD
1000
RTMaterial
1005
0
  0
LINE
  8
F01_OUT
  5
179
 10
21.5
 20
-72.1
 30
0.0
 11
21.4
 21
-72.1
 31
0.0
1001
ACAD
1000
RTMaterial
1005
0
  0
LINE
  8
F01_OUT
  5
17A
 10
21.4
 20
-71.1
 30
0.0
 11
21.4
 21
-71.0
 31
0.0
1001
ACAD
1000
RTMaterial
1005
0
  0
LINE
  8
F01_OUT
  5
17B
 10
21.4
 20
-71.1
 30
0.0
 11
21.5
 21
-71.1
 31
0.0
1001
ACAD
1000
RTMaterial
1005
0
  0
LINE
  8
F01_OUT
  5
17C
 10
22.5
 20
-71.0
 30
0.0
 11
21.4
 21
-71.0
 31
0.0
1001
ACAD
1000
RTMaterial
1005
0
  0
LINE
  8
F01_OUT
  5
17D
 10
13.35
 20
-71.0
 30
0.0
 11
13.35
 21
-64.7
 31
0.0
1001
ACAD
1000
RTMaterial
1005
0
  0
LINE
  8
F01_OUT
  5
17E
 10
13.05
 20
-71.0
 30
0.0
 11
13.05
 21
-64.7
 31
0.0
1001
ACAD
1000
RTMaterial
1005
0
  0
LINE
  8
F01_OUT
  5
17F
 10
22.5
 20
-71.0
 30
0.0
 11
22.5
 21
-64.4
 31
0.0
1001
ACAD
1000
RTMaterial
1005
0
  0
CIRCLE
  8
F01_OUT
  5
180
 10
0.0
 20
-63.5
 30
0.0
 40
3.3
1001
ACAD
1000
RTMaterial
1005
0
  0
CIRCLE
  8
F01_OUT
  5
181
 10
-17.6
 20
-63.5
 30
0.0
 40
3.3
1001
ACAD
1000
RTMaterial
1005
0
  0
CIRCLE
  8
F01_OUT
  5
182
 10
-8.8
 20
-63.5
 30
0.0
 40
3.3
1001
ACAD
1000
RTMaterial
1005
0
  0
LINE
  8
F01_OUT
  5
183
 10
3.9
 20
-67.5
 30
0.0
 11
3.7
 21
-67.5
 31
0.0
1001
ACAD
1000
RTMaterial
1005
0
  0
LINE
  8
F01_OUT
  5
184
 10
3.9
 20
-68.5
 30
0.0
 11
3.7
 21
-68.5
 31
0.0
1001
ACAD
1000
RTMaterial
1005
0
  0
LINE
  8
F01_OUT
  5
185
 10
3.7
 20
-68.5
 30
0.0
 11
3.7
 21
-67.5
 31
0.0
1001
ACAD
1000
RTMaterial
1005
0
  0
LINE
  8
F01_OUT
  5
186
 10
3.7
 20
-67.5
 30
0.0
 11
3.7
 21
-67.4
 31
0.0
1001
ACAD
1000
RTMaterial
1005
0
  0
LINE
  8
F01_OUT
  5
187
 10
4.9
 20
-59.6
 30
0.0
 11
3.9
 21
-59.6
 31
0.0
1001
ACAD
1000
RTMaterial
1005
0
  0
LINE
  8
F01_OUT
  5
188
 10
4.9
 20
-67.4
 30
0.0
 11
3.7
 21
-67.4
 31
0.0
1001
ACAD
1000
RTMaterial
1005
0
  0
LINE
  8
F01_OUT
  5
189
 10
4.9
 20
-67.4
 30
0.0
 11
4.9
 21
-63.2
 31
0.0
1001
ACAD
1000
RTMaterial
1005
0
  0
LINE
  8
F01_OUT
  5
18A
 10
4.9
 20
-63.2
 30
0.0
 11
4.9
 21
-62.0
 31
0.0
1001
ACAD
1000
RTMaterial
1005
0
  0
LINE
  8
F01_OUT
  5
18B
 10
4.9
 20
-62.0
 30
0.0
 11
4.9
 21
-59.9
 31
0.0
1001
ACAD
1000
RTMaterial
1005
0
  0
LINE
  8
F01_OUT
  5
18C
 10
4.9
 20
-59.9
 30
0.0
 11
4.9
 21
-59.6
 31
0.0
1001
ACAD
1000
RTMaterial
1005
0
  0
LINE
  8
F01_OUT
  5
18D
 10
0.2
 20
-59.6
 30
0.0
 11
-1.3
 21
-59.6
 31
0.0
1001
ACAD
1000
RTMaterial
1005
0
  0
LINE
  8
F01_OUT
  5
18E
 10
3.9
 20
-59.6
 30
0.0
 11
0.2
 21
-59.6
 31
0.0
1001
ACAD
1000
RTMaterial
1005
0
  0
LINE
  8
F01_OUT
  5
18F
 10
-4.55
 20
-59.9
 30
0.0
 11
-13.05
 21
-59.9
 31
0.0
1001
ACAD
1000
RTMaterial
1005
0
  0
LINE
  8
F01_OUT
  5
190
 10
-13.35
 20
-59.651795
 30
0.0
 11
-13.35
 21
-59.9
 31
0.0
1001
ACAD
1000
RTMaterial
1005
0
  0
LINE
  8
F01_OUT
  5
191
 10
-13.05
 20
-59.651795
 30
0.0
 11
-13.05
 21
-59.9
 31
0.0
1001
ACAD
1000
RTMaterial
1005
0
  0
LINE
  8
F01_OUT
  5
192
 10
-4.55
 20
-59.651795
 30
0.0
 11
-4.55
 21
-59.9
 31
0.0
1001
ACAD
1000
RTMaterial
1005
0
  0
LINE
  8
F01_OUT
  5
193
 10
-4.25
 20
-59.651795
 30
0.0
 11
-4.25
 21
-59.9
 31
0.0
1001
ACAD
1000
RTMaterial
1005
0
  0
LINE
  8
F01_OUT
  5
194
 10
-1.3
 20
-59.6
 30
0.0
 11
-13.7
 21
-59.6
 31
0.0
1001
ACAD
1000
RTMaterial
1005
0
  0
LINE
  8
F01_OUT
  5
195
 10
-13.7
 20
-59.6
 30
0.0
 11
-15.9
 21
-59.6
 31
0.0
1001
ACAD
1000
RTMaterial
1005
0
  0
LINE
  8
F01_OUT
  5
196
 10
-4.25
 20
-59.651795
 30
0.0
 11
-4.55
 21
-59.651795
 31
0.0
1001
ACAD
1000
RTMaterial
1005
0
  0
LINE
  8
F01_OUT
  5
197
 10
-13.05
 20
-59.651795
 30
0.0
 11
-13.35
 21
-59.651795
 31
0.0
1001
ACAD
1000
RTMaterial
1005
0
  0
LINE
  8
F01_OUT
  5
198
 10
-17.8
 20
-59.6
 30
0.0
 11
-20.0
 21
-59.6
 31
0.0
1001
ACAD
1000
RTMaterial
1005
0
  0
LINE
  8
F01_OUT
  5
199
 10
-16.3
 20
-59.6
 30
0.0
 11
-17.8
 21
-59.6
 31
0.0
1001
ACAD
1000
RTMaterial
1005
0
  0
LINE
  8
F01_OUT
  5
19A
 10
-15.9
 20
-59.6
 30
0.0
 11
-16.3
 21
-59.6
 31
0.0
1001
ACAD
1000
RTMaterial
1005
0
  0
LINE
  8
F01_OUT
  5
19B
 10
-22.5
 20
-59.6
 30
0.0
 11
-22.5
 21
-59.9
 31
0.0
1001
ACAD
1000
RTMaterial
1005
0
  0
LINE
  8
F01_OUT
  5
19C
 10
-21.5
 20
-59.6
 30
0.0
 11
-22.2
 21
-59.6
 31
0.0
1001
ACAD
1000
RTMaterial
1005
0
  0
LINE
  8
F01_OUT
  5
19D
 10
-22.2
 20
-59.6
 30
0.0
 11
-22.5
 21
-59.6
 31
0.0
1001
ACAD
1000
RTMaterial
1005
0
  0
LINE
  8
F01_OUT
  5
19E
 10
-20.0
 20
-59.6
 30
0.0
 11
-21.5
 21
-59.6
 31
0.0
1001
ACAD
1000
RTMaterial
1005
0
  0
LINE
  8
F01_OUT
  5
19F
 10
4.9
 20
-59.9
 30
0.0
 11
-4.25
 21
-59.9
 31
0.0
1001
ACAD
1000
RTMaterial
1005
0
  0
LINE
  8
F01_OUT
  5
1A0
 10
-13.35
 20
-68.5
 30
0.0
 11
-13.35
 21
-59.9
 31
0.0
1001
ACAD
1000
RTMaterial
1005
0
  0
LINE
  8
F01_OUT
  5
1A1
 10
-13.35
 20
-68.5
 30
0.0
 11
-21.3
 21
-68.5
 31
0.0
1001
ACAD
1000
RTMaterial
1005
0
  0
LINE
  8
F01_OUT
  5
1A2
 10
-21.3
 20
-68.5
 30
0.0
 11
-21.3
 21
-67.5
 31
0.0
1001
ACAD
1000
RTMaterial
1005
0
  0
LINE
  8
F01_OUT
  5
1A3
 10
-21.3
 20
-67.5
 30
0.0
 11
-21.3
 21
-67.4
 31
0.0
1001
ACAD
1000
RTMaterial
1005
0
  0
LINE
  8
F01_OUT
  5
1A4
 10
-21.5
 20
-67.5
 30
0.0
 11
-21.3
 21
-67.5
 31
0.0
1001
ACAD
1000
RTMaterial
1005
0
  0
LINE
  8
F01_OUT
  5
1A5
 10
-4.55
 20
-68.5
 30
0.0
 11
-4.55
 21
-59.9
 31
0.0
1001
ACAD
1000
RTMaterial
1005
0
  0
LINE
  8
F01_OUT
  5
1A6
 10
-4.25
 20
-68.5
 30
0.0
 11
-4.25
 21
-59.9
 31
0.0
1001
ACAD
1000
RTMaterial
1005
0
  0
LINE
  8
F01_OUT
  5
1A7
 10
-13.05
 20
-68.5
 30
0.0
 11
-13.05
 21
-59.9
 31
0.0
1001
ACAD
1000
RTMaterial
1005
0
  0
LINE
  8
F01_OUT
  5
1A8
 10
-4.55
 20
-68.5
 30
0.0
 11
-13.05
 21
-68.5
 31
0.0
1001
ACAD
1000
RTMaterial
1005
0
  0
LINE
  8
F01_OUT
  5
1A9
 10
3.7
 20
-68.5
 30
0.0
 11
-4.25
 21
-68.5
 31
0.0
1001
ACAD
1000
RTMaterial
1005
0
  0
LINE
  8
F01_OUT
  5
1AA
 10
-4.25
 20
-68.5
 30
0.0
 11
-4.55
 21
-68.5
 31
0.0
1001
ACAD
1000
RTMaterial
1005
0
  0
LINE
  8
F01_OUT
  5
1AB
 10
-13.05
 20
-68.5
 30
0.0
 11
-13.35
 21
-68.5
 31
0.0
1001
ACAD
1000
RTMaterial
1005
0
  0
LINE
  8
F01_OUT
  5
1AC
 10
-21.5
 20
-68.5
 30
0.0
 11
-21.3
 21
-68.5
 31
0.0
1001
ACAD
1000
RTMaterial
1005
0
  0
LINE
  8
F01_OUT
  5
1AD
 10
-22.5
 20
-59.9
 30
0.0
 11
-22.5
 21
-67.4
 31
0.0
1001
ACAD
1000
RTMaterial
1005
0
  0
LINE
  8
F01_OUT
  5
1AE
 10
-21.3
 20
-67.4
 30
0.0
 11
-22.5
 21
-67.4
 31
0.0
1001
ACAD
1000
RTMaterial
1005
0
  0
LINE
  8
F01_OUT
  5
1AF
 10
-13.35
 20
-59.9
 30
0.0
 11
-22.5
 21
-59.9
 31
0.0
1001
ACAD
1000
RTMaterial
1005
0
  0
LINE
  8
F01_OUT
  5
1B0
 10
-22.5
 20
-67.4
 30
0.0
 11
-22.5
 21
-68.660504
 31
0.0
1001
ACAD
1000
RTMaterial
1005
0
  0
LINE
  8
F01_OUT
  5
1B1
 10
-3.9
 20
-68.7
 30
0.0
 11
-3.9
 21
-68.5
 31
0.0
1001
ACAD
1000
RTMaterial
1005
0
  0
LINE
  8
F01_OUT
  5
1B2
 10
1.7
 20
-33.3
 30
0.0
 11
3.2
 21
-33.3
 31
0.0
1001
ACAD
1000
RTMaterial
1005
0
  0
LINE
  8
F01_OUT
  5
1B3
 10
4.9
 20
-33.3
 30
0.0
 11
5.2
 21
-33.3
 31
0.0
1001
ACAD
1000
RTMaterial
1005
0
  0
LINE
  8
F01_OUT
  5
1B4
 10
1.5
 20
-33.3
 30
0.0
 11
1.7
 21
-33.3
 31
0.0
1001
ACAD
1000
RTMaterial
1005
0
  0
LINE
  8
F01_OUT
  5
1B5
 10
3.2
 20
-33.3
 30
0.0
 11
3.4
 21
-33.3
 31
0.0
1001
ACAD
1000
RTMaterial
1005
0
  0
LINE
  8
F01_OUT
  5
1B6
 10
22.5
 20
-71.8
 30
0.0
 11
22.5
 21
-71.0
 31
0.0
1001
ACAD
1000
RTMaterial
1005
0
  0
LINE
  8
F01_OUT
  5
1B7
 10
22.2
 20
-64.7
 30
0.0
 11
21.8
 21
-64.7
 31
0.0
1001
ACAD
1000
RTMaterial
1005
0
  0
LINE
  8
F01_OUT
  5
1B8
 10
-3.6
 20
-69.3
 30
0.0
 11
3.6
 21
-69.3
 31
0.0
1001
ACAD
1000
RTMaterial
1005
0
  0
LINE
  8
F01_OUT
  5
1B9
 10
3.4
 20
-69.8
 30
0.0
 11
3.6
 21
-69.8
 31
0.0
1001
ACAD
1000
RTMaterial
1005
0
  0
LINE
  8
F01_OUT
  5
1BA
 10
-8.0
 20
-69.0
 30
0.0
 11
-9.6
 21
-69.0
 31
0.0
1001
ACAD
1000
RTMaterial
1005
0
  0
LINE
  8
F01_OUT
  5
1BB
 10
-13.7
 20
-68.7
 30
0.0
 11
-12.7
 21
-68.7
 31
0.0
1001
ACAD
1000
RTMaterial
1005
0
  0
LINE
  8
F01_OUT
  5
1BC
 10
-18.4
 20
-69.0
 30
0.0
 11
-16.8
 21
-69.0
 31
0.0
1001
ACAD
1000
RTMaterial
1005
0
  0
LINE
  8
F01_OUT
  5
1BD
 10
-4.9
 20
-68.7
 30
0.0
 11
-4.9
 21
-69.724264
 31
0.0
1001
ACAD
1000
RTMaterial
1005
0
  0
LINE
  8
F01_OUT
  5
1BE
 10
-3.9
 20
-68.7
 30
0.0
 11
-3.9
 21
-69.724264
 31
0.0
1001
ACAD
1000
RTMaterial
1005
0
  0
LINE
  8
F01_OUT
  5
1BF
 10
-12.7
 20
-68.7
 30
0.0
 11
-12.7
 21
-69.724264
 31
0.0
1001
ACAD
1000
RTMaterial
1005
0
  0
LINE
  8
F01_OUT
  5
1C0
 10
-13.7
 20
-68.7
 30
0.0
 11
-13.7
 21
-69.724264
 31
0.0
1001
ACAD
1000
RTMaterial
1005
0
  0
LINE
  8
F01_OUT
  5
1C1
 10
-13.7
 20
-70.1
 30
0.0
 11
-13.7
 21
-71.681173
 31
0.0
1001
ACAD
1000
RTMaterial
1005
0
  0
LINE
  8
F01_OUT
  5
1C2
 10
-12.7
 20
-70.1
 30
0.0
 11
-12.7
 21
-71.681173
 31
0.0
1001
ACAD
1000
RTMaterial
1005
0
  0
LINE
  8
F01_OUT
  5
1C3
 10
21.5
 20
-63.4
 30
0.0
 11
21.5
 21
-62.4
 31
0.0
1001
ACAD
1000
RTMaterial
1005
0
  0
LINE
  8
F01_OUT
  5
1C4
 10
12.7
 20
-63.4
 30
0.0
 11
12.7
 21
-62.4
 31
0.0
1001
ACAD
1000
RTMaterial
1005
0
  0
LINE
  8
F01_OUT
  5
1C5
 10
13.7
 20
-64.4
 30
0.0
 11
13.7
 21
-63.2
 31
0.0
1001
ACAD
1000
RTMaterial
1005
0
  0
LINE
  8
F01_OUT
  5
1C6
 10
13.7
 20
-71.0
 30
0.0
 11
13.7
 21
-71.8
 31
0.0
1001
ACAD
1000
RTMaterial
1005
0
  0
LINE
  8
F01_OUT
  5
1C7
 10
22.2
 20
-73.3
 30
0.0
 11
21.8
 21
-73.3
 31
0.0
1001
ACAD
1000
RTMaterial
1005
0
  0
LINE
  8
F01_OUT
  5
1C8
 10
22.5
 20
-73.0
 30
0.0
 11
22.5
 21
-71.8
 31
0.0
1001
ACAD
1000
RTMaterial
1005
0
  0
LINE
  8
F01_OUT
  5
1C9
 10
21.5
 20
-73.0
 30
0.0
 11
21.5
 21
-71.0
 31
0.0
1001
ACAD
1000
RTMaterial
1005
0
  0
LINE
  8
F01_OUT
  5
1CA
 10
13.7
 20
-71.8
 30
0.0
 11
13.8
 21
-71.8
 31
0.0
1001
ACAD
1000
RTMaterial
1005
0
  0
LINE
  8
F01_OUT
  5
1CB
 10
-22.5
 20
-68.660504
 30
0.0
 11
-22.5
 21
-71.603528
 31
0.0
1001
ACAD
1000
RTMaterial
1005
0
  0
LINE
  8
F01_OUT
  5
1CC
 10
-22.5
 20
-71.603528
 30
0.0
 11
-22.5
 21
-71.9
 31
0.0
1001
ACAD
1000
RTMaterial
1005
0
  0
LINE
  8
F01_OUT
  5
1CD
 10
13.7
 20
-73.0
 30
0.0
 11
13.7
 21
-71.8
 31
0.0
1001
ACAD
1000
RTMaterial
1005
0
  0
LINE
  8
F01_OUT
  5
1CE
 10
-3.6
 20
-69.8
 30
0.0
 11
3.4
 21
-69.8
 31
0.0
1001
ACAD
1000
RTMaterial
1005
0
  0
LINE
  8
F01_OUT
  5
1CF
 10
3.4
 20
-71.9
 30
0.0
 11
3.4
 21
-69.8
 31
0.0
1001
ACAD
1000
RTMaterial
1005
0
  0
LINE
  8
F01_OUT
  5
1D0
 10
13.4
 20
-73.3
 30
0.0
 11
13.0
 21
-73.3
 31
0.0
1001
ACAD
1000
RTMaterial
1005
0
  0
LINE
  8
F01_OUT
  5
1D1
 10
12.7
 20
-73.0
 30
0.0
 11
12.7
 21
-71.0
 31
0.0
1001
ACAD
1000
RTMaterial
1005
0
  0
LINE
  8
F01_OUT
  5
1D2
 10
-22.2
 20
-72.2
 30
0.0
 11
-21.8
 21
-72.2
 31
0.0
1001
ACAD
1000
RTMaterial
1005
0
  0
LINE
  8
F01_OUT
  5
1D3
 10
-21.5
 20
-68.7
 30
0.0
 11
-22.2
 21
-68.7
 31
0.0
1001
ACAD
1000
RTMaterial
1005
0
  0
LINE
  8
F01_OUT
  5
1D4
 10
-4.6
 20
-72.2
 30
0.0
 11
-4.2
 21
-72.2
 31
0.0
1001
ACAD
1000
RTMaterial
1005
0
  0
LINE
  8
F01_OUT
  5
1D5
 10
-13.4
 20
-72.2
 30
0.0
 11
-13.0
 21
-72.2
 31
0.0
1001
ACAD
1000
RTMaterial
1005
0
  0
LINE
  8
F01_OUT
  5
1D6
 10
-13.7
 20
-71.681173
 30
0.0
 11
-13.7
 21
-71.9
 31
0.0
1001
ACAD
1000
RTMaterial
1005
0
  0
LINE
  8
F01_OUT
  5
1D7
 10
-12.7
 20
-71.681173
 30
0.0
 11
-12.7
 21
-71.9
 31
0.0
1001
ACAD
1000
RTMaterial
1005
0
  0
LINE
  8
F01_OUT
  5
1D8
 10
-7.8
 20
-68.8
 30
0.0
 11
-7.717158
 21
-68.8
 31
0.0
1001
ACAD
1000
RTMaterial
1005
0
  0
LINE
  8
F01_OUT
  5
1D9
 10
-9.882843
 20
-68.8
 30
0.0
 11
-9.8
 21
-68.8
 31
0.0
1001
ACAD
1000
RTMaterial
1005
0
  0
LINE
  8
F01_OUT
  5
1DA
 10
-9.8
 20
-68.8
 30
0.0
 11
-7.8
 21
-68.8
 31
0.0
1001
ACAD
1000
RTMaterial
1005
0
  0
LINE
  8
F01_OUT
  5
1DB
 10
-21.5
 20
-67.4
 30
0.0
 11
-21.5
 21
-68.7
 31
0.0
1001
ACAD
1000
RTMaterial
1005
0
  0
LINE
  8
F01_OUT
  5
1DC
 10
-21.5
 20
-68.7
 30
0.0
 11
-21.5
 21
-69.724264
 31
0.0
1001
ACAD
1000
RTMaterial
1005
0
  0
LINE
  8
F01_OUT
  5
1DD
 10
-21.5
 20
-71.681173
 30
0.0
 11
-21.5
 21
-71.9
 31
0.0
1001
ACAD
1000
RTMaterial
1005
0
  0
LINE
  8
F01_OUT
  5
1DE
 10
-21.5
 20
-69.724264
 30
0.0
 11
-21.5
 21
-70.1
 31
0.0
1001
ACAD
1000
RTMaterial
1005
0
  0
LINE
  8
F01_OUT
  5
1DF
 10
-21.5
 20
-70.1
 30
0.0
 11
-21.5
 21
-71.681173
 31
0.0
1001
ACAD
1000
RTMaterial
1005
0
  0
LINE
  8
F01_OUT
  5
1E0
 10
-3.9
 20
-70.1
 30
0.0
 11
-3.9
 21
-71.681173
 31
0.0
1001
ACAD
1000
RTMaterial
1005
0
  0
LINE
  8
F01_OUT
  5
1E1
 10
-3.9
 20
-71.681173
 30
0.0
 11
-3.9
 21
-71.9
 31
0.0
1001
ACAD
1000
RTMaterial
1005
0
  0
LINE
  8
F01_OUT
  5
1E2
 10
-14.0
 20
-69.8
 30
0.0
 11
-21.2
 21
-69.8
 31
0.0
1001
ACAD
1000
RTMaterial
1005
0
  0
LINE
  8
F01_OUT
  5
1E3
 10
-14.0
 20
-69.3
 30
0.0
 11
-21.2
 21
-69.3
 31
0.0
1001
ACAD
1000
RTMaterial
1005
0
  0
LINE
  8
F01_OUT
  5
1E4
 10
-12.4
 20
-69.8
 30
0.0
 11
-5.2
 21
-69.8
 31
0.0
1001
ACAD
1000
RTMaterial
1005
0
  0
LINE
  8
F01_OUT
  5
1E5
 10
-12.4
 20
-69.3
 30
0.0
 11
-5.2
 21
-69.3
 31
0.0
1001
ACAD
1000
RTMaterial
1005
0
  0
LINE
  8
F01_OUT
  5
1E6
 10
-4.9
 20
-71.681173
 30
0.0
 11
-4.9
 21
-71.9
 31
0.0
1001
ACAD
1000
RTMaterial
1005
0
  0
LINE
  8
F01_OUT
  5
1E7
 10
-4.9
 20
-70.1
 30
0.0
 11
-4.9
 21
-71.681173
 31
0.0
1001
ACAD
1000
RTMaterial
1005
0
  0
LINE
  8
F01_OUT
  5
1E8
 10
-4.9
 20
-69.724264
 30
0.0
 11
-4.9
 21
-70.1
 31
0.0
1001
ACAD
1000
RTMaterial
1005
0
  0
LINE
  8
F01_OUT
  5
1E9
 10
-12.7
 20
-69.724264
 30
0.0
 11
-12.7
 21
-70.1
 31
0.0
1001
ACAD
1000
RTMaterial
1005
0
  0
LINE
  8
F01_OUT
  5
1EA
 10
-13.7
 20
-69.724264
 30
0.0
 11
-13.7
 21
-70.1
 31
0.0
1001
ACAD
1000
RTMaterial
1005
0
  0
LINE
  8
F01_OUT
  5
1EB
 10
-18.6
 20
-68.8
 30
0.0
 11
-18.682843
 21
-68.8
 31
0.0
1001
ACAD
1000
RTMaterial
1005
0
  0
LINE
  8
F01_OUT
  5
1EC
 10
-16.517158
 20
-68.8
 30
0.0
 11
-16.6
 21
-68.8
 31
0.0
1001
ACAD
1000
RTMaterial
1005
0
  0
LINE
  8
F01_OUT
  5
1ED
 10
-16.6
 20
-68.8
 30
0.0
 11
-18.6
 21
-68.8
 31
0.0
1001
ACAD
1000
RTMaterial
1005
0
  0
LINE
  8
F01_OUT
  5
1EE
 10
-18.7
 20
-68.7
 30
0.0
 11
-18.7
 21
-68.5
 31
0.0
1001
ACAD
1000
RTMaterial
1005
0
  0
LINE
  8
F01_OUT
  5
1EF
 10
-16.5
 20
-68.7
 30
0.0
 11
-16.5
 21
-68.5
 31
0.0
1001
ACAD
1000
RTMaterial
1005
0
  0
LINE
  8
F01_OUT
  5
1F0
 10
-4.9
 20
-68.5
 30
0.0
 11
-4.9
 21
-68.7
 31
0.0
1001
ACAD
1000
RTMaterial
1005
0
  0
LINE
  8
F01_OUT
  5
1F1
 10
-12.7
 20
-68.5
 30
0.0
 11
-12.7
 21
-68.7
 31
0.0
1001
ACAD
1000
RTMaterial
1005
0
  0
LINE
  8
F01_OUT
  5
1F2
 10
-7.7
 20
-68.7
 30
0.0
 11
-7.7
 21
-68.5
 31
0.0
1001
ACAD
1000
RTMaterial
1005
0
  0
LINE
  8
F01_OUT
  5
1F3
 10
-9.9
 20
-68.7
 30
0.0
 11
-9.9
 21
-68.5
 31
0.0
1001
ACAD
1000
RTMaterial
1005
0
  0
LINE
  8
F01_OUT
  5
1F4
 10
-13.7
 20
-68.5
 30
0.0
 11
-13.7
 21
-68.7
 31
0.0
1001
ACAD
1000
RTMaterial
1005
0
  0
LINE
  8
F01_OUT
  5
1F5
 10
-3.9
 20
-68.7
 30
0.0
 11
-4.9
 21
-68.7
 31
0.0
1001
ACAD
1000
RTMaterial
1005
0
  0
LINE
  8
F01_OUT
  5
1F6
 10
22.5
 20
-63.2
 30
0.0
 11
22.5
 21
-62.4
 31
0.0
1001
ACAD
1000
RTMaterial
1005
0
  0
LINE
  8
F01_OUT
  5
1F7
 10
22.5
 20
-35.8
 30
0.0
 11
22.5
 21
-39.0
 31
0.0
1001
ACAD
1000
RTMaterial
1005
0
  0
LINE
  8
F01_OUT
  5
1F8
 10
22.5
 20
-39.0
 30
0.0
 11
21.5
 21
-39.0
 31
0.0
1001
ACAD
1000
RTMaterial
1005
0
  0
LINE
  8
F01_OUT
  5
1F9
 10
22.5
 20
-40.8
 30
0.0
 11
22.5
 21
-42.6
 31
0.0
1001
ACAD
1000
RTMaterial
1005
0
  0
LINE
  8
F01_OUT
  5
1FA
 10
21.5
 20
-40.8
 30
0.0
 11
22.5
 21
-40.8
 31
0.0
1001
ACAD
1000
RTMaterial
1005
0
  0
LINE
  8
F01_OUT
  5
1FB
 10
22.5
 20
-54.6
 30
0.0
 11
22.5
 21
-42.6
 31
0.0
1001
ACAD
1000
RTMaterial
1005
0
  0
LINE
  8
F01_OUT
  5
1FC
 10
22.5
 20
-31.9
 30
0.0
 11
22.5
 21
-33.8
 31
0.0
1001
ACAD
1000
RTMaterial
1005
0
  0
LINE
  8
F01_OUT
  5
1FD
 10
6.2
 20
-33.3
 30
0.0
 11
14.725
 21
-33.3
 31
0.0
1001
ACAD
1000
RTMaterial
1005
0
  0
LINE
  8
F01_OUT
  5
1FE
 10
5.2
 20
-33.3
 30
0.0
 11
6.2
 21
-33.3
 31
0.0
1001
ACAD
1000
RTMaterial
1005
0
  0
LINE
  8
F01_OUT
  5
1FF
 10
3.9
 20
-33.3
 30
0.0
 11
4.4
 21
-33.3
 31
0.0
1001
ACAD
1000
RTMaterial
1005
0
  0
LINE
  8
F01_OUT
  5
200
 10
4.9
 20
-33.3
 30
0.0
 11
4.4
 21
-33.3
 31
0.0
1001
ACAD
1000
RTMaterial
1005
0
  0
LINE
  8
F01_OUT
  5
201
 10
15.225
 20
-33.8
 30
0.0
 11
15.225
 21
-37.080385
 31
0.0
1001
ACAD
1000
RTMaterial
1005
0
  0
LINE
  8
F01_OUT
  5
202
 10
22.4
 20
-31.9
 30
0.0
 11
22.5
 21
-31.9
 31
0.0
1001
ACAD
1000
RTMaterial
1005
0
  0
LINE
  8
F01_OUT
  5
203
 10
3.9
 20
-33.3
 30
0.0
 11
3.9
 21
-32.8
 31
0.0
1001
ACAD
1000
RTMaterial
1005
0
  0
LINE
  8
F01_OUT
  5
204
 10
20.375
 20
-40.1
 30
0.0
 11
20.375
 21
-35.8
 31
0.0
1001
ACAD
1000
RTMaterial
1005
0
  0
LINE
  8
F01_OUT
  5
205
 10
2.292893
 20
-35.6
 30
0.0
 11
1.7
 21
-35.6
 31
0.0
1001
ACAD
1000
RTMaterial
1005
0
  0
LINE
  8
F01_OUT
  5
206
 10
1.2
 20
-35.3
 30
0.0
 11
1.2
 21
-35.392893
 31
0.0
1001
ACAD
1000
RTMaterial
1005
0
  0
LINE
  8
F01_OUT
  5
207
 10
1.2
 20
-35.392893
 30
0.0
 11
1.2
 21
-36.1
 31
0.0
1001
ACAD
1000
RTMaterial
1005
0
  0
LINE
  8
F01_OUT
  5
208
 10
3.0
 20
-36.1
 30
0.0
 11
3.0
 21
-35.6
 31
0.0
1001
ACAD
1000
RTMaterial
1005
0
  0
LINE
  8
F01_OUT
  5
209
 10
3.0
 20
-35.6
 30
0.0
 11
3.0
 21
-35.3
 31
0.0
1001
ACAD
1000
RTMaterial
1005
0
  0
LINE
  8
F01_OUT
  5
20A
 10
2.971404
 20
-35.628596
 30
0.0
 11
3.0
 21
-35.6
 31
0.0
1001
ACAD
1000
RTMaterial
1005
0
  0
LINE
  8
F01_OUT
  5
20B
 10
22.5
 20
-35.8
 30
0.0
 11
22.5
 21
-35.2
 31
0.0
1001
ACAD
1000
RTMaterial
1005
0
  0
LINE
  8
F01_OUT
  5
20C
 10
22.5
 20
-35.2
 30
0.0
 11
22.5
 21
-33.8
 31
0.0
1001
ACAD
1000
RTMaterial
1005
0
  0
LINE
  8
F01_OUT
  5
20D
 10
20.9
 20
-35.8
 30
0.0
 11
21.4
 21
-35.8
 31
0.0
1001
ACAD
1000
RTMaterial
1005
0
  0
LINE
  8
F01_OUT
  5
20E
 10
21.4
 20
-35.8
 30
0.0
 11
21.5
 21
-35.8
 31
0.0
1001
ACAD
1000
RTMaterial
1005
0
  0
LINE
  8
F01_OUT
  5
20F
 10
22.4
 20
-35.8
 30
0.0
 11
22.5
 21
-35.8
 31
0.0
1001
ACAD
1000
RTMaterial
1005
0
  0
LINE
  8
F01_OUT
  5
210
 10
20.375
 20
-35.8
 30
0.0
 11
20.9
 21
-35.8
 31
0.0
1001
ACAD
1000
RTMaterial
1005
0
  0
LINE
  8
F01_OUT
  5
211
 10
21.5
 20
-35.8
 30
0.0
 11
22.4
 21
-35.8
 31
0.0
1001
ACAD
1000
RTMaterial
1005
0
  0
LINE
  8
F01_OUT
  5
212
 10
2.5
 20
-34.8
 30
0.0
 11
1.7
 21
-34.8
 31
0.0
1001
ACAD
1000
RTMaterial
1005
0
  0
LINE
  8
F01_OUT
  5
213
 10
22.5
 20
-33.8
 30
0.0
 11
22.4
 21
-33.8
 31
0.0
1001
ACAD
1000
RTMaterial
1005
0
  0
LINE
  8
F01_OUT
  5
214
 10
20.3
 20
-38.1
 30
0.0
 11
20.375
 21
-38.1
 31
0.0
1001
ACAD
1000
RTMaterial
1005
0
  0
LINE
  8
F01_OUT
  5
215
 10
19.3
 20
-38.1
 30
0.0
 11
19.538533
 21
-38.1
 31
0.0
1001
ACAD
1000
RTMaterial
1005
0
  0
LINE
  8
F01_OUT
  5
216
 10
15.225
 20
-37.080385
 30
0.0
 11
15.525
 21
-37.6
 31
0.0
1001
ACAD
1000
RTMaterial
1005
0
  0
LINE
  8
F01_OUT
  5
217
 10
1.7
 20
-36.6
 30
0.0
 11
2.5
 21
-36.6
 31
0.0
1001
ACAD
1000
RTMaterial
1005
0
  0
LINE
  8
F01_OUT
  5
218
 10
20.375
 20
-36.2
 30
0.0
 11
20.3
 21
-36.2
 31
0.0
1001
ACAD
1000
RTMaterial
1005
0
  0
LINE
  8
F01_OUT
  5
219
 10
15.525
 20
-38.893766
 30
0.0
 11
15.525
 21
-37.6
 31
0.0
1001
ACAD
1000
RTMaterial
1005
0
  0
LINE
  8
F01_OUT
  5
21A
 10
16.061466
 20
-38.1
 30
0.0
 11
16.3
 21
-38.1
 31
0.0
1001
ACAD
1000
RTMaterial
1005
0
  0
LINE
  8
F01_OUT
  5
21B
 10
21.5
 20
-63.5
 30
0.0
 11
21.5
 21
-63.4
 31
0.0
1001
ACAD
1000
RTMaterial
1005
0
  0
LINE
  8
F01_OUT
  5
21C
 10
22.5
 20
-39.0
 30
0.0
 11
22.5
 21
-40.8
 31
0.0
1001
ACAD
1000
RTMaterial
1005
0
  0
LINE
  8
F01_OUT
  5
21D
 10
22.2
 20
-42.6
 30
0.0
 11
21.3
 21
-42.6
 31
0.0
1001
ACAD
1000
RTMaterial
1005
0
  0
LINE
  8
F01_OUT
  5
21E
 10
22.5
 20
-42.6
 30
0.0
 11
22.2
 21
-42.6
 31
0.0
1001
ACAD
1000
RTMaterial
1005
0
  0
LINE
  8
F01_OUT
  5
21F
 10
21.5
 20
-64.4
 30
0.0
 11
21.5
 21
-63.5
 31
0.0
1001
ACAD
1000
RTMaterial
1005
0
  0
LINE
  8
F01_OUT
  5
220
 10
20.2
 20
-47.6
 30
0.0
 11
12.6
 21
-47.6
 31
0.0
1001
ACAD
1000
RTMaterial
1005
0
  0
LINE
  8
F01_OUT
  5
221
 10
1.4
 20
-43.6
 30
0.0
 11
1.4
 21
-51.7
 31
0.0
1001
ACAD
1000
RTMaterial
1005
0
  0
LINE
  8
F01_OUT
  5
222
 10
1.4
 20
-54.6
 30
0.0
 11
3.9
 21
-54.6
 31
0.0
1001
ACAD
1000
RTMaterial
1005
0
  0
LINE
  8
F01_OUT
  5
223
 10
3.9
 20
-54.6
 30
0.0
 11
3.9
 21
-51.7
 31
0.0
1001
ACAD
1000
RTMaterial
1005
0
  0
LINE
  8
F01_OUT
  5
224
 10
3.9
 20
-51.7
 30
0.0
 11
1.4
 21
-51.7
 31
0.0
1001
ACAD
1000
RTMaterial
1005
0
  0
LINE
  8
F01_OUT
  5
225
 10
20.2
 20
-53.6
 30
0.0
 11
20.2
 21
-47.6
 31
0.0
1001
ACAD
1000
RTMaterial
1005
0
  0
LINE
  8
F01_OUT
  5
226
 10
20.8
 20
-54.6
 30
0.0
 11
21.3
 21
-54.1
 31
0.0
1001
ACAD
1000
RTMaterial
1005
0
  0
LINE
  8
F01_OUT
  5
227
 10
21.3
 20
-42.6
 30
0.0
 11
21.0
 21
-42.6
 31
0.0
1001
ACAD
1000
RTMaterial
1005
0
  0
LINE
  8
F01_OUT
  5
228
 10
21.5
 20
-40.8
 30
0.0
 11
21.5
 21
-39.0
 31
0.0
1001
ACAD
1000
RTMaterial
1005
0
  0
LINE
  8
F01_OUT
  5
229
 10
21.3
 20
-42.6
 30
0.0
 11
21.3
 21
-54.1
 31
0.0
1001
ACAD
1000
RTMaterial
1005
0
  0
LINE
  8
F01_OUT
  5
22A
 10
5.0
 20
-63.2
 30
0.0
 11
4.9
 21
-63.2
 31
0.0
1001
ACAD
1000
RTMaterial
1005
0
  0
LINE
  8
F01_OUT
  5
22B
 10
5.0
 20
-54.6
 30
0.0
 11
4.9
 21
-54.6
 31
0.0
1001
ACAD
1000
RTMaterial
1005
0
  0
LINE
  8
F01_OUT
  5
22C
 10
13.7
 20
-62.4
 30
0.0
 11
13.7
 21
-63.2
 31
0.0
1001
ACAD
1000
RTMaterial
1005
0
  0
LINE
  8
F01_OUT
  5
22D
 10
12.7
 20
-63.5
 30
0.0
 11
12.7
 21
-63.4
 31
0.0
1001
ACAD
1000
RTMaterial
1005
0
  0
LINE
  8
F01_OUT
  5
22E
 10
12.7
 20
-64.4
 30
0.0
 11
12.7
 21
-63.5
 31
0.0
1001
ACAD
1000
RTMaterial
1005
0
  0
LINE
  8
F01_OUT
  5
22F
 10
13.4
 20
-64.7
 30
0.0
 11
13.0
 21
-64.7
 31
0.0
1001
ACAD
1000
RTMaterial
1005
0
  0
LINE
  8
F01_OUT
  5
230
 10
11.6
 20
-47.7
 30
0.0
 11
11.6
 21
-54.6
 31
0.0
1001
ACAD
1000
RTMaterial
1005
0
  0
LINE
  8
F01_OUT
  5
231
 10
18.7
 20
-49.1
 30
0.0
 11
14.1
 21
-49.1
 31
0.0
1001
ACAD
1000
RTMaterial
1005
0
  0
LINE
  8
F01_OUT
  5
232
 10
18.7
 20
-53.6
 30
0.0
 11
14.1
 21
-53.6
 31
0.0
1001
ACAD
1000
RTMaterial
1005
0
  0
LINE
  8
F01_OUT
  5
233
 10
14.1
 20
-49.1
 30
0.0
 11
14.1
 21
-49.5
 31
0.0
1001
ACAD
1000
RTMaterial
1005
0
  0
LINE
  8
F01_OUT
  5
234
 10
14.1
 20
-53.1
 30
0.0
 11
14.1
 21
-53.6
 31
0.0
1001
ACAD
1000
RTMaterial
1005
0
  0
LINE
  8
F01_OUT
  5
235
 10
14.1
 20
-49.5
 30
0.0
 11
14.1
 21
-53.1
 31
0.0
1001
ACAD
1000
RTMaterial
1005
0
  0
LINE
  8
F01_OUT
  5
236
 10
8.5
 20
-47.7
 30
0.0
 11
11.6
 21
-47.7
 31
0.0
1001
ACAD
1000
RTMaterial
1005
0
  0
LINE
  8
F01_OUT
  5
237
 10
11.6
 20
-46.3
 30
0.0
 11
8.5
 21
-46.3
 31
0.0
1001
ACAD
1000
RTMaterial
1005
0
  0
LINE
  8
F01_OUT
  5
238
 10
14.1
 20
-53.6
 30
0.0
 11
12.6
 21
-53.6
 31
0.0
1001
ACAD
1000
RTMaterial
1005
0
  0
LINE
  8
F01_OUT
  5
239
 10
11.6
 20
-46.3
 30
0.0
 11
11.6
 21
-47.7
 31
0.0
1001
ACAD
1000
RTMaterial
1005
0
  0
LINE
  8
F01_OUT
  5
23A
 10
12.6
 20
-53.6
 30
0.0
 11
12.6
 21
-47.6
 31
0.0
1001
ACAD
1000
RTMaterial
1005
0
  0
LINE
  8
F01_OUT
  5
23B
 10
12.6
 20
-47.6
 30
0.0
 11
14.1
 21
-49.1
 31
0.0
1001
ACAD
1000
RTMaterial
1005
0
  0
LINE
  8
F01_OUT
  5
23C
 10
20.2
 20
-53.6
 30
0.0
 11
18.7
 21
-53.6
 31
0.0
1001
ACAD
1000
RTMaterial
1005
0
  0
LINE
  8
F01_OUT
  5
23D
 10
20.2
 20
-41.033073
 30
0.0
 11
20.2
 21
-40.8
 31
0.0
1001
ACAD
1000
RTMaterial
1005
0
  0
LINE
  8
F01_OUT
  5
23E
 10
19.2
 20
-42.261163
 30
0.0
 11
19.2
 21
-42.171232
 31
0.0
1001
ACAD
1000
RTMaterial
1005
0
  0
LINE
  8
F01_OUT
  5
23F
 10
18.7
 20
-53.6
 30
0.0
 11
18.7
 21
-49.1
 31
0.0
1001
ACAD
1000
RTMaterial
1005
0
  0
LINE
  8
F01_OUT
  5
240
 10
20.2
 20
-47.6
 30
0.0
 11
18.7
 21
-49.1
 31
0.0
1001
ACAD
1000
RTMaterial
1005
0
  0
LINE
  8
F01_OUT
  5
241
 10
-3.9
 20
-69.724264
 30
0.0
 11
-3.9
 21
-70.1
 31
0.0
1001
ACAD
1000
RTMaterial
1005
0
  0
LINE
  8
F01_OUT
  5
242
 10
-3.9
 20
-33.3
 30
0.0
 11
1.0
 21
-33.3
 31
0.0
1001
ACAD
1000
RTMaterial
1005
0
  0
LINE
  8
F01_OUT
  5
243
 10
5.0
 20
-62.1
 30
0.0
 11
4.9
 21
-62.0
 31
0.0
1001
ACAD
1000
RTMaterial
1005
0
  0
LINE
  8
F01_OUT
  5
244
 10
5.499716
 20
-45.566134
 30
0.0
 11
5.572721
 21
-45.152104
 31
0.0
1001
ACAD
1000
RTMaterial
1005
0
  0
LINE
  8
F01_OUT
  5
245
 10
5.0
 20
-70.7
 30
0.0
 11
4.9
 21
-70.6
 31
0.0
1001
ACAD
1000
RTMaterial
1005
0
  0
LINE
  8
F01_OUT
  5
246
 10
3.9
 20
-69.724264
 30
0.0
 11
3.9
 21
-70.1
 31
0.0
1001
ACAD
1000
RTMaterial
1005
0
  0
LINE
  8
F01_OUT
  5
247
 10
3.9
 20
-68.7
 30
0.0
 11
3.9
 21
-69.724264
 31
0.0
1001
ACAD
1000
RTMaterial
1005
0
  0
LINE
  8
F01_OUT
  5
248
 10
3.9
 20
-71.681173
 30
0.0
 11
3.9
 21
-71.9
 31
0.0
1001
ACAD
1000
RTMaterial
1005
0
  0
LINE
  8
F01_OUT
  5
249
 10
3.9
 20
-70.1
 30
0.0
 11
3.9
 21
-71.681173
 31
0.0
1001
ACAD
1000
RTMaterial
1005
0
  0
LINE
  8
F01_OUT
  5
24A
 10
1.573962
 20
-43.6
 30
0.0
 11
1.4
 21
-43.6
 31
0.0
1001
ACAD
1000
RTMaterial
1005
0
  0
LINE
  8
F01_OUT
  5
24B
 10
5.328581
 20
-45.01115
 30
0.0
 11
5.006523
 21
-45.281389
 31
0.0
1001
ACAD
1000
RTMaterial
1005
0
  0
LINE
  8
F01_OUT
  5
24C
 10
5.006523
 20
-45.281389
 30
0.0
 11
3.891811
 21
-46.216743
 31
0.0
1001
ACAD
1000
RTMaterial
1005
0
  0
LINE
  8
F01_OUT
  5
24D
 10
5.247031
 20
-46.99918
 30
0.0
 11
5.499716
 21
-45.566134
 31
0.0
1001
ACAD
1000
RTMaterial
1005
0
  0
LINE
  8
F01_OUT
  5
24E
 10
4.778978
 20
-48.274912
 30
0.0
 11
5.128978
 21
-47.668694
 31
0.0
1001
ACAD
1000
RTMaterial
1005
0
  0
LINE
  8
F01_OUT
  5
24F
 10
3.226481
 20
-43.6
 30
0.0
 11
1.573962
 21
-43.6
 31
0.0
1001
ACAD
1000
RTMaterial
1005
0
  0
LINE
  8
F01_OUT
  5
250
 10
4.9
 20
-68.7
 30
0.0
 11
3.9
 21
-68.7
 31
0.0
1001
ACAD
1000
RTMaterial
1005
0
  0
LINE
  8
F01_OUT
  5
251
 10
3.371021
 20
-46.653738
 30
0.0
 11
3.021021
 21
-47.259955
 31
0.0
1001
ACAD
1000
RTMaterial
1005
0
  0
LINE
  8
F01_OUT
  5
252
 10
3.130829
 20
-47.669763
 30
0.0
 11
4.36917
 21
-48.38472
 31
0.0
1001
ACAD
1000
RTMaterial
1005
0
  0
LINE
  8
F01_OUT
  5
253
 10
3.9
 20
-54.6
 30
0.0
 11
4.9
 21
-54.6
 31
0.0
1001
ACAD
1000
RTMaterial
1005
0
  0
LINE
  8
F01_OUT
  5
254
 10
1.4
 20
-51.7
 30
0.0
 11
1.4
 21
-54.6
 31
0.0
1001
ACAD
1000
RTMaterial
1005
0
  0
LINE
  8
F01_OUT
  5
255
 10
4.9
 20
-71.8
 30
0.0
 11
5.0
 21
-71.8
 31
0.0
1001
ACAD
1000
RTMaterial
1005
0
  0
LINE
  8
F01_OUT
  5
256
 10
4.9
 20
-59.6
 30
0.0
 11
4.9
 21
-54.6
 31
0.0
1001
ACAD
1000
RTMaterial
1005
0
  0
LINE
  8
F01_OUT
  5
257
 10
4.9
 20
-71.9
 30
0.0
 11
4.9
 21
-71.8
 31
0.0
1001
ACAD
1000
RTMaterial
1005
0
  0
LINE
  8
F01_OUT
  5
258
 10
4.9
 20
-71.8
 30
0.0
 11
4.9
 21
-71.681173
 31
0.0
1001
ACAD
1000
RTMaterial
1005
0
  0
LINE
  8
F01_OUT
  5
259
 10
4.9
 20
-71.681173
 30
0.0
 11
4.9
 21
-70.6
 31
0.0
1001
ACAD
1000
RTMaterial
1005
0
  0
LINE
  8
F01_OUT
  5
25A
 10
4.9
 20
-70.6
 30
0.0
 11
4.9
 21
-68.7
 31
0.0
1001
ACAD
1000
RTMaterial
1005
0
  0
LINE
  8
F01_OUT
  5
25B
 10
5.128978
 20
-47.668694
 30
0.0
 11
5.247031
 21
-46.99918
 31
0.0
1001
ACAD
1000
RTMaterial
1005
0
  0
LINE
  8
F01_OUT
  5
25C
 10
4.2
 20
-72.2
 30
0.0
 11
4.6
 21
-72.2
 31
0.0
1001
ACAD
1000
RTMaterial
1005
0
  0
LINE
  8
F01_OUT
  5
25D
 10
4.2
 20
-72.2
 30
0.0
 11
3.7
 21
-72.2
 31
0.0
1001
ACAD
1000
RTMaterial
1005
0
  0
LINE
  8
F01_OUT
  5
25E
 10
3.9
 20
-67.4
 30
0.0
 11
3.9
 21
-68.7
 31
0.0
1001
ACAD
1000
RTMaterial
1005
0
  0
LINE
  8
F01_OUT
  5
25F
 10
3.891811
 20
-46.216743
 30
0.0
 11
3.371021
 21
-46.653738
 31
0.0
1001
ACAD
1000
RTMaterial
1005
0
  0
LINE
  8
F01_OUT
  5
260
 10
0.8
 20
-69.0
 30
0.0
 11
-0.8
 21
-69.0
 31
0.0
1001
ACAD
1000
RTMaterial
1005
0
  0
LINE
  8
F01_OUT
  5
261
 10
1.1
 20
-68.5
 30
0.0
 11
1.1
 21
-68.7
 31
0.0
1001
ACAD
1000
RTMaterial
1005
0
  0
LINE
  8
F01_OUT
  5
262
 10
1.082842
 20
-68.8
 30
0.0
 11
1.0
 21
-68.8
 31
0.0
1001
ACAD
1000
RTMaterial
1005
0
  0
LINE
  8
F01_OUT
  5
263
 10
-1.0
 20
-68.8
 30
0.0
 11
-1.082843
 21
-68.8
 31
0.0
1001
ACAD
1000
RTMaterial
1005
0
  0
LINE
  8
F01_OUT
  5
264
 10
1.0
 20
-68.8
 30
0.0
 11
-1.0
 21
-68.8
 31
0.0
1001
ACAD
1000
RTMaterial
1005
0
  0
LINE
  8
F01_OUT
  5
265
 10
-13.7
 20
-33.3
 30
0.0
 11
-12.85
 21
-33.3
 31
0.0
1001
ACAD
1000
RTMaterial
1005
0
  0
LINE
  8
F01_OUT
  5
266
 10
-16.1
 20
-33.3
 30
0.0
 11
-16.0
 21
-33.3
 31
0.0
1001
ACAD
1000
RTMaterial
1005
0
  0
LINE
  8
F01_OUT
  5
267
 10
-16.0
 20
-33.3
 30
0.0
 11
-15.7
 21
-33.3
 31
0.0
1001
ACAD
1000
RTMaterial
1005
0
  0
LINE
  8
F01_OUT
  5
268
 10
-4.9
 20
-33.3
 30
0.0
 11
-4.05
 21
-33.3
 31
0.0
1001
ACAD
1000
RTMaterial
1005
0
  0
LINE
  8
F01_OUT
  5
269
 10
-12.7
 20
-32.3
 30
0.0
 11
-12.2
 21
-32.3
 31
0.0
1001
ACAD
1000
RTMaterial
1005
0
  0
LINE
  8
F01_OUT
  5
26A
 10
-3.9
 20
-33.3
 30
0.0
 11
-4.05
 21
-33.3
 31
0.0
1001
ACAD
1000
RTMaterial
1005
0
  0
LINE
  8
F01_OUT
  5
26B
 10
-12.7
 20
-33.3
 30
0.0
 11
-12.85
 21
-33.3
 31
0.0
1001
ACAD
1000
RTMaterial
1005
0
  0
LINE
  8
F01_OUT
  5
26C
 10
-22.4
 20
-31.9
 30
0.0
 11
-22.5
 21
-31.9
 31
0.0
1001
ACAD
1000
RTMaterial
1005
0
  0
LINE
  8
F01_OUT
  5
26D
 10
-22.4
 20
-33.3
 30
0.0
 11
-22.5
 21
-33.3
 31
0.0
1001
ACAD
1000
RTMaterial
1005
0
  0
LINE
  8
F01_OUT
  5
26E
 10
-12.2
 20
-32.3
 30
0.0
 11
-11.2
 21
-32.3
 31
0.0
1001
ACAD
1000
RTMaterial
1005
0
  0
LINE
  8
F01_OUT
  5
26F
 10
-15.4
 20
-33.3
 30
0.0
 11
-13.7
 21
-33.3
 31
0.0
1001
ACAD
1000
RTMaterial
1005
0
  0
LINE
  8
F01_OUT
  5
270
 10
-12.7
 20
-33.3
 30
0.0
 11
-4.9
 21
-33.3
 31
0.0
1001
ACAD
1000
RTMaterial
1005
0
  0
LINE
  8
F01_OUT
  5
271
 10
-3.4
 20
-32.3
 30
0.0
 11
-2.4
 21
-32.3
 31
0.0
1001
ACAD
1000
RTMaterial
1005
0
  0
LINE
  8
F01_OUT
  5
272
 10
-22.5
 20
-58.1
 30
0.0
 11
-22.5
 21
-33.8
 31
0.0
1001
ACAD
1000
RTMaterial
1005
0
  0
LINE
  8
F01_OUT
  5
273
 10
-21.5
 20
-58.1
 30
0.0
 11
-22.349443
 21
-58.1
 31
0.0
1001
ACAD
1000
RTMaterial
1005
0
  0
LINE
  8
F01_OUT
  5
274
 10
-15.7
 20
-33.3
 30
0.0
 11
-15.4
 21
-33.3
 31
0.0
1001
ACAD
1000
RTMaterial
1005
0
  0
LINE
  8
F01_OUT
  5
275
 10
-16.1
 20
-33.8
 30
0.0
 11
-16.1
 21
-33.3
 31
0.0
1001
ACAD
1000
RTMaterial
1005
0
  0
LINE
  8
F01_OUT
  5
276
 10
-19.168862
 20
-34.3
 30
0.0
 11
-19.168862
 21
-33.8
 31
0.0
1001
ACAD
1000
RTMaterial
1005
0
  0
LINE
  8
F01_OUT
  5
277
 10
-21.5
 20
-33.8
 30
0.0
 11
-21.5
 21
-33.3
 31
0.0
1001
ACAD
1000
RTMaterial
1005
0
  0
LINE
  8
F01_OUT
  5
278
 10
-21.5
 20
-33.8
 30
0.0
 11
-22.349443
 21
-33.8
 31
0.0
1001
ACAD
1000
RTMaterial
1005
0
  0
LINE
  8
F01_OUT
  5
279
 10
-19.168862
 20
-33.8
 30
0.0
 11
-21.5
 21
-33.8
 31
0.0
1001
ACAD
1000
RTMaterial
1005
0
  0
LINE
  8
F01_OUT
  5
27A
 10
-16.1
 20
-33.8
 30
0.0
 11
-19.168862
 21
-33.8
 31
0.0
1001
ACAD
1000
RTMaterial
1005
0
  0
LINE
  8
F01_OUT
  5
27B
 10
-22.349443
 20
-57.6
 30
0.0
 11
-22.349443
 21
-58.1
 31
0.0
1001
ACAD
1000
RTMaterial
1005
0
  0
LINE
  8
F01_OUT
  5
27C
 10
-22.1
 20
-33.3
 30
0.0
 11
-22.4
 21
-33.3
 31
0.0
1001
ACAD
1000
RTMaterial
1005
0
  0
LINE
  8
F01_OUT
  5
27D
 10
-21.5
 20
-33.3
 30
0.0
 11
-22.1
 21
-33.3
 31
0.0
1001
ACAD
1000
RTMaterial
1005
0
  0
LINE
  8
F01_OUT
  5
27E
 10
-22.5
 20
-33.3
 30
0.0
 11
-22.5
 21
-33.8
 31
0.0
1001
ACAD
1000
RTMaterial
1005
0
  0
LINE
  8
F01_OUT
  5
27F
 10
-22.349443
 20
-33.8
 30
0.0
 11
-22.5
 21
-33.8
 31
0.0
1001
ACAD
1000
RTMaterial
1005
0
  0
LINE
  8
F01_OUT
  5
280
 10
-22.349443
 20
-33.8
 30
0.0
 11
-22.349443
 21
-34.3
 31
0.0
1001
ACAD
1000
RTMaterial
1005
0
  0
LINE
  8
F01_OUT
  5
281
 10
-22.5
 20
-33.3
 30
0.0
 11
-22.5
 21
-31.9
 31
0.0
1001
ACAD
1000
RTMaterial
1005
0
  0
LINE
  8
F01_OUT
  5
282
 10
-21.5
 20
-58.1
 30
0.0
 11
-21.5
 21
-59.1
 31
0.0
1001
ACAD
1000
RTMaterial
1005
0
  0
LINE
  8
F01_OUT
  5
283
 10
-21.5
 20
-59.1
 30
0.0
 11
-21.5
 21
-59.6
 31
0.0
1001
ACAD
1000
RTMaterial
1005
0
  0
LINE
  8
F01_OUT
  5
284
 10
-22.349443
 20
-58.1
 30
0.0
 11
-22.5
 21
-58.1
 31
0.0
1001
ACAD
1000
RTMaterial
1005
0
  0
LINE
  8
F01_OUT
  5
285
 10
-22.5
 20
-58.1
 30
0.0
 11
-22.5
 21
-59.6
 31
0.0
1001
ACAD
1000
RTMaterial
1005
0
  0
LINE
  8
F01_OUT
  5
286
 10
-19.168862
 20
-58.1
 30
0.0
 11
-20.0
 21
-58.1
 31
0.0
1001
ACAD
1000
RTMaterial
1005
0
  0
LINE
  8
F01_OUT
  5
287
 10
-20.0
 20
-58.1
 30
0.0
 11
-20.0
 21
-59.6
 31
0.0
1001
ACAD
1000
RTMaterial
1005
0
  0
LINE
  8
F01_OUT
  5
288
 10
-20.0
 20
-59.1
 30
0.0
 11
-21.5
 21
-59.1
 31
0.0
1001
ACAD
1000
RTMaterial
1005
0
  0
LINE
  8
F01_OUT
  5
289
 10
-16.3
 20
-36.55
 30
0.0
 11
-16.3
 21
-38.55
 31
0.0
1001
ACAD
1000
RTMaterial
1005
0
  0
LINE
  8
F01_OUT
  5
28A
 10
-18.7
 20
-38.55
 30
0.0
 11
-18.7
 21
-36.55
 31
0.0
1001
ACAD
1000
RTMaterial
1005
0
  0
LINE
  8
F01_OUT
  5
28B
 10
-18.7
 20
-38.55
 30
0.0
 11
-16.3
 21
-38.55
 31
0.0
1001
ACAD
1000
RTMaterial
1005
0
  0
LINE
  8
F01_OUT
  5
28C
 10
-19.168862
 20
-58.1
 30
0.0
 11
-19.168862
 21
-57.6
 31
0.0
1001
ACAD
1000
RTMaterial
1005
0
  0
LINE
  8
F01_OUT
  5
28D
 10
-20.0
 20
-58.1
 30
0.0
 11
-21.5
 21
-58.1
 31
0.0
1001
ACAD
1000
RTMaterial
1005
0
  0
LINE
  8
F01_OUT
  5
28E
 10
-16.3
 20
-36.55
 30
0.0
 11
-18.7
 21
-36.55
 31
0.0
1001
ACAD
1000
RTMaterial
1005
0
  0
LINE
  8
F01_OUT
  5
28F
 10
-15.9
 20
-58.1
 30
0.0
 11
-19.168862
 21
-58.1
 31
0.0
1001
ACAD
1000
RTMaterial
1005
0
  0
LINE
  8
F01_OUT
  5
290
 10
-15.9
 20
-58.1
 30
0.0
 11
-15.9
 21
-59.6
 31
0.0
1001
ACAD
1000
RTMaterial
1005
0
  0
LINE
  8
F01_OUT
  5
291
 10
-1.1
 20
-68.7
 30
0.0
 11
-1.1
 21
-68.5
 31
0.0
1001
ACAD
1000
RTMaterial
1005
0
  0
LINE
  8
F01_OUT
  5
292
 10
4.9
 20
-68.7
 30
0.0
 11
4.9
 21
-67.4
 31
0.0
1001
ACAD
1000
RTMaterial
1005
0
  0
LINE
  8
F01_OUT
  5
293
 10
3.4
 20
-33.3
 30
0.0
 11
3.9
 21
-33.3
 31
0.0
1001
ACAD
1000
RTMaterial
1005
0
  0
LINE
  8
F01_OUT
  5
294
 10
1.0
 20
-33.3
 30
0.0
 11
1.5
 21
-33.3
 31
0.0
1001
ACAD
1000
RTMaterial
1005
0
  0
ARC
  8
F01_OUT
  5
295
 10
21.8
 20
-64.4
 30
0.0
 40
0.3
 50
180.0
 51
270.0
1001
ACAD
1000
RTMaterial
1005
0
  0
ARC
  8
F01_OUT
  5
296
 10
-8.0
 20
-68.7
 30
0.0
 40
0.3
 50
270.0
 51
0.0
1001
ACAD
1000
RTMaterial
1005
0
  0
ARC
  8
F01_OUT
  5
297
 10
-16.8
 20
-68.7
 30
0.0
 40
0.3
 50
270.0
 51
0.0
1001
ACAD
1000
RTMaterial
1005
0
  0
ARC
  8
F01_OUT
  5
298
 10
-18.4
 20
-68.7
 30
0.0
 40
0.3
 50
180.0
 51
270.0
1001
ACAD
1000
RTMaterial
1005
0
  0
ARC
  8
F01_OUT
  5
299
 10
-9.6
 20
-68.7
 30
0.0
 40
0.3
 50
180.0
 51
270.0
1001
ACAD
1000
RTMaterial
1005
0
  0
ARC
  8
F01_OUT
  5
29A
 10
22.2
 20
-73.0
 30
0.0
 40
0.3
 50
270.0
 51
0.0
1001
ACAD
1000
RTMaterial
1005
0
  0
ARC
  8
F01_OUT
  5
29B
 10
21.8
 20
-73.0
 30
0.0
 40
0.3
 50
180.0
 51
270.0
1001
ACAD
1000
RTMaterial
1005
0
  0
ARC
  8
F01_OUT
  5
29C
 10
-22.2
 20
-71.9
 30
0.0
 40
0.3
 50
180.0
 51
270.0
1001
ACAD
1000
RTMaterial
1005
0
  0
ARC
  8
F01_OUT
  5
29D
 10
13.0
 20
-73.0
 30
0.0
 40
0.3
 50
180.0
 51
270.0
1001
ACAD
1000
RTMaterial
1005
0
  0
ARC
  8
F01_OUT
  5
29E
 10
-21.2
 20
-70.1
 30
0.0
 40
0.3
 50
90.0
 51
180.0
1001
ACAD
1000
RTMaterial
1005
0
  0
ARC
  8
F01_OUT
  5
29F
 10
-13.0
 20
-71.9
 30
0.0
 40
0.3
 50
270.0
 51
0.0
1001
ACAD
1000
RTMaterial
1005
0
  0
ARC
  8
F01_OUT
  5
2A0
 10
-13.4
 20
-71.9
 30
0.0
 40
0.3
 50
180.0
 51
270.0
1001
ACAD
1000
RTMaterial
1005
0
  0
ARC
  8
F01_OUT
  5
2A1
 10
-12.4
 20
-70.1
 30
0.0
 40
0.3
 50
90.0
 51
180.0
1001
ACAD
1000
RTMaterial
1005
0
  0
ARC
  8
F01_OUT
  5
2A2
 10
-14.0
 20
-70.1
 30
0.0
 40
0.3
 50
0.0
 51
90.0
1001
ACAD
1000
RTMaterial
1005
0
  0
ARC
  8
F01_OUT
  5
2A3
 10
-21.8
 20
-71.9
 30
0.0
 40
0.3
 50
270.0
 51
0.0
1001
ACAD
1000
RTMaterial
1005
0
  0
ARC
  8
F01_OUT
  5
2A4
 10
-4.6
 20
-71.9
 30
0.0
 40
0.3
 50
180.0
 51
270.0
1001
ACAD
1000
RTMaterial
1005
0
  0
ARC
  8
F01_OUT
  5
2A5
 10
13.4
 20
-73.0
 30
0.0
 40
0.3
 50
270.0
 51
0.0
1001
ACAD
1000
RTMaterial
1005
0
  0
ARC
  8
F01_OUT
  5
2A6
 10
-4.2
 20
-71.9
 30
0.0
 40
0.3
 50
270.0
 51
0.0
1001
ACAD
1000
RTMaterial
1005
0
  0
ARC
  8
F01_OUT
  5
2A7
 10
-5.2
 20
-70.1
 30
0.0
 40
0.3
 50
0.0
 51
90.0
1001
ACAD
1000
RTMaterial
1005
0
  0
ARC
  8
F01_OUT
  5
2A8
 10
22.2
 20
-64.4
 30
0.0
 40
0.3
 50
270.0
 51
0.0
1001
ACAD
1000
RTMaterial
1005
0
  0
ARC
  8
F01_OUT
  5
2A9
 10
22.2
 20
-35.2
 30
0.0
 40
0.3
 50
0.0
 51
58.633022
1001
ACAD
1000
RTMaterial
1005
0
  0
ARC
  8
F01_OUT
  5
2AA
 10
14.725
 20
-33.8
 30
0.0
 40
0.5
 50
0.0
 51
90.0
1001
ACAD
1000
RTMaterial
1005
0
  0
ARC
  8
F01_OUT
  5
2AB
 10
1.7
 20
-35.3
 30
0.0
 40
0.5
 50
90.0
 51
180.0
1001
ACAD
1000
RTMaterial
1005
0
  0
ARC
  8
F01_OUT
  5
2AC
 10
2.5
 20
-35.3
 30
0.0
 40
0.5
 50
0.0
 51
90.0
1001
ACAD
1000
RTMaterial
1005
0
  0
ARC
  8
F01_OUT
  5
2AD
 10
2.5
 20
-36.1
 30
0.0
 40
0.5
 50
270.0
 51
0.0
1001
ACAD
1000
RTMaterial
1005
0
  0
ARC
  8
F01_OUT
  5
2AE
 10
1.7
 20
-36.1
 30
0.0
 40
0.5
 50
180.0
 51
270.0
1001
ACAD
1000
RTMaterial
1005
0
  0
ARC
  8
F01_OUT
  5
2AF
 10
17.799981
 20
-40.098128
 30
0.0
 40
2.574107
 50
152.10352
 51
209.086824
1001
ACAD
1000
RTMaterial
1005
0
  0
ARC
  8
F01_OUT
  5
2B0
 10
8.5
 20
-39.8
 30
0.0
 40
6.5
 50
242.510756
 51
270.0
1001
ACAD
1000
RTMaterial
1005
0
  0
ARC
  8
F01_OUT
  5
2B1
 10
13.0
 20
-64.4
 30
0.0
 40
0.3
 50
180.0
 51
270.0
1001
ACAD
1000
RTMaterial
1005
0
  0
ARC
  8
F01_OUT
  5
2B2
 10
13.4
 20
-64.4
 30
0.0
 40
0.3
 50
270.0
 51
0.0
1001
ACAD
1000
RTMaterial
1005
0
  0
ARC
  8
F01_OUT
  5
2B3
 10
17.801733
 20
-40.099942
 30
0.0
 40
2.574107
 50
240.916708
 51
302.902052
1001
ACAD
1000
RTMaterial
1005
0
  0
ARC
  8
F01_OUT
  5
2B4
 10
8.5
 20
-39.8
 30
0.0
 40
7.9
 50
245.684045
 51
270.0
1001
ACAD
1000
RTMaterial
1005
0
  0
ARC
  8
F01_OUT
  5
2B5
 10
17.8
 20
-40.1
 30
0.0
 40
2.575
 50
302.935142
 51
0.0
1001
ACAD
1000
RTMaterial
1005
0
  0
ARC
  8
F01_OUT
  5
2B6
 10
-3.6
 20
-70.1
 30
0.0
 40
0.3
 50
90.0
 51
180.0
1001
ACAD
1000
RTMaterial
1005
0
  0
ARC
  8
F01_OUT
  5
2B7
 10
5.425
 20
-45.126056
 30
0.0
 40
0.15
 50
350.0
 51
130.0
1001
ACAD
1000
RTMaterial
1005
0
  0
ARC
  8
F01_OUT
  5
2B8
 10
4.51917
 20
-48.124912
 30
0.0
 40
0.3
 50
240.0
 51
330.0
1001
ACAD
1000
RTMaterial
1005
0
  0
ARC
  8
F01_OUT
  5
2B9
 10
3.280829
 20
-47.409955
 30
0.0
 40
0.3
 50
150.0
 51
240.0
1001
ACAD
1000
RTMaterial
1005
0
  0
ARC
  8
F01_OUT
  5
2BA
 10
4.2
 20
-71.9
 30
0.0
 40
0.3
 50
180.0
 51
270.0
1001
ACAD
1000
RTMaterial
1005
0
  0
ARC
  8
F01_OUT
  5
2BB
 10
4.6
 20
-71.9
 30
0.0
 40
0.3
 50
270.0
 51
0.0
1001
ACAD
1000
RTMaterial
1005
0
  0
ARC
  8
F01_OUT
  5
2BC
 10
3.6
 20
-70.1
 30
0.0
 40
0.3
 50
0.0
 51
70.528779
1001
ACAD
1000
RTMaterial
1005
0
  0
ARC
  8
F01_OUT
  5
2BD
 10
3.6
 20
-70.1
 30
0.0
 40
0.3
 50
70.528779
 51
90.0
1001
ACAD
1000
RTMaterial
1005
0
  0
ARC
  8
F01_OUT
  5
2BE
 10
-0.8
 20
-68.7
 30
0.0
 40
0.3
 50
180.0
 51
270.0
1001
ACAD
1000
RTMaterial
1005
0
  0
ARC
  8
F01_OUT
  5
2BF
 10
3.7
 20
-71.9
 30
0.0
 40
0.3
 50
180.0
 51
270.0
1001
ACAD
1000
RTMaterial
1005
0
  0
ARC
  8
F01_OUT
  5
2C0
 10
0.8
 20
-68.7
 30
0.0
 40
0.3
 50
270.0
 51
0.0
1001
ACAD
1000
RTMaterial
1005
0
  0
ARC
  8
F01_OUT
  5
2C1
 10
8.5
 20
-39.8
 30
0.0
 40
6.5
 50
215.775823
 51
237.489244
1001
ACAD
1000
RTMaterial
1005
0
  0
ARC
  8
F01_OUT
  5
2C2
 10
8.5
 20
-39.8
 30
0.0
 40
7.9
 50
208.751561
 51
234.315955
1001
ACAD
1000
RTMaterial
1005
0
  0
ARC
  8
F01_OUT
  5
2C3
 10
-20.75
 20
-34.3
 30
0.0
 40
1.581139
 50
203.499936
 51
0.0
1001
ACAD
1000
RTMaterial
1005
0
  0
ARC
  8
F01_OUT
  5
2C4
 10
-20.75
 20
-57.6
 30
0.0
 40
1.581139
 50
0.0
 51
156.500064
1001
ACAD
1000
RTMaterial
1005
0
  0
LINE
  8
F01_OUT
  5
2C5
 10
11.744886
 20
-57.927596
 30
0.0
 11
12.053786
 21
-57.94966
 31
0.0
1001
ACAD
1000
RTMaterial
1005
0
  0
LINE
  8
F01_OUT
  5
2C6
 10
11.426235
 20
-57.049866
 30
0.0
 11
11.752781
 21
-57.026541
 31
0.0
1001
ACAD
1000
RTMaterial
1005
0
  0
LINE
  8
F01_OUT
  5
2C7
 10
11.744886
 20
-59.072405
 30
0.0
 11
12.053786
 21
-59.05034
 31
0.0
1001
ACAD
1000
RTMaterial
1005
0
  0
LINE
  8
F01_OUT
  5
2C8
 10
11.426235
 20
-59.950134
 30
0.0
 11
11.752781
 21
-59.973459
 31
0.0
1001
ACAD
1000
RTMaterial
1005
0
  0
LINE
  8
F01_OUT
  5
2C9
 10
10.250134
 20
-61.126235
 30
0.0
 11
10.273459
 21
-61.452782
 31
0.0
1001
ACAD
1000
RTMaterial
1005
0
  0
LINE
  8
F01_OUT
  5
2CA
 10
10.250134
 20
-55.873765
 30
0.0
 11
10.273459
 21
-55.547219
 31
0.0
1001
ACAD
1000
RTMaterial
1005
0
  0
LINE
  8
F01_OUT
  5
2CB
 10
8.227595
 20
-55.555114
 30
0.0
 11
8.249659
 21
-55.246214
 31
0.0
1001
ACAD
1000
RTMaterial
1005
0
  0
LINE
  8
F01_OUT
  5
2CC
 10
8.227595
 20
-61.444886
 30
0.0
 11
8.249659
 21
-61.753787
 31
0.0
1001
ACAD
1000
RTMaterial
1005
0
  0
LINE
  8
F01_OUT
  5
2CD
 10
9.372404
 20
-55.555114
 30
0.0
 11
9.35034
 21
-55.246214
 31
0.0
1001
ACAD
1000
RTMaterial
1005
0
  0
LINE
  8
F01_OUT
  5
2CE
 10
9.372404
 20
-61.444886
 30
0.0
 11
9.35034
 21
-61.753787
 31
0.0
1001
ACAD
1000
RTMaterial
1005
0
  0
LINE
  8
F01_OUT
  5
2CF
 10
7.349865
 20
-61.126235
 30
0.0
 11
7.326541
 21
-61.452782
 31
0.0
1001
ACAD
1000
RTMaterial
1005
0
  0
LINE
  8
F01_OUT
  5
2D0
 10
7.349865
 20
-55.873765
 30
0.0
 11
7.326541
 21
-55.547219
 31
0.0
1001
ACAD
1000
RTMaterial
1005
0
  0
LINE
  8
F01_OUT
  5
2D1
 10
6.173765
 20
-57.049866
 30
0.0
 11
5.847218
 21
-57.026541
 31
0.0
1001
ACAD
1000
RTMaterial
1005
0
  0
LINE
  8
F01_OUT
  5
2D2
 10
6.173765
 20
-59.950134
 30
0.0
 11
5.847218
 21
-59.973459
 31
0.0
1001
ACAD
1000
RTMaterial
1005
0
  0
LINE
  8
F01_OUT
  5
2D3
 10
5.855114
 20
-57.927596
 30
0.0
 11
5.546213
 21
-57.94966
 31
0.0
1001
ACAD
1000
RTMaterial
1005
0
  0
LINE
  8
F01_OUT
  5
2D4
 10
5.855114
 20
-59.072405
 30
0.0
 11
5.546213
 21
-59.05034
 31
0.0
1001
ACAD
1000
RTMaterial
1005
0
  0
LINE
  8
F01_OUT
  5
2D5
 10
9.945
 20
-58.15
 30
0.0
 11
10.746527
 21
-58.15
 31
0.0
1001
ACAD
1000
RTMaterial
1005
0
  0
LINE
  8
F01_OUT
  5
2D6
 10
9.945
 20
-58.85
 30
0.0
 11
10.746527
 21
-58.85
 31
0.0
1001
ACAD
1000
RTMaterial
1005
0
  0
LINE
  8
F01_OUT
  5
2D7
 10
7.655
 20
-58.15
 30
0.0
 11
7.95
 21
-58.15
 31
0.0
1001
ACAD
1000
RTMaterial
1005
0
  0
LINE
  8
F01_OUT
  5
2D8
 10
7.655
 20
-58.85
 30
0.0
 11
7.95
 21
-58.85
 31
0.0
1001
ACAD
1000
RTMaterial
1005
0
  0
LINE
  8
F01_OUT
  5
2D9
 10
8.3
 20
-55.673838
 30
0.0
 11
8.3
 21
-58.007072
 31
0.0
1001
ACAD
1000
RTMaterial
1005
0
  0
LINE
  8
F01_OUT
  5
2DA
 10
9.15
 20
-56.945385
 30
0.0
 11
8.45
 21
-56.945385
 31
0.0
1001
ACAD
1000
RTMaterial
1005
0
  0
LINE
  8
F01_OUT
  5
2DB
 10
9.15
 20
-57.355
 30
0.0
 11
8.45
 21
-57.355
 31
0.0
1001
ACAD
1000
RTMaterial
1005
0
  0
LINE
  8
F01_OUT
  5
2DC
 10
8.8
 20
-58.5
 30
0.0
 11
8.45
 21
-58.5
 31
0.0
1001
ACAD
1000
RTMaterial
1005
0
  0
LINE
  8
F01_OUT
  5
2DD
 10
8.8
 20
-58.85
 30
0.0
 11
8.45
 21
-58.85
 31
0.0
1001
ACAD
1000
RTMaterial
1005
0
  0
LINE
  8
F01_OUT
  5
2DE
 10
9.15
 20
-59.645
 30
0.0
 11
8.45
 21
-59.645
 31
0.0
1001
ACAD
1000
RTMaterial
1005
0
  0
LINE
  8
F01_OUT
  5
2DF
 10
8.45
 20
-60.054616
 30
0.0
 11
9.15
 21
-60.054616
 31
0.0
1001
ACAD
1000
RTMaterial
1005
0
  0
LINE
  8
F01_OUT
  5
2E0
 10
8.8
 20
-58.15
 30
0.0
 11
8.45
 21
-58.15
 31
0.0
1001
ACAD
1000
RTMaterial
1005
0
  0
LINE
  8
F01_OUT
  5
2E1
 10
8.45
 20
-58.85
 30
0.0
 11
8.8
 21
-58.5
 31
0.0
1001
ACAD
1000
RTMaterial
1005
0
  0
LINE
  8
F01_OUT
  5
2E2
 10
8.8
 20
-58.5
 30
0.0
 11
8.45
 21
-58.15
 31
0.0
1001
ACAD
1000
RTMaterial
1005
0
  0
LINE
  8
F01_OUT
  5
2E3
 10
8.45
 20
-56.945385
 30
0.0
 11
8.45
 21
-57.355
 31
0.0
1001
ACAD
1000
RTMaterial
1005
0
  0
LINE
  8
F01_OUT
  5
2E4
 10
8.45
 20
-57.355
 30
0.0
 11
8.45
 21
-57.65
 31
0.0
1001
ACAD
1000
RTMaterial
1005
0
  0
LINE
  8
F01_OUT
  5
2E5
 10
8.45
 20
-58.85
 30
0.0
 11
8.303553
 21
-58.996447
 31
0.0
1001
ACAD
1000
RTMaterial
1005
0
  0
LINE
  8
F01_OUT
  5
2E6
 10
8.45
 20
-58.15
 30
0.0
 11
8.45
 21
-58.5
 31
0.0
1001
ACAD
1000
RTMaterial
1005
0
  0
LINE
  8
F01_OUT
  5
2E7
 10
8.45
 20
-58.5
 30
0.0
 11
8.45
 21
-58.85
 31
0.0
1001
ACAD
1000
RTMaterial
1005
0
  0
LINE
  8
F01_OUT
  5
2E8
 10
8.45
 20
-58.15
 30
0.0
 11
8.303553
 21
-58.003554
 31
0.0
1001
ACAD
1000
RTMaterial
1005
0
  0
LINE
  8
F01_OUT
  5
2E9
 10
8.3
 20
-58.992929
 30
0.0
 11
8.3
 21
-61.326162
 31
0.0
1001
ACAD
1000
RTMaterial
1005
0
  0
LINE
  8
F01_OUT
  5
2EA
 10
8.45
 20
-59.35
 30
0.0
 11
8.45
 21
-59.645
 31
0.0
1001
ACAD
1000
RTMaterial
1005
0
  0
LINE
  8
F01_OUT
  5
2EB
 10
8.45
 20
-59.645
 30
0.0
 11
8.45
 21
-60.054616
 31
0.0
1001
ACAD
1000
RTMaterial
1005
0
  0
LINE
  8
F01_OUT
  5
2EC
 10
9.945
 20
-58.15
 30
0.0
 11
9.945
 21
-58.85
 31
0.0
1001
ACAD
1000
RTMaterial
1005
0
  0
LINE
  8
F01_OUT
  5
2ED
 10
9.65
 20
-58.15
 30
0.0
 11
9.945
 21
-58.15
 31
0.0
1001
ACAD
1000
RTMaterial
1005
0
  0
LINE
  8
F01_OUT
  5
2EE
 10
9.65
 20
-58.85
 30
0.0
 11
9.945
 21
-58.85
 31
0.0
1001
ACAD
1000
RTMaterial
1005
0
  0
LINE
  8
F01_OUT
  5
2EF
 10
9.3
 20
-61.326162
 30
0.0
 11
9.3
 21
-58.992929
 31
0.0
1001
ACAD
1000
RTMaterial
1005
0
  0
LINE
  8
F01_OUT
  5
2F0
 10
9.15
 20
-56.945385
 30
0.0
 11
9.15
 21
-57.355
 31
0.0
1001
ACAD
1000
RTMaterial
1005
0
  0
LINE
  8
F01_OUT
  5
2F1
 10
9.15
 20
-58.15
 30
0.0
 11
9.296446
 21
-58.003554
 31
0.0
1001
ACAD
1000
RTMaterial
1005
0
  0
LINE
  8
F01_OUT
  5
2F2
 10
9.15
 20
-57.355
 30
0.0
 11
9.15
 21
-57.65
 31
0.0
1001
ACAD
1000
RTMaterial
1005
0
  0
LINE
  8
F01_OUT
  5
2F3
 10
8.8
 20
-58.15
 30
0.0
 11
8.8
 21
-58.5
 31
0.0
1001
ACAD
1000
RTMaterial
1005
0
  0
LINE
  8
F01_OUT
  5
2F4
 10
9.15
 20
-58.85
 30
0.0
 11
8.8
 21
-58.85
 31
0.0
1001
ACAD
1000
RTMaterial
1005
0
  0
LINE
  8
F01_OUT
  5
2F5
 10
9.15
 20
-58.5
 30
0.0
 11
8.8
 21
-58.5
 31
0.0
1001
ACAD
1000
RTMaterial
1005
0
  0
LINE
  8
F01_OUT
  5
2F6
 10
8.8
 20
-58.5
 30
0.0
 11
8.8
 21
-58.85
 31
0.0
1001
ACAD
1000
RTMaterial
1005
0
  0
LINE
  8
F01_OUT
  5
2F7
 10
9.15
 20
-58.15
 30
0.0
 11
8.8
 21
-58.15
 31
0.0
1001
ACAD
1000
RTMaterial
1005
0
  0
LINE
  8
F01_OUT
  5
2F8
 10
9.15
 20
-58.5
 30
0.0
 11
9.15
 21
-58.85
 31
0.0
1001
ACAD
1000
RTMaterial
1005
0
  0
LINE
  8
F01_OUT
  5
2F9
 10
9.15
 20
-58.15
 30
0.0
 11
9.15
 21
-58.5
 31
0.0
1001
ACAD
1000
RTMaterial
1005
0
  0
LINE
  8
F01_OUT
  5
2FA
 10
9.15
 20
-58.85
 30
0.0
 11
9.296446
 21
-58.996447
 31
0.0
1001
ACAD
1000
RTMaterial
1005
0
  0
LINE
  8
F01_OUT
  5
2FB
 10
9.3
 20
-58.007072
 30
0.0
 11
9.3
 21
-55.673838
 31
0.0
1001
ACAD
1000
RTMaterial
1005
0
  0
LINE
  8
F01_OUT
  5
2FC
 10
9.15
 20
-59.645
 30
0.0
 11
9.15
 21
-60.054616
 31
0.0
1001
ACAD
1000
RTMaterial
1005
0
  0
LINE
  8
F01_OUT
  5
2FD
 10
9.15
 20
-59.35
 30
0.0
 11
9.15
 21
-59.645
 31
0.0
1001
ACAD
1000
RTMaterial
1005
0
  0
LINE
  8
F01_OUT
  5
2FE
 10
9.15
 20
-58.15
 30
0.0
 11
8.8
 21
-58.5
 31
0.0
1001
ACAD
1000
RTMaterial
1005
0
  0
LINE
  8
F01_OUT
  5
2FF
 10
8.8
 20
-58.5
 30
0.0
 11
9.15
 21
-58.85
 31
0.0
1001
ACAD
1000
RTMaterial
1005
0
  0
LINE
  8
F01_OUT
  5
300
 10
6.853472
 20
-58.15
 30
0.0
 11
7.655
 21
-58.15
 31
0.0
1001
ACAD
1000
RTMaterial
1005
0
  0
LINE
  8
F01_OUT
  5
301
 10
6.853472
 20
-58.85
 30
0.0
 11
7.655
 21
-58.85
 31
0.0
1001
ACAD
1000
RTMaterial
1005
0
  0
LINE
  8
F01_OUT
  5
302
 10
7.655
 20
-58.15
 30
0.0
 11
7.655
 21
-58.85
 31
0.0
1001
ACAD
1000
RTMaterial
1005
0
  0
ARC
  8
F01_OUT
  5
303
 10
7.95
 20
-57.65
 30
0.0
 40
0.5
 50
270.0
 51
314.427004
1001
ACAD
1000
RTMaterial
1005
0
  0
ARC
  8
F01_OUT
  5
304
 10
7.95
 20
-59.35
 30
0.0
 40
0.5
 50
45.572996
 51
90.0
1001
ACAD
1000
RTMaterial
1005
0
  0
ARC
  8
F01_OUT
  5
305
 10
9.65
 20
-59.35
 30
0.0
 40
0.5
 50
90.0
 51
134.427004
1001
ACAD
1000
RTMaterial
1005
0
  0
ARC
  8
F01_OUT
  5
306
 10
9.65
 20
-57.65
 30
0.0
 40
0.5
 50
225.572996
 51
270.0
1001
ACAD
1000
RTMaterial
1005
0
  0
ARC
  8
F01_OUT
  5
307
 10
8.8
 20
-58.5
 30
0.0
 40
2.87005
 50
79.967139
 51
100.032861
1001
ACAD
1000
RTMaterial
1005
0
  0
ARC
  8
F01_OUT
  5
308
 10
8.8
 20
-58.5
 30
0.0
 40
2.87005
 50
259.967139
 51
280.032861
1001
ACAD
1000
RTMaterial
1005
0
  0
ARC
  8
F01_OUT
  5
309
 10
7.95
 20
-59.35
 30
0.0
 40
0.5
 50
0.0
 51
45.0
1001
ACAD
1000
RTMaterial
1005
0
  0
ARC
  8
F01_OUT
  5
30A
 10
7.95
 20
-57.65
 30
0.0
 40
0.5
 50
315.0
 51
0.0
1001
ACAD
1000
RTMaterial
1005
0
  0
ARC
  8
F01_OUT
  5
30B
 10
9.65
 20
-57.65
 30
0.0
 40
0.5
 50
180.0
 51
225.0
1001
ACAD
1000
RTMaterial
1005
0
  0
ARC
  8
F01_OUT
  5
30C
 10
9.65
 20
-59.35
 30
0.0
 40
0.5
 50
135.0
 51
180.0
1001
ACAD
1000
RTMaterial
1005
0
  0
CIRCLE
  8
F01_OUT
  5
30D
 10
8.8
 20
-58.5
 30
0.0
 40
3.0
1001
ACAD
1000
RTMaterial
1005
0
  0
LINE
  8
F01_OUT
  5
30E
 10
17.95
 20
-58.15
 30
0.0
 11
18.096446
 21
-58.003554
 31
0.0
1001
ACAD
1000
RTMaterial
1005
0
  0
LINE
  8
F01_OUT
  5
30F
 10
18.745
 20
-58.15
 30
0.0
 11
18.745
 21
-58.85
 31
0.0
1001
ACAD
1000
RTMaterial
1005
0
  0
LINE
  8
F01_OUT
  5
310
 10
17.95
 20
-58.85
 30
0.0
 11
18.096446
 21
-58.996447
 31
0.0
1001
ACAD
1000
RTMaterial
1005
0
  0
LINE
  8
F01_OUT
  5
311
 10
18.1
 20
-58.007072
 30
0.0
 11
18.1
 21
-55.673838
 31
0.0
1001
ACAD
1000
RTMaterial
1005
0
  0
LINE
  8
F01_OUT
  5
312
 10
18.45
 20
-58.15
 30
0.0
 11
18.745
 21
-58.15
 31
0.0
1001
ACAD
1000
RTMaterial
1005
0
  0
LINE
  8
F01_OUT
  5
313
 10
18.745
 20
-58.15
 30
0.0
 11
19.546527
 21
-58.15
 31
0.0
1001
ACAD
1000
RTMaterial
1005
0
  0
LINE
  8
F01_OUT
  5
314
 10
18.1
 20
-61.326162
 30
0.0
 11
18.1
 21
-58.992929
 31
0.0
1001
ACAD
1000
RTMaterial
1005
0
  0
LINE
  8
F01_OUT
  5
315
 10
16.455
 20
-58.15
 30
0.0
 11
16.75
 21
-58.15
 31
0.0
1001
ACAD
1000
RTMaterial
1005
0
  0
LINE
  8
F01_OUT
  5
316
 10
15.653472
 20
-58.15
 30
0.0
 11
16.455
 21
-58.15
 31
0.0
1001
ACAD
1000
RTMaterial
1005
0
  0
LINE
  8
F01_OUT
  5
317
 10
16.455
 20
-58.85
 30
0.0
 11
16.75
 21
-58.85
 31
0.0
1001
ACAD
1000
RTMaterial
1005
0
  0
LINE
  8
F01_OUT
  5
318
 10
15.653472
 20
-58.85
 30
0.0
 11
16.455
 21
-58.85
 31
0.0
1001
ACAD
1000
RTMaterial
1005
0
  0
LINE
  8
F01_OUT
  5
319
 10
16.455
 20
-58.15
 30
0.0
 11
16.455
 21
-58.85
 31
0.0
1001
ACAD
1000
RTMaterial
1005
0
  0
LINE
  8
F01_OUT
  5
31A
 10
17.25
 20
-58.85
 30
0.0
 11
17.6
 21
-58.5
 31
0.0
1001
ACAD
1000
RTMaterial
1005
0
  0
LINE
  8
F01_OUT
  5
31B
 10
17.6
 20
-58.5
 30
0.0
 11
17.25
 21
-58.5
 31
0.0
1001
ACAD
1000
RTMaterial
1005
0
  0
LINE
  8
F01_OUT
  5
31C
 10
17.95
 20
-58.85
 30
0.0
 11
17.6
 21
-58.85
 31
0.0
1001
ACAD
1000
RTMaterial
1005
0
  0
LINE
  8
F01_OUT
  5
31D
 10
17.6
 20
-58.85
 30
0.0
 11
17.25
 21
-58.85
 31
0.0
1001
ACAD
1000
RTMaterial
1005
0
  0
LINE
  8
F01_OUT
  5
31E
 10
17.95
 20
-58.5
 30
0.0
 11
17.6
 21
-58.5
 31
0.0
1001
ACAD
1000
RTMaterial
1005
0
  0
LINE
  8
F01_OUT
  5
31F
 10
17.6
 20
-58.5
 30
0.0
 11
17.6
 21
-58.85
 31
0.0
1001
ACAD
1000
RTMaterial
1005
0
  0
LINE
  8
F01_OUT
  5
320
 10
17.6
 20
-58.5
 30
0.0
 11
17.95
 21
-58.85
 31
0.0
1001
ACAD
1000
RTMaterial
1005
0
  0
LINE
  8
F01_OUT
  5
321
 10
17.95
 20
-59.645
 30
0.0
 11
17.25
 21
-59.645
 31
0.0
1001
ACAD
1000
RTMaterial
1005
0
  0
LINE
  8
F01_OUT
  5
322
 10
17.25
 20
-59.645
 30
0.0
 11
17.25
 21
-60.054616
 31
0.0
1001
ACAD
1000
RTMaterial
1005
0
  0
LINE
  8
F01_OUT
  5
323
 10
17.95
 20
-57.355
 30
0.0
 11
17.95
 21
-57.65
 31
0.0
1001
ACAD
1000
RTMaterial
1005
0
  0
LINE
  8
F01_OUT
  5
324
 10
17.95
 20
-57.355
 30
0.0
 11
17.25
 21
-57.355
 31
0.0
1001
ACAD
1000
RTMaterial
1005
0
  0
LINE
  8
F01_OUT
  5
325
 10
17.25
 20
-57.355
 30
0.0
 11
17.25
 21
-57.65
 31
0.0
1001
ACAD
1000
RTMaterial
1005
0
  0
LINE
  8
F01_OUT
  5
326
 10
17.25
 20
-60.054616
 30
0.0
 11
17.95
 21
-60.054616
 31
0.0
1001
ACAD
1000
RTMaterial
1005
0
  0
LINE
  8
F01_OUT
  5
327
 10
17.6
 20
-58.15
 30
0.0
 11
17.6
 21
-58.5
 31
0.0
1001
ACAD
1000
RTMaterial
1005
0
  0
LINE
  8
F01_OUT
  5
328
 10
17.6
 20
-58.15
 30
0.0
 11
17.25
 21
-58.15
 31
0.0
1001
ACAD
1000
RTMaterial
1005
0
  0
LINE
  8
F01_OUT
  5
329
 10
17.95
 20
-58.15
 30
0.0
 11
17.6
 21
-58.15
 31
0.0
1001
ACAD
1000
RTMaterial
1005
0
  0
LINE
  8
F01_OUT
  5
32A
 10
17.95
 20
-58.15
 30
0.0
 11
17.6
 21
-58.5
 31
0.0
1001
ACAD
1000
RTMaterial
1005
0
  0
LINE
  8
F01_OUT
  5
32B
 10
17.25
 20
-58.5
 30
0.0
 11
17.25
 21
-58.85
 31
0.0
1001
ACAD
1000
RTMaterial
1005
0
  0
LINE
  8
F01_OUT
  5
32C
 10
17.25
 20
-58.15
 30
0.0
 11
17.25
 21
-58.5
 31
0.0
1001
ACAD
1000
RTMaterial
1005
0
  0
LINE
  8
F01_OUT
  5
32D
 10
17.25
 20
-58.15
 30
0.0
 11
17.103553
 21
-58.003554
 31
0.0
1001
ACAD
1000
RTMaterial
1005
0
  0
LINE
  8
F01_OUT
  5
32E
 10
17.25
 20
-58.85
 30
0.0
 11
17.103553
 21
-58.996447
 31
0.0
1001
ACAD
1000
RTMaterial
1005
0
  0
LINE
  8
F01_OUT
  5
32F
 10
17.25
 20
-59.35
 30
0.0
 11
17.25
 21
-59.645
 31
0.0
1001
ACAD
1000
RTMaterial
1005
0
  0
LINE
  8
F01_OUT
  5
330
 10
17.25
 20
-56.945385
 30
0.0
 11
17.25
 21
-57.355
 31
0.0
1001
ACAD
1000
RTMaterial
1005
0
  0
LINE
  8
F01_OUT
  5
331
 10
17.95
 20
-56.945385
 30
0.0
 11
17.95
 21
-57.355
 31
0.0
1001
ACAD
1000
RTMaterial
1005
0
  0
LINE
  8
F01_OUT
  5
332
 10
17.95
 20
-56.945385
 30
0.0
 11
17.25
 21
-56.945385
 31
0.0
1001
ACAD
1000
RTMaterial
1005
0
  0
LINE
  8
F01_OUT
  5
333
 10
17.95
 20
-59.35
 30
0.0
 11
17.95
 21
-59.645
 31
0.0
1001
ACAD
1000
RTMaterial
1005
0
  0
LINE
  8
F01_OUT
  5
334
 10
17.95
 20
-58.15
 30
0.0
 11
17.95
 21
-58.5
 31
0.0
1001
ACAD
1000
RTMaterial
1005
0
  0
LINE
  8
F01_OUT
  5
335
 10
17.95
 20
-58.5
 30
0.0
 11
17.95
 21
-58.85
 31
0.0
1001
ACAD
1000
RTMaterial
1005
0
  0
LINE
  8
F01_OUT
  5
336
 10
17.95
 20
-59.645
 30
0.0
 11
17.95
 21
-60.054616
 31
0.0
1001
ACAD
1000
RTMaterial
1005
0
  0
LINE
  8
F01_OUT
  5
337
 10
17.1
 20
-58.992929
 30
0.0
 11
17.1
 21
-61.326162
 31
0.0
1001
ACAD
1000
RTMaterial
1005
0
  0
LINE
  8
F01_OUT
  5
338
 10
17.1
 20
-55.673838
 30
0.0
 11
17.1
 21
-58.007072
 31
0.0
1001
ACAD
1000
RTMaterial
1005
0
  0
LINE
  8
F01_OUT
  5
339
 10
17.6
 20
-58.5
 30
0.0
 11
17.25
 21
-58.15
 31
0.0
1001
ACAD
1000
RTMaterial
1005
0
  0
LINE
  8
F01_OUT
  5
33A
 10
18.45
 20
-58.85
 30
0.0
 11
18.745
 21
-58.85
 31
0.0
1001
ACAD
1000
RTMaterial
1005
0
  0
LINE
  8
F01_OUT
  5
33B
 10
18.745
 20
-58.85
 30
0.0
 11
19.546527
 21
-58.85
 31
0.0
1001
ACAD
1000
RTMaterial
1005
0
  0
ARC
  8
F01_OUT
  5
33C
 10
18.45
 20
-57.65
 30
0.0
 40
0.5
 50
180.0
 51
225.0
1001
ACAD
1000
RTMaterial
1005
0
  0
ARC
  8
F01_OUT
  5
33D
 10
18.45
 20
-57.65
 30
0.0
 40
0.5
 50
225.572996
 51
270.0
1001
ACAD
1000
RTMaterial
1005
0
  0
ARC
  8
F01_OUT
  5
33E
 10
18.45
 20
-59.35
 30
0.0
 40
0.5
 50
90.0
 51
134.427004
1001
ACAD
1000
RTMaterial
1005
0
  0
ARC
  8
F01_OUT
  5
33F
 10
17.6
 20
-58.5
 30
0.0
 40
2.87005
 50
79.967139
 51
100.032861
1001
ACAD
1000
RTMaterial
1005
0
  0
ARC
  8
F01_OUT
  5
340
 10
17.6
 20
-58.5
 30
0.0
 40
2.87005
 50
259.967139
 51
280.032861
1001
ACAD
1000
RTMaterial
1005
0
  0
ARC
  8
F01_OUT
  5
341
 10
18.45
 20
-59.35
 30
0.0
 40
0.5
 50
135.0
 51
180.0
1001
ACAD
1000
RTMaterial
1005
0
  0
ARC
  8
F01_OUT
  5
342
 10
16.75
 20
-57.65
 30
0.0
 40
0.5
 50
315.0
 51
0.0
1001
ACAD
1000
RTMaterial
1005
0
  0
ARC
  8
F01_OUT
  5
343
 10
16.75
 20
-59.35
 30
0.0
 40
0.5
 50
0.0
 51
45.0
1001
ACAD
1000
RTMaterial
1005
0
  0
ARC
  8
F01_OUT
  5
344
 10
16.75
 20
-57.65
 30
0.0
 40
0.5
 50
270.0
 51
314.427004
1001
ACAD
1000
RTMaterial
1005
0
  0
ARC
  8
F01_OUT
  5
345
 10
16.75
 20
-59.35
 30
0.0
 40
0.5
 50
45.572996
 51
90.0
1001
ACAD
1000
RTMaterial
1005
0
  0
CIRCLE
  8
F01_OUT
  5
346
 10
17.6
 20
-58.5
 30
0.0
 40
3.0
1001
ACAD
1000
RTMaterial
1005
0
  0
LINE
  8
F01_OUT
  5
347
 10
20.544886
 20
-57.927596
 30
0.0
 11
20.853786
 21
-57.94966
 31
0.0
1001
ACAD
1000
RTMaterial
1005
0
  0
LINE
  8
F01_OUT
  5
348
 10
20.226235
 20
-57.049866
 30
0.0
 11
20.552781
 21
-57.026541
 31
0.0
1001
ACAD
1000
RTMaterial
1005
0
  0
LINE
  8
F01_OUT
  5
349
 10
19.050134
 20
-55.873765
 30
0.0
 11
19.073459
 21
-55.547219
 31
0.0
1001
ACAD
1000
RTMaterial
1005
0
  0
LINE
  8
F01_OUT
  5
34A
 10
19.050134
 20
-61.126235
 30
0.0
 11
19.073459
 21
-61.452782
 31
0.0
1001
ACAD
1000
RTMaterial
1005
0
  0
LINE
  8
F01_OUT
  5
34B
 10
18.172404
 20
-61.444886
 30
0.0
 11
18.15034
 21
-61.753787
 31
0.0
1001
ACAD
1000
RTMaterial
1005
0
  0
LINE
  8
F01_OUT
  5
34C
 10
18.172404
 20
-55.555114
 30
0.0
 11
18.15034
 21
-55.246214
 31
0.0
1001
ACAD
1000
RTMaterial
1005
0
  0
LINE
  8
F01_OUT
  5
34D
 10
17.027595
 20
-55.555114
 30
0.0
 11
17.049659
 21
-55.246214
 31
0.0
1001
ACAD
1000
RTMaterial
1005
0
  0
LINE
  8
F01_OUT
  5
34E
 10
14.655114
 20
-57.927596
 30
0.0
 11
14.346213
 21
-57.94966
 31
0.0
1001
ACAD
1000
RTMaterial
1005
0
  0
LINE
  8
F01_OUT
  5
34F
 10
14.973765
 20
-57.049866
 30
0.0
 11
14.647218
 21
-57.026541
 31
0.0
1001
ACAD
1000
RTMaterial
1005
0
  0
LINE
  8
F01_OUT
  5
350
 10
14.973765
 20
-59.950134
 30
0.0
 11
14.647218
 21
-59.973459
 31
0.0
1001
ACAD
1000
RTMaterial
1005
0
  0
LINE
  8
F01_OUT
  5
351
 10
14.655114
 20
-59.072405
 30
0.0
 11
14.346213
 21
-59.05034
 31
0.0
1001
ACAD
1000
RTMaterial
1005
0
  0
LINE
  8
F01_OUT
  5
352
 10
16.149865
 20
-61.126235
 30
0.0
 11
16.126541
 21
-61.452782
 31
0.0
1001
ACAD
1000
RTMaterial
1005
0
  0
LINE
  8
F01_OUT
  5
353
 10
16.149865
 20
-55.873765
 30
0.0
 11
16.126541
 21
-55.547219
 31
0.0
1001
ACAD
1000
RTMaterial
1005
0
  0
LINE
  8
F01_OUT
  5
354
 10
17.027595
 20
-61.444886
 30
0.0
 11
17.049659
 21
-61.753787
 31
0.0
1001
ACAD
1000
RTMaterial
1005
0
  0
LINE
  8
F01_OUT
  5
355
 10
20.544886
 20
-59.072405
 30
0.0
 11
20.853786
 21
-59.05034
 31
0.0
1001
ACAD
1000
RTMaterial
1005
0
  0
LINE
  8
F01_OUT
  5
356
 10
20.226235
 20
-59.950134
 30
0.0
 11
20.552781
 21
-59.973459
 31
0.0
1001
ACAD
1000
RTMaterial
1005
0
  0
LINE
  8
F01_OUT
  5
357
 10
-0.5
 20
-63.992929
 30
0.0
 11
-0.5
 21
-66.326162
 31
0.0
1001
ACAD
1000
RTMaterial
1005
0
  0
LINE
  8
F01_OUT
  5
358
 10
-0.35
 20
-63.85
 30
0.0
 11
-0.496447
 21
-63.996447
 31
0.0
1001
ACAD
1000
RTMaterial
1005
0
  0
LINE
  8
F01_OUT
  5
359
 10
0.0
 20
-63.5
 30
0.0
 11
0.0
 21
-63.85
 31
0.0
1001
ACAD
1000
RTMaterial
1005
0
  0
LINE
  8
F01_OUT
  5
35A
 10
0.0
 20
-63.5
 30
0.0
 11
-0.35
 21
-63.5
 31
0.0
1001
ACAD
1000
RTMaterial
1005
0
  0
LINE
  8
F01_OUT
  5
35B
 10
-0.35
 20
-63.5
 30
0.0
 11
-0.35
 21
-63.85
 31
0.0
1001
ACAD
1000
RTMaterial
1005
0
  0
LINE
  8
F01_OUT
  5
35C
 10
-0.35
 20
-63.15
 30
0.0
 11
-0.35
 21
-63.5
 31
0.0
1001
ACAD
1000
RTMaterial
1005
0
  0
LINE
  8
F01_OUT
  5
35D
 10
-0.35
 20
-63.85
 30
0.0
 11
0.0
 21
-63.5
 31
0.0
1001
ACAD
1000
RTMaterial
1005
0
  0
LINE
  8
F01_OUT
  5
35E
 10
0.0
 20
-63.15
 30
0.0
 11
0.0
 21
-63.5
 31
0.0
1001
ACAD
1000
RTMaterial
1005
0
  0
LINE
  8
F01_OUT
  5
35F
 10
-0.5
 20
-60.673838
 30
0.0
 11
-0.5
 21
-63.007072
 31
0.0
1001
ACAD
1000
RTMaterial
1005
0
  0
LINE
  8
F01_OUT
  5
360
 10
-0.35
 20
-63.15
 30
0.0
 11
-0.496447
 21
-63.003554
 31
0.0
1001
ACAD
1000
RTMaterial
1005
0
  0
LINE
  8
F01_OUT
  5
361
 10
-0.35
 20
-62.355
 30
0.0
 11
-0.35
 21
-62.65
 31
0.0
1001
ACAD
1000
RTMaterial
1005
0
  0
LINE
  8
F01_OUT
  5
362
 10
-0.35
 20
-61.945385
 30
0.0
 11
-0.35
 21
-62.355
 31
0.0
1001
ACAD
1000
RTMaterial
1005
0
  0
LINE
  8
F01_OUT
  5
363
 10
0.0
 20
-63.5
 30
0.0
 11
-0.35
 21
-63.15
 31
0.0
1001
ACAD
1000
RTMaterial
1005
0
  0
LINE
  8
F01_OUT
  5
364
 10
-1.145
 20
-63.15
 30
0.0
 11
-1.145
 21
-63.85
 31
0.0
1001
ACAD
1000
RTMaterial
1005
0
  0
LINE
  8
F01_OUT
  5
365
 10
-1.145
 20
-63.15
 30
0.0
 11
-0.85
 21
-63.15
 31
0.0
1001
ACAD
1000
RTMaterial
1005
0
  0
LINE
  8
F01_OUT
  5
366
 10
-1.946528
 20
-63.15
 30
0.0
 11
-1.145
 21
-63.15
 31
0.0
1001
ACAD
1000
RTMaterial
1005
0
  0
LINE
  8
F01_OUT
  5
367
 10
-1.145
 20
-63.85
 30
0.0
 11
-0.85
 21
-63.85
 31
0.0
1001
ACAD
1000
RTMaterial
1005
0
  0
LINE
  8
F01_OUT
  5
368
 10
-1.946528
 20
-63.85
 30
0.0
 11
-1.145
 21
-63.85
 31
0.0
1001
ACAD
1000
RTMaterial
1005
0
  0
LINE
  8
F01_OUT
  5
369
 10
0.35
 20
-64.645
 30
0.0
 11
-0.35
 21
-64.645
 31
0.0
1001
ACAD
1000
RTMaterial
1005
0
  0
LINE
  8
F01_OUT
  5
36A
 10
0.35
 20
-63.85
 30
0.0
 11
0.0
 21
-63.85
 31
0.0
1001
ACAD
1000
RTMaterial
1005
0
  0
LINE
  8
F01_OUT
  5
36B
 10
0.0
 20
-63.85
 30
0.0
 11
-0.35
 21
-63.85
 31
0.0
1001
ACAD
1000
RTMaterial
1005
0
  0
LINE
  8
F01_OUT
  5
36C
 10
0.35
 20
-63.15
 30
0.0
 11
0.0
 21
-63.5
 31
0.0
1001
ACAD
1000
RTMaterial
1005
0
  0
LINE
  8
F01_OUT
  5
36D
 10
0.35
 20
-63.15
 30
0.0
 11
0.0
 21
-63.15
 31
0.0
1001
ACAD
1000
RTMaterial
1005
0
  0
LINE
  8
F01_OUT
  5
36E
 10
0.0
 20
-63.15
 30
0.0
 11
-0.35
 21
-63.15
 31
0.0
1001
ACAD
1000
RTMaterial
1005
0
  0
LINE
  8
F01_OUT
  5
36F
 10
0.35
 20
-63.5
 30
0.0
 11
0.0
 21
-63.5
 31
0.0
1001
ACAD
1000
RTMaterial
1005
0
  0
LINE
  8
F01_OUT
  5
370
 10
0.0
 20
-63.5
 30
0.0
 11
0.35
 21
-63.85
 31
0.0
1001
ACAD
1000
RTMaterial
1005
0
  0
LINE
  8
F01_OUT
  5
371
 10
0.35
 20
-62.355
 30
0.0
 11
-0.35
 21
-62.355
 31
0.0
1001
ACAD
1000
RTMaterial
1005
0
  0
LINE
  8
F01_OUT
  5
372
 10
-0.35
 20
-64.645
 30
0.0
 11
-0.35
 21
-65.054616
 31
0.0
1001
ACAD
1000
RTMaterial
1005
0
  0
LINE
  8
F01_OUT
  5
373
 10
-0.35
 20
-64.35
 30
0.0
 11
-0.35
 21
-64.645
 31
0.0
1001
ACAD
1000
RTMaterial
1005
0
  0
LINE
  8
F01_OUT
  5
374
 10
-0.35
 20
-65.054616
 30
0.0
 11
0.35
 21
-65.054616
 31
0.0
1001
ACAD
1000
RTMaterial
1005
0
  0
LINE
  8
F01_OUT
  5
375
 10
0.35
 20
-61.945385
 30
0.0
 11
-0.35
 21
-61.945385
 31
0.0
1001
ACAD
1000
RTMaterial
1005
0
  0
LINE
  8
F01_OUT
  5
376
 10
0.35
 20
-63.5
 30
0.0
 11
0.35
 21
-63.85
 31
0.0
1001
ACAD
1000
RTMaterial
1005
0
  0
LINE
  8
F01_OUT
  5
377
 10
0.35
 20
-63.15
 30
0.0
 11
0.496446
 21
-63.003554
 31
0.0
1001
ACAD
1000
RTMaterial
1005
0
  0
LINE
  8
F01_OUT
  5
378
 10
0.35
 20
-63.15
 30
0.0
 11
0.35
 21
-63.5
 31
0.0
1001
ACAD
1000
RTMaterial
1005
0
  0
LINE
  8
F01_OUT
  5
379
 10
0.35
 20
-61.945385
 30
0.0
 11
0.35
 21
-62.355
 31
0.0
1001
ACAD
1000
RTMaterial
1005
0
  0
LINE
  8
F01_OUT
  5
37A
 10
0.35
 20
-64.35
 30
0.0
 11
0.35
 21
-64.645
 31
0.0
1001
ACAD
1000
RTMaterial
1005
0
  0
LINE
  8
F01_OUT
  5
37B
 10
0.35
 20
-64.645
 30
0.0
 11
0.35
 21
-65.054616
 31
0.0
1001
ACAD
1000
RTMaterial
1005
0
  0
LINE
  8
F01_OUT
  5
37C
 10
0.35
 20
-62.355
 30
0.0
 11
0.35
 21
-62.65
 31
0.0
1001
ACAD
1000
RTMaterial
1005
0
  0
LINE
  8
F01_OUT
  5
37D
 10
0.5
 20
-63.007072
 30
0.0
 11
0.5
 21
-60.673838
 31
0.0
1001
ACAD
1000
RTMaterial
1005
0
  0
LINE
  8
F01_OUT
  5
37E
 10
0.5
 20
-66.326162
 30
0.0
 11
0.5
 21
-63.992929
 31
0.0
1001
ACAD
1000
RTMaterial
1005
0
  0
LINE
  8
F01_OUT
  5
37F
 10
0.85
 20
-63.85
 30
0.0
 11
1.145
 21
-63.85
 31
0.0
1001
ACAD
1000
RTMaterial
1005
0
  0
LINE
  8
F01_OUT
  5
380
 10
1.145
 20
-63.85
 30
0.0
 11
1.946527
 21
-63.85
 31
0.0
1001
ACAD
1000
RTMaterial
1005
0
  0
LINE
  8
F01_OUT
  5
381
 10
0.35
 20
-63.85
 30
0.0
 11
0.496446
 21
-63.996447
 31
0.0
1001
ACAD
1000
RTMaterial
1005
0
  0
LINE
  8
F01_OUT
  5
382
 10
0.85
 20
-63.15
 30
0.0
 11
1.145
 21
-63.15
 31
0.0
1001
ACAD
1000
RTMaterial
1005
0
  0
LINE
  8
F01_OUT
  5
383
 10
1.145
 20
-63.15
 30
0.0
 11
1.946527
 21
-63.15
 31
0.0
1001
ACAD
1000
RTMaterial
1005
0
  0
LINE
  8
F01_OUT
  5
384
 10
1.145
 20
-63.15
 30
0.0
 11
1.145
 21
-63.85
 31
0.0
1001
ACAD
1000
RTMaterial
1005
0
  0
ARC
  8
F01_OUT
  5
385
 10
0.0
 20
-63.5
 30
0.0
 40
2.87005
 50
259.967139
 51
280.032861
1001
ACAD
1000
RTMaterial
1005
0
  0
ARC
  8
F01_OUT
  5
386
 10
-0.85
 20
-64.35
 30
0.0
 40
0.5
 50
45.572996
 51
90.0
1001
ACAD
1000
RTMaterial
1005
0
  0
ARC
  8
F01_OUT
  5
387
 10
-0.85
 20
-62.65
 30
0.0
 40
0.5
 50
270.0
 51
314.427004
1001
ACAD
1000
RTMaterial
1005
0
  0
ARC
  8
F01_OUT
  5
388
 10
-0.85
 20
-62.65
 30
0.0
 40
0.5
 50
315.0
 51
0.0
1001
ACAD
1000
RTMaterial
1005
0
  0
ARC
  8
F01_OUT
  5
389
 10
0.0
 20
-63.5
 30
0.0
 40
2.87005
 50
79.967139
 51
100.032861
1001
ACAD
1000
RTMaterial
1005
0
  0
ARC
  8
F01_OUT
  5
38A
 10
-0.85
 20
-64.35
 30
0.0
 40
0.5
 50
0.0
 51
45.0
1001
ACAD
1000
RTMaterial
1005
0
  0
ARC
  8
F01_OUT
  5
38B
 10
0.85
 20
-62.65
 30
0.0
 40
0.5
 50
225.572996
 51
270.0
1001
ACAD
1000
RTMaterial
1005
0
  0
ARC
  8
F01_OUT
  5
38C
 10
0.85
 20
-62.65
 30
0.0
 40
0.5
 50
180.0
 51
225.0
1001
ACAD
1000
RTMaterial
1005
0
  0
ARC
  8
F01_OUT
  5
38D
 10
0.85
 20
-64.35
 30
0.0
 40
0.5
 50
135.0
 51
180.0
1001
ACAD
1000
RTMaterial
1005
0
  0
ARC
  8
F01_OUT
  5
38E
 10
0.85
 20
-64.35
 30
0.0
 40
0.5
 50
90.0
 51
134.427004
1001
ACAD
1000
RTMaterial
1005
0
  0
CIRCLE
  8
F01_OUT
  5
38F
 10
0.0
 20
-63.5
 30
0.0
 40
3.0
1001
ACAD
1000
RTMaterial
1005
0
  0
LINE
  8
F01_OUT
  5
390
 10
-2.626235
 20
-64.950134
 30
0.0
 11
-2.952782
 21
-64.973459
 31
0.0
1001
ACAD
1000
RTMaterial
1005
0
  0
LINE
  8
F01_OUT
  5
391
 10
-2.944886
 20
-64.072405
 30
0.0
 11
-3.253787
 21
-64.05034
 31
0.0
1001
ACAD
1000
RTMaterial
1005
0
  0
LINE
  8
F01_OUT
  5
392
 10
-2.944886
 20
-62.927596
 30
0.0
 11
-3.253787
 21
-62.94966
 31
0.0
1001
ACAD
1000
RTMaterial
1005
0
  0
LINE
  8
F01_OUT
  5
393
 10
-2.626235
 20
-62.049866
 30
0.0
 11
-2.952782
 21
-62.026541
 31
0.0
1001
ACAD
1000
RTMaterial
1005
0
  0
LINE
  8
F01_OUT
  5
394
 10
-0.572405
 20
-66.444886
 30
0.0
 11
-0.550341
 21
-66.753787
 31
0.0
1001
ACAD
1000
RTMaterial
1005
0
  0
LINE
  8
F01_OUT
  5
395
 10
-1.450135
 20
-66.126235
 30
0.0
 11
-1.473459
 21
-66.452782
 31
0.0
1001
ACAD
1000
RTMaterial
1005
0
  0
LINE
  8
F01_OUT
  5
396
 10
-1.450135
 20
-60.873765
 30
0.0
 11
-1.473459
 21
-60.547219
 31
0.0
1001
ACAD
1000
RTMaterial
1005
0
  0
LINE
  8
F01_OUT
  5
397
 10
-0.572405
 20
-60.555114
 30
0.0
 11
-0.550341
 21
-60.246214
 31
0.0
1001
ACAD
1000
RTMaterial
1005
0
  0
LINE
  8
F01_OUT
  5
398
 10
0.572404
 20
-60.555114
 30
0.0
 11
0.55034
 21
-60.246214
 31
0.0
1001
ACAD
1000
RTMaterial
1005
0
  0
LINE
  8
F01_OUT
  5
399
 10
0.572404
 20
-66.444886
 30
0.0
 11
0.55034
 21
-66.753787
 31
0.0
1001
ACAD
1000
RTMaterial
1005
0
  0
LINE
  8
F01_OUT
  5
39A
 10
1.450134
 20
-60.873765
 30
0.0
 11
1.473459
 21
-60.547219
 31
0.0
1001
ACAD
1000
RTMaterial
1005
0
  0
LINE
  8
F01_OUT
  5
39B
 10
1.450134
 20
-66.126235
 30
0.0
 11
1.473459
 21
-66.452782
 31
0.0
1001
ACAD
1000
RTMaterial
1005
0
  0
LINE
  8
F01_OUT
  5
39C
 10
2.944886
 20
-64.072405
 30
0.0
 11
3.253786
 21
-64.05034
 31
0.0
1001
ACAD
1000
RTMaterial
1005
0
  0
LINE
  8
F01_OUT
  5
39D
 10
2.626235
 20
-62.049866
 30
0.0
 11
2.952781
 21
-62.026541
 31
0.0
1001
ACAD
1000
RTMaterial
1005
0
  0
LINE
  8
F01_OUT
  5
39E
 10
2.944886
 20
-62.927596
 30
0.0
 11
3.253786
 21
-62.94966
 31
0.0
1001
ACAD
1000
RTMaterial
1005
0
  0
LINE
  8
F01_OUT
  5
39F
 10
2.626235
 20
-64.950134
 30
0.0
 11
2.952781
 21
-64.973459
 31
0.0
1001
ACAD
1000
RTMaterial
1005
0
  0
LINE
  8
F01_OUT
  5
3A0
 10
-7.349866
 20
-66.126235
 30
0.0
 11
-7.326541
 21
-66.452782
 31
0.0
1001
ACAD
1000
RTMaterial
1005
0
  0
LINE
  8
F01_OUT
  5
3A1
 10
-9.372405
 20
-66.444886
 30
0.0
 11
-9.350341
 21
-66.753787
 31
0.0
1001
ACAD
1000
RTMaterial
1005
0
  0
LINE
  8
F01_OUT
  5
3A2
 10
-8.227596
 20
-66.444886
 30
0.0
 11
-8.24966
 21
-66.753787
 31
0.0
1001
ACAD
1000
RTMaterial
1005
0
  0
LINE
  8
F01_OUT
  5
3A3
 10
-10.250135
 20
-66.126235
 30
0.0
 11
-10.273459
 21
-66.452782
 31
0.0
1001
ACAD
1000
RTMaterial
1005
0
  0
LINE
  8
F01_OUT
  5
3A4
 10
-6.173765
 20
-64.950134
 30
0.0
 11
-5.847219
 21
-64.973459
 31
0.0
1001
ACAD
1000
RTMaterial
1005
0
  0
LINE
  8
F01_OUT
  5
3A5
 10
-5.855114
 20
-64.072405
 30
0.0
 11
-5.546214
 21
-64.05034
 31
0.0
1001
ACAD
1000
RTMaterial
1005
0
  0
LINE
  8
F01_OUT
  5
3A6
 10
-11.744886
 20
-64.072405
 30
0.0
 11
-12.053787
 21
-64.05034
 31
0.0
1001
ACAD
1000
RTMaterial
1005
0
  0
LINE
  8
F01_OUT
  5
3A7
 10
-11.426235
 20
-64.950134
 30
0.0
 11
-11.752782
 21
-64.973459
 31
0.0
1001
ACAD
1000
RTMaterial
1005
0
  0
LINE
  8
F01_OUT
  5
3A8
 10
-5.855114
 20
-62.927596
 30
0.0
 11
-5.546214
 21
-62.94966
 31
0.0
1001
ACAD
1000
RTMaterial
1005
0
  0
LINE
  8
F01_OUT
  5
3A9
 10
-11.744886
 20
-62.927596
 30
0.0
 11
-12.053787
 21
-62.94966
 31
0.0
1001
ACAD
1000
RTMaterial
1005
0
  0
LINE
  8
F01_OUT
  5
3AA
 10
-9.372405
 20
-60.555114
 30
0.0
 11
-9.350341
 21
-60.246214
 31
0.0
1001
ACAD
1000
RTMaterial
1005
0
  0
LINE
  8
F01_OUT
  5
3AB
 10
-8.227596
 20
-60.555114
 30
0.0
 11
-8.24966
 21
-60.246214
 31
0.0
1001
ACAD
1000
RTMaterial
1005
0
  0
LINE
  8
F01_OUT
  5
3AC
 10
-7.349866
 20
-60.873765
 30
0.0
 11
-7.326541
 21
-60.547219
 31
0.0
1001
ACAD
1000
RTMaterial
1005
0
  0
LINE
  8
F01_OUT
  5
3AD
 10
-10.250135
 20
-60.873765
 30
0.0
 11
-10.273459
 21
-60.547219
 31
0.0
1001
ACAD
1000
RTMaterial
1005
0
  0
LINE
  8
F01_OUT
  5
3AE
 10
-11.426235
 20
-62.049866
 30
0.0
 11
-11.752782
 21
-62.026541
 31
0.0
1001
ACAD
1000
RTMaterial
1005
0
  0
LINE
  8
F01_OUT
  5
3AF
 10
-6.173765
 20
-62.049866
 30
0.0
 11
-5.847219
 21
-62.026541
 31
0.0
1001
ACAD
1000
RTMaterial
1005
0
  0
LINE
  8
F01_OUT
  5
3B0
 10
-8.3
 20
-66.326162
 30
0.0
 11
-8.3
 21
-63.992929
 31
0.0
1001
ACAD
1000
RTMaterial
1005
0
  0
LINE
  8
F01_OUT
  5
3B1
 10
-9.3
 20
-63.992929
 30
0.0
 11
-9.3
 21
-66.326162
 31
0.0
1001
ACAD
1000
RTMaterial
1005
0
  0
LINE
  8
F01_OUT
  5
3B2
 10
-9.945
 20
-63.15
 30
0.0
 11
-9.945
 21
-63.85
 31
0.0
1001
ACAD
1000
RTMaterial
1005
0
  0
LINE
  8
F01_OUT
  5
3B3
 10
-8.45
 20
-63.5
 30
0.0
 11
-8.45
 21
-63.85
 31
0.0
1001
ACAD
1000
RTMaterial
1005
0
  0
LINE
  8
F01_OUT
  5
3B4
 10
-8.45
 20
-63.15
 30
0.0
 11
-8.45
 21
-63.5
 31
0.0
1001
ACAD
1000
RTMaterial
1005
0
  0
LINE
  8
F01_OUT
  5
3B5
 10
-8.45
 20
-63.85
 30
0.0
 11
-8.303554
 21
-63.996447
 31
0.0
1001
ACAD
1000
RTMaterial
1005
0
  0
LINE
  8
F01_OUT
  5
3B6
 10
-9.15
 20
-63.5
 30
0.0
 11
-9.15
 21
-63.85
 31
0.0
1001
ACAD
1000
RTMaterial
1005
0
  0
LINE
  8
F01_OUT
  5
3B7
 10
-9.15
 20
-63.15
 30
0.0
 11
-9.15
 21
-63.5
 31
0.0
1001
ACAD
1000
RTMaterial
1005
0
  0
LINE
  8
F01_OUT
  5
3B8
 10
-9.15
 20
-63.85
 30
0.0
 11
-9.296447
 21
-63.996447
 31
0.0
1001
ACAD
1000
RTMaterial
1005
0
  0
LINE
  8
F01_OUT
  5
3B9
 10
-8.45
 20
-63.5
 30
0.0
 11
-8.8
 21
-63.5
 31
0.0
1001
ACAD
1000
RTMaterial
1005
0
  0
LINE
  8
F01_OUT
  5
3BA
 10
-8.8
 20
-63.5
 30
0.0
 11
-8.8
 21
-63.85
 31
0.0
1001
ACAD
1000
RTMaterial
1005
0
  0
LINE
  8
F01_OUT
  5
3BB
 10
-7.655
 20
-63.15
 30
0.0
 11
-7.655
 21
-63.85
 31
0.0
1001
ACAD
1000
RTMaterial
1005
0
  0
LINE
  8
F01_OUT
  5
3BC
 10
-9.945
 20
-63.85
 30
0.0
 11
-9.65
 21
-63.85
 31
0.0
1001
ACAD
1000
RTMaterial
1005
0
  0
LINE
  8
F01_OUT
  5
3BD
 10
-10.746528
 20
-63.85
 30
0.0
 11
-9.945
 21
-63.85
 31
0.0
1001
ACAD
1000
RTMaterial
1005
0
  0
LINE
  8
F01_OUT
  5
3BE
 10
-8.45
 20
-63.85
 30
0.0
 11
-8.8
 21
-63.85
 31
0.0
1001
ACAD
1000
RTMaterial
1005
0
  0
LINE
  8
F01_OUT
  5
3BF
 10
-8.8
 20
-63.85
 30
0.0
 11
-9.15
 21
-63.85
 31
0.0
1001
ACAD
1000
RTMaterial
1005
0
  0
LINE
  8
F01_OUT
  5
3C0
 10
-7.95
 20
-63.85
 30
0.0
 11
-7.655
 21
-63.85
 31
0.0
1001
ACAD
1000
RTMaterial
1005
0
  0
LINE
  8
F01_OUT
  5
3C1
 10
-7.655
 20
-63.85
 30
0.0
 11
-6.853473
 21
-63.85
 31
0.0
1001
ACAD
1000
RTMaterial
1005
0
  0
LINE
  8
F01_OUT
  5
3C2
 10
-8.8
 20
-63.5
 30
0.0
 11
-9.15
 21
-63.5
 31
0.0
1001
ACAD
1000
RTMaterial
1005
0
  0
LINE
  8
F01_OUT
  5
3C3
 10
-8.8
 20
-63.15
 30
0.0
 11
-8.8
 21
-63.5
 31
0.0
1001
ACAD
1000
RTMaterial
1005
0
  0
LINE
  8
F01_OUT
  5
3C4
 10
-9.15
 20
-63.85
 30
0.0
 11
-8.8
 21
-63.5
 31
0.0
1001
ACAD
1000
RTMaterial
1005
0
  0
LINE
  8
F01_OUT
  5
3C5
 10
-8.8
 20
-63.5
 30
0.0
 11
-9.15
 21
-63.15
 31
0.0
1001
ACAD
1000
RTMaterial
1005
0
  0
LINE
  8
F01_OUT
  5
3C6
 10
-9.15
 20
-65.054616
 30
0.0
 11
-8.45
 21
-65.054616
 31
0.0
1001
ACAD
1000
RTMaterial
1005
0
  0
LINE
  8
F01_OUT
  5
3C7
 10
-8.45
 20
-64.645
 30
0.0
 11
-9.15
 21
-64.645
 31
0.0
1001
ACAD
1000
RTMaterial
1005
0
  0
LINE
  8
F01_OUT
  5
3C8
 10
-8.45
 20
-64.35
 30
0.0
 11
-8.45
 21
-64.645
 31
0.0
1001
ACAD
1000
RTMaterial
1005
0
  0
LINE
  8
F01_OUT
  5
3C9
 10
-8.45
 20
-64.645
 30
0.0
 11
-8.45
 21
-65.054616
 31
0.0
1001
ACAD
1000
RTMaterial
1005
0
  0
LINE
  8
F01_OUT
  5
3CA
 10
-9.15
 20
-64.35
 30
0.0
 11
-9.15
 21
-64.645
 31
0.0
1001
ACAD
1000
RTMaterial
1005
0
  0
LINE
  8
F01_OUT
  5
3CB
 10
-9.15
 20
-64.645
 30
0.0
 11
-9.15
 21
-65.054616
 31
0.0
1001
ACAD
1000
RTMaterial
1005
0
  0
LINE
  8
F01_OUT
  5
3CC
 10
-8.8
 20
-63.5
 30
0.0
 11
-8.45
 21
-63.85
 31
0.0
1001
ACAD
1000
RTMaterial
1005
0
  0
LINE
  8
F01_OUT
  5
3CD
 10
-8.45
 20
-63.15
 30
0.0
 11
-8.8
 21
-63.5
 31
0.0
1001
ACAD
1000
RTMaterial
1005
0
  0
LINE
  8
F01_OUT
  5
3CE
 10
-9.945
 20
-63.15
 30
0.0
 11
-9.65
 21
-63.15
 31
0.0
1001
ACAD
1000
RTMaterial
1005
0
  0
LINE
  8
F01_OUT
  5
3CF
 10
-10.746528
 20
-63.15
 30
0.0
 11
-9.945
 21
-63.15
 31
0.0
1001
ACAD
1000
RTMaterial
1005
0
  0
LINE
  8
F01_OUT
  5
3D0
 10
-7.95
 20
-63.15
 30
0.0
 11
-7.655
 21
-63.15
 31
0.0
1001
ACAD
1000
RTMaterial
1005
0
  0
LINE
  8
F01_OUT
  5
3D1
 10
-7.655
 20
-63.15
 30
0.0
 11
-6.853473
 21
-63.15
 31
0.0
1001
ACAD
1000
RTMaterial
1005
0
  0
LINE
  8
F01_OUT
  5
3D2
 10
-8.45
 20
-63.15
 30
0.0
 11
-8.8
 21
-63.15
 31
0.0
1001
ACAD
1000
RTMaterial
1005
0
  0
LINE
  8
F01_OUT
  5
3D3
 10
-8.8
 20
-63.15
 30
0.0
 11
-9.15
 21
-63.15
 31
0.0
1001
ACAD
1000
RTMaterial
1005
0
  0
LINE
  8
F01_OUT
  5
3D4
 10
-9.15
 20
-63.15
 30
0.0
 11
-9.296447
 21
-63.003554
 31
0.0
1001
ACAD
1000
RTMaterial
1005
0
  0
LINE
  8
F01_OUT
  5
3D5
 10
-8.45
 20
-63.15
 30
0.0
 11
-8.303554
 21
-63.003554
 31
0.0
1001
ACAD
1000
RTMaterial
1005
0
  0
LINE
  8
F01_OUT
  5
3D6
 10
-8.3
 20
-63.007072
 30
0.0
 11
-8.3
 21
-60.673838
 31
0.0
1001
ACAD
1000
RTMaterial
1005
0
  0
LINE
  8
F01_OUT
  5
3D7
 10
-9.3
 20
-60.673838
 30
0.0
 11
-9.3
 21
-63.007072
 31
0.0
1001
ACAD
1000
RTMaterial
1005
0
  0
LINE
  8
F01_OUT
  5
3D8
 10
-9.15
 20
-62.355
 30
0.0
 11
-9.15
 21
-62.65
 31
0.0
1001
ACAD
1000
RTMaterial
1005
0
  0
LINE
  8
F01_OUT
  5
3D9
 10
-8.45
 20
-62.355
 30
0.0
 11
-8.45
 21
-62.65
 31
0.0
1001
ACAD
1000
RTMaterial
1005
0
  0
LINE
  8
F01_OUT
  5
3DA
 10
-8.45
 20
-61.945385
 30
0.0
 11
-9.15
 21
-61.945385
 31
0.0
1001
ACAD
1000
RTMaterial
1005
0
  0
LINE
  8
F01_OUT
  5
3DB
 10
-8.45
 20
-62.355
 30
0.0
 11
-9.15
 21
-62.355
 31
0.0
1001
ACAD
1000
RTMaterial
1005
0
  0
LINE
  8
F01_OUT
  5
3DC
 10
-8.45
 20
-61.945385
 30
0.0
 11
-8.45
 21
-62.355
 31
0.0
1001
ACAD
1000
RTMaterial
1005
0
  0
LINE
  8
F01_OUT
  5
3DD
 10
-9.15
 20
-61.945385
 30
0.0
 11
-9.15
 21
-62.355
 31
0.0
1001
ACAD
1000
RTMaterial
1005
0
  0
ARC
  8
F01_OUT
  5
3DE
 10
-8.8
 20
-63.5
 30
0.0
 40
2.87005
 50
259.967139
 51
280.032861
1001
ACAD
1000
RTMaterial
1005
0
  0
ARC
  8
F01_OUT
  5
3DF
 10
-7.95
 20
-64.35
 30
0.0
 40
0.5
 50
135.0
 51
180.0
1001
ACAD
1000
RTMaterial
1005
0
  0
ARC
  8
F01_OUT
  5
3E0
 10
-9.65
 20
-64.35
 30
0.0
 40
0.5
 50
0.0
 51
45.0
1001
ACAD
1000
RTMaterial
1005
0
  0
ARC
  8
F01_OUT
  5
3E1
 10
-9.65
 20
-64.35
 30
0.0
 40
0.5
 50
45.572996
 51
90.0
1001
ACAD
1000
RTMaterial
1005
0
  0
ARC
  8
F01_OUT
  5
3E2
 10
-7.95
 20
-64.35
 30
0.0
 40
0.5
 50
90.0
 51
134.427004
1001
ACAD
1000
RTMaterial
1005
0
  0
ARC
  8
F01_OUT
  5
3E3
 10
-7.95
 20
-62.65
 30
0.0
 40
0.5
 50
225.572996
 51
270.0
1001
ACAD
1000
RTMaterial
1005
0
  0
ARC
  8
F01_OUT
  5
3E4
 10
-9.65
 20
-62.65
 30
0.0
 40
0.5
 50
270.0
 51
314.427004
1001
ACAD
1000
RTMaterial
1005
0
  0
ARC
  8
F01_OUT
  5
3E5
 10
-9.65
 20
-62.65
 30
0.0
 40
0.5
 50
315.0
 51
0.0
1001
ACAD
1000
RTMaterial
1005
0
  0
ARC
  8
F01_OUT
  5
3E6
 10
-7.95
 20
-62.65
 30
0.0
 40
0.5
 50
180.0
 51
225.0
1001
ACAD
1000
RTMaterial
1005
0
  0
ARC
  8
F01_OUT
  5
3E7
 10
-8.8
 20
-63.5
 30
0.0
 40
2.87005
 50
79.967139
 51
100.032861
1001
ACAD
1000
RTMaterial
1005
0
  0
CIRCLE
  8
F01_OUT
  5
3E8
 10
-8.8
 20
-63.5
 30
0.0
 40
3.0
1001
ACAD
1000
RTMaterial
1005
0
  0
LINE
  8
F01_OUT
  5
3E9
 10
9.3
 20
-69.926162
 30
0.0
 11
9.3
 21
-67.592929
 31
0.0
1001
ACAD
1000
RTMaterial
1005
0
  0
LINE
  8
F01_OUT
  5
3EA
 10
9.945
 20
-66.75
 30
0.0
 11
10.746527
 21
-66.75
 31
0.0
1001
ACAD
1000
RTMaterial
1005
0
  0
LINE
  8
F01_OUT
  5
3EB
 10
9.945
 20
-67.45
 30
0.0
 11
10.746527
 21
-67.45
 31
0.0
1001
ACAD
1000
RTMaterial
1005
0
  0
LINE
  8
F01_OUT
  5
3EC
 10
8.3
 20
-67.592929
 30
0.0
 11
8.3
 21
-69.926162
 31
0.0
1001
ACAD
1000
RTMaterial
1005
0
  0
LINE
  8
F01_OUT
  5
3ED
 10
7.655
 20
-66.75
 30
0.0
 11
7.95
 21
-66.75
 31
0.0
1001
ACAD
1000
RTMaterial
1005
0
  0
LINE
  8
F01_OUT
  5
3EE
 10
7.655
 20
-67.45
 30
0.0
 11
7.95
 21
-67.45
 31
0.0
1001
ACAD
1000
RTMaterial
1005
0
  0
LINE
  8
F01_OUT
  5
3EF
 10
8.45
 20
-66.75
 30
0.0
 11
8.303553
 21
-66.603554
 31
0.0
1001
ACAD
1000
RTMaterial
1005
0
  0
LINE
  8
F01_OUT
  5
3F0
 10
9.15
 20
-65.955
 30
0.0
 11
8.45
 21
-65.955
 31
0.0
1001
ACAD
1000
RTMaterial
1005
0
  0
LINE
  8
F01_OUT
  5
3F1
 10
9.15
 20
-66.75
 30
0.0
 11
9.296446
 21
-66.603554
 31
0.0
1001
ACAD
1000
RTMaterial
1005
0
  0
LINE
  8
F01_OUT
  5
3F2
 10
8.8
 20
-66.75
 30
0.0
 11
8.45
 21
-66.75
 31
0.0
1001
ACAD
1000
RTMaterial
1005
0
  0
LINE
  8
F01_OUT
  5
3F3
 10
9.3
 20
-66.607072
 30
0.0
 11
9.3
 21
-64.273838
 31
0.0
1001
ACAD
1000
RTMaterial
1005
0
  0
LINE
  8
F01_OUT
  5
3F4
 10
8.3
 20
-64.273838
 30
0.0
 11
8.3
 21
-66.607072
 31
0.0
1001
ACAD
1000
RTMaterial
1005
0
  0
LINE
  8
F01_OUT
  5
3F5
 10
8.45
 20
-68.654616
 30
0.0
 11
9.15
 21
-68.654616
 31
0.0
1001
ACAD
1000
RTMaterial
1005
0
  0
LINE
  8
F01_OUT
  5
3F6
 10
9.15
 20
-68.245
 30
0.0
 11
9.15
 21
-68.654616
 31
0.0
1001
ACAD
1000
RTMaterial
1005
0
  0
LINE
  8
F01_OUT
  5
3F7
 10
8.45
 20
-68.245
 30
0.0
 11
8.45
 21
-68.654616
 31
0.0
1001
ACAD
1000
RTMaterial
1005
0
  0
LINE
  8
F01_OUT
  5
3F8
 10
9.15
 20
-66.75
 30
0.0
 11
8.8
 21
-66.75
 31
0.0
1001
ACAD
1000
RTMaterial
1005
0
  0
LINE
  8
F01_OUT
  5
3F9
 10
8.8
 20
-66.75
 30
0.0
 11
8.8
 21
-67.1
 31
0.0
1001
ACAD
1000
RTMaterial
1005
0
  0
LINE
  8
F01_OUT
  5
3FA
 10
9.15
 20
-67.1
 30
0.0
 11
9.15
 21
-67.45
 31
0.0
1001
ACAD
1000
RTMaterial
1005
0
  0
LINE
  8
F01_OUT
  5
3FB
 10
9.15
 20
-67.45
 30
0.0
 11
9.296446
 21
-67.596447
 31
0.0
1001
ACAD
1000
RTMaterial
1005
0
  0
LINE
  8
F01_OUT
  5
3FC
 10
9.15
 20
-66.75
 30
0.0
 11
9.15
 21
-67.1
 31
0.0
1001
ACAD
1000
RTMaterial
1005
0
  0
LINE
  8
F01_OUT
  5
3FD
 10
9.15
 20
-66.75
 30
0.0
 11
8.8
 21
-67.1
 31
0.0
1001
ACAD
1000
RTMaterial
1005
0
  0
LINE
  8
F01_OUT
  5
3FE
 10
8.8
 20
-67.1
 30
0.0
 11
8.8
 21
-67.45
 31
0.0
1001
ACAD
1000
RTMaterial
1005
0
  0
LINE
  8
F01_OUT
  5
3FF
 10
9.15
 20
-67.1
 30
0.0
 11
8.8
 21
-67.1
 31
0.0
1001
ACAD
1000
RTMaterial
1005
0
  0
LINE
  8
F01_OUT
  5
400
 10
8.8
 20
-67.1
 30
0.0
 11
8.45
 21
-67.1
 31
0.0
1001
ACAD
1000
RTMaterial
1005
0
  0
LINE
  8
F01_OUT
  5
401
 10
9.15
 20
-67.45
 30
0.0
 11
8.8
 21
-67.45
 31
0.0
1001
ACAD
1000
RTMaterial
1005
0
  0
LINE
  8
F01_OUT
  5
402
 10
8.8
 20
-67.45
 30
0.0
 11
8.45
 21
-67.45
 31
0.0
1001
ACAD
1000
RTMaterial
1005
0
  0
LINE
  8
F01_OUT
  5
403
 10
8.45
 20
-67.45
 30
0.0
 11
8.8
 21
-67.1
 31
0.0
1001
ACAD
1000
RTMaterial
1005
0
  0
LINE
  8
F01_OUT
  5
404
 10
8.8
 20
-67.1
 30
0.0
 11
9.15
 21
-67.45
 31
0.0
1001
ACAD
1000
RTMaterial
1005
0
  0
LINE
  8
F01_OUT
  5
405
 10
9.65
 20
-66.75
 30
0.0
 11
9.945
 21
-66.75
 31
0.0
1001
ACAD
1000
RTMaterial
1005
0
  0
LINE
  8
F01_OUT
  5
406
 10
8.45
 20
-65.545385
 30
0.0
 11
8.45
 21
-65.955
 31
0.0
1001
ACAD
1000
RTMaterial
1005
0
  0
LINE
  8
F01_OUT
  5
407
 10
9.15
 20
-65.545385
 30
0.0
 11
9.15
 21
-65.955
 31
0.0
1001
ACAD
1000
RTMaterial
1005
0
  0
LINE
  8
F01_OUT
  5
408
 10
8.45
 20
-65.955
 30
0.0
 11
8.45
 21
-66.25
 31
0.0
1001
ACAD
1000
RTMaterial
1005
0
  0
LINE
  8
F01_OUT
  5
409
 10
9.15
 20
-65.955
 30
0.0
 11
9.15
 21
-66.25
 31
0.0
1001
ACAD
1000
RTMaterial
1005
0
  0
LINE
  8
F01_OUT
  5
40A
 10
9.15
 20
-65.545385
 30
0.0
 11
8.45
 21
-65.545385
 31
0.0
1001
ACAD
1000
RTMaterial
1005
0
  0
LINE
  8
F01_OUT
  5
40B
 10
8.45
 20
-67.1
 30
0.0
 11
8.45
 21
-67.45
 31
0.0
1001
ACAD
1000
RTMaterial
1005
0
  0
LINE
  8
F01_OUT
  5
40C
 10
8.45
 20
-67.45
 30
0.0
 11
8.303553
 21
-67.596447
 31
0.0
1001
ACAD
1000
RTMaterial
1005
0
  0
LINE
  8
F01_OUT
  5
40D
 10
8.45
 20
-66.75
 30
0.0
 11
8.45
 21
-67.1
 31
0.0
1001
ACAD
1000
RTMaterial
1005
0
  0
LINE
  8
F01_OUT
  5
40E
 10
8.8
 20
-67.1
 30
0.0
 11
8.45
 21
-66.75
 31
0.0
1001
ACAD
1000
RTMaterial
1005
0
  0
LINE
  8
F01_OUT
  5
40F
 10
9.15
 20
-67.95
 30
0.0
 11
9.15
 21
-68.245
 31
0.0
1001
ACAD
1000
RTMaterial
1005
0
  0
LINE
  8
F01_OUT
  5
410
 10
9.15
 20
-68.245
 30
0.0
 11
8.45
 21
-68.245
 31
0.0
1001
ACAD
1000
RTMaterial
1005
0
  0
LINE
  8
F01_OUT
  5
411
 10
8.45
 20
-67.95
 30
0.0
 11
8.45
 21
-68.245
 31
0.0
1001
ACAD
1000
RTMaterial
1005
0
  0
LINE
  8
F01_OUT
  5
412
 10
9.65
 20
-67.45
 30
0.0
 11
9.945
 21
-67.45
 31
0.0
1001
ACAD
1000
RTMaterial
1005
0
  0
LINE
  8
F01_OUT
  5
413
 10
9.945
 20
-66.75
 30
0.0
 11
9.945
 21
-67.45
 31
0.0
1001
ACAD
1000
RTMaterial
1005
0
  0
LINE
  8
F01_OUT
  5
414
 10
6.853472
 20
-67.45
 30
0.0
 11
7.655
 21
-67.45
 31
0.0
1001
ACAD
1000
RTMaterial
1005
0
  0
LINE
  8
F01_OUT
  5
415
 10
7.655
 20
-66.75
 30
0.0
 11
7.655
 21
-67.45
 31
0.0
1001
ACAD
1000
RTMaterial
1005
0
  0
LINE
  8
F01_OUT
  5
416
 10
6.853472
 20
-66.75
 30
0.0
 11
7.655
 21
-66.75
 31
0.0
1001
ACAD
1000
RTMaterial
1005
0
  0
ARC
  8
F01_OUT
  5
417
 10
8.8
 20
-67.1
 30
0.0
 40
2.87005
 50
259.967139
 51
280.032861
1001
ACAD
1000
RTMaterial
1005
0
  0
ARC
  8
F01_OUT
  5
418
 10
7.95
 20
-66.25
 30
0.0
 40
0.5
 50
270.0
 51
314.427004
1001
ACAD
1000
RTMaterial
1005
0
  0
ARC
  8
F01_OUT
  5
419
 10
7.95
 20
-67.95
 30
0.0
 40
0.5
 50
45.572996
 51
90.0
1001
ACAD
1000
RTMaterial
1005
0
  0
ARC
  8
F01_OUT
  5
41A
 10
9.65
 20
-66.25
 30
0.0
 40
0.5
 50
180.0
 51
225.0
1001
ACAD
1000
RTMaterial
1005
0
  0
ARC
  8
F01_OUT
  5
41B
 10
7.95
 20
-67.95
 30
0.0
 40
0.5
 50
0.0
 51
45.0
1001
ACAD
1000
RTMaterial
1005
0
  0
ARC
  8
F01_OUT
  5
41C
 10
9.65
 20
-66.25
 30
0.0
 40
0.5
 50
225.572996
 51
270.0
1001
ACAD
1000
RTMaterial
1005
0
  0
ARC
  8
F01_OUT
  5
41D
 10
8.8
 20
-67.1
 30
0.0
 40
2.87005
 50
79.967139
 51
100.032861
1001
ACAD
1000
RTMaterial
1005
0
  0
ARC
  8
F01_OUT
  5
41E
 10
7.95
 20
-66.25
 30
0.0
 40
0.5
 50
315.0
 51
0.0
1001
ACAD
1000
RTMaterial
1005
0
  0
ARC
  8
F01_OUT
  5
41F
 10
9.65
 20
-67.95
 30
0.0
 40
0.5
 50
90.0
 51
134.427004
1001
ACAD
1000
RTMaterial
1005
0
  0
ARC
  8
F01_OUT
  5
420
 10
9.65
 20
-67.95
 30
0.0
 40
0.5
 50
135.0
 51
180.0
1001
ACAD
1000
RTMaterial
1005
0
  0
CIRCLE
  8
F01_OUT
  5
421
 10
8.8
 20
-67.1
 30
0.0
 40
3.0
1001
ACAD
1000
RTMaterial
1005
0
  0
LINE
  8
F01_OUT
  5
422
 10
9.372404
 20
-70.044886
 30
0.0
 11
9.35034
 21
-70.353787
 31
0.0
1001
ACAD
1000
RTMaterial
1005
0
  0
LINE
  8
F01_OUT
  5
423
 10
10.250134
 20
-69.726235
 30
0.0
 11
10.273459
 21
-70.052782
 31
0.0
1001
ACAD
1000
RTMaterial
1005
0
  0
LINE
  8
F01_OUT
  5
424
 10
11.426235
 20
-68.550134
 30
0.0
 11
11.752781
 21
-68.573459
 31
0.0
1001
ACAD
1000
RTMaterial
1005
0
  0
LINE
  8
F01_OUT
  5
425
 10
11.426235
 20
-65.649866
 30
0.0
 11
11.752781
 21
-65.626541
 31
0.0
1001
ACAD
1000
RTMaterial
1005
0
  0
LINE
  8
F01_OUT
  5
426
 10
11.744886
 20
-66.527596
 30
0.0
 11
12.053786
 21
-66.54966
 31
0.0
1001
ACAD
1000
RTMaterial
1005
0
  0
LINE
  8
F01_OUT
  5
427
 10
11.744886
 20
-67.672405
 30
0.0
 11
12.053786
 21
-67.65034
 31
0.0
1001
ACAD
1000
RTMaterial
1005
0
  0
LINE
  8
F01_OUT
  5
428
 10
8.227595
 20
-70.044886
 30
0.0
 11
8.249659
 21
-70.353787
 31
0.0
1001
ACAD
1000
RTMaterial
1005
0
  0
LINE
  8
F01_OUT
  5
429
 10
7.349865
 20
-69.726235
 30
0.0
 11
7.326541
 21
-70.052782
 31
0.0
1001
ACAD
1000
RTMaterial
1005
0
  0
LINE
  8
F01_OUT
  5
42A
 10
10.250134
 20
-64.473765
 30
0.0
 11
10.273459
 21
-64.147219
 31
0.0
1001
ACAD
1000
RTMaterial
1005
0
  0
LINE
  8
F01_OUT
  5
42B
 10
8.227595
 20
-64.155114
 30
0.0
 11
8.249659
 21
-63.846214
 31
0.0
1001
ACAD
1000
RTMaterial
1005
0
  0
LINE
  8
F01_OUT
  5
42C
 10
9.372404
 20
-64.155114
 30
0.0
 11
9.35034
 21
-63.846214
 31
0.0
1001
ACAD
1000
RTMaterial
1005
0
  0
LINE
  8
F01_OUT
  5
42D
 10
7.349865
 20
-64.473765
 30
0.0
 11
7.326541
 21
-64.147219
 31
0.0
1001
ACAD
1000
RTMaterial
1005
0
  0
LINE
  8
F01_OUT
  5
42E
 10
6.173765
 20
-65.649866
 30
0.0
 11
5.847218
 21
-65.626541
 31
0.0
1001
ACAD
1000
RTMaterial
1005
0
  0
LINE
  8
F01_OUT
  5
42F
 10
6.173765
 20
-68.550134
 30
0.0
 11
5.847218
 21
-68.573459
 31
0.0
1001
ACAD
1000
RTMaterial
1005
0
  0
LINE
  8
F01_OUT
  5
430
 10
5.855114
 20
-66.527596
 30
0.0
 11
5.546213
 21
-66.54966
 31
0.0
1001
ACAD
1000
RTMaterial
1005
0
  0
LINE
  8
F01_OUT
  5
431
 10
5.855114
 20
-67.672405
 30
0.0
 11
5.546213
 21
-67.65034
 31
0.0
1001
ACAD
1000
RTMaterial
1005
0
  0
LINE
  8
F01_OUT
  5
432
 10
18.1
 20
-69.926162
 30
0.0
 11
18.1
 21
-67.592929
 31
0.0
1001
ACAD
1000
RTMaterial
1005
0
  0
LINE
  8
F01_OUT
  5
433
 10
17.1
 20
-67.592929
 30
0.0
 11
17.1
 21
-69.926162
 31
0.0
1001
ACAD
1000
RTMaterial
1005
0
  0
LINE
  8
F01_OUT
  5
434
 10
16.455
 20
-67.45
 30
0.0
 11
16.75
 21
-67.45
 31
0.0
1001
ACAD
1000
RTMaterial
1005
0
  0
LINE
  8
F01_OUT
  5
435
 10
15.653472
 20
-67.45
 30
0.0
 11
16.455
 21
-67.45
 31
0.0
1001
ACAD
1000
RTMaterial
1005
0
  0
LINE
  8
F01_OUT
  5
436
 10
16.455
 20
-66.75
 30
0.0
 11
16.75
 21
-66.75
 31
0.0
1001
ACAD
1000
RTMaterial
1005
0
  0
LINE
  8
F01_OUT
  5
437
 10
15.653472
 20
-66.75
 30
0.0
 11
16.455
 21
-66.75
 31
0.0
1001
ACAD
1000
RTMaterial
1005
0
  0
LINE
  8
F01_OUT
  5
438
 10
17.6
 20
-66.75
 30
0.0
 11
17.6
 21
-67.1
 31
0.0
1001
ACAD
1000
RTMaterial
1005
0
  0
LINE
  8
F01_OUT
  5
439
 10
17.95
 20
-67.1
 30
0.0
 11
17.95
 21
-67.45
 31
0.0
1001
ACAD
1000
RTMaterial
1005
0
  0
LINE
  8
F01_OUT
  5
43A
 10
17.95
 20
-66.75
 30
0.0
 11
17.95
 21
-67.1
 31
0.0
1001
ACAD
1000
RTMaterial
1005
0
  0
LINE
  8
F01_OUT
  5
43B
 10
17.25
 20
-67.1
 30
0.0
 11
17.25
 21
-67.45
 31
0.0
1001
ACAD
1000
RTMaterial
1005
0
  0
LINE
  8
F01_OUT
  5
43C
 10
17.25
 20
-66.75
 30
0.0
 11
17.25
 21
-67.1
 31
0.0
1001
ACAD
1000
RTMaterial
1005
0
  0
LINE
  8
F01_OUT
  5
43D
 10
17.25
 20
-66.75
 30
0.0
 11
17.103553
 21
-66.603554
 31
0.0
1001
ACAD
1000
RTMaterial
1005
0
  0
LINE
  8
F01_OUT
  5
43E
 10
17.95
 20
-67.95
 30
0.0
 11
17.95
 21
-68.245
 31
0.0
1001
ACAD
1000
RTMaterial
1005
0
  0
LINE
  8
F01_OUT
  5
43F
 10
17.6
 20
-67.1
 30
0.0
 11
17.6
 21
-67.45
 31
0.0
1001
ACAD
1000
RTMaterial
1005
0
  0
LINE
  8
F01_OUT
  5
440
 10
17.6
 20
-67.1
 30
0.0
 11
17.25
 21
-67.1
 31
0.0
1001
ACAD
1000
RTMaterial
1005
0
  0
LINE
  8
F01_OUT
  5
441
 10
17.25
 20
-67.45
 30
0.0
 11
17.6
 21
-67.1
 31
0.0
1001
ACAD
1000
RTMaterial
1005
0
  0
LINE
  8
F01_OUT
  5
442
 10
17.95
 20
-67.1
 30
0.0
 11
17.6
 21
-67.1
 31
0.0
1001
ACAD
1000
RTMaterial
1005
0
  0
LINE
  8
F01_OUT
  5
443
 10
17.25
 20
-67.45
 30
0.0
 11
17.103553
 21
-67.596447
 31
0.0
1001
ACAD
1000
RTMaterial
1005
0
  0
LINE
  8
F01_OUT
  5
444
 10
16.455
 20
-66.75
 30
0.0
 11
16.455
 21
-67.45
 31
0.0
1001
ACAD
1000
RTMaterial
1005
0
  0
LINE
  8
F01_OUT
  5
445
 10
17.95
 20
-66.75
 30
0.0
 11
17.6
 21
-66.75
 31
0.0
1001
ACAD
1000
RTMaterial
1005
0
  0
LINE
  8
F01_OUT
  5
446
 10
17.6
 20
-66.75
 30
0.0
 11
17.25
 21
-66.75
 31
0.0
1001
ACAD
1000
RTMaterial
1005
0
  0
LINE
  8
F01_OUT
  5
447
 10
17.95
 20
-67.45
 30
0.0
 11
17.6
 21
-67.45
 31
0.0
1001
ACAD
1000
RTMaterial
1005
0
  0
LINE
  8
F01_OUT
  5
448
 10
17.6
 20
-67.45
 30
0.0
 11
17.25
 21
-67.45
 31
0.0
1001
ACAD
1000
RTMaterial
1005
0
  0
LINE
  8
F01_OUT
  5
449
 10
17.95
 20
-68.245
 30
0.0
 11
17.25
 21
-68.245
 31
0.0
1001
ACAD
1000
RTMaterial
1005
0
  0
LINE
  8
F01_OUT
  5
44A
 10
17.6
 20
-67.1
 30
0.0
 11
17.25
 21
-66.75
 31
0.0
1001
ACAD
1000
RTMaterial
1005
0
  0
LINE
  8
F01_OUT
  5
44B
 10
17.6
 20
-67.1
 30
0.0
 11
17.95
 21
-67.45
 31
0.0
1001
ACAD
1000
RTMaterial
1005
0
  0
LINE
  8
F01_OUT
  5
44C
 10
17.95
 20
-67.45
 30
0.0
 11
18.096446
 21
-67.596447
 31
0.0
1001
ACAD
1000
RTMaterial
1005
0
  0
LINE
  8
F01_OUT
  5
44D
 10
17.95
 20
-65.955
 30
0.0
 11
17.95
 21
-66.25
 31
0.0
1001
ACAD
1000
RTMaterial
1005
0
  0
LINE
  8
F01_OUT
  5
44E
 10
17.95
 20
-66.75
 30
0.0
 11
18.096446
 21
-66.603554
 31
0.0
1001
ACAD
1000
RTMaterial
1005
0
  0
LINE
  8
F01_OUT
  5
44F
 10
18.745
 20
-66.75
 30
0.0
 11
18.745
 21
-67.45
 31
0.0
1001
ACAD
1000
RTMaterial
1005
0
  0
LINE
  8
F01_OUT
  5
450
 10
18.1
 20
-66.607072
 30
0.0
 11
18.1
 21
-64.273838
 31
0.0
1001
ACAD
1000
RTMaterial
1005
0
  0
LINE
  8
F01_OUT
  5
451
 10
17.25
 20
-65.955
 30
0.0
 11
17.25
 21
-66.25
 31
0.0
1001
ACAD
1000
RTMaterial
1005
0
  0
LINE
  8
F01_OUT
  5
452
 10
17.25
 20
-67.95
 30
0.0
 11
17.25
 21
-68.245
 31
0.0
1001
ACAD
1000
RTMaterial
1005
0
  0
LINE
  8
F01_OUT
  5
453
 10
17.1
 20
-64.273838
 30
0.0
 11
17.1
 21
-66.607072
 31
0.0
1001
ACAD
1000
RTMaterial
1005
0
  0
LINE
  8
F01_OUT
  5
454
 10
17.95
 20
-66.75
 30
0.0
 11
17.6
 21
-67.1
 31
0.0
1001
ACAD
1000
RTMaterial
1005
0
  0
LINE
  8
F01_OUT
  5
455
 10
17.95
 20
-65.955
 30
0.0
 11
17.25
 21
-65.955
 31
0.0
1001
ACAD
1000
RTMaterial
1005
0
  0
LINE
  8
F01_OUT
  5
456
 10
17.95
 20
-65.545385
 30
0.0
 11
17.95
 21
-65.955
 31
0.0
1001
ACAD
1000
RTMaterial
1005
0
  0
LINE
  8
F01_OUT
  5
457
 10
17.25
 20
-65.545385
 30
0.0
 11
17.25
 21
-65.955
 31
0.0
1001
ACAD
1000
RTMaterial
1005
0
  0
LINE
  8
F01_OUT
  5
458
 10
17.95
 20
-65.545385
 30
0.0
 11
17.25
 21
-65.545385
 31
0.0
1001
ACAD
1000
RTMaterial
1005
0
  0
LINE
  8
F01_OUT
  5
459
 10
18.45
 20
-67.45
 30
0.0
 11
18.745
 21
-67.45
 31
0.0
1001
ACAD
1000
RTMaterial
1005
0
  0
LINE
  8
F01_OUT
  5
45A
 10
18.45
 20
-66.75
 30
0.0
 11
18.745
 21
-66.75
 31
0.0
1001
ACAD
1000
RTMaterial
1005
0
  0
LINE
  8
F01_OUT
  5
45B
 10
18.745
 20
-66.75
 30
0.0
 11
19.546527
 21
-66.75
 31
0.0
1001
ACAD
1000
RTMaterial
1005
0
  0
LINE
  8
F01_OUT
  5
45C
 10
18.745
 20
-67.45
 30
0.0
 11
19.546527
 21
-67.45
 31
0.0
1001
ACAD
1000
RTMaterial
1005
0
  0
LINE
  8
F01_OUT
  5
45D
 10
17.25
 20
-68.245
 30
0.0
 11
17.25
 21
-68.654616
 31
0.0
1001
ACAD
1000
RTMaterial
1005
0
  0
LINE
  8
F01_OUT
  5
45E
 10
17.95
 20
-68.245
 30
0.0
 11
17.95
 21
-68.654616
 31
0.0
1001
ACAD
1000
RTMaterial
1005
0
  0
LINE
  8
F01_OUT
  5
45F
 10
17.25
 20
-68.654616
 30
0.0
 11
17.95
 21
-68.654616
 31
0.0
1001
ACAD
1000
RTMaterial
1005
0
  0
ARC
  8
F01_OUT
  5
460
 10
17.6
 20
-67.1
 30
0.0
 40
2.87005
 50
259.967139
 51
280.032861
1001
ACAD
1000
RTMaterial
1005
0
  0
ARC
  8
F01_OUT
  5
461
 10
16.75
 20
-67.95
 30
0.0
 40
0.5
 50
45.572996
 51
90.0
1001
ACAD
1000
RTMaterial
1005
0
  0
ARC
  8
F01_OUT
  5
462
 10
16.75
 20
-66.25
 30
0.0
 40
0.5
 50
315.0
 51
0.0
1001
ACAD
1000
RTMaterial
1005
0
  0
ARC
  8
F01_OUT
  5
463
 10
18.45
 20
-67.95
 30
0.0
 40
0.5
 50
135.0
 51
180.0
1001
ACAD
1000
RTMaterial
1005
0
  0
ARC
  8
F01_OUT
  5
464
 10
18.45
 20
-66.25
 30
0.0
 40
0.5
 50
180.0
 51
225.0
1001
ACAD
1000
RTMaterial
1005
0
  0
ARC
  8
F01_OUT
  5
465
 10
18.45
 20
-67.95
 30
0.0
 40
0.5
 50
90.0
 51
134.427004
1001
ACAD
1000
RTMaterial
1005
0
  0
ARC
  8
F01_OUT
  5
466
 10
18.45
 20
-66.25
 30
0.0
 40
0.5
 50
225.572996
 51
270.0
1001
ACAD
1000
RTMaterial
1005
0
  0
ARC
  8
F01_OUT
  5
467
 10
16.75
 20
-66.25
 30
0.0
 40
0.5
 50
270.0
 51
314.427004
1001
ACAD
1000
RTMaterial
1005
0
  0
ARC
  8
F01_OUT
  5
468
 10
16.75
 20
-67.95
 30
0.0
 40
0.5
 50
0.0
 51
45.0
1001
ACAD
1000
RTMaterial
1005
0
  0
ARC
  8
F01_OUT
  5
469
 10
17.6
 20
-67.1
 30
0.0
 40
2.87005
 50
79.967139
 51
100.032861
1001
ACAD
1000
RTMaterial
1005
0
  0
CIRCLE
  8
F01_OUT
  5
46A
 10
17.6
 20
-67.1
 30
0.0
 40
3.0
1001
ACAD
1000
RTMaterial
1005
0
  0
LINE
  8
F01_OUT
  5
46B
 10
18.172404
 20
-70.044886
 30
0.0
 11
18.15034
 21
-70.353787
 31
0.0
1001
ACAD
1000
RTMaterial
1005
0
  0
LINE
  8
F01_OUT
  5
46C
 10
19.050134
 20
-69.726235
 30
0.0
 11
19.073459
 21
-70.052782
 31
0.0
1001
ACAD
1000
RTMaterial
1005
0
  0
LINE
  8
F01_OUT
  5
46D
 10
17.027595
 20
-70.044886
 30
0.0
 11
17.049659
 21
-70.353787
 31
0.0
1001
ACAD
1000
RTMaterial
1005
0
  0
LINE
  8
F01_OUT
  5
46E
 10
16.149865
 20
-69.726235
 30
0.0
 11
16.126541
 21
-70.052782
 31
0.0
1001
ACAD
1000
RTMaterial
1005
0
  0
LINE
  8
F01_OUT
  5
46F
 10
19.050134
 20
-64.473765
 30
0.0
 11
19.073459
 21
-64.147219
 31
0.0
1001
ACAD
1000
RTMaterial
1005
0
  0
LINE
  8
F01_OUT
  5
470
 10
18.172404
 20
-64.155114
 30
0.0
 11
18.15034
 21
-63.846214
 31
0.0
1001
ACAD
1000
RTMaterial
1005
0
  0
LINE
  8
F01_OUT
  5
471
 10
16.149865
 20
-64.473765
 30
0.0
 11
16.126541
 21
-64.147219
 31
0.0
1001
ACAD
1000
RTMaterial
1005
0
  0
LINE
  8
F01_OUT
  5
472
 10
17.027595
 20
-64.155114
 30
0.0
 11
17.049659
 21
-63.846214
 31
0.0
1001
ACAD
1000
RTMaterial
1005
0
  0
LINE
  8
F01_OUT
  5
473
 10
20.226235
 20
-68.550134
 30
0.0
 11
20.552781
 21
-68.573459
 31
0.0
1001
ACAD
1000
RTMaterial
1005
0
  0
LINE
  8
F01_OUT
  5
474
 10
20.544886
 20
-67.672405
 30
0.0
 11
20.853786
 21
-67.65034
 31
0.0
1001
ACAD
1000
RTMaterial
1005
0
  0
LINE
  8
F01_OUT
  5
475
 10
20.544886
 20
-66.527596
 30
0.0
 11
20.853786
 21
-66.54966
 31
0.0
1001
ACAD
1000
RTMaterial
1005
0
  0
LINE
  8
F01_OUT
  5
476
 10
20.226235
 20
-65.649866
 30
0.0
 11
20.552781
 21
-65.626541
 31
0.0
1001
ACAD
1000
RTMaterial
1005
0
  0
LINE
  8
F01_OUT
  5
477
 10
14.973765
 20
-65.649866
 30
0.0
 11
14.647218
 21
-65.626541
 31
0.0
1001
ACAD
1000
RTMaterial
1005
0
  0
LINE
  8
F01_OUT
  5
478
 10
14.973765
 20
-68.550134
 30
0.0
 11
14.647218
 21
-68.573459
 31
0.0
1001
ACAD
1000
RTMaterial
1005
0
  0
LINE
  8
F01_OUT
  5
479
 10
14.655114
 20
-66.527596
 30
0.0
 11
14.346213
 21
-66.54966
 31
0.0
1001
ACAD
1000
RTMaterial
1005
0
  0
LINE
  8
F01_OUT
  5
47A
 10
14.655114
 20
-67.672405
 30
0.0
 11
14.346213
 21
-67.65034
 31
0.0
1001
ACAD
1000
RTMaterial
1005
0
  0
LINE
  8
F01_OUT
  5
47B
 10
-18.1
 20
-63.992929
 30
0.0
 11
-18.1
 21
-66.326162
 31
0.0
1001
ACAD
1000
RTMaterial
1005
0
  0
LINE
  8
F01_OUT
  5
47C
 10
-17.1
 20
-66.326162
 30
0.0
 11
-17.1
 21
-63.992929
 31
0.0
1001
ACAD
1000
RTMaterial
1005
0
  0
LINE
  8
F01_OUT
  5
47D
 10
-17.95
 20
-65.054616
 30
0.0
 11
-17.25
 21
-65.054616
 31
0.0
1001
ACAD
1000
RTMaterial
1005
0
  0
LINE
  8
F01_OUT
  5
47E
 10
-17.95
 20
-63.85
 30
0.0
 11
-18.096447
 21
-63.996447
 31
0.0
1001
ACAD
1000
RTMaterial
1005
0
  0
LINE
  8
F01_OUT
  5
47F
 10
-17.95
 20
-64.645
 30
0.0
 11
-17.95
 21
-65.054616
 31
0.0
1001
ACAD
1000
RTMaterial
1005
0
  0
LINE
  8
F01_OUT
  5
480
 10
-17.95
 20
-64.35
 30
0.0
 11
-17.95
 21
-64.645
 31
0.0
1001
ACAD
1000
RTMaterial
1005
0
  0
LINE
  8
F01_OUT
  5
481
 10
-17.6
 20
-63.5
 30
0.0
 11
-17.95
 21
-63.5
 31
0.0
1001
ACAD
1000
RTMaterial
1005
0
  0
LINE
  8
F01_OUT
  5
482
 10
-17.95
 20
-63.15
 30
0.0
 11
-17.95
 21
-63.5
 31
0.0
1001
ACAD
1000
RTMaterial
1005
0
  0
LINE
  8
F01_OUT
  5
483
 10
-17.95
 20
-63.5
 30
0.0
 11
-17.95
 21
-63.85
 31
0.0
1001
ACAD
1000
RTMaterial
1005
0
  0
LINE
  8
F01_OUT
  5
484
 10
-17.6
 20
-63.85
 30
0.0
 11
-17.95
 21
-63.85
 31
0.0
1001
ACAD
1000
RTMaterial
1005
0
  0
LINE
  8
F01_OUT
  5
485
 10
-17.25
 20
-64.645
 30
0.0
 11
-17.95
 21
-64.645
 31
0.0
1001
ACAD
1000
RTMaterial
1005
0
  0
LINE
  8
F01_OUT
  5
486
 10
-18.745
 20
-63.85
 30
0.0
 11
-18.45
 21
-63.85
 31
0.0
1001
ACAD
1000
RTMaterial
1005
0
  0
LINE
  8
F01_OUT
  5
487
 10
-18.745
 20
-63.15
 30
0.0
 11
-18.745
 21
-63.85
 31
0.0
1001
ACAD
1000
RTMaterial
1005
0
  0
LINE
  8
F01_OUT
  5
488
 10
-19.546528
 20
-63.85
 30
0.0
 11
-18.745
 21
-63.85
 31
0.0
1001
ACAD
1000
RTMaterial
1005
0
  0
LINE
  8
F01_OUT
  5
489
 10
-17.95
 20
-63.85
 30
0.0
 11
-17.6
 21
-63.5
 31
0.0
1001
ACAD
1000
RTMaterial
1005
0
  0
LINE
  8
F01_OUT
  5
48A
 10
-17.6
 20
-63.5
 30
0.0
 11
-17.95
 21
-63.15
 31
0.0
1001
ACAD
1000
RTMaterial
1005
0
  0
LINE
  8
F01_OUT
  5
48B
 10
-17.6
 20
-63.15
 30
0.0
 11
-17.6
 21
-63.5
 31
0.0
1001
ACAD
1000
RTMaterial
1005
0
  0
LINE
  8
F01_OUT
  5
48C
 10
-17.25
 20
-63.85
 30
0.0
 11
-17.6
 21
-63.85
 31
0.0
1001
ACAD
1000
RTMaterial
1005
0
  0
LINE
  8
F01_OUT
  5
48D
 10
-17.6
 20
-63.5
 30
0.0
 11
-17.6
 21
-63.85
 31
0.0
1001
ACAD
1000
RTMaterial
1005
0
  0
LINE
  8
F01_OUT
  5
48E
 10
-17.25
 20
-63.5
 30
0.0
 11
-17.6
 21
-63.5
 31
0.0
1001
ACAD
1000
RTMaterial
1005
0
  0
LINE
  8
F01_OUT
  5
48F
 10
-17.25
 20
-63.15
 30
0.0
 11
-17.25
 21
-63.5
 31
0.0
1001
ACAD
1000
RTMaterial
1005
0
  0
LINE
  8
F01_OUT
  5
490
 10
-16.455
 20
-63.15
 30
0.0
 11
-16.455
 21
-63.85
 31
0.0
1001
ACAD
1000
RTMaterial
1005
0
  0
LINE
  8
F01_OUT
  5
491
 10
-17.25
 20
-63.5
 30
0.0
 11
-17.25
 21
-63.85
 31
0.0
1001
ACAD
1000
RTMaterial
1005
0
  0
LINE
  8
F01_OUT
  5
492
 10
-16.75
 20
-63.85
 30
0.0
 11
-16.455
 21
-63.85
 31
0.0
1001
ACAD
1000
RTMaterial
1005
0
  0
LINE
  8
F01_OUT
  5
493
 10
-16.455
 20
-63.85
 30
0.0
 11
-15.653473
 21
-63.85
 31
0.0
1001
ACAD
1000
RTMaterial
1005
0
  0
LINE
  8
F01_OUT
  5
494
 10
-17.25
 20
-63.85
 30
0.0
 11
-17.103554
 21
-63.996447
 31
0.0
1001
ACAD
1000
RTMaterial
1005
0
  0
LINE
  8
F01_OUT
  5
495
 10
-17.6
 20
-63.5
 30
0.0
 11
-17.25
 21
-63.85
 31
0.0
1001
ACAD
1000
RTMaterial
1005
0
  0
LINE
  8
F01_OUT
  5
496
 10
-17.25
 20
-63.15
 30
0.0
 11
-17.6
 21
-63.5
 31
0.0
1001
ACAD
1000
RTMaterial
1005
0
  0
LINE
  8
F01_OUT
  5
497
 10
-17.25
 20
-64.645
 30
0.0
 11
-17.25
 21
-65.054616
 31
0.0
1001
ACAD
1000
RTMaterial
1005
0
  0
LINE
  8
F01_OUT
  5
498
 10
-17.25
 20
-64.35
 30
0.0
 11
-17.25
 21
-64.645
 31
0.0
1001
ACAD
1000
RTMaterial
1005
0
  0
LINE
  8
F01_OUT
  5
499
 10
-18.1
 20
-60.673838
 30
0.0
 11
-18.1
 21
-63.007072
 31
0.0
1001
ACAD
1000
RTMaterial
1005
0
  0
LINE
  8
F01_OUT
  5
49A
 10
-18.745
 20
-63.15
 30
0.0
 11
-18.45
 21
-63.15
 31
0.0
1001
ACAD
1000
RTMaterial
1005
0
  0
LINE
  8
F01_OUT
  5
49B
 10
-19.546528
 20
-63.15
 30
0.0
 11
-18.745
 21
-63.15
 31
0.0
1001
ACAD
1000
RTMaterial
1005
0
  0
LINE
  8
F01_OUT
  5
49C
 10
-17.95
 20
-63.15
 30
0.0
 11
-18.096447
 21
-63.003554
 31
0.0
1001
ACAD
1000
RTMaterial
1005
0
  0
LINE
  8
F01_OUT
  5
49D
 10
-17.25
 20
-63.15
 30
0.0
 11
-17.6
 21
-63.15
 31
0.0
1001
ACAD
1000
RTMaterial
1005
0
  0
LINE
  8
F01_OUT
  5
49E
 10
-17.6
 20
-63.15
 30
0.0
 11
-17.95
 21
-63.15
 31
0.0
1001
ACAD
1000
RTMaterial
1005
0
  0
LINE
  8
F01_OUT
  5
49F
 10
-16.455
 20
-63.15
 30
0.0
 11
-15.653473
 21
-63.15
 31
0.0
1001
ACAD
1000
RTMaterial
1005
0
  0
LINE
  8
F01_OUT
  5
4A0
 10
-16.75
 20
-63.15
 30
0.0
 11
-16.455
 21
-63.15
 31
0.0
1001
ACAD
1000
RTMaterial
1005
0
  0
LINE
  8
F01_OUT
  5
4A1
 10
-17.25
 20
-63.15
 30
0.0
 11
-17.103554
 21
-63.003554
 31
0.0
1001
ACAD
1000
RTMaterial
1005
0
  0
LINE
  8
F01_OUT
  5
4A2
 10
-17.1
 20
-63.007072
 30
0.0
 11
-17.1
 21
-60.673838
 31
0.0
1001
ACAD
1000
RTMaterial
1005
0
  0
LINE
  8
F01_OUT
  5
4A3
 10
-17.95
 20
-62.355
 30
0.0
 11
-17.95
 21
-62.65
 31
0.0
1001
ACAD
1000
RTMaterial
1005
0
  0
LINE
  8
F01_OUT
  5
4A4
 10
-17.25
 20
-62.355
 30
0.0
 11
-17.25
 21
-62.65
 31
0.0
1001
ACAD
1000
RTMaterial
1005
0
  0
LINE
  8
F01_OUT
  5
4A5
 10
-17.25
 20
-62.355
 30
0.0
 11
-17.95
 21
-62.355
 31
0.0
1001
ACAD
1000
RTMaterial
1005
0
  0
LINE
  8
F01_OUT
  5
4A6
 10
-17.25
 20
-61.945385
 30
0.0
 11
-17.25
 21
-62.355
 31
0.0
1001
ACAD
1000
RTMaterial
1005
0
  0
LINE
  8
F01_OUT
  5
4A7
 10
-17.95
 20
-61.945385
 30
0.0
 11
-17.95
 21
-62.355
 31
0.0
1001
ACAD
1000
RTMaterial
1005
0
  0
LINE
  8
F01_OUT
  5
4A8
 10
-17.25
 20
-61.945385
 30
0.0
 11
-17.95
 21
-61.945385
 31
0.0
1001
ACAD
1000
RTMaterial
1005
0
  0
ARC
  8
F01_OUT
  5
4A9
 10
-17.6
 20
-63.5
 30
0.0
 40
2.87005
 50
259.967139
 51
280.032861
1001
ACAD
1000
RTMaterial
1005
0
  0
ARC
  8
F01_OUT
  5
4AA
 10
-18.45
 20
-64.35
 30
0.0
 40
0.5
 50
0.0
 51
45.0
1001
ACAD
1000
RTMaterial
1005
0
  0
ARC
  8
F01_OUT
  5
4AB
 10
-18.45
 20
-64.35
 30
0.0
 40
0.5
 50
45.572996
 51
90.0
1001
ACAD
1000
RTMaterial
1005
0
  0
ARC
  8
F01_OUT
  5
4AC
 10
-16.75
 20
-64.35
 30
0.0
 40
0.5
 50
90.0
 51
134.427004
1001
ACAD
1000
RTMaterial
1005
0
  0
ARC
  8
F01_OUT
  5
4AD
 10
-16.75
 20
-64.35
 30
0.0
 40
0.5
 50
135.0
 51
180.0
1001
ACAD
1000
RTMaterial
1005
0
  0
ARC
  8
F01_OUT
  5
4AE
 10
-18.45
 20
-62.65
 30
0.0
 40
0.5
 50
270.0
 51
314.427004
1001
ACAD
1000
RTMaterial
1005
0
  0
ARC
  8
F01_OUT
  5
4AF
 10
-16.75
 20
-62.65
 30
0.0
 40
0.5
 50
225.572996
 51
270.0
1001
ACAD
1000
RTMaterial
1005
0
  0
ARC
  8
F01_OUT
  5
4B0
 10
-16.75
 20
-62.65
 30
0.0
 40
0.5
 50
180.0
 51
225.0
1001
ACAD
1000
RTMaterial
1005
0
  0
ARC
  8
F01_OUT
  5
4B1
 10
-18.45
 20
-62.65
 30
0.0
 40
0.5
 50
315.0
 51
0.0
1001
ACAD
1000
RTMaterial
1005
0
  0
ARC
  8
F01_OUT
  5
4B2
 10
-17.6
 20
-63.5
 30
0.0
 40
2.87005
 50
79.967139
 51
100.032861
1001
ACAD
1000
RTMaterial
1005
0
  0
CIRCLE
  8
F01_OUT
  5
4B3
 10
-17.6
 20
-63.5
 30
0.0
 40
3.0
1001
ACAD
1000
RTMaterial
1005
0
  0
LINE
  8
F01_OUT
  5
4B4
 10
-18.172405
 20
-66.444886
 30
0.0
 11
-18.150341
 21
-66.753787
 31
0.0
1001
ACAD
1000
RTMaterial
1005
0
  0
LINE
  8
F01_OUT
  5
4B5
 10
-19.050135
 20
-66.126235
 30
0.0
 11
-19.073459
 21
-66.452782
 31
0.0
1001
ACAD
1000
RTMaterial
1005
0
  0
LINE
  8
F01_OUT
  5
4B6
 10
-17.027596
 20
-66.444886
 30
0.0
 11
-17.04966
 21
-66.753787
 31
0.0
1001
ACAD
1000
RTMaterial
1005
0
  0
LINE
  8
F01_OUT
  5
4B7
 10
-16.149866
 20
-66.126235
 30
0.0
 11
-16.126541
 21
-66.452782
 31
0.0
1001
ACAD
1000
RTMaterial
1005
0
  0
LINE
  8
F01_OUT
  5
4B8
 10
-20.226235
 20
-64.950134
 30
0.0
 11
-20.552782
 21
-64.973459
 31
0.0
1001
ACAD
1000
RTMaterial
1005
0
  0
LINE
  8
F01_OUT
  5
4B9
 10
-20.544886
 20
-64.072405
 30
0.0
 11
-20.853787
 21
-64.05034
 31
0.0
1001
ACAD
1000
RTMaterial
1005
0
  0
LINE
  8
F01_OUT
  5
4BA
 10
-14.655114
 20
-64.072405
 30
0.0
 11
-14.346214
 21
-64.05034
 31
0.0
1001
ACAD
1000
RTMaterial
1005
0
  0
LINE
  8
F01_OUT
  5
4BB
 10
-14.973765
 20
-64.950134
 30
0.0
 11
-14.647219
 21
-64.973459
 31
0.0
1001
ACAD
1000
RTMaterial
1005
0
  0
LINE
  8
F01_OUT
  5
4BC
 10
-20.544886
 20
-62.927596
 30
0.0
 11
-20.853787
 21
-62.94966
 31
0.0
1001
ACAD
1000
RTMaterial
1005
0
  0
LINE
  8
F01_OUT
  5
4BD
 10
-14.655114
 20
-62.927596
 30
0.0
 11
-14.346214
 21
-62.94966
 31
0.0
1001
ACAD
1000
RTMaterial
1005
0
  0
LINE
  8
F01_OUT
  5
4BE
 10
-18.172405
 20
-60.555114
 30
0.0
 11
-18.150341
 21
-60.246214
 31
0.0
1001
ACAD
1000
RTMaterial
1005
0
  0
LINE
  8
F01_OUT
  5
4BF
 10
-17.027596
 20
-60.555114
 30
0.0
 11
-17.04966
 21
-60.246214
 31
0.0
1001
ACAD
1000
RTMaterial
1005
0
  0
LINE
  8
F01_OUT
  5
4C0
 10
-16.149866
 20
-60.873765
 30
0.0
 11
-16.126541
 21
-60.547219
 31
0.0
1001
ACAD
1000
RTMaterial
1005
0
  0
LINE
  8
F01_OUT
  5
4C1
 10
-19.050135
 20
-60.873765
 30
0.0
 11
-19.073459
 21
-60.547219
 31
0.0
1001
ACAD
1000
RTMaterial
1005
0
  0
LINE
  8
F01_OUT
  5
4C2
 10
-20.226235
 20
-62.049866
 30
0.0
 11
-20.552782
 21
-62.026541
 31
0.0
1001
ACAD
1000
RTMaterial
1005
0
  0
LINE
  8
F01_OUT
  5
4C3
 10
-14.973765
 20
-62.049866
 30
0.0
 11
-14.647219
 21
-62.026541
 31
0.0
1001
ACAD
1000
RTMaterial
1005
0
  0
LINE
  8
F01_OUT
  5
4C4
 10
12.35
 20
-19.2
 30
0.0
 11
12.35
 21
-29.3
 31
0.0
1001
ACAD
1000
RTMaterial
1005
0
  0
LINE
  8
F01_OUT
  5
4C5
 10
10.45
 20
-19.7
 30
0.0
 11
10.45
 21
-19.2
 31
0.0
1001
ACAD
1000
RTMaterial
1005
0
  0
LINE
  8
F01_OUT
  5
4C6
 10
10.45
 20
-19.2
 30
0.0
 11
12.35
 21
-19.2
 31
0.0
1001
ACAD
1000
RTMaterial
1005
0
  0
LINE
  8
F01_OUT
  5
4C7
 10
10.45
 20
-29.3
 30
0.0
 11
10.45
 21
-29.6
 31
0.0
1001
ACAD
1000
RTMaterial
1005
0
  0
LINE
  8
F01_OUT
  5
4C8
 10
7.957826
 20
-30.512132
 30
0.0
 11
7.826721
 21
-30.724264
 31
0.0
1001
ACAD
1000
RTMaterial
1005
0
  0
LINE
  8
F01_OUT
  5
4C9
 10
1.0
 20
-32.8
 30
0.0
 11
1.0
 21
-33.3
 31
0.0
1001
ACAD
1000
RTMaterial
1005
0
  0
LINE
  8
F01_OUT
  5
4CA
 10
-17.0
 20
-24.0
 30
0.0
 11
-16.6
 21
-24.0
 31
0.0
1001
ACAD
1000
RTMaterial
1005
0
  0
LINE
  8
F01_OUT
  5
4CB
 10
-17.0
 20
-26.5
 30
0.0
 11
-17.3
 21
-26.2
 31
0.0
1001
ACAD
1000
RTMaterial
1005
0
  0
LINE
  8
F01_OUT
  5
4CC
 10
-17.3
 20
-24.3
 30
0.0
 11
-17.3
 21
-26.2
 31
0.0
1001
ACAD
1000
RTMaterial
1005
0
  0
LINE
  8
F01_OUT
  5
4CD
 10
-16.6
 20
-24.0
 30
0.0
 11
-16.161895
 21
-24.0
 31
0.0
1001
ACAD
1000
RTMaterial
1005
0
  0
LINE
  8
F01_OUT
  5
4CE
 10
-15.774597
 20
-19.8
 30
0.0
 11
-14.225404
 21
-19.8
 31
0.0
1001
ACAD
1000
RTMaterial
1005
0
  0
LINE
  8
F01_OUT
  5
4CF
 10
-15.774597
 20
-19.8
 30
0.0
 11
-15.774597
 21
-24.3
 31
0.0
1001
ACAD
1000
RTMaterial
1005
0
  0
LINE
  8
F01_OUT
  5
4D0
 10
-16.6
 20
-20.8
 30
0.0
 11
-16.6
 21
-19.8
 31
0.0
1001
ACAD
1000
RTMaterial
1005
0
  0
LINE
  8
F01_OUT
  5
4D1
 10
-16.6
 20
-24.0
 30
0.0
 11
-16.6
 21
-20.8
 31
0.0
1001
ACAD
1000
RTMaterial
1005
0
  0
LINE
  8
F01_OUT
  5
4D2
 10
-16.6
 20
-19.8
 30
0.0
 11
-15.774597
 21
-19.8
 31
0.0
1001
ACAD
1000
RTMaterial
1005
0
  0
LINE
  8
F01_OUT
  5
4D3
 10
-5.425404
 20
-19.8
 30
0.0
 11
-5.425404
 21
-24.3
 31
0.0
1001
ACAD
1000
RTMaterial
1005
0
  0
LINE
  8
F01_OUT
  5
4D4
 10
-4.9
 20
-24.0
 30
0.0
 11
-5.038105
 21
-24.0
 31
0.0
1001
ACAD
1000
RTMaterial
1005
0
  0
LINE
  8
F01_OUT
  5
4D5
 10
-5.425404
 20
-19.8
 30
0.0
 11
-4.9
 21
-19.8
 31
0.0
1001
ACAD
1000
RTMaterial
1005
0
  0
LINE
  8
F01_OUT
  5
4D6
 10
-4.9
 20
-24.0
 30
0.0
 11
-4.9
 21
-22.5
 31
0.0
1001
ACAD
1000
RTMaterial
1005
0
  0
LINE
  8
F01_OUT
  5
4D7
 10
-12.35
 20
-26.2
 30
0.0
 11
-12.35
 21
-19.2
 31
0.0
1001
ACAD
1000
RTMaterial
1005
0
  0
LINE
  8
F01_OUT
  5
4D8
 10
-3.0
 20
-20.35
 30
0.0
 11
-2.856156
 21
-20.206155
 31
0.0
1001
ACAD
1000
RTMaterial
1005
0
  0
LINE
  8
F01_OUT
  5
4D9
 10
-7.55
 20
-19.2
 30
0.0
 11
-7.55
 21
-19.8
 31
0.0
1001
ACAD
1000
RTMaterial
1005
0
  0
LINE
  8
F01_OUT
  5
4DA
 10
-6.974597
 20
-19.8
 30
0.0
 11
-7.8
 21
-19.8
 31
0.0
1001
ACAD
1000
RTMaterial
1005
0
  0
LINE
  8
F01_OUT
  5
4DB
 10
-5.425404
 20
-19.8
 30
0.0
 11
-6.974597
 21
-19.8
 31
0.0
1001
ACAD
1000
RTMaterial
1005
0
  0
LINE
  8
F01_OUT
  5
4DC
 10
-7.8
 20
-24.0
 30
0.0
 11
-8.2
 21
-24.0
 31
0.0
1001
ACAD
1000
RTMaterial
1005
0
  0
LINE
  8
F01_OUT
  5
4DD
 10
-7.361895
 20
-24.0
 30
0.0
 11
-7.8
 21
-24.0
 31
0.0
1001
ACAD
1000
RTMaterial
1005
0
  0
LINE
  8
F01_OUT
  5
4DE
 10
-6.974597
 20
-19.8
 30
0.0
 11
-6.974597
 21
-24.3
 31
0.0
1001
ACAD
1000
RTMaterial
1005
0
  0
LINE
  8
F01_OUT
  5
4DF
 10
-7.8
 20
-20.8
 30
0.0
 11
-7.8
 21
-24.0
 31
0.0
1001
ACAD
1000
RTMaterial
1005
0
  0
LINE
  8
F01_OUT
  5
4E0
 10
-7.8
 20
-19.8
 30
0.0
 11
-7.8
 21
-20.8
 31
0.0
1001
ACAD
1000
RTMaterial
1005
0
  0
LINE
  8
F01_OUT
  5
4E1
 10
-8.5
 20
-24.3
 30
0.0
 11
-8.5
 21
-26.2
 31
0.0
1001
ACAD
1000
RTMaterial
1005
0
  0
LINE
  8
F01_OUT
  5
4E2
 10
-12.7
 20
-26.2
 30
0.0
 11
-8.5
 21
-26.2
 31
0.0
1001
ACAD
1000
RTMaterial
1005
0
  0
LINE
  8
F01_OUT
  5
4E3
 10
-9.45
 20
-19.2
 30
0.0
 11
-9.45
 21
-19.7
 31
0.0
1001
ACAD
1000
RTMaterial
1005
0
  0
LINE
  8
F01_OUT
  5
4E4
 10
-10.45
 20
-19.2
 30
0.0
 11
-10.45
 21
-19.7
 31
0.0
1001
ACAD
1000
RTMaterial
1005
0
  0
LINE
  8
F01_OUT
  5
4E5
 10
-10.45
 20
-19.2
 30
0.0
 11
-9.45
 21
-19.2
 31
0.0
1001
ACAD
1000
RTMaterial
1005
0
  0
LINE
  8
F01_OUT
  5
4E6
 10
-9.45
 20
-26.2
 30
0.0
 11
-9.45
 21
-19.7
 31
0.0
1001
ACAD
1000
RTMaterial
1005
0
  0
LINE
  8
F01_OUT
  5
4E7
 10
-9.45
 20
-19.2
 30
0.0
 11
-7.55
 21
-19.2
 31
0.0
1001
ACAD
1000
RTMaterial
1005
0
  0
LINE
  8
F01_OUT
  5
4E8
 10
-8.2
 20
-26.5
 30
0.0
 11
-8.5
 21
-26.2
 31
0.0
1001
ACAD
1000
RTMaterial
1005
0
  0
LINE
  8
F01_OUT
  5
4E9
 10
-4.9
 20
-22.5
 30
0.0
 11
-4.7
 21
-22.7
 31
0.0
1001
ACAD
1000
RTMaterial
1005
0
  0
LINE
  8
F01_OUT
  5
4EA
 10
-4.7
 20
-24.0
 30
0.0
 11
-4.7
 21
-22.7
 31
0.0
1001
ACAD
1000
RTMaterial
1005
0
  0
LINE
  8
F01_OUT
  5
4EB
 10
-3.9
 20
-26.2
 30
0.0
 11
-3.9
 21
-24.3
 31
0.0
1001
ACAD
1000
RTMaterial
1005
0
  0
LINE
  8
F01_OUT
  5
4EC
 10
-4.9
 20
-22.5
 30
0.0
 11
-4.9
 21
-19.8
 31
0.0
1001
ACAD
1000
RTMaterial
1005
0
  0
LINE
  8
F01_OUT
  5
4ED
 10
-4.7
 20
-24.0
 30
0.0
 11
-4.9
 21
-24.0
 31
0.0
1001
ACAD
1000
RTMaterial
1005
0
  0
LINE
  8
F01_OUT
  5
4EE
 10
-4.2
 20
-24.0
 30
0.0
 11
-4.7
 21
-24.0
 31
0.0
1001
ACAD
1000
RTMaterial
1005
0
  0
LINE
  8
F01_OUT
  5
4EF
 10
-4.2
 20
-26.5
 30
0.0
 11
-3.9
 21
-26.2
 31
0.0
1001
ACAD
1000
RTMaterial
1005
0
  0
LINE
  8
F01_OUT
  5
4F0
 10
-12.7
 20
-26.2
 30
0.0
 11
-13.0
 21
-26.5
 31
0.0
1001
ACAD
1000
RTMaterial
1005
0
  0
LINE
  8
F01_OUT
  5
4F1
 10
-13.5
 20
-24.0
 30
0.0
 11
-13.5
 21
-22.7
 31
0.0
1001
ACAD
1000
RTMaterial
1005
0
  0
LINE
  8
F01_OUT
  5
4F2
 10
-10.45
 20
-26.2
 30
0.0
 11
-10.45
 21
-19.7
 31
0.0
1001
ACAD
1000
RTMaterial
1005
0
  0
LINE
  8
F01_OUT
  5
4F3
 10
-13.5
 20
-24.0
 30
0.0
 11
-13.7
 21
-24.0
 31
0.0
1001
ACAD
1000
RTMaterial
1005
0
  0
LINE
  8
F01_OUT
  5
4F4
 10
-13.0
 20
-24.0
 30
0.0
 11
-13.5
 21
-24.0
 31
0.0
1001
ACAD
1000
RTMaterial
1005
0
  0
LINE
  8
F01_OUT
  5
4F5
 10
-13.7
 20
-22.5
 30
0.0
 11
-13.5
 21
-22.7
 31
0.0
1001
ACAD
1000
RTMaterial
1005
0
  0
LINE
  8
F01_OUT
  5
4F6
 10
-12.7
 20
-26.2
 30
0.0
 11
-12.7
 21
-24.3
 31
0.0
1001
ACAD
1000
RTMaterial
1005
0
  0
LINE
  8
F01_OUT
  5
4F7
 10
-12.35
 20
-19.2
 30
0.0
 11
-10.45
 21
-19.2
 31
0.0
1001
ACAD
1000
RTMaterial
1005
0
  0
LINE
  8
F01_OUT
  5
4F8
 10
-13.7
 20
-24.0
 30
0.0
 11
-13.838105
 21
-24.0
 31
0.0
1001
ACAD
1000
RTMaterial
1005
0
  0
LINE
  8
F01_OUT
  5
4F9
 10
-14.225404
 20
-19.8
 30
0.0
 11
-14.225404
 21
-24.3
 31
0.0
1001
ACAD
1000
RTMaterial
1005
0
  0
LINE
  8
F01_OUT
  5
4FA
 10
-13.7
 20
-24.0
 30
0.0
 11
-13.7
 21
-22.5
 31
0.0
1001
ACAD
1000
RTMaterial
1005
0
  0
LINE
  8
F01_OUT
  5
4FB
 10
-13.7
 20
-22.5
 30
0.0
 11
-13.7
 21
-19.8
 31
0.0
1001
ACAD
1000
RTMaterial
1005
0
  0
LINE
  8
F01_OUT
  5
4FC
 10
-14.225404
 20
-19.8
 30
0.0
 11
-13.7
 21
-19.8
 31
0.0
1001
ACAD
1000
RTMaterial
1005
0
  0
LINE
  8
F01_OUT
  5
4FD
 10
-1.75
 20
-26.2
 30
0.0
 11
-1.75
 21
-24.0
 31
0.0
1001
ACAD
1000
RTMaterial
1005
0
  0
LINE
  8
F01_OUT
  5
4FE
 10
-2.75
 20
-24.0
 30
0.0
 11
-2.75
 21
-26.2
 31
0.0
1001
ACAD
1000
RTMaterial
1005
0
  0
LINE
  8
F01_OUT
  5
4FF
 10
-2.75
 20
-24.0
 30
0.0
 11
-1.75
 21
-24.0
 31
0.0
1001
ACAD
1000
RTMaterial
1005
0
  0
LINE
  8
F01_OUT
  5
500
 10
-2.75
 20
-20.5
 30
0.0
 11
-2.75
 21
-24.0
 31
0.0
1001
ACAD
1000
RTMaterial
1005
0
  0
LINE
  8
F01_OUT
  5
501
 10
-2.75
 20
-20.5
 30
0.0
 11
-2.75
 21
-20.245804
 31
0.0
1001
ACAD
1000
RTMaterial
1005
0
  0
LINE
  8
F01_OUT
  5
502
 10
-3.0
 20
-26.2
 30
0.0
 11
-3.0
 21
-20.35
 31
0.0
1001
ACAD
1000
RTMaterial
1005
0
  0
LINE
  8
F01_OUT
  5
503
 10
-2.856156
 20
-20.206155
 30
0.0
 11
-2.15
 21
-19.5
 31
0.0
1001
ACAD
1000
RTMaterial
1005
0
  0
LINE
  8
F01_OUT
  5
504
 10
7.6
 20
-29.6
 30
0.0
 11
21.1
 21
-29.6
 31
0.0
1001
ACAD
1000
RTMaterial
1005
0
  0
LINE
  8
F01_OUT
  5
505
 10
21.4
 20
-30.724264
 30
0.0
 11
21.4
 21
-29.9
 31
0.0
1001
ACAD
1000
RTMaterial
1005
0
  0
LINE
  8
F01_OUT
  5
506
 10
21.4
 20
-30.8
 30
0.0
 11
21.4
 21
-30.724264
 31
0.0
1001
ACAD
1000
RTMaterial
1005
0
  0
LINE
  8
F01_OUT
  5
507
 10
21.1
 20
-31.1
 30
0.0
 11
21.4
 21
-30.8
 31
0.0
1001
ACAD
1000
RTMaterial
1005
0
  0
LINE
  8
F01_OUT
  5
508
 10
22.4
 20
-33.424264
 30
0.0
 11
22.4
 21
-31.1
 31
0.0
1001
ACAD
1000
RTMaterial
1005
0
  0
LINE
  8
F01_OUT
  5
509
 10
21.4
 20
-30.8
 30
0.0
 11
22.1
 21
-30.8
 31
0.0
1001
ACAD
1000
RTMaterial
1005
0
  0
LINE
  8
F01_OUT
  5
50A
 10
22.4
 20
-34.976393
 30
0.0
 11
22.4
 21
-33.424264
 31
0.0
1001
ACAD
1000
RTMaterial
1005
0
  0
LINE
  8
F01_OUT
  5
50B
 10
14.8
 20
-33.3
 30
0.0
 11
14.725
 21
-33.3
 31
0.0
1001
ACAD
1000
RTMaterial
1005
0
  0
LINE
  8
F01_OUT
  5
50C
 10
22.1
 20
-33.3
 30
0.0
 11
14.8
 21
-33.3
 31
0.0
1001
ACAD
1000
RTMaterial
1005
0
  0
LINE
  8
F01_OUT
  5
50D
 10
6.2
 20
-32.8
 30
0.0
 11
6.2
 21
-33.3
 31
0.0
1001
ACAD
1000
RTMaterial
1005
0
  0
LINE
  8
F01_OUT
  5
50E
 10
4.4
 20
-32.3
 30
0.0
 11
5.7
 21
-32.3
 31
0.0
1001
ACAD
1000
RTMaterial
1005
0
  0
LINE
  8
F01_OUT
  5
50F
 10
15.3
 20
-34.8
 30
0.0
 11
15.3
 21
-35.1
 31
0.0
1001
ACAD
1000
RTMaterial
1005
0
  0
LINE
  8
F01_OUT
  5
510
 10
20.3
 20
-35.8
 30
0.0
 11
20.3
 21
-38.134676
 31
0.0
1001
ACAD
1000
RTMaterial
1005
0
  0
LINE
  8
F01_OUT
  5
511
 10
15.3
 20
-35.3
 30
0.0
 11
15.3
 21
-36.980385
 31
0.0
1001
ACAD
1000
RTMaterial
1005
0
  0
LINE
  8
F01_OUT
  5
512
 10
20.375
 20
-35.8
 30
0.0
 11
20.3
 21
-35.8
 31
0.0
1001
ACAD
1000
RTMaterial
1005
0
  0
LINE
  8
F01_OUT
  5
513
 10
15.3
 20
-35.1
 30
0.0
 11
15.3
 21
-35.3
 31
0.0
1001
ACAD
1000
RTMaterial
1005
0
  0
LINE
  8
F01_OUT
  5
514
 10
15.225
 20
-35.1
 30
0.0
 11
15.3
 21
-35.1
 31
0.0
1001
ACAD
1000
RTMaterial
1005
0
  0
LINE
  8
F01_OUT
  5
515
 10
15.225
 20
-35.3
 30
0.0
 11
15.3
 21
-35.3
 31
0.0
1001
ACAD
1000
RTMaterial
1005
0
  0
LINE
  8
F01_OUT
  5
516
 10
22.4
 20
-35.8
 30
0.0
 11
22.4
 21
-35.1
 31
0.0
1001
ACAD
1000
RTMaterial
1005
0
  0
LINE
  8
F01_OUT
  5
517
 10
22.1
 20
-34.8
 30
0.0
 11
15.3
 21
-34.8
 31
0.0
1001
ACAD
1000
RTMaterial
1005
0
  0
LINE
  8
F01_OUT
  5
518
 10
15.3
 20
-33.8
 30
0.0
 11
15.3
 21
-34.8
 31
0.0
1001
ACAD
1000
RTMaterial
1005
0
  0
LINE
  8
F01_OUT
  5
519
 10
15.6
 20
-37.5
 30
0.0
 11
15.6
 21
-37.843343
 31
0.0
1001
ACAD
1000
RTMaterial
1005
0
  0
LINE
  8
F01_OUT
  5
51A
 10
15.3
 20
-36.980385
 30
0.0
 11
15.6
 21
-37.5
 31
0.0
1001
ACAD
1000
RTMaterial
1005
0
  0
LINE
  8
F01_OUT
  5
51B
 10
21.9
 20
-39.2
 30
0.0
 11
21.5
 21
-39.2
 31
0.0
1001
ACAD
1000
RTMaterial
1005
0
  0
LINE
  8
F01_OUT
  5
51C
 10
21.9
 20
-39.7
 30
0.0
 11
21.9
 21
-39.2
 31
0.0
1001
ACAD
1000
RTMaterial
1005
0
  0
LINE
  8
F01_OUT
  5
51D
 10
21.9
 20
-39.7
 30
0.0
 11
21.5
 21
-40.1
 31
0.0
1001
ACAD
1000
RTMaterial
1005
0
  0
LINE
  8
F01_OUT
  5
51E
 10
-3.9
 20
-26.2
 30
0.0
 11
0.3
 21
-26.2
 31
0.0
1001
ACAD
1000
RTMaterial
1005
0
  0
LINE
  8
F01_OUT
  5
51F
 10
-2.4
 20
-32.3
 30
0.0
 11
0.5
 21
-32.3
 31
0.0
1001
ACAD
1000
RTMaterial
1005
0
  0
LINE
  8
F01_OUT
  5
520
 10
-17.6
 20
-26.2
 30
0.0
 11
-17.3
 21
-26.2
 31
0.0
1001
ACAD
1000
RTMaterial
1005
0
  0
LINE
  8
F01_OUT
  5
521
 10
-17.9
 20
-30.8
 30
0.0
 11
-22.1
 21
-30.8
 31
0.0
1001
ACAD
1000
RTMaterial
1005
0
  0
LINE
  8
F01_OUT
  5
522
 10
-17.9
 20
-30.8
 30
0.0
 11
-17.6
 21
-31.1
 31
0.0
1001
ACAD
1000
RTMaterial
1005
0
  0
LINE
  8
F01_OUT
  5
523
 10
-17.9
 20
-26.5
 30
0.0
 11
-17.9
 21
-30.8
 31
0.0
1001
ACAD
1000
RTMaterial
1005
0
  0
LINE
  8
F01_OUT
  5
524
 10
-22.4
 20
-31.1
 30
0.0
 11
-22.4
 21
-31.9
 31
0.0
1001
ACAD
1000
RTMaterial
1005
0
  0
LINE
  8
F01_OUT
  5
525
 10
-11.2
 20
-32.3
 30
0.0
 11
-3.4
 21
-32.3
 31
0.0
1001
ACAD
1000
RTMaterial
1005
0
  0
LINE
  8
F01_OUT
  5
526
 10
-16.0
 20
-32.3
 30
0.0
 11
-15.7
 21
-32.3
 31
0.0
1001
ACAD
1000
RTMaterial
1005
0
  0
LINE
  8
F01_OUT
  5
527
 10
-16.0
 20
-33.3
 30
0.0
 11
-16.0
 21
-32.3
 31
0.0
1001
ACAD
1000
RTMaterial
1005
0
  0
LINE
  8
F01_OUT
  5
528
 10
-15.7
 20
-32.3
 30
0.0
 11
-12.7
 21
-32.3
 31
0.0
1001
ACAD
1000
RTMaterial
1005
0
  0
LINE
  8
F01_OUT
  5
529
 10
-22.1
 20
-32.3
 30
0.0
 11
-16.0
 21
-32.3
 31
0.0
1001
ACAD
1000
RTMaterial
1005
0
  0
LINE
  8
F01_OUT
  5
52A
 10
-21.5
 20
-33.3
 30
0.0
 11
-21.4
 21
-33.3
 31
0.0
1001
ACAD
1000
RTMaterial
1005
0
  0
LINE
  8
F01_OUT
  5
52B
 10
-21.4
 20
-33.3
 30
0.0
 11
-21.4
 21
-33.8
 31
0.0
1001
ACAD
1000
RTMaterial
1005
0
  0
LINE
  8
F01_OUT
  5
52C
 10
-22.4
 20
-31.9
 30
0.0
 11
-22.4
 21
-32.6
 31
0.0
1001
ACAD
1000
RTMaterial
1005
0
  0
LINE
  8
F01_OUT
  5
52D
 10
-22.4
 20
-32.6
 30
0.0
 11
-22.4
 21
-33.3
 31
0.0
1001
ACAD
1000
RTMaterial
1005
0
  0
LINE
  8
F01_OUT
  5
52E
 10
-16.5
 20
-38.0
 30
0.0
 11
-16.5
 21
-37.2
 31
0.0
1001
ACAD
1000
RTMaterial
1005
0
  0
LINE
  8
F01_OUT
  5
52F
 10
-18.5
 20
-37.2
 30
0.0
 11
-18.5
 21
-38.0
 31
0.0
1001
ACAD
1000
RTMaterial
1005
0
  0
LINE
  8
F01_OUT
  5
530
 10
-18.5
 20
-36.7
 30
0.0
 11
-18.5
 21
-37.2
 31
0.0
1001
ACAD
1000
RTMaterial
1005
0
  0
LINE
  8
F01_OUT
  5
531
 10
-16.5
 20
-36.7
 30
0.0
 11
-18.5
 21
-36.7
 31
0.0
1001
ACAD
1000
RTMaterial
1005
0
  0
LINE
  8
F01_OUT
  5
532
 10
-16.5
 20
-37.2
 30
0.0
 11
-16.5
 21
-36.7
 31
0.0
1001
ACAD
1000
RTMaterial
1005
0
  0
LINE
  8
F01_OUT
  5
533
 10
-16.5
 20
-37.2
 30
0.0
 11
-18.5
 21
-37.2
 31
0.0
1001
ACAD
1000
RTMaterial
1005
0
  0
LINE
  8
F01_OUT
  5
534
 10
-18.5
 20
-38.0
 30
0.0
 11
-16.5
 21
-38.0
 31
0.0
1001
ACAD
1000
RTMaterial
1005
0
  0
LINE
  8
F01_OUT
  5
535
 10
10.45
 20
-19.7
 30
0.0
 11
10.45
 21
-29.3
 31
0.0
1001
ACAD
1000
RTMaterial
1005
0
  0
LINE
  8
F01_OUT
  5
536
 10
9.45
 20
-29.3
 30
0.0
 11
9.45
 21
-29.6
 31
0.0
1001
ACAD
1000
RTMaterial
1005
0
  0
LINE
  8
F01_OUT
  5
537
 10
7.643934
 20
-29.687868
 30
0.0
 11
7.95
 21
-30.3
 31
0.0
1001
ACAD
1000
RTMaterial
1005
0
  0
LINE
  8
F01_OUT
  5
538
 10
7.55
 20
-19.2
 30
0.0
 11
9.45
 21
-19.2
 31
0.0
1001
ACAD
1000
RTMaterial
1005
0
  0
LINE
  8
F01_OUT
  5
539
 10
10.45
 20
-19.2
 30
0.0
 11
9.45
 21
-19.2
 31
0.0
1001
ACAD
1000
RTMaterial
1005
0
  0
LINE
  8
F01_OUT
  5
53A
 10
7.55
 20
-29.3
 30
0.0
 11
7.55
 21
-19.2
 31
0.0
1001
ACAD
1000
RTMaterial
1005
0
  0
LINE
  8
F01_OUT
  5
53B
 10
9.45
 20
-19.7
 30
0.0
 11
9.45
 21
-19.2
 31
0.0
1001
ACAD
1000
RTMaterial
1005
0
  0
LINE
  8
F01_OUT
  5
53C
 10
7.6
 20
-29.6
 30
0.0
 11
7.643934
 21
-29.687868
 31
0.0
1001
ACAD
1000
RTMaterial
1005
0
  0
LINE
  8
F01_OUT
  5
53D
 10
7.44505
 20
-29.2901
 30
0.0
 11
7.6
 21
-29.6
 31
0.0
1001
ACAD
1000
RTMaterial
1005
0
  0
LINE
  8
F01_OUT
  5
53E
 10
9.45
 20
-19.7
 30
0.0
 11
9.45
 21
-29.3
 31
0.0
1001
ACAD
1000
RTMaterial
1005
0
  0
LINE
  8
F01_OUT
  5
53F
 10
6.19505
 20
-26.7901
 30
0.0
 11
7.44505
 21
-29.2901
 31
0.0
1001
ACAD
1000
RTMaterial
1005
0
  0
LINE
  8
F01_OUT
  5
540
 10
-2.15
 20
-19.5
 30
0.0
 11
1.95
 21
-19.5
 31
0.0
1001
ACAD
1000
RTMaterial
1005
0
  0
LINE
  8
F01_OUT
  5
541
 10
-2.75
 20
-20.5
 30
0.0
 11
1.0
 21
-20.5
 31
0.0
1001
ACAD
1000
RTMaterial
1005
0
  0
LINE
  8
F01_OUT
  5
542
 10
0.3
 20
-26.2
 30
0.0
 11
0.6
 21
-26.5
 31
0.0
1001
ACAD
1000
RTMaterial
1005
0
  0
LINE
  8
F01_OUT
  5
543
 10
0.3
 20
-26.2
 30
0.0
 11
0.3
 21
-24.3
 31
0.0
1001
ACAD
1000
RTMaterial
1005
0
  0
LINE
  8
F01_OUT
  5
544
 10
1.0
 20
-24.0
 30
0.0
 11
0.6
 21
-24.0
 31
0.0
1001
ACAD
1000
RTMaterial
1005
0
  0
LINE
  8
F01_OUT
  5
545
 10
0.5
 20
-32.3
 30
0.0
 11
1.5
 21
-32.3
 31
0.0
1001
ACAD
1000
RTMaterial
1005
0
  0
LINE
  8
F01_OUT
  5
546
 10
5.9
 20
-22.3
 30
0.0
 11
5.9
 21
-26.2
 31
0.0
1001
ACAD
1000
RTMaterial
1005
0
  0
LINE
  8
F01_OUT
  5
547
 10
6.2
 20
-32.8
 30
0.0
 11
6.2
 21
-30.007107
 31
0.0
1001
ACAD
1000
RTMaterial
1005
0
  0
LINE
  8
F01_OUT
  5
548
 10
5.9
 20
-22.3
 30
0.0
 11
5.6
 21
-22.3
 31
0.0
1001
ACAD
1000
RTMaterial
1005
0
  0
LINE
  8
F01_OUT
  5
549
 10
5.2
 20
-22.3
 30
0.0
 11
5.6
 21
-22.3
 31
0.0
1001
ACAD
1000
RTMaterial
1005
0
  0
LINE
  8
F01_OUT
  5
54A
 10
5.864589
 20
-26.8
 30
0.0
 11
4.9
 21
-26.8
 31
0.0
1001
ACAD
1000
RTMaterial
1005
0
  0
LINE
  8
F01_OUT
  5
54B
 10
5.9
 20
-26.2
 30
0.0
 11
5.6
 21
-26.270821
 31
0.0
1001
ACAD
1000
RTMaterial
1005
0
  0
LINE
  8
F01_OUT
  5
54C
 10
5.9
 20
-26.2
 30
0.0
 11
5.982918
 21
-26.365836
 31
0.0
1001
ACAD
1000
RTMaterial
1005
0
  0
LINE
  8
F01_OUT
  5
54D
 10
5.982918
 20
-26.365836
 30
0.0
 11
6.19505
 21
-26.7901
 31
0.0
1001
ACAD
1000
RTMaterial
1005
0
  0
LINE
  8
F01_OUT
  5
54E
 10
3.761895
 20
-24.0
 30
0.0
 11
3.9
 21
-24.0
 31
0.0
1001
ACAD
1000
RTMaterial
1005
0
  0
LINE
  8
F01_OUT
  5
54F
 10
3.9
 20
-24.0
 30
0.0
 11
3.9
 21
-22.5
 31
0.0
1001
ACAD
1000
RTMaterial
1005
0
  0
LINE
  8
F01_OUT
  5
550
 10
3.9
 20
-22.5
 30
0.0
 11
3.9
 21
-19.8
 31
0.0
1001
ACAD
1000
RTMaterial
1005
0
  0
LINE
  8
F01_OUT
  5
551
 10
3.374596
 20
-19.8
 30
0.0
 11
3.374596
 21
-24.3
 31
0.0
1001
ACAD
1000
RTMaterial
1005
0
  0
LINE
  8
F01_OUT
  5
552
 10
4.9
 20
-26.8
 30
0.0
 11
4.9
 21
-29.0
 31
0.0
1001
ACAD
1000
RTMaterial
1005
0
  0
LINE
  8
F01_OUT
  5
553
 10
4.9
 20
-24.3
 30
0.0
 11
4.9
 21
-26.8
 31
0.0
1001
ACAD
1000
RTMaterial
1005
0
  0
LINE
  8
F01_OUT
  5
554
 10
4.1
 20
-24.0
 30
0.0
 11
4.1
 21
-22.7
 31
0.0
1001
ACAD
1000
RTMaterial
1005
0
  0
LINE
  8
F01_OUT
  5
555
 10
4.9
 20
-24.0
 30
0.0
 11
4.6
 21
-24.0
 31
0.0
1001
ACAD
1000
RTMaterial
1005
0
  0
LINE
  8
F01_OUT
  5
556
 10
3.9
 20
-24.0
 30
0.0
 11
4.1
 21
-24.0
 31
0.0
1001
ACAD
1000
RTMaterial
1005
0
  0
LINE
  8
F01_OUT
  5
557
 10
4.1
 20
-24.0
 30
0.0
 11
4.6
 21
-24.0
 31
0.0
1001
ACAD
1000
RTMaterial
1005
0
  0
LINE
  8
F01_OUT
  5
558
 10
4.9
 20
-22.6
 30
0.0
 11
4.9
 21
-24.0
 31
0.0
1001
ACAD
1000
RTMaterial
1005
0
  0
LINE
  8
F01_OUT
  5
559
 10
3.9
 20
-22.5
 30
0.0
 11
4.1
 21
-22.7
 31
0.0
1001
ACAD
1000
RTMaterial
1005
0
  0
LINE
  8
F01_OUT
  5
55A
 10
3.0
 20
-29.3
 30
0.0
 11
4.6
 21
-29.3
 31
0.0
1001
ACAD
1000
RTMaterial
1005
0
  0
LINE
  8
F01_OUT
  5
55B
 10
3.374596
 20
-19.8
 30
0.0
 11
3.9
 21
-19.8
 31
0.0
1001
ACAD
1000
RTMaterial
1005
0
  0
LINE
  8
F01_OUT
  5
55C
 10
1.825403
 20
-19.8
 30
0.0
 11
3.374596
 21
-19.8
 31
0.0
1001
ACAD
1000
RTMaterial
1005
0
  0
LINE
  8
F01_OUT
  5
55D
 10
3.0
 20
-32.3
 30
0.0
 11
3.4
 21
-32.3
 31
0.0
1001
ACAD
1000
RTMaterial
1005
0
  0
LINE
  8
F01_OUT
  5
55E
 10
3.4
 20
-32.3
 30
0.0
 11
4.4
 21
-32.3
 31
0.0
1001
ACAD
1000
RTMaterial
1005
0
  0
LINE
  8
F01_OUT
  5
55F
 10
1.0
 20
-19.8
 30
0.0
 11
1.825403
 21
-19.8
 31
0.0
1001
ACAD
1000
RTMaterial
1005
0
  0
LINE
  8
F01_OUT
  5
560
 10
1.825403
 20
-19.8
 30
0.0
 11
1.825403
 21
-24.3
 31
0.0
1001
ACAD
1000
RTMaterial
1005
0
  0
LINE
  8
F01_OUT
  5
561
 10
1.5
 20
-32.3
 30
0.0
 11
2.7
 21
-32.3
 31
0.0
1001
ACAD
1000
RTMaterial
1005
0
  0
LINE
  8
F01_OUT
  5
562
 10
2.7
 20
-32.3
 30
0.0
 11
3.0
 21
-32.3
 31
0.0
1001
ACAD
1000
RTMaterial
1005
0
  0
LINE
  8
F01_OUT
  5
563
 10
2.7
 20
-32.3
 30
0.0
 11
2.7
 21
-29.724264
 31
0.0
1001
ACAD
1000
RTMaterial
1005
0
  0
LINE
  8
F01_OUT
  5
564
 10
1.438105
 20
-24.0
 30
0.0
 11
1.0
 21
-24.0
 31
0.0
1001
ACAD
1000
RTMaterial
1005
0
  0
LINE
  8
F01_OUT
  5
565
 10
1.0
 20
-20.8
 30
0.0
 11
1.0
 21
-19.8
 31
0.0
1001
ACAD
1000
RTMaterial
1005
0
  0
LINE
  8
F01_OUT
  5
566
 10
1.0
 20
-24.0
 30
0.0
 11
1.0
 21
-20.8
 31
0.0
1001
ACAD
1000
RTMaterial
1005
0
  0
ARC
  8
F01_OUT
  5
567
 10
0.5
 20
-32.8
 30
0.0
 40
0.5
 50
0.0
 51
90.0
1001
ACAD
1000
RTMaterial
1005
0
  0
ARC
  8
F01_OUT
  5
568
 10
6.05
 20
-29.3
 30
0.0
 40
1.5
 50
353.159936
 51
0.0
1001
ACAD
1000
RTMaterial
1005
0
  0
ARC
  8
F01_OUT
  5
569
 10
13.85
 20
-29.3
 30
0.0
 40
1.5
 50
180.0
 51
191.536959
1001
ACAD
1000
RTMaterial
1005
0
  0
ARC
  8
F01_OUT
  5
56A
 10
-17.0
 20
-24.3
 30
0.0
 40
0.3
 50
90.0
 51
180.0
1001
ACAD
1000
RTMaterial
1005
0
  0
ARC
  8
F01_OUT
  5
56B
 10
-2.7
 20
-19.95
 30
0.0
 40
0.3
 50
238.633022
 51
260.405932
1001
ACAD
1000
RTMaterial
1005
0
  0
ARC
  8
F01_OUT
  5
56C
 10
-8.2
 20
-24.3
 30
0.0
 40
0.3
 50
90.0
 51
180.0
1001
ACAD
1000
RTMaterial
1005
0
  0
ARC
  8
F01_OUT
  5
56D
 10
-4.2
 20
-24.3
 30
0.0
 40
0.3
 50
0.0
 51
90.0
1001
ACAD
1000
RTMaterial
1005
0
  0
ARC
  8
F01_OUT
  5
56E
 10
-13.0
 20
-24.3
 30
0.0
 40
0.3
 50
0.0
 51
90.0
1001
ACAD
1000
RTMaterial
1005
0
  0
ARC
  8
F01_OUT
  5
56F
 10
21.1
 20
-29.9
 30
0.0
 40
0.3
 50
0.0
 51
90.0
1001
ACAD
1000
RTMaterial
1005
0
  0
ARC
  8
F01_OUT
  5
570
 10
22.1
 20
-31.1
 30
0.0
 40
0.3
 50
0.0
 51
90.0
1001
ACAD
1000
RTMaterial
1005
0
  0
ARC
  8
F01_OUT
  5
571
 10
14.8
 20
-33.8
 30
0.0
 40
0.5
 50
0.0
 51
90.0
1001
ACAD
1000
RTMaterial
1005
0
  0
ARC
  8
F01_OUT
  5
572
 10
5.7
 20
-32.8
 30
0.0
 40
0.5
 50
0.0
 51
90.0
1001
ACAD
1000
RTMaterial
1005
0
  0
ARC
  8
F01_OUT
  5
573
 10
4.4
 20
-32.8
 30
0.0
 40
0.5
 50
90.0
 51
180.0
1001
ACAD
1000
RTMaterial
1005
0
  0
ARC
  8
F01_OUT
  5
574
 10
22.1
 20
-35.1
 30
0.0
 40
0.3
 50
31.366978
 51
90.0
1001
ACAD
1000
RTMaterial
1005
0
  0
ARC
  8
F01_OUT
  5
575
 10
22.1
 20
-35.1
 30
0.0
 40
0.3
 50
0.0
 51
31.366978
1001
ACAD
1000
RTMaterial
1005
0
  0
ARC
  8
F01_OUT
  5
576
 10
20.0
 20
-38.134676
 30
0.0
 40
0.3
 50
221.775348
 51
0.0
1001
ACAD
1000
RTMaterial
1005
0
  0
ARC
  8
F01_OUT
  5
577
 10
17.8
 20
-40.1
 30
0.0
 40
2.65
 50
41.775348
 51
80.15015
1001
ACAD
1000
RTMaterial
1005
0
  0
ARC
  8
F01_OUT
  5
578
 10
17.8
 20
-40.1
 30
0.0
 40
2.65
 50
99.84985
 51
130.095818
1001
ACAD
1000
RTMaterial
1005
0
  0
ARC
  8
F01_OUT
  5
579
 10
15.9
 20
-37.843343
 30
0.0
 40
0.3
 50
180.0
 51
310.095818
1001
ACAD
1000
RTMaterial
1005
0
  0
ARC
  8
F01_OUT
  5
57A
 10
17.8
 20
-40.1
 30
0.0
 40
2.65
 50
130.095818
 51
149.147524
1001
ACAD
1000
RTMaterial
1005
0
  0
ARC
  8
F01_OUT
  5
57B
 10
17.8
 20
-37.7
 30
0.0
 40
0.5
 50
24.953021
 51
155.046979
1001
ACAD
1000
RTMaterial
1005
0
  0
ARC
  8
F01_OUT
  5
57C
 10
-17.6
 20
-26.5
 30
0.0
 40
0.3
 50
90.0
 51
180.0
1001
ACAD
1000
RTMaterial
1005
0
  0
ARC
  8
F01_OUT
  5
57D
 10
-22.1
 20
-31.1
 30
0.0
 40
0.3
 50
90.0
 51
180.0
1001
ACAD
1000
RTMaterial
1005
0
  0
ARC
  8
F01_OUT
  5
57E
 10
-22.1
 20
-32.6
 30
0.0
 40
0.3
 50
90.0
 51
180.0
1001
ACAD
1000
RTMaterial
1005
0
  0
ARC
  8
F01_OUT
  5
57F
 10
0.6
 20
-24.3
 30
0.0
 40
0.3
 50
90.0
 51
180.0
1001
ACAD
1000
RTMaterial
1005
0
  0
ARC
  8
F01_OUT
  5
580
 10
5.2
 20
-22.6
 30
0.0
 40
0.3
 50
90.0
 51
180.0
1001
ACAD
1000
RTMaterial
1005
0
  0
ARC
  8
F01_OUT
  5
581
 10
5.868529
 20
-26.503208
 30
0.0
 40
0.296818
 50
269.239438
 51
288.55023
1001
ACAD
1000
RTMaterial
1005
0
  0
ARC
  8
F01_OUT
  5
582
 10
4.6
 20
-24.3
 30
0.0
 40
0.3
 50
0.0
 51
90.0
1001
ACAD
1000
RTMaterial
1005
0
  0
ARC
  8
F01_OUT
  5
583
 10
4.6
 20
-29.0
 30
0.0
 40
0.3
 50
270.0
 51
0.0
1001
ACAD
1000
RTMaterial
1005
0
  0
LINE
  8
F01_OUT
  5
584
 10
-6.85
 20
-19.8
 30
0.0
 11
-6.85
 21
-11.81
 31
0.0
1001
ACAD
1000
RTMaterial
1005
0
  0
LINE
  8
F01_OUT
  5
585
 10
-5.55
 20
-19.8
 30
0.0
 11
-5.55
 21
-11.81
 31
0.0
1001
ACAD
1000
RTMaterial
1005
0
  0
LINE
  8
F01_OUT
  5
586
 10
-6.85
 20
-11.81
 30
0.0
 11
-5.55
 21
-11.81
 31
0.0
1001
ACAD
1000
RTMaterial
1005
0
  0
LINE
  8
F01_OUT
  5
587
 10
-7.8
 20
-68.8
 30
0.0
 11
-7.8
 21
-68.5
 31
0.0
1001
ACAD
1000
RTMaterial
1005
0
  0
LINE
  8
F01_OUT
  5
588
 10
-9.8
 20
-68.8
 30
0.0
 11
-9.8
 21
-68.5
 31
0.0
1001
ACAD
1000
RTMaterial
1005
0
  0
LINE
  8
F01_OUT
  5
589
 10
-15.65
 20
-19.8
 30
0.0
 11
-15.65
 21
-11.81
 31
0.0
1001
ACAD
1000
RTMaterial
1005
0
  0
LINE
  8
F01_OUT
  5
58A
 10
-14.35
 20
-19.8
 30
0.0
 11
-14.35
 21
-11.81
 31
0.0
1001
ACAD
1000
RTMaterial
1005
0
  0
LINE
  8
F01_OUT
  5
58B
 10
-15.65
 20
-11.81
 30
0.0
 11
-14.35
 21
-11.81
 31
0.0
1001
ACAD
1000
RTMaterial
1005
0
  0
LINE
  8
F01_OUT
  5
58C
 10
-18.6
 20
-68.8
 30
0.0
 11
-18.6
 21
-68.5
 31
0.0
1001
ACAD
1000
RTMaterial
1005
0
  0
LINE
  8
F01_OUT
  5
58D
 10
-16.6
 20
-68.8
 30
0.0
 11
-16.6
 21
-68.5
 31
0.0
1001
ACAD
1000
RTMaterial
1005
0
  0
LINE
  8
F01_OUT
  5
58E
 10
4.9
 20
-55.8
 30
0.0
 11
5.0
 21
-56.133333
 31
0.0
1001
ACAD
1000
RTMaterial
1005
0
  0
LINE
  8
F01_OUT
  5
58F
 10
18.085283
 20
-49.5
 30
0.0
 11
18.085283
 21
-52.6
 31
0.0
1001
ACAD
1000
RTMaterial
1005
0
  0
LINE
  8
F01_OUT
  5
590
 10
17.68928
 20
-53.1
 30
0.0
 11
17.409972
 21
-53.1
 31
0.0
1001
ACAD
1000
RTMaterial
1005
0
  0
LINE
  8
F01_OUT
  5
591
 10
17.409972
 20
-53.1
 30
0.0
 11
17.360128
 21
-53.1
 31
0.0
1001
ACAD
1000
RTMaterial
1005
0
  0
LINE
  8
F01_OUT
  5
592
 10
17.409972
 20
-53.1
 30
0.0
 11
17.409972
 21
-49.5
 31
0.0
1001
ACAD
1000
RTMaterial
1005
0
  0
LINE
  8
F01_OUT
  5
593
 10
17.409972
 20
-49.5
 30
0.0
 11
17.360128
 21
-49.5
 31
0.0
1001
ACAD
1000
RTMaterial
1005
0
  0
LINE
  8
F01_OUT
  5
594
 10
18.085283
 20
-49.5
 30
0.0
 11
17.409972
 21
-49.5
 31
0.0
1001
ACAD
1000
RTMaterial
1005
0
  0
LINE
  8
F01_OUT
  5
595
 10
14.1
 20
-49.5
 30
0.0
 11
17.360128
 21
-49.5
 31
0.0
1001
ACAD
1000
RTMaterial
1005
0
  0
LINE
  8
F01_OUT
  5
596
 10
14.1
 20
-53.1
 30
0.0
 11
17.360128
 21
-53.1
 31
0.0
1001
ACAD
1000
RTMaterial
1005
0
  0
LINE
  8
F01_OUT
  5
597
 10
5.0
 20
-63.4
 30
0.0
 11
4.9
 21
-63.4
 31
0.0
1001
ACAD
1000
RTMaterial
1005
0
  0
LINE
  8
F01_OUT
  5
598
 10
4.9
 20
-64.4
 30
0.0
 11
5.0
 21
-64.733333
 31
0.0
1001
ACAD
1000
RTMaterial
1005
0
  0
CIRCLE
  8
F01_OUT
  5
599
 10
6.0
 20
-44.130127
 30
0.0
 40
0.25
1001
ACAD
1000
RTMaterial
1005
0
  0
CIRCLE
  8
F01_OUT
  5
59A
 10
8.5
 20
-39.8
 30
0.0
 40
0.4
1001
ACAD
1000
RTMaterial
1005
0
  0
CIRCLE
  8
F01_OUT
  5
59B
 10
8.5
 20
-39.8
 30
0.0
 40
3.0
1001
ACAD
1000
RTMaterial
1005
0
  0
CIRCLE
  8
F01_OUT
  5
59C
 10
8.5
 20
-39.8
 30
0.0
 40
5.5
1001
ACAD
1000
RTMaterial
1005
0
  0
ARC
  8
F01_OUT
  5
59D
 10
6.9
 20
-38.2
 30
0.0
 40
1.0
 50
270.0
 51
0.0
1001
ACAD
1000
RTMaterial
1005
0
  0
ARC
  8
F01_OUT
  5
59E
 10
6.9
 20
-41.4
 30
0.0
 40
1.0
 50
0.0
 51
90.0
1001
ACAD
1000
RTMaterial
1005
0
  0
ARC
  8
F01_OUT
  5
59F
 10
10.1
 20
-41.4
 30
0.0
 40
1.0
 50
90.0
 51
180.0
1001
ACAD
1000
RTMaterial
1005
0
  0
ARC
  8
F01_OUT
  5
5A0
 10
10.1
 20
-38.2
 30
0.0
 40
1.0
 50
180.0
 51
270.0
1001
ACAD
1000
RTMaterial
1005
0
  0
LINE
  8
F01_OUT
  5
5A1
 10
6.25
 20
-39.2
 30
0.0
 11
6.25
 21
-40.4
 31
0.0
1001
ACAD
1000
RTMaterial
1005
0
  0
LINE
  8
F01_OUT
  5
5A2
 10
6.25
 20
-40.4
 30
0.0
 11
6.9
 21
-40.4
 31
0.0
1001
ACAD
1000
RTMaterial
1005
0
  0
LINE
  8
F01_OUT
  5
5A3
 10
6.9
 20
-39.2
 30
0.0
 11
6.25
 21
-39.2
 31
0.0
1001
ACAD
1000
RTMaterial
1005
0
  0
LINE
  8
F01_OUT
  5
5A4
 10
7.9
 20
-37.55
 30
0.0
 11
7.9
 21
-38.2
 31
0.0
1001
ACAD
1000
RTMaterial
1005
0
  0
LINE
  8
F01_OUT
  5
5A5
 10
7.9
 20
-41.4
 30
0.0
 11
7.9
 21
-42.05
 31
0.0
1001
ACAD
1000
RTMaterial
1005
0
  0
LINE
  8
F01_OUT
  5
5A6
 10
9.1
 20
-42.05
 30
0.0
 11
9.1
 21
-41.4
 31
0.0
1001
ACAD
1000
RTMaterial
1005
0
  0
LINE
  8
F01_OUT
  5
5A7
 10
9.1
 20
-37.55
 30
0.0
 11
7.9
 21
-37.55
 31
0.0
1001
ACAD
1000
RTMaterial
1005
0
  0
LINE
  8
F01_OUT
  5
5A8
 10
9.1
 20
-38.2
 30
0.0
 11
9.1
 21
-37.55
 31
0.0
1001
ACAD
1000
RTMaterial
1005
0
  0
LINE
  8
F01_OUT
  5
5A9
 10
7.9
 20
-42.05
 30
0.0
 11
9.1
 21
-42.05
 31
0.0
1001
ACAD
1000
RTMaterial
1005
0
  0
LINE
  8
F01_OUT
  5
5AA
 10
10.75
 20
-40.4
 30
0.0
 11
10.75
 21
-39.2
 31
0.0
1001
ACAD
1000
RTMaterial
1005
0
  0
LINE
  8
F01_OUT
  5
5AB
 10
10.1
 20
-40.4
 30
0.0
 11
10.75
 21
-40.4
 31
0.0
1001
ACAD
1000
RTMaterial
1005
0
  0
LINE
  8
F01_OUT
  5
5AC
 10
10.75
 20
-39.2
 30
0.0
 11
10.1
 21
-39.2
 31
0.0
1001
ACAD
1000
RTMaterial
1005
0
  0
ARC
  8
F01_OUT
  5
5AD
 10
17.8
 20
-40.1
 30
0.0
 40
2.5
 50
302.262702
 51
342.281068
1001
ACAD
1000
RTMaterial
1005
0
  0
ARC
  8
F01_OUT
  5
5AE
 10
19.027744
 20
-42.044902
 30
0.0
 40
0.2
 50
225.0
 51
302.262702
1001
ACAD
1000
RTMaterial
1005
0
  0
ARC
  8
F01_OUT
  5
5AF
 10
19.99089
 20
-40.8
 30
0.0
 40
0.2
 50
342.281068
 51
74.772974
1001
ACAD
1000
RTMaterial
1005
0
  0
ARC
  8
F01_OUT
  5
5B0
 10
19.99089
 20
-40.8
 30
0.0
 40
0.2
 50
74.772974
 51
90.0
1001
ACAD
1000
RTMaterial
1005
0
  0
ARC
  8
F01_OUT
  5
5B1
 10
19.99089
 20
-39.4
 30
0.0
 40
0.2
 50
285.227026
 51
17.718932
1001
ACAD
1000
RTMaterial
1005
0
  0
ARC
  8
F01_OUT
  5
5B2
 10
19.99089
 20
-39.4
 30
0.0
 40
0.2
 50
270.0
 51
285.227026
1001
ACAD
1000
RTMaterial
1005
0
  0
ARC
  8
F01_OUT
  5
5B3
 10
17.8
 20
-40.1
 30
0.0
 40
0.85
 50
36.031879
 51
53.968121
1001
ACAD
1000
RTMaterial
1005
0
  0
ARC
  8
F01_OUT
  5
5B4
 10
17.8
 20
-40.1
 30
0.0
 40
0.85
 50
306.031879
 51
323.968121
1001
ACAD
1000
RTMaterial
1005
0
  0
ARC
  8
F01_OUT
  5
5B5
 10
17.8
 20
-40.1
 30
0.0
 40
0.85
 50
323.968121
 51
36.031879
1001
ACAD
1000
RTMaterial
1005
0
  0
ARC
  8
F01_OUT
  5
5B6
 10
17.8
 20
-40.1
 30
0.0
 40
0.85
 50
233.968121
 51
306.031879
1001
ACAD
1000
RTMaterial
1005
0
  0
ARC
  8
F01_OUT
  5
5B7
 10
17.8
 20
-40.1
 30
0.0
 40
0.85
 50
53.968121
 51
126.031879
1001
ACAD
1000
RTMaterial
1005
0
  0
ARC
  8
F01_OUT
  5
5B8
 10
17.8
 20
-40.1
 30
0.0
 40
0.85
 50
126.031879
 51
143.968121
1001
ACAD
1000
RTMaterial
1005
0
  0
ARC
  8
F01_OUT
  5
5B9
 10
17.8
 20
-40.1
 30
0.0
 40
0.85
 50
216.031879
 51
233.968121
1001
ACAD
1000
RTMaterial
1005
0
  0
ARC
  8
F01_OUT
  5
5BA
 10
17.8
 20
-40.1
 30
0.0
 40
0.85
 50
143.968121
 51
216.031879
1001
ACAD
1000
RTMaterial
1005
0
  0
ARC
  8
F01_OUT
  5
5BB
 10
17.8
 20
-40.1
 30
0.0
 40
2.5
 50
241.42994
 51
302.262702
1001
ACAD
1000
RTMaterial
1005
0
  0
ARC
  8
F01_OUT
  5
5BC
 10
15.85051
 20
-42.04949
 30
0.0
 40
0.5
 50
180.0
 51
270.0
1001
ACAD
1000
RTMaterial
1005
0
  0
ARC
  8
F01_OUT
  5
5BD
 10
17.8
 20
-40.1
 30
0.0
 40
2.5
 50
342.281068
 51
17.718932
1001
ACAD
1000
RTMaterial
1005
0
  0
ARC
  8
F01_OUT
  5
5BE
 10
17.8
 20
-37.7
 30
0.0
 40
0.4
 50
9.896853
 51
170.103147
1001
ACAD
1000
RTMaterial
1005
0
  0
ARC
  8
F01_OUT
  5
5BF
 10
17.8
 20
-40.1
 30
0.0
 40
2.7
 50
80.987549
 51
84.042284
1001
ACAD
1000
RTMaterial
1005
0
  0
ARC
  8
F01_OUT
  5
5C0
 10
17.8
 20
-40.1
 30
0.0
 40
2.7
 50
95.957716
 51
99.012451
1001
ACAD
1000
RTMaterial
1005
0
  0
ARC
  8
F01_OUT
  5
5C1
 10
17.8
 20
-40.1
 30
0.0
 40
2.5
 50
80.931278
 51
99.068722
1001
ACAD
1000
RTMaterial
1005
0
  0
ARC
  8
F01_OUT
  5
5C2
 10
17.8
 20
-40.1
 30
0.0
 40
2.5
 50
72.281068
 51
80.931278
1001
ACAD
1000
RTMaterial
1005
0
  0
ARC
  8
F01_OUT
  5
5C3
 10
18.5
 20
-37.90911
 30
0.0
 40
0.2
 50
72.281068
 51
164.772974
1001
ACAD
1000
RTMaterial
1005
0
  0
ARC
  8
F01_OUT
  5
5C4
 10
18.5
 20
-37.90911
 30
0.0
 40
0.2
 50
164.772974
 51
180.0
1001
ACAD
1000
RTMaterial
1005
0
  0
ARC
  8
F01_OUT
  5
5C5
 10
17.8
 20
-40.1
 30
0.0
 40
2.5
 50
147.737298
 51
208.57006
1001
ACAD
1000
RTMaterial
1005
0
  0
ARC
  8
F01_OUT
  5
5C6
 10
15.855098
 20
-38.872256
 30
0.0
 40
0.2
 50
147.737298
 51
225.0
1001
ACAD
1000
RTMaterial
1005
0
  0
ARC
  8
F01_OUT
  5
5C7
 10
17.8
 20
-40.1
 30
0.0
 40
2.5
 50
107.718932
 51
147.737298
1001
ACAD
1000
RTMaterial
1005
0
  0
ARC
  8
F01_OUT
  5
5C8
 10
17.1
 20
-37.90911
 30
0.0
 40
0.2
 50
15.227026
 51
107.718932
1001
ACAD
1000
RTMaterial
1005
0
  0
ARC
  8
F01_OUT
  5
5C9
 10
17.8
 20
-40.1
 30
0.0
 40
3.7
 50
45.897355
 51
47.493358
1001
ACAD
1000
RTMaterial
1005
0
  0
ARC
  8
F01_OUT
  5
5CA
 10
17.8
 20
-40.1
 30
0.0
 40
2.5
 50
99.068722
 51
107.718932
1001
ACAD
1000
RTMaterial
1005
0
  0
ARC
  8
F01_OUT
  5
5CB
 10
17.1
 20
-37.90911
 30
0.0
 40
0.2
 50
0.0
 51
15.227026
1001
ACAD
1000
RTMaterial
1005
0
  0
ARC
  8
F01_OUT
  5
5CC
 10
17.8
 20
-40.1
 30
0.0
 40
2.5
 50
17.718932
 51
72.281068
1001
ACAD
1000
RTMaterial
1005
0
  0
LINE
  8
F01_OUT
  5
5CD
 10
18.847578
 20
-42.147579
 30
0.0
 11
18.886323
 21
-42.186323
 31
0.0
1001
ACAD
1000
RTMaterial
1005
0
  0
LINE
  8
F01_OUT
  5
5CE
 10
19.99089
 20
-39.6
 30
0.0
 11
18.487386
 21
-39.6
 31
0.0
1001
ACAD
1000
RTMaterial
1005
0
  0
LINE
  8
F01_OUT
  5
5CF
 10
18.847578
 20
-42.147579
 30
0.0
 11
18.3
 21
-41.6
 31
0.0
1001
ACAD
1000
RTMaterial
1005
0
  0
LINE
  8
F01_OUT
  5
5D0
 10
18.3
 20
-40.787386
 30
0.0
 11
18.3
 21
-41.6
 31
0.0
1001
ACAD
1000
RTMaterial
1005
0
  0
LINE
  8
F01_OUT
  5
5D1
 10
18.487386
 20
-40.6
 30
0.0
 11
19.99089
 21
-40.6
 31
0.0
1001
ACAD
1000
RTMaterial
1005
0
  0
LINE
  8
F01_OUT
  5
5D2
 10
17.3
 20
-41.6
 30
0.0
 11
17.3
 21
-40.787386
 31
0.0
1001
ACAD
1000
RTMaterial
1005
0
  0
LINE
  8
F01_OUT
  5
5D3
 10
18.3
 20
-41.6
 30
0.0
 11
17.3
 21
-41.6
 31
0.0
1001
ACAD
1000
RTMaterial
1005
0
  0
LINE
  8
F01_OUT
  5
5D4
 10
16.604417
 20
-42.295583
 30
0.0
 11
16.55051
 21
-42.34949
 31
0.0
1001
ACAD
1000
RTMaterial
1005
0
  0
LINE
  8
F01_OUT
  5
5D5
 10
16.35051
 20
-42.54949
 30
0.0
 11
15.85051
 21
-42.54949
 31
0.0
1001
ACAD
1000
RTMaterial
1005
0
  0
LINE
  8
F01_OUT
  5
5D6
 10
16.35051
 20
-42.54949
 30
0.0
 11
16.55051
 21
-42.34949
 31
0.0
1001
ACAD
1000
RTMaterial
1005
0
  0
LINE
  8
F01_OUT
  5
5D7
 10
15.55051
 20
-41.34949
 30
0.0
 11
15.35051
 21
-41.54949
 31
0.0
1001
ACAD
1000
RTMaterial
1005
0
  0
LINE
  8
F01_OUT
  5
5D8
 10
15.604417
 20
-41.295583
 30
0.0
 11
16.3
 21
-40.6
 31
0.0
1001
ACAD
1000
RTMaterial
1005
0
  0
LINE
  8
F01_OUT
  5
5D9
 10
16.3
 20
-40.6
 30
0.0
 11
17.112613
 21
-40.6
 31
0.0
1001
ACAD
1000
RTMaterial
1005
0
  0
LINE
  8
F01_OUT
  5
5DA
 10
15.55051
 20
-41.34949
 30
0.0
 11
15.604417
 21
-41.295583
 31
0.0
1001
ACAD
1000
RTMaterial
1005
0
  0
LINE
  8
F01_OUT
  5
5DB
 10
15.35051
 20
-42.04949
 30
0.0
 11
15.35051
 21
-41.54949
 31
0.0
1001
ACAD
1000
RTMaterial
1005
0
  0
LINE
  8
F01_OUT
  5
5DC
 10
17.3
 20
-41.6
 30
0.0
 11
16.604417
 21
-42.295583
 31
0.0
1001
ACAD
1000
RTMaterial
1005
0
  0
LINE
  8
F01_OUT
  5
5DD
 10
16.3
 20
-40.6
 30
0.0
 11
16.3
 21
-39.6
 31
0.0
1001
ACAD
1000
RTMaterial
1005
0
  0
LINE
  8
F01_OUT
  5
5DE
 10
16.3
 20
-39.6
 30
0.0
 11
17.112613
 21
-39.6
 31
0.0
1001
ACAD
1000
RTMaterial
1005
0
  0
LINE
  8
F01_OUT
  5
5DF
 10
16.3
 20
-39.6
 30
0.0
 11
15.752421
 21
-39.052421
 31
0.0
1001
ACAD
1000
RTMaterial
1005
0
  0
LINE
  8
F01_OUT
  5
5E0
 10
15.752421
 20
-39.052421
 30
0.0
 11
15.713676
 21
-39.013677
 31
0.0
1001
ACAD
1000
RTMaterial
1005
0
  0
LINE
  8
F01_OUT
  5
5E1
 10
18.825
 20
-37.819786
 30
0.0
 11
18.825
 21
-37.656258
 31
0.0
1001
ACAD
1000
RTMaterial
1005
0
  0
LINE
  8
F01_OUT
  5
5E2
 10
18.3
 20
-39.412614
 30
0.0
 11
18.3
 21
-37.90911
 31
0.0
1001
ACAD
1000
RTMaterial
1005
0
  0
LINE
  8
F01_OUT
  5
5E3
 10
16.775
 20
-37.819786
 30
0.0
 11
16.775
 21
-37.656258
 31
0.0
1001
ACAD
1000
RTMaterial
1005
0
  0
LINE
  8
F01_OUT
  5
5E4
 10
17.275
 20
-37.655747
 30
0.0
 11
17.275
 21
-37.502525
 31
0.0
1001
ACAD
1000
RTMaterial
1005
0
  0
LINE
  8
F01_OUT
  5
5E5
 10
17.3
 20
-37.90911
 30
0.0
 11
17.3
 21
-39.412614
 31
0.0
1001
ACAD
1000
RTMaterial
1005
0
  0
LINE
  8
F01_OUT
  5
5E6
 10
19.5
 20
-38.067145
 30
0.0
 11
19.5
 21
-38.1
 31
0.0
1001
ACAD
1000
RTMaterial
1005
0
  0
LINE
  8
F01_OUT
  5
5E7
 10
3.25
 20
-19.8
 30
0.0
 11
3.25
 21
-11.81
 31
0.0
1001
ACAD
1000
RTMaterial
1005
0
  0
LINE
  8
F01_OUT
  5
5E8
 10
1.95
 20
-11.81
 30
0.0
 11
3.25
 21
-11.81
 31
0.0
1001
ACAD
1000
RTMaterial
1005
0
  0
LINE
  8
F01_OUT
  5
5E9
 10
1.95
 20
-19.8
 30
0.0
 11
1.95
 21
-11.81
 31
0.0
1001
ACAD
1000
RTMaterial
1005
0
  0
LINE
  8
F01_OUT
  5
5EA
 10
1.0
 20
-68.8
 30
0.0
 11
1.0
 21
-68.5
 31
0.0
1001
ACAD
1000
RTMaterial
1005
0
  0
LINE
  8
F01_OUT
  5
5EB
 10
-1.0
 20
-68.8
 30
0.0
 11
-1.0
 21
-68.5
 31
0.0
1001
ACAD
1000
RTMaterial
1005
0
  0
LINE
  8
F01_OUT
  5
5EC
 10
-3.6
 20
-69.3
 30
0.0
 11
-3.9
 21
-69.724264
 31
0.0
1001
ACAD
1000
RTMaterial
1005
E8248D0400000000
  0
LINE
  8
F01_OUT
  5
5ED
 10
-4.9
 20
-69.724264
 30
0.0
 11
-5.2
 21
-69.3
 31
0.0
1001
ACAD
1000
RTMaterial
1005
F0268D0400000000
  0
LINE
  8
F01_OUT
  5
5EE
 10
-13.7
 20
-69.724264
 30
0.0
 11
-14.0
 21
-69.3
 31
0.0
1001
ACAD
1000
RTMaterial
1005
EC3F8D0400000000
  0
LINE
  8
F01_OUT
  5
5EF
 10
-12.4
 20
-69.3
 30
0.0
 11
-12.7
 21
-69.724264
 31
0.0
1001
ACAD
1000
RTMaterial
1005
483D8D0400000000
  0
LINE
  8
F01_OUT
  5
5F0
 10
-22.2
 20
-68.7
 30
0.0
 11
-22.5
 21
-68.660504
 31
0.0
1001
ACAD
1000
RTMaterial
1005
DC138D0400000000
  0
LINE
  8
F01_OUT
  5
5F1
 10
-21.2
 20
-69.3
 30
0.0
 11
-21.5
 21
-69.724264
 31
0.0
1001
ACAD
1000
RTMaterial
1005
CC238D0400000000
  0
LINE
  8
F01_OUT
  5
5F2
 10
2.788675
 20
-35.681568
 30
0.0
 11
2.971404
 21
-35.628596
 31
0.0
1001
ACAD
1000
RTMaterial
1005
AC108D0400000000
  0
LINE
  8
F01_OUT
  5
5F3
 10
2.5
 20
-35.628596
 30
0.0
 11
2.292893
 21
-35.6
 31
0.0
1001
ACAD
1000
RTMaterial
1005
243A8D0400000000
  0
LINE
  8
F01_OUT
  5
5F4
 10
2.5
 20
-35.628596
 30
0.0
 11
2.788675
 21
-35.681568
 31
0.0
1001
ACAD
1000
RTMaterial
1005
8C168D0400000000
  0
LINE
  8
F01_OUT
  5
5F5
 10
1.2
 20
-35.392893
 30
0.0
 11
1.7
 21
-35.6
 31
0.0
1001
ACAD
1000
RTMaterial
1005
C4208D0400000000
  0
LINE
  8
F01_OUT
  5
5F6
 10
3.9
 20
-69.724264
 30
0.0
 11
3.6
 21
-69.3
 31
0.0
1001
ACAD
1000
RTMaterial
1005
A8218D0400000000
  0
LINE
  8
F01_OUT
  5
5F7
 10
-22.2
 20
-56.969524
 30
0.0
 11
-22.349443
 21
-57.6
 31
0.0
1001
ACAD
1000
RTMaterial
1005
1C3B8D0400000000
  0
LINE
  8
F01_OUT
  5
5F8
 10
-22.349443
 20
-34.3
 30
0.0
 11
-22.2
 21
-34.930476
 31
0.0
1001
ACAD
1000
RTMaterial
1005
283F8D0400000000
  0
LINE
  8
F01_OUT
  5
5F9
 10
10.746527
 20
-58.85
 30
0.0
 11
10.746527
 21
-58.15
 31
0.0
1001
ACAD
1000
RTMaterial
1005
8C1F8D0400000000
  0
LINE
  8
F01_OUT
  5
5FA
 10
6.853472
 20
-58.15
 30
0.0
 11
6.853472
 21
-58.85
 31
0.0
1001
ACAD
1000
RTMaterial
1005
A83B8D0400000000
  0
LINE
  8
F01_OUT
  5
5FB
 10
19.546527
 20
-58.85
 30
0.0
 11
19.546527
 21
-58.15
 31
0.0
1001
ACAD
1000
RTMaterial
1005
A0108D0400000000
  0
LINE
  8
F01_OUT
  5
5FC
 10
15.653472
 20
-58.15
 30
0.0
 11
15.653472
 21
-58.85
 31
0.0
1001
ACAD
1000
RTMaterial
1005
E4268D0400000000
  0
LINE
  8
F01_OUT
  5
5FD
 10
-1.946528
 20
-63.15
 30
0.0
 11
-1.946528
 21
-63.85
 31
0.0
1001
ACAD
1000
RTMaterial
1005
183A8D0400000000
  0
LINE
  8
F01_OUT
  5
5FE
 10
1.946527
 20
-63.85
 30
0.0
 11
1.946527
 21
-63.15
 31
0.0
1001
ACAD
1000
RTMaterial
1005
80168D0400000000
  0
LINE
  8
F01_OUT
  5
5FF
 10
-6.853473
 20
-63.85
 30
0.0
 11
-6.853473
 21
-63.15
 31
0.0
1001
ACAD
1000
RTMaterial
1005
B8208D0400000000
  0
LINE
  8
F01_OUT
  5
600
 10
-10.746528
 20
-63.15
 30
0.0
 11
-10.746528
 21
-63.85
 31
0.0
1001
ACAD
1000
RTMaterial
1005
E03F8D0400000000
  0
LINE
  8
F01_OUT
  5
601
 10
10.746527
 20
-67.45
 30
0.0
 11
10.746527
 21
-66.75
 31
0.0
1001
ACAD
1000
RTMaterial
1005
1C3F8D0400000000
  0
LINE
  8
F01_OUT
  5
602
 10
6.853472
 20
-66.75
 30
0.0
 11
6.853472
 21
-67.45
 31
0.0
1001
ACAD
1000
RTMaterial
1005
801F8D0400000000
  0
LINE
  8
F01_OUT
  5
603
 10
19.546527
 20
-67.45
 30
0.0
 11
19.546527
 21
-66.75
 31
0.0
1001
ACAD
1000
RTMaterial
1005
D4378D0400000000
  0
LINE
  8
F01_OUT
  5
604
 10
15.653472
 20
-66.75
 30
0.0
 11
15.653472
 21
-67.45
 31
0.0
1001
ACAD
1000
RTMaterial
1005
343D8D0400000000
  0
LINE
  8
F01_OUT
  5
605
 10
-19.546528
 20
-63.15
 30
0.0
 11
-19.546528
 21
-63.85
 31
0.0
1001
ACAD
1000
RTMaterial
1005
C3A8D0400000000
  0
LINE
  8
F01_OUT
  5
606
 10
-15.653473
 20
-63.85
 30
0.0
 11
-15.653473
 21
-63.15
 31
0.0
1001
ACAD
1000
RTMaterial
1005
74168D0400000000
  0
LINE
  8
F01_OUT
  5
607
 10
-15.774597
 20
-24.3
 30
0.0
 11
-16.161895
 21
-24.0
 31
0.0
1001
ACAD
1000
RTMaterial
1005
AC208D0400000000
  0
LINE
  8
F01_OUT
  5
608
 10
-5.425404
 20
-24.3
 30
0.0
 11
-5.038105
 21
-24.0
 31
0.0
1001
ACAD
1000
RTMaterial
1005
D43F8D0400000000
  0
LINE
  8
F01_OUT
  5
609
 10
-6.974597
 20
-24.3
 30
0.0
 11
-7.361895
 21
-24.0
 31
0.0
1001
ACAD
1000
RTMaterial
1005
103F8D0400000000
  0
LINE
  8
F01_OUT
  5
60A
 10
-14.225404
 20
-24.3
 30
0.0
 11
-13.838105
 21
-24.0
 31
0.0
1001
ACAD
1000
RTMaterial
1005
741F8D0400000000
  0
LINE
  8
F01_OUT
  5
60B
 10
22.1
 20
-33.3
 30
0.0
 11
22.4
 21
-33.424264
 31
0.0
1001
ACAD
1000
RTMaterial
1005
C8378D0400000000
  0
LINE
  8
F01_OUT
  5
60C
 10
7.957826
 20
-30.512132
 30
0.0
 11
7.95
 21
-30.3
 31
0.0
1001
ACAD
1000
RTMaterial
1005
D8268D0400000000
  0
LINE
  8
F01_OUT
  5
60D
 10
6.19505
 20
-26.7901
 30
0.0
 11
5.962958
 21
-26.784605
 31
0.0
1001
ACAD
1000
RTMaterial
1005
3A8D0400000000
  0
LINE
  8
F01_OUT
  5
60E
 10
5.983102
 20
-29.424264
 30
0.0
 11
5.7
 21
-29.212132
 31
0.0
1001
ACAD
1000
RTMaterial
1005
68168D0400000000
  0
LINE
  8
F01_OUT
  5
60F
 10
5.983102
 20
-29.424264
 30
0.0
 11
6.2
 21
-30.007107
 31
0.0
1001
ACAD
1000
RTMaterial
1005
A0208D0400000000
  0
LINE
  8
F01_OUT
  5
610
 10
5.9
 20
-26.182763
 30
0.0
 11
5.982918
 21
-26.365836
 31
0.0
1001
ACAD
1000
RTMaterial
1005
C03F8D0400000000
  0
LINE
  8
F01_OUT
  5
611
 10
3.374596
 20
-24.3
 30
0.0
 11
3.761895
 21
-24.0
 31
0.0
1001
ACAD
1000
RTMaterial
1005
3F8D0400000000
  0
LINE
  8
F01_OUT
  5
612
 10
1.825403
 20
-24.3
 30
0.0
 11
1.438105
 21
-24.0
 31
0.0
1001
ACAD
1000
RTMaterial
1005
681F8D0400000000
  0
LINE
  8
F01_OUT
  5
613
 10
3.0
 20
-29.3
 30
0.0
 11
2.7
 21
-29.724264
 31
0.0
1001
ACAD
1000
RTMaterial
1005
BC378D0400000000
  0
LINE
  8
F01_OUT
  5
614
 10
18.085283
 20
-52.6
 30
0.0
 11
17.68928
 21
-53.1
 31
0.0
1001
ACAD
1000
RTMaterial
1005
A83A8D0400000000
  0
LINE
  8
F01_OUT
  5
615
 10
-53.6755
 20
-39.052421
 30
0.0
 11
-53.681795
 21
-39.01547
 31
0.0
1001
ACAD
1000
RTMaterial
1005
EC258D0400000000
  0
LINE
  8
F01_OUT
  5
616
 10
-57.5755
 20
-37.6
 30
0.0
 11
-57.8755
 21
-37.63125
 31
0.0
1001
ACAD
1000
RTMaterial
1005
DC248D0400000000
  0
LINE
  8
F01_OUT
  5
617
 10
-53.8755
 20
-38.765495
 30
0.0
 11
-53.682432
 21
-39.013677
 31
0.0
1001
ACAD
1000
RTMaterial
1005
9C218D0400000000
  0
LINE
  8
F01_OUT
  5
618
 10
-53.8755
 20
-37.718598
 30
0.0
 11
-53.819464
 21
-37.709128
 31
0.0
1001
ACAD
1000
RTMaterial
1005
D0138D0400000000
  0
LINE
  8
F01_OUT
  5
619
 10
-53.817009
 20
-37.70911
 30
0.0
 11
-53.6755
 21
-37.856581
 31
0.0
1001
ACAD
1000
RTMaterial
1005
C0238D0400000000
  0
LINE
  8
F01_OUT
  5
61A
 10
-59.615372
 20
-34.3
 30
0.0
 11
-59.5755
 21
-34.930476
 31
0.0
1001
ACAD
1000
RTMaterial
1005
94108D0400000000
  0
LINE
  8
F01_OUT
  5
61B
 10
-59.5755
 20
-56.969524
 30
0.0
 11
-59.615372
 21
-57.6
 31
0.0
1001
ACAD
1000
RTMaterial
1005
F4398D0400000000
  0
LINE
  8
F01_OUT
  5
61C
 10
-80.292657
 20
-69.8
 30
0.0
 11
-80.2755
 21
-69.817157
 31
0.0
1001
ACAD
1000
RTMaterial
1005
5C168D0400000000
  0
POLYLINE
  8
F01_OUT
  5
61D
 66
     1
 10
0.0
 20
0.0
 30
0.0
 70
   128
210
0.0
220
0.0
230
-1.0
1001
ACAD
1000
RTMaterial
1005
C0035F0300000000
  0
VERTEX
  8
F01_OUT
  5
1658
 10
107.029696
 20
-29.3
 30
0.0
  0
VERTEX
  8
F01_OUT
  5
1659
 10
107.3255
 20
-30.129155
 30
0.0
  0
VERTEX
  8
F01_OUT
  5
165A
 10
107.621304
 20
-29.3
 30
0.0
  0
SEQEND
  8
F01_OUT
  5
165B
  0
LINE
  8
F01_OUT
  5
61E
 10
-58.686372
 20
-59.6
 30
0.0
 11
-59.5755
 21
-59.6
 31
0.0
1001
ACAD
1000
RTMaterial
1005
0
  0
LINE
  8
F01_OUT
  5
61F
 10
-59.5755
 20
-68.5
 30
0.0
 11
-58.679422
 21
-68.5
 31
0.0
1001
ACAD
1000
RTMaterial
1005
0
  0
LINE
  8
F01_OUT
  5
620
 10
-58.686372
 20
-59.6
 30
0.0
 11
-58.386372
 21
-59.9
 31
0.0
1001
ACAD
1000
RTMaterial
1005
0
  0
LINE
  8
F01_OUT
  5
621
 10
-58.440821
 20
-67.4
 30
0.0
 11
-59.5755
 21
-67.4
 31
0.0
1001
ACAD
1000
RTMaterial
1005
0
  0
LINE
  8
F01_OUT
  5
622
 10
-59.5755
 20
-60.512461
 30
0.0
 11
-59.5755
 21
-60.9
 31
0.0
1001
ACAD
1000
RTMaterial
1005
0
  0
LINE
  8
F01_OUT
  5
623
 10
-59.5755
 20
-59.6
 30
0.0
 11
-59.5755
 21
-60.512461
 31
0.0
1001
ACAD
1000
RTMaterial
1005
0
  0
LINE
  8
F01_OUT
  5
624
 10
-59.5755
 20
-61.30911
 30
0.0
 11
-59.5755
 21
-61.644837
 31
0.0
1001
ACAD
1000
RTMaterial
1005
0
  0
LINE
  8
F01_OUT
  5
625
 10
-59.5755
 20
-61.644837
 30
0.0
 11
-59.5755
 21
-61.8
 31
0.0
1001
ACAD
1000
RTMaterial
1005
0
  0
LINE
  8
F01_OUT
  5
626
 10
-59.5755
 20
-60.9
 30
0.0
 11
-59.5755
 21
-61.30911
 31
0.0
1001
ACAD
1000
RTMaterial
1005
0
  0
LINE
  8
F01_OUT
  5
627
 10
-59.5755
 20
-61.8
 30
0.0
 11
-59.5755
 21
-62.5
 31
0.0
1001
ACAD
1000
RTMaterial
1005
0
  0
LINE
  8
F01_OUT
  5
628
 10
-59.5755
 20
-66.8
 30
0.0
 11
-59.5755
 21
-67.4
 31
0.0
1001
ACAD
1000
RTMaterial
1005
0
  0
LINE
  8
F01_OUT
  5
629
 10
-59.5755
 20
-65.246425
 30
0.0
 11
-59.5755
 21
-66.8
 31
0.0
1001
ACAD
1000
RTMaterial
1005
0
  0
LINE
  8
F01_OUT
  5
62A
 10
-59.5755
 20
-62.5
 30
0.0
 11
-59.5755
 21
-65.246425
 31
0.0
1001
ACAD
1000
RTMaterial
1005
0
  0
ARC
  8
F01_OUT
  5
62B
 10
-79.0755
 20
-63.5
 30
0.0
 40
21.0
 50
346.225853
 51
349.29722
1001
ACAD
1000
RTMaterial
1005
0
  0
ARC
  8
F01_OUT
  5
62C
 10
-79.0755
 20
-63.5
 30
0.0
 40
21.0
 50
349.29722
 51
9.87089
1001
ACAD
1000
RTMaterial
1005
0
  0
LINE
  8
F01_OUT
  5
62D
 10
-59.5755
 20
-55.8
 30
0.0
 11
-59.5755
 21
-56.018861
 31
0.0
1001
ACAD
1000
RTMaterial
1005
0
  0
LINE
  8
F01_OUT
  5
62E
 10
-59.5755
 20
-55.5
 30
0.0
 11
-59.5755
 21
-55.8
 31
0.0
1001
ACAD
1000
RTMaterial
1005
0
  0
LINE
  8
F01_OUT
  5
62F
 10
-59.5755
 20
-56.018861
 30
0.0
 11
-59.5755
 21
-56.061556
 31
0.0
1001
ACAD
1000
RTMaterial
1005
0
  0
LINE
  8
F01_OUT
  5
630
 10
-59.5755
 20
-56.061556
 30
0.0
 11
-59.5755
 21
-56.969524
 31
0.0
1001
ACAD
1000
RTMaterial
1005
0
  0
ARC
  8
F01_OUT
  5
631
 10
-79.0755
 20
-58.5
 30
0.0
 40
21.0
 50
353.162859
 51
9.696321
1001
ACAD
1000
RTMaterial
1005
0
  0
ARC
  8
F01_OUT
  5
632
 10
-59.8755
 20
-33.9
 30
0.0
 40
0.3
 50
19.471221
 51
48.189685
1001
ACAD
1000
RTMaterial
1005
0
  0
ARC
  8
F01_OUT
  5
633
 10
-59.8755
 20
-57.9
 30
0.0
 40
0.3
 50
311.810315
 51
318.189685
1001
ACAD
1000
RTMaterial
1005
0
  0
LINE
  8
F01_OUT
  5
634
 10
-59.5755
 20
-40.1
 30
0.0
 11
-59.5755
 21
-36.1
 31
0.0
1001
ACAD
1000
RTMaterial
1005
0
  0
LINE
  8
F01_OUT
  5
635
 10
-59.5755
 20
-36.0
 30
0.0
 11
-59.5755
 21
-35.881139
 31
0.0
1001
ACAD
1000
RTMaterial
1005
0
  0
LINE
  8
F01_OUT
  5
636
 10
-59.5755
 20
-35.881139
 30
0.0
 11
-59.5755
 21
-35.8
 31
0.0
1001
ACAD
1000
RTMaterial
1005
0
  0
LINE
  8
F01_OUT
  5
637
 10
-59.5755
 20
-46.3
 30
0.0
 11
-59.5755
 21
-54.6
 31
0.0
1001
ACAD
1000
RTMaterial
1005
0
  0
LINE
  8
F01_OUT
  5
638
 10
-60.67191
 20
-32.4
 30
0.0
 11
-60.67191
 21
-33.8
 31
0.0
1001
ACAD
1000
RTMaterial
1005
0
  0
LINE
  8
F01_OUT
  5
639
 10
-60.9755
 20
-32.4
 30
0.0
 11
-60.9755
 21
-33.6
 31
0.0
1001
ACAD
1000
RTMaterial
1005
0
  0
LINE
  8
F01_OUT
  5
63A
 10
-60.9755
 20
-33.6
 30
0.0
 11
-60.9755
 21
-33.8
 31
0.0
1001
ACAD
1000
RTMaterial
1005
0
  0
LINE
  8
F01_OUT
  5
63B
 10
-60.9755
 20
-32.4
 30
0.0
 11
-60.67191
 21
-32.4
 31
0.0
1001
ACAD
1000
RTMaterial
1005
0
  0
LINE
  8
F01_OUT
  5
63C
 10
-59.97909
 20
-33.6
 30
0.0
 11
-59.97909
 21
-33.8
 31
0.0
1001
ACAD
1000
RTMaterial
1005
0
  0
LINE
  8
F01_OUT
  5
63D
 10
-59.6755
 20
-33.6
 30
0.0
 11
-59.6755
 21
-33.8
 31
0.0
1001
ACAD
1000
RTMaterial
1005
0
  0
LINE
  8
F01_OUT
  5
63E
 10
-59.6755
 20
-33.6
 30
0.0
 11
-59.97909
 21
-33.6
 31
0.0
1001
ACAD
1000
RTMaterial
1005
0
  0
LINE
  8
F01_OUT
  5
63F
 10
-59.5755
 20
-36.1
 30
0.0
 11
-59.5755
 21
-36.0
 31
0.0
1001
ACAD
1000
RTMaterial
1005
0
  0
LINE
  8
F01_OUT
  5
640
 10
-59.5755
 20
-54.6
 30
0.0
 11
-59.5755
 21
-55.5
 31
0.0
1001
ACAD
1000
RTMaterial
1005
0
  0
LINE
  8
F01_OUT
  5
641
 10
-59.5755
 20
-40.1
 30
0.0
 11
-59.5755
 21
-42.675
 31
0.0
1001
ACAD
1000
RTMaterial
1005
0
  0
LINE
  8
F01_OUT
  5
642
 10
-59.5755
 20
-45.281389
 30
0.0
 11
-59.5755
 21
-46.3
 31
0.0
1001
ACAD
1000
RTMaterial
1005
0
  0
LINE
  8
F01_OUT
  5
643
 10
-59.5755
 20
-43.6
 30
0.0
 11
-59.5755
 21
-44.976056
 31
0.0
1001
ACAD
1000
RTMaterial
1005
0
  0
LINE
  8
F01_OUT
  5
644
 10
-59.5755
 20
-44.976056
 30
0.0
 11
-59.5755
 21
-45.281389
 31
0.0
1001
ACAD
1000
RTMaterial
1005
0
  0
LINE
  8
F01_OUT
  5
645
 10
-59.5755
 20
-42.675
 30
0.0
 11
-59.5755
 21
-43.6
 31
0.0
1001
ACAD
1000
RTMaterial
1005
0
  0
LINE
  8
F01_OUT
  5
646
 10
-59.5755
 20
-34.930476
 30
0.0
 11
-59.5755
 21
-35.8
 31
0.0
1001
ACAD
1000
RTMaterial
1005
0
  0
LINE
  8
F01_OUT
  5
647
 10
-60.67191
 20
-32.4
 30
0.0
 11
-59.3755
 21
-32.4
 31
0.0
1001
ACAD
1000
RTMaterial
1005
0
  0
LINE
  8
F01_OUT
  5
648
 10
-59.3755
 20
-33.6
 30
0.0
 11
-59.6755
 21
-33.6
 31
0.0
1001
ACAD
1000
RTMaterial
1005
0
  0
LINE
  8
F01_OUT
  5
649
 10
-58.3755
 20
-34.8
 30
0.0
 11
-58.648449
 21
-34.8
 31
0.0
1001
ACAD
1000
RTMaterial
1005
0
  0
LINE
  8
F01_OUT
  5
64A
 10
-58.3755
 20
-36.0
 30
0.0
 11
-59.5755
 21
-36.0
 31
0.0
1001
ACAD
1000
RTMaterial
1005
0
  0
LINE
  8
F01_OUT
  5
64B
 10
-58.3755
 20
-42.7
 30
0.0
 11
-58.3755
 21
-36.0
 31
0.0
1001
ACAD
1000
RTMaterial
1005
0
  0
LINE
  8
F01_OUT
  5
64C
 10
-58.3755
 20
-57.0
 30
0.0
 11
-58.3755
 21
-55.8
 31
0.0
1001
ACAD
1000
RTMaterial
1005
0
  0
LINE
  8
F01_OUT
  5
64D
 10
-58.3755
 20
-57.0
 30
0.0
 11
-58.3755
 21
-57.7
 31
0.0
1001
ACAD
1000
RTMaterial
1005
0
  0
LINE
  8
F01_OUT
  5
64E
 10
-58.681572
 20
-57.0
 30
0.0
 11
-58.3755
 21
-57.0
 31
0.0
1001
ACAD
1000
RTMaterial
1005
0
  0
LINE
  8
F01_OUT
  5
64F
 10
-57.5755
 20
-42.7
 30
0.0
 11
-57.5755
 21
-51.5
 31
0.0
1001
ACAD
1000
RTMaterial
1005
0
  0
LINE
  8
F01_OUT
  5
650
 10
-59.5755
 20
-55.8
 30
0.0
 11
-58.3755
 21
-55.8
 31
0.0
1001
ACAD
1000
RTMaterial
1005
0
  0
LINE
  8
F01_OUT
  5
651
 10
-58.3755
 20
-51.5
 30
0.0
 11
-57.5755
 21
-51.5
 31
0.0
1001
ACAD
1000
RTMaterial
1005
0
  0
LINE
  8
F01_OUT
  5
652
 10
-58.3755
 20
-55.8
 30
0.0
 11
-58.3755
 21
-51.5
 31
0.0
1001
ACAD
1000
RTMaterial
1005
0
  0
LINE
  8
F01_OUT
  5
653
 10
-58.3755
 20
-42.7
 30
0.0
 11
-57.5755
 21
-42.7
 31
0.0
1001
ACAD
1000
RTMaterial
1005
0
  0
LINE
  8
F01_OUT
  5
654
 10
-58.3755
 20
-50.1
 30
0.0
 11
-58.3755
 21
-44.1
 31
0.0
1001
ACAD
1000
RTMaterial
1005
0
  0
LINE
  8
F01_OUT
  5
655
 10
-58.3755
 20
-44.1
 30
0.0
 11
-58.3755
 21
-42.7
 31
0.0
1001
ACAD
1000
RTMaterial
1005
0
  0
LINE
  8
F01_OUT
  5
656
 10
-58.3755
 20
-51.5
 30
0.0
 11
-58.3755
 21
-50.1
 31
0.0
1001
ACAD
1000
RTMaterial
1005
0
  0
LINE
  8
F01_OUT
  5
657
 10
-57.7755
 20
-44.1
 30
0.0
 11
-58.3755
 21
-44.1
 31
0.0
1001
ACAD
1000
RTMaterial
1005
0
  0
LINE
  8
F01_OUT
  5
658
 10
-57.7755
 20
-50.1
 30
0.0
 11
-57.7755
 21
-44.1
 31
0.0
1001
ACAD
1000
RTMaterial
1005
0
  0
LINE
  8
F01_OUT
  5
659
 10
-58.3755
 20
-50.1
 30
0.0
 11
-57.7755
 21
-50.1
 31
0.0
1001
ACAD
1000
RTMaterial
1005
0
  0
LINE
  8
F01_OUT
  5
65A
 10
-59.3755
 20
-32.4
 30
0.0
 11
-58.3755
 21
-32.4
 31
0.0
1001
ACAD
1000
RTMaterial
1005
0
  0
LINE
  8
F01_OUT
  5
65B
 10
-58.3755
 20
-33.6
 30
0.0
 11
-58.3755
 21
-32.4
 31
0.0
1001
ACAD
1000
RTMaterial
1005
0
  0
LINE
  8
F01_OUT
  5
65C
 10
-58.3755
 20
-36.0
 30
0.0
 11
-58.3755
 21
-34.8
 31
0.0
1001
ACAD
1000
RTMaterial
1005
0
  0
LINE
  8
F01_OUT
  5
65D
 10
-58.3755
 20
-34.1
 30
0.0
 11
-58.3755
 21
-34.8
 31
0.0
1001
ACAD
1000
RTMaterial
1005
0
  0
LINE
  8
F01_OUT
  5
65E
 10
-58.3755
 20
-34.1
 30
0.0
 11
-58.3755
 21
-33.6
 31
0.0
1001
ACAD
1000
RTMaterial
1005
0
  0
LINE
  8
F01_OUT
  5
65F
 10
-59.3755
 20
-33.6
 30
0.0
 11
-58.3755
 21
-33.6
 31
0.0
1001
ACAD
1000
RTMaterial
1005
0
  0
LINE
  8
F01_OUT
  5
660
 10
-60.67191
 20
-59.4
 30
0.0
 11
-60.67191
 21
-58.1
 31
0.0
1001
ACAD
1000
RTMaterial
1005
0
  0
LINE
  8
F01_OUT
  5
661
 10
-60.9755
 20
-59.4
 30
0.0
 11
-60.67191
 21
-59.4
 31
0.0
1001
ACAD
1000
RTMaterial
1005
0
  0
LINE
  8
F01_OUT
  5
662
 10
-60.9755
 20
-59.4
 30
0.0
 11
-60.9755
 21
-58.2
 31
0.0
1001
ACAD
1000
RTMaterial
1005
0
  0
LINE
  8
F01_OUT
  5
663
 10
-60.9755
 20
-58.2
 30
0.0
 11
-60.9755
 21
-58.1
 31
0.0
1001
ACAD
1000
RTMaterial
1005
0
  0
LINE
  8
F01_OUT
  5
664
 10
-59.97909
 20
-58.2
 30
0.0
 11
-59.97909
 21
-58.1
 31
0.0
1001
ACAD
1000
RTMaterial
1005
0
  0
LINE
  8
F01_OUT
  5
665
 10
-59.6755
 20
-58.2
 30
0.0
 11
-59.6755
 21
-58.1
 31
0.0
1001
ACAD
1000
RTMaterial
1005
0
  0
LINE
  8
F01_OUT
  5
666
 10
-59.3755
 20
-58.2
 30
0.0
 11
-59.6755
 21
-58.2
 31
0.0
1001
ACAD
1000
RTMaterial
1005
0
  0
LINE
  8
F01_OUT
  5
667
 10
-59.6755
 20
-58.2
 30
0.0
 11
-59.97909
 21
-58.2
 31
0.0
1001
ACAD
1000
RTMaterial
1005
0
  0
LINE
  8
F01_OUT
  5
668
 10
-59.3755
 20
-59.4
 30
0.0
 11
-60.67191
 21
-59.4
 31
0.0
1001
ACAD
1000
RTMaterial
1005
0
  0
LINE
  8
F01_OUT
  5
669
 10
-58.3755
 20
-59.4
 30
0.0
 11
-59.3755
 21
-59.4
 31
0.0
1001
ACAD
1000
RTMaterial
1005
0
  0
LINE
  8
F01_OUT
  5
66A
 10
-58.3755
 20
-58.2
 30
0.0
 11
-58.3755
 21
-59.4
 31
0.0
1001
ACAD
1000
RTMaterial
1005
0
  0
LINE
  8
F01_OUT
  5
66B
 10
-58.3755
 20
-57.7
 30
0.0
 11
-58.3755
 21
-58.2
 31
0.0
1001
ACAD
1000
RTMaterial
1005
0
  0
LINE
  8
F01_OUT
  5
66C
 10
-58.3755
 20
-58.2
 30
0.0
 11
-59.3755
 21
-58.2
 31
0.0
1001
ACAD
1000
RTMaterial
1005
0
  0
LINE
  8
F01_OUT
  5
66D
 10
-53.6755
 20
-42.34949
 30
0.0
 11
-53.6755
 21
-42.04949
 31
0.0
1001
ACAD
1000
RTMaterial
1005
0
  0
LINE
  8
F01_OUT
  5
66E
 10
-54.6755
 20
-42.04949
 30
0.0
 11
-54.6755
 21
-41.54949
 31
0.0
1001
ACAD
1000
RTMaterial
1005
0
  0
LINE
  8
F01_OUT
  5
66F
 10
-53.6755
 20
-41.34949
 30
0.0
 11
-53.6755
 21
-42.04949
 31
0.0
1001
ACAD
1000
RTMaterial
1005
0
  0
LINE
  8
F01_OUT
  5
670
 10
-53.6755
 20
-39.6
 30
0.0
 11
-53.6755
 21
-39.052421
 31
0.0
1001
ACAD
1000
RTMaterial
1005
0
  0
LINE
  8
F01_OUT
  5
671
 10
-53.6755
 20
-37.856581
 30
0.0
 11
-53.6755
 21
-39.052421
 31
0.0
1001
ACAD
1000
RTMaterial
1005
0
  0
LINE
  8
F01_OUT
  5
672
 10
-53.6755
 20
-39.6
 30
0.0
 11
-54.6755
 21
-39.6
 31
0.0
1001
ACAD
1000
RTMaterial
1005
0
  0
LINE
  8
F01_OUT
  5
673
 10
-54.6755
 20
-40.6
 30
0.0
 11
-53.6755
 21
-40.6
 31
0.0
1001
ACAD
1000
RTMaterial
1005
0
  0
LINE
  8
F01_OUT
  5
674
 10
-53.6755
 20
-41.34949
 30
0.0
 11
-53.6755
 21
-40.6
 31
0.0
1001
ACAD
1000
RTMaterial
1005
0
  0
LINE
  8
F01_OUT
  5
675
 10
-54.6755
 20
-41.54949
 30
0.0
 11
-53.8755
 21
-41.54949
 31
0.0
1001
ACAD
1000
RTMaterial
1005
0
  0
LINE
  8
F01_OUT
  5
676
 10
-54.6755
 20
-41.54949
 30
0.0
 11
-54.6755
 21
-41.295583
 31
0.0
1001
ACAD
1000
RTMaterial
1005
0
  0
LINE
  8
F01_OUT
  5
677
 10
-58.3755
 20
-41.295583
 30
0.0
 11
-54.6755
 21
-41.295583
 31
0.0
1001
ACAD
1000
RTMaterial
1005
0
  0
LINE
  8
F01_OUT
  5
678
 10
-58.3755
 20
-39.6
 30
0.0
 11
-54.6755
 21
-39.6
 31
0.0
1001
ACAD
1000
RTMaterial
1005
0
  0
LINE
  8
F01_OUT
  5
679
 10
-58.3755
 20
-40.6
 30
0.0
 11
-54.6755
 21
-40.6
 31
0.0
1001
ACAD
1000
RTMaterial
1005
0
  0
LINE
  8
F01_OUT
  5
67A
 10
-54.6755
 20
-37.70911
 30
0.0
 11
-53.817009
 21
-37.70911
 31
0.0
1001
ACAD
1000
RTMaterial
1005
0
  0
LINE
  8
F01_OUT
  5
67B
 10
-58.3755
 20
-37.63125
 30
0.0
 11
-57.8755
 21
-37.63125
 31
0.0
1001
ACAD
1000
RTMaterial
1005
0
  0
LINE
  8
F01_OUT
  5
67C
 10
-58.3755
 20
-37.3
 30
0.0
 11
-57.8755
 21
-37.3
 31
0.0
1001
ACAD
1000
RTMaterial
1005
0
  0
LINE
  8
F01_OUT
  5
67D
 10
-57.5755
 20
-37.6
 30
0.0
 11
-54.6755
 21
-37.6
 31
0.0
1001
ACAD
1000
RTMaterial
1005
0
  0
LINE
  8
F01_OUT
  5
67E
 10
-56.8755
 20
-42.295583
 30
0.0
 11
-54.6755
 21
-42.295583
 31
0.0
1001
ACAD
1000
RTMaterial
1005
0
  0
LINE
  8
F01_OUT
  5
67F
 10
-58.3755
 20
-42.6
 30
0.0
 11
-56.8755
 21
-42.6
 31
0.0
1001
ACAD
1000
RTMaterial
1005
0
  0
LINE
  8
F01_OUT
  5
680
 10
-56.8755
 20
-42.295583
 30
0.0
 11
-56.8755
 21
-42.6
 31
0.0
1001
ACAD
1000
RTMaterial
1005
0
  0
LINE
  8
F01_OUT
  5
681
 10
-54.6755
 20
-40.6
 30
0.0
 11
-54.6755
 21
-39.6
 31
0.0
1001
ACAD
1000
RTMaterial
1005
0
  0
LINE
  8
F01_OUT
  5
682
 10
-53.8755
 20
-42.54949
 30
0.0
 11
-54.6755
 21
-42.54949
 31
0.0
1001
ACAD
1000
RTMaterial
1005
0
  0
LINE
  8
F01_OUT
  5
683
 10
-54.6755
 20
-37.70911
 30
0.0
 11
-54.6755
 21
-37.718598
 31
0.0
1001
ACAD
1000
RTMaterial
1005
0
  0
LINE
  8
F01_OUT
  5
684
 10
-54.6755
 20
-37.6
 30
0.0
 11
-54.6755
 21
-37.70911
 31
0.0
1001
ACAD
1000
RTMaterial
1005
0
  0
LINE
  8
F01_OUT
  5
685
 10
-54.6755
 20
-42.295583
 30
0.0
 11
-54.6755
 21
-42.04949
 31
0.0
1001
ACAD
1000
RTMaterial
1005
0
  0
LINE
  8
F01_OUT
  5
686
 10
-54.6755
 20
-42.54949
 30
0.0
 11
-54.6755
 21
-42.295583
 31
0.0
1001
ACAD
1000
RTMaterial
1005
0
  0
ARC
  8
F01_OUT
  5
687
 10
-57.8755
 20
-37.6
 30
0.0
 40
0.3
 50
0.0
 51
90.0
1001
ACAD
1000
RTMaterial
1005
0
  0
ARC
  8
F01_OUT
  5
688
 10
-53.8755
 20
-41.34949
 30
0.0
 40
0.2
 50
270.0
 51
0.0
1001
ACAD
1000
RTMaterial
1005
0
  0
ARC
  8
F01_OUT
  5
689
 10
-53.8755
 20
-42.34949
 30
0.0
 40
0.2
 50
270.0
 51
0.0
1001
ACAD
1000
RTMaterial
1005
0
  0
LINE
  8
F01_OUT
  5
68A
 10
-71.2705
 20
-19.8
 30
0.0
 11
-71.2705
 21
-11.81
 31
0.0
1001
ACAD
1000
RTMaterial
1005
0
  0
LINE
  8
F01_OUT
  5
68B
 10
-72.5705
 20
-20.8
 30
0.0
 11
-72.5705
 21
-11.81
 31
0.0
1001
ACAD
1000
RTMaterial
1005
0
  0
LINE
  8
F01_OUT
  5
68C
 10
-72.5705
 20
-11.81
 30
0.0
 11
-71.9205
 21
-11.81
 31
0.0
1001
ACAD
1000
RTMaterial
1005
0
  0
LINE
  8
F01_OUT
  5
68D
 10
-71.9205
 20
-11.81
 30
0.0
 11
-71.2705
 21
-11.81
 31
0.0
1001
ACAD
1000
RTMaterial
1005
0
  0
ARC
  8
F01_OUT
  5
68E
 10
-79.9755
 20
-69.5
 30
0.0
 40
0.3
 50
180.0
 51
270.0
1001
ACAD
1000
RTMaterial
1005
0
  0
ARC
  8
F01_OUT
  5
68F
 10
-91.568393
 20
-72.8
 30
0.0
 40
0.5
 50
225.0
 51
270.0
1001
ACAD
1000
RTMaterial
1005
0
  0
ARC
  8
F01_OUT
  5
690
 10
-60.3255
 20
-57.6
 30
0.0
 40
1.75
 50
0.0
 51
64.623066
1001
ACAD
1000
RTMaterial
1005
0
  0
ARC
  8
F01_OUT
  5
691
 10
-80.0755
 20
-71.8
 30
0.0
 40
1.5
 50
306.869898
 51
344.53399
1001
ACAD
1000
RTMaterial
1005
0
  0
ARC
  8
F01_OUT
  5
692
 10
-78.365095
 20
-71.2
 30
0.0
 40
1.0
 50
224.427004
 51
270.0
1001
ACAD
1000
RTMaterial
1005
0
  0
ARC
  8
F01_OUT
  5
693
 10
-78.365095
 20
-71.2
 30
0.0
 40
1.0
 50
195.0
 51
224.427004
1001
ACAD
1000
RTMaterial
1005
0
  0
ARC
  8
F01_OUT
  5
694
 10
-61.050451
 20
-71.5
 30
0.0
 40
0.7
 50
270.0
 51
345.0
1001
ACAD
1000
RTMaterial
1005
0
  0
ARC
  8
F01_OUT
  5
695
 10
-80.5755
 20
-71.9
 30
0.0
 40
0.3
 50
270.0
 51
0.0
1001
ACAD
1000
RTMaterial
1005
0
  0
ARC
  8
F01_OUT
  5
696
 10
-80.0755
 20
-71.8
 30
0.0
 40
1.5
 50
270.0
 51
306.869898
1001
ACAD
1000
RTMaterial
1005
0
  0
ARC
  8
F01_OUT
  5
697
 10
-60.3255
 20
-34.3
 30
0.0
 40
1.75
 50
295.376934
 51
0.0
1001
ACAD
1000
RTMaterial
1005
0
  0
ARC
  8
F01_OUT
  5
698
 10
-99.2755
 20
-71.5
 30
0.0
 40
0.3
 50
180.0
 51
270.0
1001
ACAD
1000
RTMaterial
1005
0
  0
ARC
  8
F01_OUT
  5
699
 10
-99.2755
 20
-65.5
 30
0.0
 40
0.3
 50
180.0
 51
259.569918
1001
ACAD
1000
RTMaterial
1005
0
  0
ARC
  8
F01_OUT
  5
69A
 10
-99.2755
 20
-65.5
 30
0.0
 40
0.3
 50
259.569918
 51
270.0
1001
ACAD
1000
RTMaterial
1005
0
  0
LINE
  8
F01_OUT
  5
69B
 10
-106.9255
 20
-58.0
 30
0.0
 11
-106.1255
 21
-57.2
 31
0.0
1001
ACAD
1000
RTMaterial
1005
0
  0
LINE
  8
F01_OUT
  5
69C
 10
-102.1755
 20
-56.2
 30
0.0
 11
-103.3755
 21
-56.2
 31
0.0
1001
ACAD
1000
RTMaterial
1005
0
  0
LINE
  8
F01_OUT
  5
69D
 10
-90.534635
 20
-65.8
 30
0.0
 11
-80.2755
 21
-65.8
 31
0.0
1001
ACAD
1000
RTMaterial
1005
0
  0
LINE
  8
F01_OUT
  5
69E
 10
-99.2755
 20
-65.8
 30
0.0
 11
-90.534635
 21
-65.8
 31
0.0
1001
ACAD
1000
RTMaterial
1005
0
  0
LINE
  8
F01_OUT
  5
69F
 10
-106.1255
 20
-57.2
 30
0.0
 11
-105.8255
 21
-56.9
 31
0.0
1001
ACAD
1000
RTMaterial
1005
0
  0
LINE
  8
F01_OUT
  5
6A0
 10
-99.5755
 20
-57.2
 30
0.0
 11
-105.7755
 21
-57.2
 31
0.0
1001
ACAD
1000
RTMaterial
1005
0
  0
LINE
  8
F01_OUT
  5
6A1
 10
-93.2755
 20
-71.8
 30
0.0
 11
-99.2755
 21
-71.8
 31
0.0
1001
ACAD
1000
RTMaterial
1005
0
  0
LINE
  8
F01_OUT
  5
6A2
 10
-107.9255
 20
-56.2
 30
0.0
 11
-107.9255
 21
-58.7
 31
0.0
1001
ACAD
1000
RTMaterial
1005
0
  0
LINE
  8
F01_OUT
  5
6A3
 10
-106.9255
 20
-58.7
 30
0.0
 11
-106.9255
 21
-58.0
 31
0.0
1001
ACAD
1000
RTMaterial
1005
0
  0
LINE
  8
F01_OUT
  5
6A4
 10
-104.4755
 20
-56.2
 30
0.0
 11
-106.8755
 21
-56.2
 31
0.0
1001
ACAD
1000
RTMaterial
1005
0
  0
LINE
  8
F01_OUT
  5
6A5
 10
-107.0755
 20
-56.2
 30
0.0
 11
-107.9255
 21
-56.2
 31
0.0
1001
ACAD
1000
RTMaterial
1005
0
  0
LINE
  8
F01_OUT
  5
6A6
 10
-106.8755
 20
-56.2
 30
0.0
 11
-107.0755
 21
-56.2
 31
0.0
1001
ACAD
1000
RTMaterial
1005
0
  0
LINE
  8
F01_OUT
  5
6A7
 10
-103.3755
 20
-56.2
 30
0.0
 11
-104.4755
 21
-56.2
 31
0.0
1001
ACAD
1000
RTMaterial
1005
0
  0
LINE
  8
F01_OUT
  5
6A8
 10
-101.6755
 20
-56.2
 30
0.0
 11
-102.1755
 21
-56.2
 31
0.0
1001
ACAD
1000
RTMaterial
1005
0
  0
LINE
  8
F01_OUT
  5
6A9
 10
-105.7755
 20
-57.2
 30
0.0
 11
-106.0755
 21
-57.2
 31
0.0
1001
ACAD
1000
RTMaterial
1005
0
  0
LINE
  8
F01_OUT
  5
6AA
 10
-106.0755
 20
-57.2
 30
0.0
 11
-106.1255
 21
-57.2
 31
0.0
1001
ACAD
1000
RTMaterial
1005
0
  0
LINE
  8
F01_OUT
  5
6AB
 10
-107.9255
 20
-58.7
 30
0.0
 11
-106.9255
 21
-58.7
 31
0.0
1001
ACAD
1000
RTMaterial
1005
0
  0
LINE
  8
F01_OUT
  5
6AC
 10
-80.5755
 20
-69.8
 30
0.0
 11
-80.292657
 21
-69.8
 31
0.0
1001
ACAD
1000
RTMaterial
1005
0
  0
LINE
  8
F01_OUT
  5
6AD
 10
-80.292657
 20
-69.8
 30
0.0
 11
-79.9755
 21
-69.8
 31
0.0
1001
ACAD
1000
RTMaterial
1005
0
  0
LINE
  8
F01_OUT
  5
6AE
 10
-80.5755
 20
-72.2
 30
0.0
 11
-90.507253
 21
-72.2
 31
0.0
1001
ACAD
1000
RTMaterial
1005
0
  0
LINE
  8
F01_OUT
  5
6AF
 10
-90.534635
 20
-71.9
 30
0.0
 11
-90.534635
 21
-65.8
 31
0.0
1001
ACAD
1000
RTMaterial
1005
0
  0
LINE
  8
F01_OUT
  5
6B0
 10
-80.2755
 20
-71.9
 30
0.0
 11
-80.2755
 21
-70.1
 31
0.0
1001
ACAD
1000
RTMaterial
1005
0
  0
LINE
  8
F01_OUT
  5
6B1
 10
-92.5755
 20
-72.2
 30
0.0
 11
-92.5755
 21
-71.9
 31
0.0
1001
ACAD
1000
RTMaterial
1005
0
  0
LINE
  8
F01_OUT
  5
6B2
 10
-92.5755
 20
-72.2
 30
0.0
 11
-90.507253
 21
-72.2
 31
0.0
1001
ACAD
1000
RTMaterial
1005
0
  0
LINE
  8
F01_OUT
  5
6B3
 10
-84.2755
 20
-72.2
 30
0.0
 11
-84.2755
 21
-73.0
 31
0.0
1001
ACAD
1000
RTMaterial
1005
0
  0
LINE
  8
F01_OUT
  5
6B4
 10
-82.6755
 20
-73.0
 30
0.0
 11
-82.6755
 21
-72.2
 31
0.0
1001
ACAD
1000
RTMaterial
1005
0
  0
LINE
  8
F01_OUT
  5
6B5
 10
-91.921947
 20
-73.153554
 30
0.0
 11
-92.0755
 21
-73.0
 31
0.0
1001
ACAD
1000
RTMaterial
1005
0
  0
LINE
  8
F01_OUT
  5
6B6
 10
-84.2755
 20
-73.3
 30
0.0
 11
-84.2755
 21
-73.0
 31
0.0
1001
ACAD
1000
RTMaterial
1005
0
  0
LINE
  8
F01_OUT
  5
6B7
 10
-84.2755
 20
-73.3
 30
0.0
 11
-91.568393
 21
-73.3
 31
0.0
1001
ACAD
1000
RTMaterial
1005
0
  0
LINE
  8
F01_OUT
  5
6B8
 10
-101.6755
 20
-56.2
 30
0.0
 11
-101.6755
 21
-55.7
 31
0.0
1001
ACAD
1000
RTMaterial
1005
0
  0
LINE
  8
F01_OUT
  5
6B9
 10
-67.6755
 20
-33.3
 30
0.0
 11
-68.1755
 21
-33.3
 31
0.0
1001
ACAD
1000
RTMaterial
1005
0
  0
LINE
  8
F01_OUT
  5
6BA
 10
-68.1755
 20
-33.3
 30
0.0
 11
-68.2755
 21
-33.3
 31
0.0
1001
ACAD
1000
RTMaterial
1005
0
  0
LINE
  8
F01_OUT
  5
6BB
 10
-59.615372
 20
-33.8
 30
0.0
 11
-59.615372
 21
-34.3
 31
0.0
1001
ACAD
1000
RTMaterial
1005
0
  0
LINE
  8
F01_OUT
  5
6BC
 10
-61.0755
 20
-33.3
 30
0.0
 11
-61.0755
 21
-33.8
 31
0.0
1001
ACAD
1000
RTMaterial
1005
0
  0
LINE
  8
F01_OUT
  5
6BD
 10
-61.0755
 20
-33.3
 30
0.0
 11
-61.2755
 21
-33.3
 31
0.0
1001
ACAD
1000
RTMaterial
1005
0
  0
LINE
  8
F01_OUT
  5
6BE
 10
-61.3755
 20
-33.3
 30
0.0
 11
-61.4755
 21
-33.3
 31
0.0
1001
ACAD
1000
RTMaterial
1005
0
  0
LINE
  8
F01_OUT
  5
6BF
 10
-61.4755
 20
-33.3
 30
0.0
 11
-61.5755
 21
-33.3
 31
0.0
1001
ACAD
1000
RTMaterial
1005
0
  0
LINE
  8
F01_OUT
  5
6C0
 10
-61.5755
 20
-33.3
 30
0.0
 11
-61.8755
 21
-33.3
 31
0.0
1001
ACAD
1000
RTMaterial
1005
0
  0
LINE
  8
F01_OUT
  5
6C1
 10
-62.5755
 20
-33.3
 30
0.0
 11
-63.7755
 21
-33.3
 31
0.0
1001
ACAD
1000
RTMaterial
1005
0
  0
LINE
  8
F01_OUT
  5
6C2
 10
-63.7755
 20
-33.3
 30
0.0
 11
-67.6755
 21
-33.3
 31
0.0
1001
ACAD
1000
RTMaterial
1005
0
  0
LINE
  8
F01_OUT
  5
6C3
 10
-61.8755
 20
-33.3
 30
0.0
 11
-62.5755
 21
-33.3
 31
0.0
1001
ACAD
1000
RTMaterial
1005
0
  0
LINE
  8
F01_OUT
  5
6C4
 10
-61.2755
 20
-33.3
 30
0.0
 11
-61.3755
 21
-33.3
 31
0.0
1001
ACAD
1000
RTMaterial
1005
0
  0
LINE
  8
F01_OUT
  5
6C5
 10
-59.615372
 20
-58.1
 30
0.0
 11
-59.8755
 21
-58.1
 31
0.0
1001
ACAD
1000
RTMaterial
1005
0
  0
LINE
  8
F01_OUT
  5
6C6
 10
-58.5755
 20
-57.6
 30
0.0
 11
-58.5755
 21
-58.1
 31
0.0
1001
ACAD
1000
RTMaterial
1005
0
  0
LINE
  8
F01_OUT
  5
6C7
 10
-59.5755
 20
-68.7
 30
0.0
 11
-60.374303
 21
-71.681173
 31
0.0
1001
ACAD
1000
RTMaterial
1005
0
  0
LINE
  8
F01_OUT
  5
6C8
 10
-79.331021
 20
-71.458819
 30
0.0
 11
-79.695115
 21
-70.1
 31
0.0
1001
ACAD
1000
RTMaterial
1005
0
  0
LINE
  8
F01_OUT
  5
6C9
 10
-80.2755
 20
-65.8
 30
0.0
 11
-79.9755
 21
-65.5
 31
0.0
1001
ACAD
1000
RTMaterial
1005
0
  0
LINE
  8
F01_OUT
  5
6CA
 10
-79.695115
 20
-70.1
 30
0.0
 11
-79.7755
 21
-69.8
 31
0.0
1001
ACAD
1000
RTMaterial
1005
0
  0
LINE
  8
F01_OUT
  5
6CB
 10
-80.2755
 20
-70.1
 30
0.0
 11
-80.2755
 21
-69.817157
 31
0.0
1001
ACAD
1000
RTMaterial
1005
0
  0
LINE
  8
F01_OUT
  5
6CC
 10
-80.2755
 20
-69.5
 30
0.0
 11
-80.2755
 21
-65.8
 31
0.0
1001
ACAD
1000
RTMaterial
1005
0
  0
LINE
  8
F01_OUT
  5
6CD
 10
-78.365095
 20
-72.2
 30
0.0
 11
-61.050451
 21
-72.2
 31
0.0
1001
ACAD
1000
RTMaterial
1005
0
  0
LINE
  8
F01_OUT
  5
6CE
 10
-79.7755
 20
-69.8
 30
0.0
 11
-79.855885
 21
-69.5
 31
0.0
1001
ACAD
1000
RTMaterial
1005
0
  0
LINE
  8
F01_OUT
  5
6CF
 10
-79.7755
 20
-69.8
 30
0.0
 11
-79.9755
 21
-69.8
 31
0.0
1001
ACAD
1000
RTMaterial
1005
0
  0
LINE
  8
F01_OUT
  5
6D0
 10
-61.0755
 20
-59.6
 30
0.0
 11
-59.8755
 21
-59.6
 31
0.0
1001
ACAD
1000
RTMaterial
1005
0
  0
LINE
  8
F01_OUT
  5
6D1
 10
-61.0755
 20
-58.1
 30
0.0
 11
-61.0755
 21
-59.6
 31
0.0
1001
ACAD
1000
RTMaterial
1005
0
  0
LINE
  8
F01_OUT
  5
6D2
 10
-61.0755
 20
-58.1
 30
0.0
 11
-59.8755
 21
-58.1
 31
0.0
1001
ACAD
1000
RTMaterial
1005
0
  0
LINE
  8
F01_OUT
  5
6D3
 10
-59.5755
 20
-67.4
 30
0.0
 11
-59.5755
 21
-68.7
 31
0.0
1001
ACAD
1000
RTMaterial
1005
0
  0
LINE
  8
F01_OUT
  5
6D4
 10
-59.5755
 20
-59.6
 30
0.0
 11
-59.8755
 21
-59.6
 31
0.0
1001
ACAD
1000
RTMaterial
1005
0
  0
LINE
  8
F01_OUT
  5
6D5
 10
-59.615372
 20
-57.6
 30
0.0
 11
-59.615372
 21
-58.1
 31
0.0
1001
ACAD
1000
RTMaterial
1005
0
  0
LINE
  8
F01_OUT
  5
6D6
 10
-80.5755
 20
-72.2
 30
0.0
 11
-78.365095
 21
-72.2
 31
0.0
1001
ACAD
1000
RTMaterial
1005
0
  0
LINE
  8
F01_OUT
  5
6D7
 10
-59.5755
 20
-68.7
 30
0.0
 11
-59.8755
 21
-68.660504
 31
0.0
1001
ACAD
1000
RTMaterial
1005
0
  0
LINE
  8
F01_OUT
  5
6D8
 10
-59.5755
 20
-59.4
 30
0.0
 11
-59.5755
 21
-59.6
 31
0.0
1001
ACAD
1000
RTMaterial
1005
0
  0
LINE
  8
F01_OUT
  5
6D9
 10
-58.5755
 20
-58.1
 30
0.0
 11
-59.615372
 21
-58.1
 31
0.0
1001
ACAD
1000
RTMaterial
1005
0
  0
LINE
  8
F01_OUT
  5
6DA
 10
-82.6755
 20
-73.3
 30
0.0
 11
-82.6755
 21
-73.0
 31
0.0
1001
ACAD
1000
RTMaterial
1005
0
  0
LINE
  8
F01_OUT
  5
6DB
 10
-80.0755
 20
-73.3
 30
0.0
 11
-82.6755
 21
-73.3
 31
0.0
1001
ACAD
1000
RTMaterial
1005
0
  0
LINE
  8
F01_OUT
  5
6DC
 10
-84.2755
 20
-73.3
 30
0.0
 11
-82.6755
 21
-73.3
 31
0.0
1001
ACAD
1000
RTMaterial
1005
0
  0
LINE
  8
F01_OUT
  5
6DD
 10
-90.488999
 20
-31.8
 30
0.0
 11
-95.0755
 21
-31.8
 31
0.0
1001
ACAD
1000
RTMaterial
1005
0
  0
LINE
  8
F01_OUT
  5
6DE
 10
-68.2755
 20
-33.3
 30
0.0
 11
-72.3755
 21
-33.3
 31
0.0
1001
ACAD
1000
RTMaterial
1005
0
  0
LINE
  8
F01_OUT
  5
6DF
 10
-79.2755
 20
-31.8
 30
0.0
 11
-83.2755
 21
-31.8
 31
0.0
1001
ACAD
1000
RTMaterial
1005
0
  0
LINE
  8
F01_OUT
  5
6E0
 10
-101.6755
 20
-35.65
 30
0.0
 11
-101.6755
 21
-31.9
 31
0.0
1001
ACAD
1000
RTMaterial
1005
0
  0
LINE
  8
F01_OUT
  5
6E1
 10
-87.2755
 20
-31.8
 30
0.0
 11
-90.488999
 21
-31.8
 31
0.0
1001
ACAD
1000
RTMaterial
1005
0
  0
LINE
  8
F01_OUT
  5
6E2
 10
-72.6755
 20
-31.9
 30
0.0
 11
-101.6755
 21
-31.9
 31
0.0
1001
ACAD
1000
RTMaterial
1005
0
  0
LINE
  8
F01_OUT
  5
6E3
 10
-98.6755
 20
-35.65
 30
0.0
 11
-101.6755
 21
-35.65
 31
0.0
1001
ACAD
1000
RTMaterial
1005
0
  0
LINE
  8
F01_OUT
  5
6E4
 10
-96.6755
 20
-31.8
 30
0.0
 11
-98.1755
 21
-31.8
 31
0.0
1001
ACAD
1000
RTMaterial
1005
0
  0
LINE
  8
F01_OUT
  5
6E5
 10
-95.0755
 20
-31.8
 30
0.0
 11
-96.6755
 21
-31.8
 31
0.0
1001
ACAD
1000
RTMaterial
1005
0
  0
LINE
  8
F01_OUT
  5
6E6
 10
-58.5755
 20
-33.8
 30
0.0
 11
-58.5755
 21
-34.3
 31
0.0
1001
ACAD
1000
RTMaterial
1005
0
  0
LINE
  8
F01_OUT
  5
6E7
 10
-59.8755
 20
-33.8
 30
0.0
 11
-61.0755
 21
-33.8
 31
0.0
1001
ACAD
1000
RTMaterial
1005
0
  0
LINE
  8
F01_OUT
  5
6E8
 10
-59.615372
 20
-33.8
 30
0.0
 11
-59.8755
 21
-33.8
 31
0.0
1001
ACAD
1000
RTMaterial
1005
0
  0
LINE
  8
F01_OUT
  5
6E9
 10
-58.5755
 20
-33.8
 30
0.0
 11
-59.615372
 21
-33.8
 31
0.0
1001
ACAD
1000
RTMaterial
1005
0
  0
LINE
  8
F01_OUT
  5
6EA
 10
-72.3755
 20
-33.3
 30
0.0
 11
-72.6755
 21
-33.3
 31
0.0
1001
ACAD
1000
RTMaterial
1005
0
  0
LINE
  8
F01_OUT
  5
6EB
 10
-101.6755
 20
-55.7
 30
0.0
 11
-101.6755
 21
-38.35
 31
0.0
1001
ACAD
1000
RTMaterial
1005
0
  0
LINE
  8
F01_OUT
  5
6EC
 10
-92.0755
 20
-73.0
 30
0.0
 11
-93.2755
 21
-71.8
 31
0.0
1001
ACAD
1000
RTMaterial
1005
0
  0
LINE
  8
F01_OUT
  5
6ED
 10
-99.5755
 20
-57.2
 30
0.0
 11
-99.2755
 21
-56.9
 31
0.0
1001
ACAD
1000
RTMaterial
1005
0
  0
LINE
  8
F01_OUT
  5
6EE
 10
-99.5755
 20
-57.2
 30
0.0
 11
-99.5755
 21
-65.5
 31
0.0
1001
ACAD
1000
RTMaterial
1005
0
  0
LINE
  8
F01_OUT
  5
6EF
 10
-99.5755
 20
-71.5
 30
0.0
 11
-99.5755
 21
-65.5
 31
0.0
1001
ACAD
1000
RTMaterial
1005
0
  0
LINE
  8
F01_OUT
  5
6F0
 10
-101.6755
 20
-38.35
 30
0.0
 11
-98.6755
 21
-38.35
 31
0.0
1001
ACAD
1000
RTMaterial
1005
0
  0
LINE
  8
F01_OUT
  5
6F1
 10
-92.5755
 20
-71.5
 30
0.0
 11
-92.5755
 21
-71.8
 31
0.0
1001
ACAD
1000
RTMaterial
1005
0
  0
LINE
  8
F01_OUT
  5
6F2
 10
-92.5755
 20
-71.8
 30
0.0
 11
-92.5755
 21
-71.9
 31
0.0
1001
ACAD
1000
RTMaterial
1005
0
  0
LINE
  8
F01_OUT
  5
6F3
 10
-92.5755
 20
-71.8
 30
0.0
 11
-93.2755
 21
-71.8
 31
0.0
1001
ACAD
1000
RTMaterial
1005
0
  0
LINE
  8
F01_OUT
  5
6F4
 10
-98.6755
 20
-38.35
 30
0.0
 11
-98.6755
 21
-35.65
 31
0.0
1001
ACAD
1000
RTMaterial
1005
0
  0
LINE
  8
F01_OUT
  5
6F5
 10
-72.6755
 20
-33.3
 30
0.0
 11
-72.6755
 21
-31.9
 31
0.0
1001
ACAD
1000
RTMaterial
1005
0
  0
ARC
  8
F01_OUT
  5
6F6
 10
-70.8755
 20
-31.1
 30
0.0
 40
0.3
 50
0.0
 51
90.0
1001
ACAD
1000
RTMaterial
1005
0
  0
ARC
  8
F01_OUT
  5
6F7
 10
-70.8755
 20
-26.5
 30
0.0
 40
0.3
 50
0.0
 51
90.0
1001
ACAD
1000
RTMaterial
1005
0
  0
ARC
  8
F01_OUT
  5
6F8
 10
-70.8755
 20
-24.3
 30
0.0
 40
0.3
 50
0.0
 51
90.0
1001
ACAD
1000
RTMaterial
1005
0
  0
ARC
  8
F01_OUT
  5
6F9
 10
-73.9755
 20
-24.3
 30
0.0
 40
0.3
 50
90.0
 51
180.0
1001
ACAD
1000
RTMaterial
1005
0
  0
ARC
  8
F01_OUT
  5
6FA
 10
-77.8755
 20
-25.9
 30
0.0
 40
0.3
 50
270.0
 51
0.0
1001
ACAD
1000
RTMaterial
1005
0
  0
ARC
  8
F01_OUT
  5
6FB
 10
-100.2755
 20
-29.3
 30
0.0
 40
1.5
 50
180.0
 51
270.0
1001
ACAD
1000
RTMaterial
1005
0
  0
ARC
  8
F01_OUT
  5
6FC
 10
-99.2755
 20
-29.3
 30
0.0
 40
1.5
 50
180.0
 51
270.0
1001
ACAD
1000
RTMaterial
1005
0
  0
ARC
  8
F01_OUT
  5
6FD
 10
-104.2755
 20
-29.3
 30
0.0
 40
1.5
 50
270.0
 51
0.0
1001
ACAD
1000
RTMaterial
1005
0
  0
ARC
  8
F01_OUT
  5
6FE
 10
-101.617827
 20
-29.3
 30
0.0
 40
1.5
 50
190.0
 51
207.638635
1001
ACAD
1000
RTMaterial
1005
0
  0
ARC
  8
F01_OUT
  5
6FF
 10
-104.9146
 20
-25.0
 30
0.0
 40
1.0
 50
10.0
 51
90.0
1001
ACAD
1000
RTMaterial
1005
0
  0
ARC
  8
F01_OUT
  5
700
 10
-101.2755
 20
-19.7
 30
0.0
 40
0.5
 50
0.0
 51
90.0
1001
ACAD
1000
RTMaterial
1005
0
  0
ARC
  8
F01_OUT
  5
701
 10
-103.068393
 20
-22.0
 30
0.0
 40
0.5
 50
225.0
 51
270.0
1001
ACAD
1000
RTMaterial
1005
0
  0
ARC
  8
F01_OUT
  5
702
 10
-83.36545
 20
-26.5
 30
0.0
 40
0.3
 50
90.0
 51
135.0
1001
ACAD
1000
RTMaterial
1005
0
  0
ARC
  8
F01_OUT
  5
703
 10
-107.7755
 20
-19.8
 30
0.0
 40
0.3
 50
180.0
 51
270.0
1001
ACAD
1000
RTMaterial
1005
0
  0
ARC
  8
F01_OUT
  5
704
 10
-107.3255
 20
-20.05
 30
0.0
 40
0.3
 50
189.594068
 51
328.633022
1001
ACAD
1000
RTMaterial
1005
0
  0
ARC
  8
F01_OUT
  5
705
 10
-107.7755
 20
-31.1
 30
0.0
 40
0.3
 50
90.0
 51
180.0
1001
ACAD
1000
RTMaterial
1005
0
  0
LINE
  8
F01_OUT
  5
706
 10
-88.089714
 20
-30.8
 30
0.0
 11
-83.577582
 21
-26.287868
 31
0.0
1001
ACAD
1000
RTMaterial
1005
0
  0
LINE
  8
F01_OUT
  5
707
 10
-101.9755
 20
-56.0
 30
0.0
 11
-101.6755
 21
-55.7
 31
0.0
1001
ACAD
1000
RTMaterial
1005
0
  0
LINE
  8
F01_OUT
  5
708
 10
-101.9755
 20
-56.0
 30
0.0
 11
-101.6755
 21
-56.0
 31
0.0
1001
ACAD
1000
RTMaterial
1005
0
  0
LINE
  8
F01_OUT
  5
709
 10
-102.1755
 20
-56.2
 30
0.0
 11
-101.9755
 21
-56.0
 31
0.0
1001
ACAD
1000
RTMaterial
1005
0
  0
LINE
  8
F01_OUT
  5
70A
 10
-70.5755
 20
-26.5
 30
0.0
 11
-70.5755
 21
-29.3
 31
0.0
1001
ACAD
1000
RTMaterial
1005
0
  0
LINE
  8
F01_OUT
  5
70B
 10
-70.5755
 20
-29.3
 30
0.0
 11
-70.5755
 21
-29.724264
 31
0.0
1001
ACAD
1000
RTMaterial
1005
0
  0
LINE
  8
F01_OUT
  5
70C
 10
-70.5755
 20
-26.5
 30
0.0
 11
-70.5755
 21
-24.3
 31
0.0
1001
ACAD
1000
RTMaterial
1005
0
  0
LINE
  8
F01_OUT
  5
70D
 10
-70.5755
 20
-29.724264
 30
0.0
 11
-70.5755
 21
-31.1
 31
0.0
1001
ACAD
1000
RTMaterial
1005
0
  0
LINE
  8
F01_OUT
  5
70E
 10
-70.5755
 20
-19.8
 30
0.0
 11
-70.5755
 21
-24.3
 31
0.0
1001
ACAD
1000
RTMaterial
1005
0
  0
LINE
  8
F01_OUT
  5
70F
 10
-70.8755
 20
-32.6
 30
0.0
 11
-70.5755
 21
-32.3
 31
0.0
1001
ACAD
1000
RTMaterial
1005
0
  0
LINE
  8
F01_OUT
  5
710
 10
-70.5755
 20
-32.3
 30
0.0
 11
-70.5755
 21
-31.1
 31
0.0
1001
ACAD
1000
RTMaterial
1005
0
  0
LINE
  8
F01_OUT
  5
711
 10
-70.5755
 20
-32.3
 30
0.0
 11
-67.999764
 21
-32.3
 31
0.0
1001
ACAD
1000
RTMaterial
1005
0
  0
LINE
  8
F01_OUT
  5
712
 10
-71.2705
 20
-19.8
 30
0.0
 11
-70.5755
 21
-19.8
 31
0.0
1001
ACAD
1000
RTMaterial
1005
0
  0
LINE
  8
F01_OUT
  5
713
 10
-67.5755
 20
-32.3
 30
0.0
 11
-70.5755
 21
-29.3
 31
0.0
1001
ACAD
1000
RTMaterial
1005
0
  0
LINE
  8
F01_OUT
  5
714
 10
-61.0755
 20
-32.3
 30
0.0
 11
-61.3755
 21
-32.6
 31
0.0
1001
ACAD
1000
RTMaterial
1005
0
  0
LINE
  8
F01_OUT
  5
715
 10
-59.9755
 20
-32.3
 30
0.0
 11
-61.0755
 21
-32.3
 31
0.0
1001
ACAD
1000
RTMaterial
1005
0
  0
LINE
  8
F01_OUT
  5
716
 10
-61.0755
 20
-32.3
 30
0.0
 11
-61.0755
 21
-33.3
 31
0.0
1001
ACAD
1000
RTMaterial
1005
0
  0
LINE
  8
F01_OUT
  5
717
 10
-59.6755
 20
-32.4
 30
0.0
 11
-59.6755
 21
-32.3
 31
0.0
1001
ACAD
1000
RTMaterial
1005
0
  0
LINE
  8
F01_OUT
  5
718
 10
-59.9755
 20
-32.3
 30
0.0
 11
-59.6755
 21
-32.3
 31
0.0
1001
ACAD
1000
RTMaterial
1005
0
  0
LINE
  8
F01_OUT
  5
719
 10
-67.5755
 20
-32.3
 30
0.0
 11
-61.0755
 21
-32.3
 31
0.0
1001
ACAD
1000
RTMaterial
1005
0
  0
LINE
  8
F01_OUT
  5
71A
 10
-67.999764
 20
-32.3
 30
0.0
 11
-67.5755
 21
-32.3
 31
0.0
1001
ACAD
1000
RTMaterial
1005
0
  0
LINE
  8
F01_OUT
  5
71B
 10
-73.5755
 20
-24.0
 30
0.0
 11
-73.5755
 21
-20.8
 31
0.0
1001
ACAD
1000
RTMaterial
1005
0
  0
LINE
  8
F01_OUT
  5
71C
 10
-73.5755
 20
-20.8
 30
0.0
 11
-72.5705
 21
-20.8
 31
0.0
1001
ACAD
1000
RTMaterial
1005
0
  0
LINE
  8
F01_OUT
  5
71D
 10
-77.2755
 20
-22.3
 30
0.0
 11
-74.2755
 21
-22.3
 31
0.0
1001
ACAD
1000
RTMaterial
1005
0
  0
LINE
  8
F01_OUT
  5
71E
 10
-74.2755
 20
-22.3
 30
0.0
 11
-74.2755
 21
-24.0
 31
0.0
1001
ACAD
1000
RTMaterial
1005
0
  0
LINE
  8
F01_OUT
  5
71F
 10
-73.9755
 20
-24.0
 30
0.0
 11
-73.5755
 21
-24.0
 31
0.0
1001
ACAD
1000
RTMaterial
1005
0
  0
LINE
  8
F01_OUT
  5
720
 10
-74.2755
 20
-24.0
 30
0.0
 11
-73.9755
 21
-24.0
 31
0.0
1001
ACAD
1000
RTMaterial
1005
0
  0
LINE
  8
F01_OUT
  5
721
 10
-74.2755
 20
-22.3
 30
0.0
 11
-73.5755
 21
-22.3
 31
0.0
1001
ACAD
1000
RTMaterial
1005
0
  0
LINE
  8
F01_OUT
  5
722
 10
-77.5755
 20
-22.3
 30
0.0
 11
-77.2755
 21
-22.3
 31
0.0
1001
ACAD
1000
RTMaterial
1005
0
  0
LINE
  8
F01_OUT
  5
723
 10
-71.9755
 20
-20.8
 30
0.0
 11
-71.9755
 21
-19.8
 31
0.0
1001
ACAD
1000
RTMaterial
1005
0
  0
LINE
  8
F01_OUT
  5
724
 10
-72.5705
 20
-20.8
 30
0.0
 11
-71.9755
 21
-20.8
 31
0.0
1001
ACAD
1000
RTMaterial
1005
0
  0
LINE
  8
F01_OUT
  5
725
 10
-74.2755
 20
-24.3
 30
0.0
 11
-74.2755
 21
-25.9
 31
0.0
1001
ACAD
1000
RTMaterial
1005
0
  0
LINE
  8
F01_OUT
  5
726
 10
-77.5755
 20
-25.9
 30
0.0
 11
-77.5755
 21
-22.3
 31
0.0
1001
ACAD
1000
RTMaterial
1005
0
  0
LINE
  8
F01_OUT
  5
727
 10
-74.2755
 20
-25.9
 30
0.0
 11
-74.2755
 21
-26.2
 31
0.0
1001
ACAD
1000
RTMaterial
1005
0
  0
LINE
  8
F01_OUT
  5
728
 10
-74.2755
 20
-26.2
 30
0.0
 11
-77.2755
 21
-26.2
 31
0.0
1001
ACAD
1000
RTMaterial
1005
0
  0
LINE
  8
F01_OUT
  5
729
 10
-73.9755
 20
-26.2
 30
0.0
 11
-74.2755
 21
-26.2
 31
0.0
1001
ACAD
1000
RTMaterial
1005
0
  0
LINE
  8
F01_OUT
  5
72A
 10
-73.5755
 20
-24.0
 30
0.0
 11
-70.8755
 21
-24.0
 31
0.0
1001
ACAD
1000
RTMaterial
1005
0
  0
LINE
  8
F01_OUT
  5
72B
 10
-71.9755
 20
-19.8
 30
0.0
 11
-71.2705
 21
-19.8
 31
0.0
1001
ACAD
1000
RTMaterial
1005
0
  0
LINE
  8
F01_OUT
  5
72C
 10
-70.8755
 20
-26.2
 30
0.0
 11
-73.9755
 21
-26.2
 31
0.0
1001
ACAD
1000
RTMaterial
1005
0
  0
LINE
  8
F01_OUT
  5
72D
 10
-72.3755
 20
-31.8
 30
0.0
 11
-79.2755
 21
-31.8
 31
0.0
1001
ACAD
1000
RTMaterial
1005
0
  0
LINE
  8
F01_OUT
  5
72E
 10
-108.0755
 20
-31.1
 30
0.0
 11
-108.0755
 21
-42.6
 31
0.0
1001
ACAD
1000
RTMaterial
1005
0
  0
LINE
  8
F01_OUT
  5
72F
 10
-83.2755
 20
-31.8
 30
0.0
 11
-87.2755
 21
-31.8
 31
0.0
1001
ACAD
1000
RTMaterial
1005
0
  0
LINE
  8
F01_OUT
  5
730
 10
-72.3755
 20
-33.3
 30
0.0
 11
-72.3755
 21
-31.8
 31
0.0
1001
ACAD
1000
RTMaterial
1005
0
  0
LINE
  8
F01_OUT
  5
731
 10
-101.6755
 20
-35.65
 30
0.0
 11
-101.6755
 21
-35.8
 31
0.0
1001
ACAD
1000
RTMaterial
1005
0
  0
LINE
  8
F01_OUT
  5
732
 10
-101.6755
 20
-35.8
 30
0.0
 11
-101.6755
 21
-36.3
 31
0.0
1001
ACAD
1000
RTMaterial
1005
0
  0
LINE
  8
F01_OUT
  5
733
 10
-101.6755
 20
-36.3
 30
0.0
 11
-101.6755
 21
-37.8
 31
0.0
1001
ACAD
1000
RTMaterial
1005
0
  0
LINE
  8
F01_OUT
  5
734
 10
-101.6755
 20
-37.8
 30
0.0
 11
-101.6755
 21
-38.35
 31
0.0
1001
ACAD
1000
RTMaterial
1005
0
  0
LINE
  8
F01_OUT
  5
735
 10
-108.0755
 20
-42.6
 30
0.0
 11
-108.5755
 21
-42.6
 31
0.0
1001
ACAD
1000
RTMaterial
1005
0
  0
LINE
  8
F01_OUT
  5
736
 10
-108.5755
 20
-42.6
 30
0.0
 11
-108.5755
 21
-43.4
 31
0.0
1001
ACAD
1000
RTMaterial
1005
0
  0
LINE
  8
F01_OUT
  5
737
 10
-108.0755
 20
-43.4
 30
0.0
 11
-108.5755
 21
-43.4
 31
0.0
1001
ACAD
1000
RTMaterial
1005
0
  0
LINE
  8
F01_OUT
  5
738
 10
-99.1755
 20
-36.3
 30
0.0
 11
-99.1755
 21
-37.8
 31
0.0
1001
ACAD
1000
RTMaterial
1005
0
  0
LINE
  8
F01_OUT
  5
739
 10
-99.1755
 20
-36.3
 30
0.0
 11
-99.1755
 21
-35.8
 31
0.0
1001
ACAD
1000
RTMaterial
1005
0
  0
LINE
  8
F01_OUT
  5
73A
 10
-101.6755
 20
-35.8
 30
0.0
 11
-99.1755
 21
-35.8
 31
0.0
1001
ACAD
1000
RTMaterial
1005
0
  0
LINE
  8
F01_OUT
  5
73B
 10
-99.1755
 20
-36.3
 30
0.0
 11
-101.6755
 21
-36.3
 31
0.0
1001
ACAD
1000
RTMaterial
1005
0
  0
LINE
  8
F01_OUT
  5
73C
 10
-101.6755
 20
-37.8
 30
0.0
 11
-99.1755
 21
-37.8
 31
0.0
1001
ACAD
1000
RTMaterial
1005
0
  0
LINE
  8
F01_OUT
  5
73D
 10
-107.9255
 20
-56.2
 30
0.0
 11
-108.0755
 21
-56.2
 31
0.0
1001
ACAD
1000
RTMaterial
1005
0
  0
LINE
  8
F01_OUT
  5
73E
 10
-108.0755
 20
-43.4
 30
0.0
 11
-108.0755
 21
-56.2
 31
0.0
1001
ACAD
1000
RTMaterial
1005
0
  0
LINE
  8
F01_OUT
  5
73F
 10
-103.140967
 20
-29.3
 30
0.0
 11
-103.929792
 21
-24.826352
 31
0.0
1001
ACAD
1000
RTMaterial
1005
0
  0
LINE
  8
F01_OUT
  5
740
 10
-88.089714
 20
-30.8
 30
0.0
 11
-98.1755
 21
-30.8
 31
0.0
1001
ACAD
1000
RTMaterial
1005
0
  0
LINE
  8
F01_OUT
  5
741
 10
-98.1755
 20
-31.1
 30
0.0
 11
-98.1755
 21
-31.8
 31
0.0
1001
ACAD
1000
RTMaterial
1005
0
  0
LINE
  8
F01_OUT
  5
742
 10
-87.66545
 20
-30.8
 30
0.0
 11
-88.089714
 21
-30.8
 31
0.0
1001
ACAD
1000
RTMaterial
1005
0
  0
LINE
  8
F01_OUT
  5
743
 10
-98.1755
 20
-31.1
 30
0.0
 11
-98.1755
 21
-30.8
 31
0.0
1001
ACAD
1000
RTMaterial
1005
0
  0
LINE
  8
F01_OUT
  5
744
 10
-101.6755
 20
-30.8
 30
0.0
 11
-101.6755
 21
-31.1
 31
0.0
1001
ACAD
1000
RTMaterial
1005
0
  0
LINE
  8
F01_OUT
  5
745
 10
-96.6755
 20
-31.8
 30
0.0
 11
-96.6755
 21
-31.9
 31
0.0
1001
ACAD
1000
RTMaterial
1005
0
  0
LINE
  8
F01_OUT
  5
746
 10
-101.6755
 20
-30.8
 30
0.0
 11
-100.2755
 21
-30.8
 31
0.0
1001
ACAD
1000
RTMaterial
1005
0
  0
LINE
  8
F01_OUT
  5
747
 10
-101.6755
 20
-31.1
 30
0.0
 11
-101.6755
 21
-31.9
 31
0.0
1001
ACAD
1000
RTMaterial
1005
0
  0
LINE
  8
F01_OUT
  5
748
 10
-95.0755
 20
-31.9
 30
0.0
 11
-95.0755
 21
-31.8
 31
0.0
1001
ACAD
1000
RTMaterial
1005
0
  0
LINE
  8
F01_OUT
  5
749
 10
-99.2755
 20
-30.8
 30
0.0
 11
-98.1755
 21
-30.8
 31
0.0
1001
ACAD
1000
RTMaterial
1005
0
  0
LINE
  8
F01_OUT
  5
74A
 10
-100.2755
 20
-30.8
 30
0.0
 11
-99.2755
 21
-30.8
 31
0.0
1001
ACAD
1000
RTMaterial
1005
0
  0
LINE
  8
F01_OUT
  5
74B
 10
-104.2755
 20
-30.8
 30
0.0
 11
-101.6755
 21
-30.8
 31
0.0
1001
ACAD
1000
RTMaterial
1005
0
  0
LINE
  8
F01_OUT
  5
74C
 10
-103.095039
 20
-29.560472
 30
0.0
 11
-103.140967
 21
-29.3
 31
0.0
1001
ACAD
1000
RTMaterial
1005
0
  0
LINE
  8
F01_OUT
  5
74D
 10
-102.7755
 20
-22.5
 30
0.0
 11
-103.068393
 21
-22.5
 31
0.0
1001
ACAD
1000
RTMaterial
1005
0
  0
LINE
  8
F01_OUT
  5
74E
 10
-103.7755
 20
-22.0
 30
0.0
 11
-103.7755
 21
-20.2
 31
0.0
1001
ACAD
1000
RTMaterial
1005
0
  0
LINE
  8
F01_OUT
  5
74F
 10
-101.7755
 20
-19.2
 30
0.0
 11
-101.2755
 21
-19.2
 31
0.0
1001
ACAD
1000
RTMaterial
1005
0
  0
LINE
  8
F01_OUT
  5
750
 10
-102.7755
 20
-19.2
 30
0.0
 11
-101.7755
 21
-19.2
 31
0.0
1001
ACAD
1000
RTMaterial
1005
0
  0
LINE
  8
F01_OUT
  5
751
 10
-101.7755
 20
-29.3
 30
0.0
 11
-101.7755
 21
-19.2
 31
0.0
1001
ACAD
1000
RTMaterial
1005
0
  0
LINE
  8
F01_OUT
  5
752
 10
-100.7755
 20
-19.7
 30
0.0
 11
-100.7755
 21
-29.3
 31
0.0
1001
ACAD
1000
RTMaterial
1005
0
  0
LINE
  8
F01_OUT
  5
753
 10
-103.421947
 20
-22.353554
 30
0.0
 11
-103.7755
 21
-22.0
 31
0.0
1001
ACAD
1000
RTMaterial
1005
0
  0
LINE
  8
F01_OUT
  5
754
 10
-102.7755
 20
-29.3
 30
0.0
 11
-102.7755
 21
-22.5
 31
0.0
1001
ACAD
1000
RTMaterial
1005
0
  0
LINE
  8
F01_OUT
  5
755
 10
-77.8755
 20
-26.2
 30
0.0
 11
-83.36545
 21
-26.2
 31
0.0
1001
ACAD
1000
RTMaterial
1005
0
  0
LINE
  8
F01_OUT
  5
756
 10
-77.2755
 20
-26.2
 30
0.0
 11
-77.8755
 21
-26.2
 31
0.0
1001
ACAD
1000
RTMaterial
1005
0
  0
LINE
  8
F01_OUT
  5
757
 10
-102.7755
 20
-19.2
 30
0.0
 11
-103.7755
 21
-20.2
 31
0.0
1001
ACAD
1000
RTMaterial
1005
0
  0
LINE
  8
F01_OUT
  5
758
 10
-107.029696
 20
-29.3
 30
0.0
 11
-107.029696
 21
-20.245804
 31
0.0
1001
ACAD
1000
RTMaterial
1005
0
  0
LINE
  8
F01_OUT
  5
759
 10
-107.621304
 20
-29.3
 30
0.0
 11
-107.621304
 21
-20.1
 31
0.0
1001
ACAD
1000
RTMaterial
1005
0
  0
LINE
  8
F01_OUT
  5
75A
 10
-107.069345
 20
-20.206155
 30
0.0
 11
-107.7755
 21
-19.5
 31
0.0
1001
ACAD
1000
RTMaterial
1005
0
  0
LINE
  8
F01_OUT
  5
75B
 10
-106.7755
 20
-20.5
 30
0.0
 11
-107.029696
 21
-20.245804
 31
0.0
1001
ACAD
1000
RTMaterial
1005
0
  0
LINE
  8
F01_OUT
  5
75C
 10
-108.0755
 20
-19.5
 30
0.0
 11
-108.0755
 21
-19.8
 31
0.0
1001
ACAD
1000
RTMaterial
1005
0
  0
LINE
  8
F01_OUT
  5
75D
 10
-107.029696
 20
-20.245804
 30
0.0
 11
-107.069345
 21
-20.206155
 31
0.0
1001
ACAD
1000
RTMaterial
1005
0
  0
LINE
  8
F01_OUT
  5
75E
 10
-107.7755
 20
-20.1
 30
0.0
 11
-107.621304
 21
-20.1
 31
0.0
1001
ACAD
1000
RTMaterial
1005
0
  0
LINE
  8
F01_OUT
  5
75F
 10
-106.7755
 20
-20.5
 30
0.0
 11
-106.7755
 21
-24.0
 31
0.0
1001
ACAD
1000
RTMaterial
1005
0
  0
LINE
  8
F01_OUT
  5
760
 10
-107.7755
 20
-30.8
 30
0.0
 11
-104.2755
 21
-30.8
 31
0.0
1001
ACAD
1000
RTMaterial
1005
0
  0
LINE
  8
F01_OUT
  5
761
 10
-108.0755
 20
-31.1
 30
0.0
 11
-108.0755
 21
-29.3
 31
0.0
1001
ACAD
1000
RTMaterial
1005
0
  0
LINE
  8
F01_OUT
  5
762
 10
-104.9146
 20
-24.0
 30
0.0
 11
-106.7755
 21
-24.0
 31
0.0
1001
ACAD
1000
RTMaterial
1005
0
  0
LINE
  8
F01_OUT
  5
763
 10
-108.0755
 20
-29.3
 30
0.0
 11
-108.0755
 21
-19.8
 31
0.0
1001
ACAD
1000
RTMaterial
1005
0
  0
LINE
  8
F01_OUT
  5
764
 10
-108.0755
 20
-19.5
 30
0.0
 11
-107.7755
 21
-19.5
 31
0.0
1001
ACAD
1000
RTMaterial
1005
0
  0
LINE
  8
F01_OUT
  5
765
 10
-70.8755
 20
-30.8
 30
0.0
 11
-87.66545
 21
-30.8
 31
0.0
1001
ACAD
1000
RTMaterial
1005
0
  0
LINE
  8
F08_IMG
  5
798
 10
-108.5755
 20
-24.0
 30
0.0
 11
-103.0755
 21
-24.0
 31
0.0
1001
ACAD
1000
RTMaterial
1005
0
  0
LINE
  8
F08_IMG
  5
799
 10
-108.5755
 20
-17.65
 30
0.0
 11
-108.5755
 21
-24.0
 31
0.0
1001
ACAD
1000
RTMaterial
1005
0
  0
LINE
  8
F08_IMG
  5
79A
 10
-102.5755
 20
20.5
 30
0.0
 11
-79.0755
 21
20.5
 31
0.0
1001
ACAD
1000
RTMaterial
1005
0
  0
LINE
  8
F08_IMG
  5
79B
 10
-59.5755
 20
11.5
 30
0.0
 11
-59.5755
 21
-11.5
 31
0.0
1001
ACAD
1000
RTMaterial
1005
0
  0
LINE
  8
F08_IMG
  5
79C
 10
-77.370351
 20
-24.0
 30
0.0
 11
-62.655147
 21
-24.0
 31
0.0
1001
ACAD
1000
RTMaterial
1005
0
  0
LINE
  8
F08_IMG
  5
79D
 10
-102.5755
 20
-20.5
 30
0.0
 11
-79.0755
 21
-20.5
 31
0.0
1001
ACAD
1000
RTMaterial
1005
0
  0
LINE
  8
F08_IMG
  5
79E
 10
-102.5755
 20
-20.5
 30
0.0
 11
-102.5755
 21
-23.5
 31
0.0
1001
ACAD
1000
RTMaterial
1005
0
  0
LINE
  8
F08_IMG
  5
79F
 10
22.5
 20
23.7
 30
0.0
 11
22.5
 21
-23.7
 31
0.0
1001
ACAD
1000
RTMaterial
1005
0
  0
LINE
  8
F08_IMG
  5
7A0
 10
-22.2
 20
-24.0
 30
0.0
 11
22.2
 21
-24.0
 31
0.0
1001
ACAD
1000
RTMaterial
1005
0
  0
LINE
  8
F08_IMG
  5
7A1
 10
-22.5
 20
23.7
 30
0.0
 11
-22.5
 21
-23.7
 31
0.0
1001
ACAD
1000
RTMaterial
1005
0
  0
LINE
  8
F08_IMG
  5
7A2
 10
-22.2
 20
24.0
 30
0.0
 11
22.2
 21
24.0
 31
0.0
1001
ACAD
1000
RTMaterial
1005
0
  0
LINE
  8
F08_IMG
  5
7A3
 10
-108.5755
 20
23.0
 30
0.0
 11
-108.5755
 21
20.5
 31
0.0
1001
ACAD
1000
RTMaterial
1005
0
  0
LINE
  8
F08_IMG
  5
7A4
 10
-103.0755
 20
24.0
 30
0.0
 11
-108.5755
 21
24.0
 31
0.0
1001
ACAD
1000
RTMaterial
1005
0
  0
LINE
  8
F08_IMG
  5
7A5
 10
-108.5755
 20
23.0
 30
0.0
 11
-108.5755
 21
24.0
 31
0.0
1001
ACAD
1000
RTMaterial
1005
0
  0
LINE
  8
F08_IMG
  5
7A6
 10
-108.5755
 20
20.5
 30
0.0
 11
-108.5755
 21
20.0
 31
0.0
1001
ACAD
1000
RTMaterial
1005
0
  0
LINE
  8
F08_IMG
  5
7A7
 10
-108.5755
 20
20.0
 30
0.0
 11
-108.5755
 21
15.7
 31
0.0
1001
ACAD
1000
RTMaterial
1005
0
  0
LINE
  8
F08_IMG
  5
7A8
 10
-108.5755
 20
15.7
 30
0.0
 11
-105.5755
 21
15.7
 31
0.0
1001
ACAD
1000
RTMaterial
1005
0
  0
LINE
  8
F08_IMG
  5
7A9
 10
-102.5755
 20
23.5
 30
0.0
 11
-102.5755
 21
20.5
 31
0.0
1001
ACAD
1000
RTMaterial
1005
0
  0
LINE
  8
F08_IMG
  5
7AA
 10
-105.5755
 20
15.7
 30
0.0
 11
-105.5755
 21
-16.45
 31
0.0
1001
ACAD
1000
RTMaterial
1005
0
  0
LINE
  8
F08_IMG
  5
7AB
 10
-108.5755
 20
-17.65
 30
0.0
 11
-107.7755
 21
-16.45
 31
0.0
1001
ACAD
1000
RTMaterial
1005
0
  0
LINE
  8
F08_IMG
  5
7AC
 10
-107.7755
 20
-16.45
 30
0.0
 11
-105.5755
 21
-16.45
 31
0.0
1001
ACAD
1000
RTMaterial
1005
0
  0
ARC
  8
F08_IMG
  5
7AD
 10
-103.0755
 20
-23.5
 30
0.0
 40
0.5
 50
270.0
 51
0.0
1001
ACAD
1000
RTMaterial
1005
0
  0
ARC
  8
F08_IMG
  5
7AE
 10
-103.0755
 20
23.5
 30
0.0
 40
0.5
 50
0.0
 51
90.0
1001
ACAD
1000
RTMaterial
1005
0
  0
LINE
  8
F08_IMG
  5
7AF
 10
-59.5755
 20
11.5
 30
0.0
 11
-60.063309
 21
11.5
 31
0.0
1001
ACAD
1000
RTMaterial
1005
0
  0
LINE
  8
F08_IMG
  5
7B0
 10
-59.5755
 20
-11.5
 30
0.0
 11
-60.063309
 21
-11.5
 31
0.0
1001
ACAD
1000
RTMaterial
1005
0
  0
ARC
  8
F08_IMG
  5
7B1
 10
-77.370351
 20
23.0
 30
0.0
 40
1.0
 50
90.0
 51
135.572996
1001
ACAD
1000
RTMaterial
1005
0
  0
ARC
  8
F08_IMG
  5
7B2
 10
-77.370351
 20
23.0
 30
0.0
 40
1.0
 50
135.572996
 51
165.0
1001
ACAD
1000
RTMaterial
1005
0
  0
ARC
  8
F08_IMG
  5
7B3
 10
-61.8755
 20
20.368347
 30
0.0
 40
1.0
 50
7.565094
 51
15.0
1001
ACAD
1000
RTMaterial
1005
0
  0
ARC
  8
F08_IMG
  5
7B4
 10
-62.580649
 20
23.0
 30
0.0
 40
1.0
 50
44.427004
 51
90.0
1001
ACAD
1000
RTMaterial
1005
0
  0
ARC
  8
F08_IMG
  5
7B5
 10
-62.580649
 20
23.0
 30
0.0
 40
1.0
 50
15.0
 51
44.427004
1001
ACAD
1000
RTMaterial
1005
0
  0
ARC
  8
F08_IMG
  5
7B6
 10
-62.580649
 20
-23.0
 30
0.0
 40
1.0
 50
315.572996
 51
345.0
1001
ACAD
1000
RTMaterial
1005
0
  0
ARC
  8
F08_IMG
  5
7B7
 10
-61.8755
 20
-20.368348
 30
0.0
 40
1.0
 50
345.0
 51
352.434906
1001
ACAD
1000
RTMaterial
1005
0
  0
ARC
  8
F08_IMG
  5
7B8
 10
-77.370351
 20
-23.0
 30
0.0
 40
1.0
 50
195.0
 51
270.0
1001
ACAD
1000
RTMaterial
1005
0
  0
ARC
  8
F08_IMG
  5
7B9
 10
-62.580649
 20
-23.0
 30
0.0
 40
1.0
 50
270.0
 51
315.572996
1001
ACAD
1000
RTMaterial
1005
0
  0
LINE
  8
F08_IMG
  5
7BA
 10
-78.336277
 20
23.258819
 30
0.0
 11
-79.0755
 21
20.5
 31
0.0
1001
ACAD
1000
RTMaterial
1005
0
  0
LINE
  8
F08_IMG
  5
7BB
 10
-61.614723
 20
23.258819
 30
0.0
 11
-60.909574
 21
20.627166
 31
0.0
1001
ACAD
1000
RTMaterial
1005
0
  0
LINE
  8
F08_IMG
  5
7BC
 10
-77.370351
 20
24.0
 30
0.0
 11
-62.580649
 21
24.0
 31
0.0
1001
ACAD
1000
RTMaterial
1005
0
  0
LINE
  8
F08_IMG
  5
7BD
 10
-79.0755
 20
-20.5
 30
0.0
 11
-78.336277
 21
-23.258819
 31
0.0
1001
ACAD
1000
RTMaterial
1005
0
  0
LINE
  8
F08_IMG
  5
7BE
 10
-60.909574
 20
-20.627167
 30
0.0
 11
-61.614723
 21
-23.258819
 31
0.0
1001
ACAD
1000
RTMaterial
1005
0
  0
LINE
  8
F08_IMG
  5
7BF
 10
-60.884204
 20
-20.5
 30
0.0
 11
-60.063309
 21
-20.5
 31
0.0
1001
ACAD
1000
RTMaterial
1005
0
  0
ARC
  8
F08_IMG
  5
7C0
 10
-80.5755
 20
-16.0
 30
0.0
 40
21.0
 50
347.626375
 51
350.682527
1001
ACAD
1000
RTMaterial
1005
0
  0
ARC
  8
F08_IMG
  5
7C1
 10
-80.5755
 20
-16.0
 30
0.0
 40
21.0
 50
350.682527
 51
12.373625
1001
ACAD
1000
RTMaterial
1005
0
  0
LINE
  8
F08_IMG
  5
7C2
 10
-60.063309
 20
20.5
 30
0.0
 11
-60.884204
 21
20.5
 31
0.0
1001
ACAD
1000
RTMaterial
1005
0
  0
ARC
  8
F08_IMG
  5
7C3
 10
-80.5755
 20
16.0
 30
0.0
 40
21.0
 50
9.317473
 51
12.373625
1001
ACAD
1000
RTMaterial
1005
0
  0
ARC
  8
F08_IMG
  5
7C4
 10
-80.5755
 20
16.0
 30
0.0
 40
21.0
 50
347.626375
 51
9.317473
1001
ACAD
1000
RTMaterial
1005
0
  0
ARC
  8
F08_IMG
  5
7C5
 10
22.2
 20
23.7
 30
0.0
 40
0.3
 50
0.0
 51
90.0
1001
ACAD
1000
RTMaterial
1005
0
  0
ARC
  8
F08_IMG
  5
7C6
 10
-22.2
 20
23.7
 30
0.0
 40
0.3
 50
90.0
 51
180.0
1001
ACAD
1000
RTMaterial
1005
0
  0
ARC
  8
F08_IMG
  5
7C7
 10
22.2
 20
-23.7
 30
0.0
 40
0.3
 50
270.0
 51
0.0
1001
ACAD
1000
RTMaterial
1005
0
  0
ARC
  8
F08_IMG
  5
7C8
 10
-22.2
 20
-23.7
 30
0.0
 40
0.3
 50
180.0
 51
270.0
1001
ACAD
1000
RTMaterial
1005
0
  0
LINE
  8
F03_CNT
  5
864
 10
-25.580947
 20
0.0
 30
0.0
 11
26.188153
 21
0.0
 31
0.0
1001
ACAD
1000
RTMaterial
1005
0
  0
LINE
  8
F03_CNT
  5
865
 10
0.0
 20
28.835892
 30
0.0
 11
0.0
 21
-28.353477
 31
0.0
1001
ACAD
1000
RTMaterial
1005
0
  0
ARC
  8
F05_PRO
  5
11DE
 10
-94.995928
 20
-210.819708
 30
0.0
 40
3.78
 50
182.729155
 51
279.960292
1001
ACAD
1000
ASC_BOUNDS
1002
{
1070
    19
1002
}
  0
ARC
  8
F05_PRO
  5
11DF
 10
-102.463253
 20
-206.994692
 30
0.0
 40
1.575
 50
90.0
 51
168.003101
  0
LINE
  8
F05_PRO
  5
11E0
 10
-102.936951
 20
-214.419692
 30
0.0
 11
-102.210201
 21
-210.999692
 31
0.0
  0
LINE
  8
F05_PRO
  5
11E1
 10
-105.651233
 20
-214.419692
 30
0.0
 11
-104.003853
 21
-206.667315
 31
0.0
  0
LINE
  8
F05_PRO
  5
11E2
 10
-105.651233
 20
-214.419692
 30
0.0
 11
-102.936951
 21
-214.419692
 31
0.0
  0
ARC
  8
F05_PRO
  5
11E3
 10
-93.479966
 20
-209.022604
 30
0.0
 40
3.191557
 50
2.961866
 51
93.426847
  0
ARC
  8
F05_PRO
  5
11E4
 10
-93.465419
 20
-208.985174
 30
0.0
 40
3.745468
 50
1.499529
 51
100.57959
1001
ACAD
1000
ASC_BOUNDS
1002
{
1070
    19
1002
}
  0
LINE
  8
F05_PRO
  5
11E5
 10
-101.755026
 20
-208.857692
 30
0.0
 11
-101.589799
 21
-208.080156
 31
0.0
  0
ARC
  8
F05_PRO
  5
11E6
 10
-93.308
 20
-210.885518
 30
0.0
 40
5.449335
 50
144.533818
 51
158.153358
  0
POLYLINE
  8
F05_PRO
  5
11E7
 66
     1
 10
0.0
 20
0.0
 30
0.0
 70
   128
  0
VERTEX
  8
F05_PRO
  5
165C
 10
-93.670738
 20
-205.836754
 30
0.0
  0
VERTEX
  8
F05_PRO
  5
165D
 10
-94.445301
 20
-205.948307
 30
0.0
  0
VERTEX
  8
F05_PRO
  5
165E
 10
-95.205879
 20
-206.21869
 30
0.0
  0
VERTEX
  8
F05_PRO
  5
165F
 10
-95.927863
 20
-206.639157
 30
0.0
  0
VERTEX
  8
F05_PRO
  5
1660
 10
-96.587893
 20
-207.196103
 30
0.0
  0
VERTEX
  8
F05_PRO
  5
1661
 10
-97.164616
 20
-207.871507
 30
0.0
  0
VERTEX
  8
F05_PRO
  5
1662
 10
-97.63937
 20
-208.643519
 30
0.0
  0
VERTEX
  8
F05_PRO
  5
1663
 10
-97.996797
 20
-209.487159
 30
0.0
  0
SEQEND
  8
F05_PRO
  5
1664
  0
LINE
  8
F05_PRO
  5
11E8
 10
-96.948081
 20
-209.505692
 30
0.0
 11
-89.721233
 21
-209.505692
 31
0.0
  0
LINE
  8
F05_PRO
  5
11E9
 10
-96.810642
 20
-208.857692
 30
0.0
 11
-90.292673
 21
-208.857692
 31
0.0
  0
ARC
  8
F05_PRO
  5
11EA
 10
-95.365525
 20
-209.036745
 30
0.0
 40
5.051744
 50
280.279158
 51
339.332945
1001
ACAD
1000
ASC_BOUNDS
1002
{
1070
    19
1002
}
  0
ARC
  8
F05_PRO
  5
11EB
 10
-95.207105
 20
-209.178318
 30
0.0
 40
5.433708
 50
279.159834
 51
342.417868
1001
ACAD
1000
ASC_BOUNDS
1002
{
1070
    19
1002
}
  0
LINE
  8
F05_PRO
  5
11EC
 10
-96.810642
 20
-208.857692
 30
0.0
 11
-96.948081
 21
-209.505692
 31
0.0
  0
LINE
  8
F05_PRO
  5
11ED
 10
-101.755026
 20
-208.857692
 30
0.0
 11
-98.365982
 21
-208.857692
 31
0.0
  0
POLYLINE
  8
F05_PRO
  5
11EE
 66
     1
 10
0.0
 20
0.0
 30
0.0
 70
   128
  0
VERTEX
  8
F05_PRO
  5
1665
 10
-97.996797
 20
-209.487159
 30
0.0
  0
VERTEX
  8
F05_PRO
  5
1666
 10
-98.166281
 20
-210.258156
 30
0.0
  0
VERTEX
  8
F05_PRO
  5
1667
 10
-98.20258
 20
-211.0111
 30
0.0
  0
SEQEND
  8
F05_PRO
  5
1668
  0
LINE
  8
F05_PRO
  5
11EF
 10
-102.210201
 20
-210.999692
 30
0.0
 11
-98.771641
 21
-210.999692
 31
0.0
  0
ARC
  8
F05_PRO
  5
11F0
 10
-94.841511
 20
-210.648955
 30
0.0
 40
3.379597
 50
186.002385
 51
276.412304
1001
ACAD
1000
ASC_BOUNDS
1002
{
1070
    19
1002
}
  0
LINE
  8
F05_PRO
  5
11F1
 10
-90.027233
 20
-210.819692
 30
0.0
 11
-90.638875
 21
-210.819692
 31
0.0
  0
LINE
  8
F05_PRO
  5
11F2
 10
-89.721233
 20
-209.505692
 30
0.0
 11
-89.721233
 21
-208.88716
 31
0.0
  0
LINE
  8
F05_PRO
  5
11F3
 10
-96.808733
 20
-205.419692
 30
0.0
 11
-97.105733
 21
-206.866245
 31
0.0
  0
ARC
  8
F05_PRO
  5
11F4
 10
-93.415429
 20
-210.267937
 30
0.0
 40
5.01895
 50
98.442625
 51
137.3304
1001
ACAD
1000
ASC_BOUNDS
1002
{
1070
    19
1002
}
  0
LINE
  8
F05_PRO
  5
11F5
 10
-101.149628
 20
-207.723692
 30
0.0
 11
-97.746256
 21
-207.723692
 31
0.0
  0
ARC
  8
F05_PRO
  5
11F6
 10
-101.149628
 20
-208.173692
 30
0.0
 40
0.45
 50
90.0
 51
168.003101
  0
LINE
  8
F05_PRO
  5
11F7
 10
-102.463253
 20
-205.419692
 30
0.0
 11
-96.808733
 21
-205.419692
 31
0.0
  0
TEXT
  8
F05_PRO
  5
11F8
 10
-62.491681
 20
-214.586939
 30
0.0
 40
4.0
  1
TK12
 41
0.8
  7
FSTD1
  0
TEXT
  8
F05_PRO
  5
11F9
 10
-80.717549
 20
-214.586939
 30
0.0
 40
4.0
  1
Type
  7
FSTD1
  0
TEXT
  8
F05_PRO
  5
11FA
 10
46.452135
 20
-214.960915
 30
0.0
 40
2.0
  1
図面番号
  7
FSTD1
  0
LINE
  8
F05_PRO
  5
11FB
 10
-4.480138
 20
-211.905963
 30
0.0
 11
71.512262
 21
-211.905963
 31
0.0
  0
LINE
  8
F05_PRO
  5
11FC
 10
-4.480138
 20
-215.905563
 30
0.0
 11
71.512262
 21
-215.905563
 31
0.0
  0
LINE
  8
F05_PRO
  5
11FD
 10
-4.480138
 20
-219.905163
 30
0.0
 11
71.512262
 21
-219.905163
 31
0.0
  0
LINE
  8
F05_PRO
  5
11FE
 10
-4.480138
 20
-223.904763
 30
0.0
 11
71.512262
 21
-223.904763
 31
0.0
  0
LINE
  8
F05_PRO
  5
11FF
 10
-4.480138
 20
-227.904363
 30
0.0
 11
71.512262
 21
-227.904363
 31
0.0
  0
LINE
  8
F05_PRO
  5
1200
 10
19.517462
 20
-211.905963
 30
0.0
 11
19.517462
 21
-227.904363
 31
0.0
  0
LINE
  8
F05_PRO
  5
1201
 10
39.515462
 20
-211.905963
 30
0.0
 11
39.515462
 21
-227.904363
 31
0.0
  0
LINE
  8
F05_PRO
  5
1202
 10
-4.480138
 20
-211.905963
 30
0.0
 11
-4.480138
 21
-227.904363
 31
0.0
  0
LINE
  8
F05_PRO
  5
1203
 10
3.519062
 20
-211.905963
 30
0.0
 11
3.519062
 21
-227.904363
 31
0.0
  0
TEXT
  8
F05_PRO
  5
1204
 10
-2.532822
 20
-222.799327
 30
0.0
 40
2.0
  1
変更
  7
FSTD1
  0
TEXT
  8
F05_PRO
  5
1205
 10
-2.532822
 20
-219.021206
 30
0.0
 40
2.0
  1
作成
  7
FSTD1
  0
TEXT
  8
F05_PRO
  5
1206
 10
20.88192
 20
-219.021206
 30
0.0
 40
2.0
  1
TK12
  7
FSTD1
  0
TEXT
  8
F05_PRO
  5
1207
 10
26.405995
 20
-214.960915
 30
0.0
 40
2.0
  1
ﾌｧｲﾙ名
  7
FSTD1
  0
TEXT
  8
F05_PRO
  5
1208
 10
5.59381
 20
-219.021206
 30
0.0
 40
2.0
  1
2011-10
  7
FSTD1
  0
TEXT
  8
F05_PRO
  5
1209
 10
9.090505
 20
-214.960915
 30
0.0
 40
2.0
  1
日付
  7
FSTD1
  0
LINE
  8
F05_PRO
  5
120A
 10
71.512262
 20
-211.905963
 30
0.0
 11
71.512262
 21
-227.904363
 31
0.0
  0
LINE
  8
F05_PRO
  5
120B
 10
63.513062
 20
-211.905963
 30
0.0
 11
63.513062
 21
-227.904363
 31
0.0
  0
TEXT
  8
F05_PRO
  5
120C
 10
65.600035
 20
-214.960915
 30
0.0
 40
2.0
  1
変更
  7
FSTD1
  0
TEXT
  8
F05_PRO
  5
121F
 10
-44.326375
 20
-105.492528
 30
0.0
 40
3.0
  1
主端子
  7
FSTD1
  0
TEXT
  8
F05_PRO
  5
1220
 10
-43.925143
 20
-109.646025
 30
0.0
 40
3.0
  1
M3.5
  7
FSTD1
  0
TEXT
  8
F05_PRO
  5
1221
 10
43.437944
 20
-78.497255
 30
0.0
 40
3.0
  1
補助端子
  7
FSTD1
  0
TEXT
  8
F05_PRO
  5
1222
 10
43.437944
 20
-82.956002
 30
0.0
 40
3.0
  1
M3.5(NC)
  7
FSTD1
  0
TEXT
  8
F05_PRO
  5
1230
 10
40.87992
 20
-219.021206
 30
0.0
 40
2.0
  1
F218 03 01(5)
  7
FSTD1
  0
DIMENSION
  8
F02_DIM
  5
12E5
  2
*D5
 10
-71.2755
 20
-82.606128
 30
0.0
 11
-89.9255
 21
-80.106128
 31
0.0
  1
37
 13
-108.5755
 23
-24.0
 33
0.0
 14
-71.2755
 24
-68.5
 34
0.0
  3
FSTD1
1001
ACAD
1000
DSTYLE
1002
{
1070
    40
1040
1.0
1002
}
  0
DIMENSION
  8
F02_DIM
  5
12FD
  2
*D4
 10
-58.0755
 20
-91.600479
 30
0.0
 11
-83.3255
 21
-89.100479
 31
0.0
  1
50
 13
-108.5755
 23
-24.0
 33
0.0
 14
-58.0755
 24
-63.5
 34
0.0
  3
FSTD1
1001
ACAD
1000
DSTYLE
1002
{
1070
    40
1040
1.0
1002
}
  0
DIMENSION
  8
F02_DIM
  5
1317
  2
*D6
 10
-53.6755
 20
-91.600479
 30
0.0
 11
-55.8755
 21
-89.100479
 31
0.0
  1
A
 13
-58.0755
 23
-64.5
 33
0.0
 14
-53.6755
 24
-42.34949
 34
0.0
  3
FSTD1
1001
ACAD
1000
DSTYLE
1002
{
1070
    40
1040
1.0
1002
}
  0
LINE
  8
F03_CNT
  5
1328
 10
17.8
 20
-43.330036
 30
0.0
 11
17.8
 21
-36.869964
 31
0.0
  0
LINE
  8
F03_CNT
  5
1329
 10
14.569964
 20
-40.1
 30
0.0
 11
21.030036
 21
-40.1
 31
0.0
  0
DIMENSION
  8
F02_DIM
  5
1337
  2
*D3
 10
-30.343547
 20
0.0
 30
0.0
 11
-32.843547
 21
-20.05
 31
0.0
  1
40
 13
14.569964
 23
-40.1
 33
0.0
 14
-25.580947
 24
0.0
 34
0.0
 50
90.0
  3
FSTD1
1001
ACAD
1000
DSTYLE
1002
{
1070
    40
1040
1.0
1002
}
  0
LINE
  8
F03_CNT
  5
1343
 10
-17.6
 20
-59.9
 30
0.0
 11
-17.6
 21
-67.15451
 31
0.0
  0
LINE
  8
F03_CNT
  5
1344
 10
-13.977761
 20
-63.5
 30
0.0
 11
-21.317597
 21
-63.5
 31
0.0
  0
LINE
  8
F03_CNT
  5
1345
 10
-8.8
 20
-59.9
 30
0.0
 11
-8.8
 21
-67.15451
 31
0.0
  0
LINE
  8
F03_CNT
  5
1346
 10
-5.177761
 20
-63.5
 30
0.0
 11
-12.517597
 21
-63.5
 31
0.0
  0
LINE
  8
F03_CNT
  5
1347
 10
0.0
 20
-59.9
 30
0.0
 11
0.0
 21
-67.15451
 31
0.0
  0
LINE
  8
F03_CNT
  5
1348
 10
3.622239
 20
-63.5
 30
0.0
 11
-3.717597
 21
-63.5
 31
0.0
  0
DIMENSION
  8
F02_DIM
  5
1357
  2
*D2
 10
-22.5
 20
-83.878116
 30
0.0
 11
-32.5
 21
-83.878116
 31
0.0
 70
   128
 13
-17.6
 23
-73.022787
 33
0.0
 14
-22.5
 24
-71.603528
 34
0.0
  3
FSTD1
1001
ACAD
1000
DSTYLE
1002
{
1070
    40
1040
1.0
1002
}
  0
DIMENSION
  8
F02_DIM
  5
1364
  2
*D15
 10
-8.8
 20
-92.420308
 30
0.0
 11
-13.053461
 21
-92.420308
 31
0.0
 70
   128
  1
8.7
 13
-17.6
 23
-73.022787
 33
0.0
 14
-8.8
 24
-73.022787
 34
0.0
  3
FSTD1
1001
ACAD
1000
DSTYLE
1002
{
1070
    40
1040
1.0
1002
}
  0
DIMENSION
  8
F02_DIM
  5
137E
  2
*D14
 10
3.9
 20
-80.699878
 30
0.0
 11
0.0
 21
-80.699878
 31
0.0
 70
   128
  1
7.7
 13
-3.9
 23
-71.681173
 33
0.0
 14
3.9
 24
-71.681173
 34
0.0
  3
FSTD1
1001
ACAD
1000
DSTYLE
1002
{
1070
    40
1040
1.0
1002
}
  0
DIMENSION
  8
F02_DIM
  5
13A5
  2
*D8
 10
17.8
 20
-102.030988
 30
0.0
 11
-2.35
 21
-99.530988
 31
0.0
  1
40.5
 13
-22.5
 23
-71.603528
 33
0.0
 14
17.8
 24
-43.330036
 34
0.0
  3
FSTD1
1001
ACAD
1000
DSTYLE
1002
{
1070
    40
1040
1.0
1002
}
  0
DIMENSION
  8
F02_DIM
  5
13BD
  2
*D7
 10
22.5
 20
-110.105472
 30
0.0
 11
0.0
 21
-107.605472
 31
0.0
 13
-22.5
 23
-71.603528
 33
0.0
 14
22.5
 24
-73.0
 34
0.0
  3
FSTD1
1001
ACAD
1000
DSTYLE
1002
{
1070
    40
1040
1.0
1002
}
  0
TEXT
  8
F05_PRO
  5
13BE
 10
-92.264412
 20
-129.286514
 30
0.0
 40
3.0
  1
A寸法
  7
FSTD1
  0
TEXT
  8
F05_PRO
  5
13BF
 10
-92.264412
 20
-132.886514
 30
0.0
 40
3.0
  1
・手動リセット状態 : 5mm
  7
FSTD1
  0
TEXT
  8
F05_PRO
  5
13C0
 10
-92.264412
 20
-136.486514
 30
0.0
 40
3.0
  1
・自動リセット状態 : 2mm
  7
FSTD1
  0
LINE
  8
F05_PRO
  5
13C1
 10
-44.640308
 20
-110.944387
 30
0.0
 11
-33.983347
 21
-110.944387
 31
0.0
  0
INSERT
  8
F05_PRO
  5
13C2
  2
_DOTSMALL
 10
-19.073459
 20
-66.452782
 30
0.0
 41
3.0
 42
3.0
 50
71.473129
 43
3.0
1001
ACAD
1000
DSTYLE
1002
{
1070
    40
1040
1.0
1002
}
  0
LINE
  8
F05_PRO
  5
14D6
 10
-19.073459
 20
-66.452782
 30
0.0
 11
-33.983347
 21
-110.944387
 31
0.0
1001
ACAD
1000
R13OBJECT
1002
{
1005
13C2
1002
}
  0
INSERT
  8
F05_PRO
  5
13C3
  2
_DOTSMALL
 10
-10.273459
 20
-66.452782
 30
0.0
 41
3.0
 42
3.0
 50
61.946534
 43
3.0
1001
ACAD
1000
DSTYLE
1002
{
1070
    40
1040
1.0
1002
}
  0
LINE
  8
F05_PRO
  5
14D7
 10
-10.273459
 20
-66.452782
 30
0.0
 11
-33.983347
 21
-110.944387
 31
0.0
1001
ACAD
1000
R13OBJECT
1002
{
1005
13C3
1002
}
  0
INSERT
  8
F05_PRO
  5
13C4
  2
_DOTSMALL
 10
-1.473459
 20
-66.452782
 30
0.0
 41
3.0
 42
3.0
 50
53.844508
 43
3.0
1001
ACAD
1000
DSTYLE
1002
{
1070
    40
1040
1.0
1002
}
  0
LINE
  8
F05_PRO
  5
14D8
 10
-1.473459
 20
-66.452782
 30
0.0
 11
-33.983347
 21
-110.944387
 31
0.0
1001
ACAD
1000
R13OBJECT
1002
{
1005
13C4
1002
}
  0
TEXT
  8
F05_PRO
  5
13EA
 10
51.494004
 20
-97.867639
 30
0.0
 40
3.0
  1
M3.5(NO)
  7
FSTD1
  0
TEXT
  8
F05_PRO
  5
13EB
 10
51.494004
 20
-93.408892
 30
0.0
 40
3.0
  1
補助端子
  7
FSTD1
  0
LINE
  8
F05_PRO
  5
13EC
 10
41.783632
 20
-84.711132
 30
0.0
 11
64.644234
 21
-84.711132
 31
0.0
  0
LINE
  8
F05_PRO
  5
13ED
 10
49.839692
 20
-100.271102
 30
0.0
 11
72.700294
 21
-100.271102
 31
0.0
  0
INSERT
  8
F05_PRO
  5
13EE
  2
_DOTSMALL
 10
10.501702
 20
-56.972179
 30
0.0
 41
3.0
 42
3.0
 50
138.435297
 43
3.0
1001
ACAD
1000
DSTYLE
1002
{
1070
    40
1040
1.0
1002
}
  0
LINE
  8
F05_PRO
  5
14D9
 10
10.501702
 20
-56.972179
 30
0.0
 11
41.783632
 21
-84.711132
 31
0.0
1001
ACAD
1000
R13OBJECT
1002
{
1005
13EE
1002
}
  0
INSERT
  8
F05_PRO
  5
13EF
  2
_DOTSMALL
 10
19.374216
 20
-56.441051
 30
0.0
 41
3.0
 42
3.0
 50
128.403518
 43
3.0
1001
ACAD
1000
DSTYLE
1002
{
1070
    40
1040
1.0
1002
}
  0
LINE
  8
F05_PRO
  5
14DA
 10
19.374216
 20
-56.441051
 30
0.0
 11
41.783632
 21
-84.711132
 31
0.0
1001
ACAD
1000
R13OBJECT
1002
{
1005
13EF
1002
}
  0
INSERT
  8
F05_PRO
  5
13F0
  2
_DOTSMALL
 10
18.745
 20
-66.75
 30
0.0
 41
3.0
 42
3.0
 50
132.849477
 43
3.0
1001
ACAD
1000
DSTYLE
1002
{
1070
    40
1040
1.0
1002
}
  0
LINE
  8
F05_PRO
  5
14DB
 10
18.745
 20
-66.75
 30
0.0
 11
49.839692
 21
-100.271102
 31
0.0
1001
ACAD
1000
R13OBJECT
1002
{
1005
13F0
1002
}
  0
INSERT
  8
F05_PRO
  5
13F1
  2
_DOTSMALL
 10
9.945
 20
-66.75
 30
0.0
 41
3.0
 42
3.0
 50
139.961691
 43
3.0
1001
ACAD
1000
DSTYLE
1002
{
1070
    40
1040
1.0
1002
}
  0
LINE
  8
F05_PRO
  5
14DC
 10
9.945
 20
-66.75
 30
0.0
 11
49.839692
 21
-100.271102
 31
0.0
1001
ACAD
1000
R13OBJECT
1002
{
1005
13F1
1002
}
  0
TEXT
  8
F05_PRO
  5
13F2
 10
29.362862
 20
-54.871355
 30
0.0
 40
3.0
  1
トリップ表示
 41
0.7
  7
FSTD2
  0
TEXT
  8
F05_PRO
  5
13F3
 10
29.362862
 20
-58.471355
 30
0.0
 40
3.0
  1
（シーケンスチェック）
 41
0.7
  7
FSTD2
  0
LINE
  8
F05_PRO
  5
13F4
 10
28.719293
 20
-59.889673
 30
0.0
 11
56.650159
 21
-59.889673
 31
0.0
  0
INSERT
  8
F05_PRO
  5
13F5
  2
_DOTSMALL
 10
17.00635
 20
-52.061685
 30
0.0
 41
3.0
 42
3.0
 50
146.24442
 43
3.0
1001
ACAD
1000
DSTYLE
1002
{
1070
    40
1040
1.0
1002
}
  0
LINE
  8
F05_PRO
  5
14DD
 10
17.00635
 20
-52.061685
 30
0.0
 11
28.719293
 21
-59.889673
 31
0.0
1001
ACAD
1000
R13OBJECT
1002
{
1005
13F5
1002
}
  0
DIMENSION
  8
F02_DIM
  5
1402
  2
*D13
 10
57.46768
 20
-29.6
 30
0.0
 11
54.96768
 21
-34.85
 31
0.0
 13
21.030036
 23
-40.1
 33
0.0
 14
21.1
 24
-29.6
 34
0.0
 50
90.0
  3
FSTD1
1001
ACAD
1000
DSTYLE
1002
{
1070
    40
1040
1.0
1002
}
  0
DIMENSION
  8
F02_DIM
  5
140F
  2
*D12
 10
65.525135
 20
-63.5
 30
0.0
 11
63.025135
 21
-46.55
 31
0.0
  1
34
 13
21.1
 23
-29.6
 33
0.0
 14
3.622239
 24
-63.5
 34
0.0
 50
90.0
  3
FSTD1
1001
ACAD
1000
DSTYLE
1002
{
1070
    40
1040
1.0
1002
}
  0
DIMENSION
  8
F02_DIM
  5
1427
  2
*D11
 10
73.670146
 20
-73.3
 30
0.0
 11
71.170146
 21
-51.45
 31
0.0
  1
44
 13
21.1
 23
-29.6
 33
0.0
 14
22.2
 24
-73.3
 34
0.0
 50
90.0
  3
FSTD1
1001
ACAD
1000
DSTYLE
1002
{
1070
    40
1040
1.0
1002
}
  0
DIMENSION
  8
F02_DIM
  5
143F
  2
*D10
 10
73.670146
 20
-11.81
 30
0.0
 11
71.170146
 21
-20.705
 31
0.0
  1
17.5
 13
21.1
 23
-29.6
 33
0.0
 14
3.25
 24
-11.81
 34
0.0
 50
90.0
  3
FSTD1
1001
ACAD
1000
DSTYLE
1002
{
1070
    40
1040
1.0
1002
}
  0
DIMENSION
  8
F02_DIM
  5
1457
  2
*D9
 10
82.544814
 20
-73.3
 30
0.0
 11
80.044814
 21
-24.65
 31
0.0
  1
(97.5)
 13
22.2
 23
24.0
 33
0.0
 14
22.2
 24
-73.3
 34
0.0
 50
90.0
  3
FSTD1
1001
ACAD
1000
DSTYLE
1002
{
1070
    40
1040
1.0
1002
}
  0
TEXT
  8
F05_PRO
  5
1463
 10
40.654512
 20
-4.831325
 30
0.0
 40
3.0
  1
リセット棒
 41
0.7
  7
FSTD2
  0
LINE
  8
F05_PRO
  5
1464
 10
39.547256
 20
-6.065614
 30
0.0
 11
54.347537
 21
-6.065614
 31
0.0
  0
INSERT
  8
F05_PRO
  5
1465
  2
_DOTSMALL
 10
18.6803
 20
-38.881351
 30
0.0
 41
3.0
 42
3.0
 50
237.548428
 43
3.0
1001
ACAD
1000
DSTYLE
1002
{
1070
    40
1040
1.0
1002
}
  0
LINE
  8
F05_PRO
  5
14DE
 10
18.6803
 20
-38.881351
 30
0.0
 11
39.547256
 21
-6.065614
 31
0.0
1001
ACAD
1000
R13OBJECT
1002
{
1005
1465
1002
}
  0
TEXT
  8
F05_PRO
  5
1479
 10
-19.504447
 20
-72.91159
 30
0.0
 40
2.0
  1
2T1
 41
0.7
  7
FSTD2
  0
TEXT
  8
F05_PRO
  5
147A
 10
-10.685061
 20
-72.974627
 30
0.0
 40
2.0
  1
4T2
 41
0.7
  7
FSTD2
  0
TEXT
  8
F05_PRO
  5
147B
 10
-1.798797
 20
-72.900523
 30
0.0
 40
2.0
  1
6T3
 41
0.7
  7
FSTD2
  0
TEXT
  8
F05_PRO
  5
147C
 10
10.106501
 20
-63.296656
 30
0.0
 40
2.0
  1
95
 41
0.7
  7
FSTD2
  0
TEXT
  8
F05_PRO
  5
147D
 10
18.946057
 20
-63.295883
 30
0.0
 40
2.0
  1
96
 41
0.7
  7
FSTD2
  0
TEXT
  8
F05_PRO
  5
147E
 10
10.106501
 20
-71.927677
 30
0.0
 40
2.0
  1
98
 41
0.7
  7
FSTD2
  0
TEXT
  8
F05_PRO
  5
147F
 10
18.843866
 20
-71.926904
 30
0.0
 40
2.0
  1
97
 41
0.7
  7
FSTD2
  0
TEXT
  8
F05_PRO
  5
1566
 10
5.59381
 20
-223.020806
 30
0.0
 40
2.0
  1
2012-08
  7
FSTD1
  0
TEXT
  8
F05_PRO
  5
1567
 10
20.88192
 20
-223.020806
 30
0.0
 40
2.0
  1
TK12
  7
FSTD1
  0
TEXT
  8
F05_PRO
  5
1568
 10
40.87992
 20
-223.020806
 30
0.0
 40
2.0
  1
F218 03 01(5)    a
  7
FSTD1
  0
ENDSEC
  0
EOF
