  0
SECTION
  2
HEADER
  9
$ACADVER
  1
AC1009
  9
$INSBASE
 10
0.0
 20
0.0
 30
0.0
  9
$EXTMIN
 10
-11.6388
 20
-80.468833
 30
0.0
  9
$EXTMAX
 10
620.160826
 20
360.887027
 30
0.0
  9
$LIMMIN
 10
-35.142922
 20
-92.414667
  9
$LIMMAX
 10
648.638902
 20
393.807332
  9
$ORTHOMODE
 70
     1
  9
$REGENMODE
 70
     1
  9
$FILLMODE
 70
     1
  9
$QTEXTMODE
 70
     0
  9
$MIRRTEXT
 70
     1
  9
$DRAGMODE
 70
     2
  9
$LTSCALE
 40
4.5
  9
$OSMODE
 70
   673
  9
$ATTMODE
 70
     1
  9
$TEXTSIZE
 40
8.0
  9
$TRACEWID
 40
1.0
  9
$TEXTSTYLE
  7
STANDARD
  9
$CLAYER
  8
FF
  9
$CELTYPE
  6
BYLAYER
  9
$CECOLOR
 62
   256
  9
$DIMSCALE
 40
1.0
  9
$DIMASZ
 40
8.0
  9
$DIMEXO
 40
2.6667
  9
$DIMDLI
 40
0.38
  9
$DIMRND
 40
0.0
  9
$DIMDLE
 40
0.0
  9
$DIMEXE
 40
2.6667
  9
$DIMTP
 40
0.0
  9
$DIMTM
 40
0.0
  9
$DIMTXT
 40
8.0
  9
$DIMCEN
 40
0.09
  9
$DIMTSZ
 40
0.0
  9
$DIMTOL
 70
     0
  9
$DIMLIM
 70
     0
  9
$DIMTIH
 70
     0
  9
$DIMTOH
 70
     0
  9
$DIMSE1
 70
     0
  9
$DIMSE2
 70
     0
  9
$DIMTAD
 70
     1
  9
$DIMZIN
 70
     0
  9
$DIMBLK
  1

  9
$DIMASO
 70
     1
  9
$DIMSHO
 70
     1
  9
$DIMPOST
  1

  9
$DIMAPOST
  1

  9
$DIMALT
 70
     0
  9
$DIMALTD
 70
     2
  9
$DIMALTF
 40
25.4
  9
$DIMLFAC
 40
1.0
  9
$DIMTOFL
 70
     1
  9
$DIMTVP
 40
0.0
  9
$DIMTIX
 70
     0
  9
$DIMSOXD
 70
     0
  9
$DIMSAH
 70
     1
  9
$DIMBLK1
  1
_OPEN
  9
$DIMBLK2
  1
_OPEN
  9
$DIMSTYLE
  2
FSTD3
  9
$DIMCLRD
 70
     0
  9
$DIMCLRE
 70
     0
  9
$DIMCLRT
 70
     0
  9
$DIMTFAC
 40
1.0
  9
$DIMGAP
 40
-2.6667
  9
$LUNITS
 70
     2
  9
$LUPREC
 70
     4
  9
$SKETCHINC
 40
1.0
  9
$FILLETRAD
 40
10.0
  9
$AUNITS
 70
     0
  9
$AUPREC
 70
     0
  9
$MENU
  1
acad
  9
$ELEVATION
 40
0.0
  9
$PELEVATION
 40
0.0
  9
$THICKNESS
 40
0.0
  9
$LIMCHECK
 70
     0
  9
$BLIPMODE
 70
     0
  9
$CHAMFERA
 40
10.0
  9
$CHAMFERB
 40
10.0
  9
$SKPOLY
 70
     0
  9
$TDCREATE
 40
2452132.386377893
  9
$TDUPDATE
 40
2453741.441157014
  9
$TDINDWG
 40
0.0103313889
  9
$TDUSRTIMER
 40
0.0103313889
  9
$USRTIMER
 70
     1
  9
$ANGBASE
 50
0.0
  9
$ANGDIR
 70
     0
  9
$PDMODE
 70
     0
  9
$PDSIZE
 40
0.0
  9
$PLINEWID
 40
0.0
  9
$COORDS
 70
     1
  9
$SPLFRAME
 70
     0
  9
$SPLINETYPE
 70
     6
  9
$SPLINESEGS
 70
     8
  9
$ATTDIA
 70
     0
  9
$ATTREQ
 70
     1
  9
$HANDLING
 70
     1
  9
$HANDSEED
  5
EA6
  9
$SURFTAB1
 70
     6
  9
$SURFTAB2
 70
     6
  9
$SURFTYPE
 70
     6
  9
$SURFU
 70
     6
  9
$SURFV
 70
     6
  9
$UCSNAME
  2

  9
$UCSORG
 10
0.0
 20
0.0
 30
0.0
  9
$UCSXDIR
 10
1.0
 20
0.0
 30
0.0
  9
$UCSYDIR
 10
0.0
 20
1.0
 30
0.0
  9
$PUCSNAME
  2

  9
$PUCSORG
 10
0.0
 20
0.0
 30
0.0
  9
$PUCSXDIR
 10
1.0
 20
0.0
 30
0.0
  9
$PUCSYDIR
 10
0.0
 20
1.0
 30
0.0
  9
$USERI1
 70
     0
  9
$USERI2
 70
     0
  9
$USERI3
 70
     0
  9
$USERI4
 70
     0
  9
$USERI5
 70
     0
  9
$USERR1
 40
0.0
  9
$USERR2
 40
0.0
  9
$USERR3
 40
0.0
  9
$USERR4
 40
0.0
  9
$USERR5
 40
0.0
  9
$WORLDVIEW
 70
     1
  9
$SHADEDGE
 70
     3
  9
$SHADEDIF
 70
    70
  9
$TILEMODE
 70
     1
  9
$MAXACTVP
 70
    16
  9
$PINSBASE
 10
0.0
 20
0.0
 30
0.0
  9
$PLIMCHECK
 70
     0
  9
$PEXTMIN
 10
1.000000E+20
 20
1.000000E+20
 30
1.000000E+20
  9
$PEXTMAX
 10
-1.000000E+20
 20
-1.000000E+20
 30
-1.000000E+20
  9
$PLIMMIN
 10
0.0
 20
0.0
  9
$PLIMMAX
 10
420.0
 20
297.0
  9
$UNITMODE
 70
     0
  9
$VISRETAIN
 70
     1
  9
$PLINEGEN
 70
     0
  9
$PSLTSCALE
 70
     1
  9
$TREEDEPTH
 70
  3020
  9
$DWGCODEPAGE
  3
dos932
  0
ENDSEC
  0
SECTION
  2
TABLES
  0
TABLE
  2
VPORT
 70
     2
  0
VPORT
  2
*ACTIVE
 70
     0
 10
0.0
 20
0.0
 11
1.0
 21
1.0
 12
383.186302
 22
191.15956
 13
0.0
 23
0.0
 14
10.0
 24
10.0
 15
10.0
 25
10.0
 16
0.0
 26
0.0
 36
1.0
 17
0.0
 27
0.0
 37
0.0
 40
567.148455
 41
1.475202
 42
50.0
 43
0.0
 44
0.0
 50
0.0
 51
0.0
 71
     0
 72
   100
 73
     1
 74
     1
 75
     0
 76
     0
 77
     0
 78
     0
  0
ENDTAB
  0
TABLE
  2
LTYPE
 70
     3
  0
LTYPE
  2
CONTINUOUS
 70
    64
  3
Solid line
 72
    65
 73
     0
 40
0.0
  0
LTYPE
  2
CENTER
 70
    64
  3
CENTER
 72
    65
 73
     4
 40
2.0
 49
1.25
 49
-0.25
 49
0.25
 49
-0.25
  0
LTYPE
  2
PHANTOM
 70
    64
  3
PHANTOM
 72
    65
 73
     6
 40
2.5
 49
1.25
 49
-0.25
 49
0.25
 49
-0.25
 49
0.25
 49
-0.25
  0
ENDTAB
  0
TABLE
  2
LAYER
 70
    14
  0
LAYER
  2
0
 70
    64
 62
     7
  6
CONTINUOUS
  0
LAYER
  2
FF
 70
    64
 62
     4
  6
CONTINUOUS
  0
LAYER
  2
DEFPOINTS
 70
    64
 62
     7
  6
CONTINUOUS
  0
LAYER
  2
33
 70
    64
 62
     6
  6
CONTINUOUS
  0
LAYER
  2
34
 70
    64
 62
     3
  6
CONTINUOUS
  0
LAYER
  2
38
 70
    64
 62
     6
  6
CENTER
  0
LAYER
  2
15
 70
    64
 62
     6
  6
CONTINUOUS
  0
LAYER
  2
16
 70
    64
 62
     3
  6
CONTINUOUS
  0
LAYER
  2
17
 70
    64
 62
     2
  6
CONTINUOUS
  0
LAYER
  2
1A
 70
    64
 62
     6
  6
CENTER
  0
LAYER
  2
0B
 70
    64
 62
     6
  6
CONTINUOUS
  0
LAYER
  2
0C
 70
    64
 62
     3
  6
CONTINUOUS
  0
LAYER
  2
0D
 70
    64
 62
     2
  6
CONTINUOUS
  0
LAYER
  2
10
 70
    64
 62
     6
  6
CENTER
  0
ENDTAB
  0
TABLE
  2
STYLE
 70
     1
  0
STYLE
  2
STANDARD
 70
    64
 40
0.0
 41
1.0
 50
0.0
 71
     0
 42
8.0
  3
txt.shx
  4
bigfont.shx
  0
ENDTAB
  0
TABLE
  2
VIEW
 70
     0
  0
ENDTAB
  0
TABLE
  2
UCS
 70
     0
  0
ENDTAB
  0
TABLE
  2
APPID
 70
     1
  0
APPID
  2
ACAD
 70
    64
  0
ENDTAB
  0
TABLE
  2
DIMSTYLE
 70
     4
  0
DIMSTYLE
  2
STANDARD
 70
     0
  3

  4

  5

  6

  7

 40
1.0
 41
2.5
 42
0.625
 43
3.75
 44
1.25
 45
0.0
 46
0.0
 47
0.0
 48
0.0
140
2.5
141
2.5
142
0.0
143
0.0394
144
1.0
145
0.0
146
1.0
147
0.625
 71
     0
 72
     0
 73
     0
 74
     0
 75
     0
 76
     0
 77
     1
 78
     8
170
     0
171
     4
172
     1
173
     0
174
     0
175
     0
176
     0
177
     0
178
     0
  0
DIMSTYLE
  2
FSTD1
 70
    64
  3

  4

  5

  6
_OPEN
  7
_OPEN
 40
1.0
 41
8.0
 42
2.6667
 43
0.38
 44
2.6667
 45
0.0
 46
0.0
 47
0.0
 48
0.0
140
8.0
141
0.09
142
0.0
143
25.4
144
1.0
145
0.0
146
1.0
147
2.6667
 71
     0
 72
     0
 73
     0
 74
     0
 75
     0
 76
     0
 77
     1
 78
     0
170
     0
171
     2
172
     1
173
     1
174
     0
175
     0
176
     0
177
     0
178
     0
  0
DIMSTYLE
  2
FSTD2
 70
    64
  3

  4

  5

  6
_OPEN
  7
_OPEN
 40
1.0
 41
8.0
 42
2.6667
 43
0.38
 44
2.6667
 45
0.0
 46
0.0
 47
0.0
 48
0.0
140
8.0
141
0.09
142
0.0
143
25.4
144
1.0
145
0.0
146
1.0
147
2.6667
 71
     0
 72
     0
 73
     0
 74
     0
 75
     0
 76
     0
 77
     1
 78
     0
170
     0
171
     2
172
     1
173
     1
174
     0
175
     0
176
     0
177
     0
178
     0
  0
DIMSTYLE
  2
FSTD3
 70
    64
  3

  4

  5

  6
_OPEN
  7
_OPEN
 40
1.0
 41
8.0
 42
2.6667
 43
0.38
 44
2.6667
 45
0.0
 46
0.0
 47
0.0
 48
0.0
140
8.0
141
0.09
142
0.0
143
25.4
144
1.0
145
0.0
146
1.0
147
-2.6667
 71
     0
 72
     0
 73
     0
 74
     0
 75
     0
 76
     0
 77
     1
 78
     0
170
     0
171
     2
172
     1
173
     1
174
     0
175
     0
176
     0
177
     0
178
     0
  0
ENDTAB
  0
ENDSEC
  0
SECTION
  2
BLOCKS
  0
BLOCK
  8
0
  5
C2
  2
_OPEN
 70
    64
 10
0.0
 20
0.0
 30
0.0
  3
_OPEN
  0
LINE
  8
0
  6
BYBLOCK
 62
     0
  5
BF
 10
-1.0
 20
0.166667
 30
0.0
 11
0.0
 21
0.0
 31
0.0
  0
LINE
  8
0
  6
BYBLOCK
 62
     0
  5
C0
 10
0.0
 20
0.0
 30
0.0
 11
-1.0
 21
-0.166667
 31
0.0
  0
LINE
  8
0
  6
BYBLOCK
 62
     0
  5
C1
 10
0.0
 20
0.0
 30
0.0
 11
-1.0
 21
0.0
 31
0.0
  0
ENDBLK
  8
0
  5
C3
  0
BLOCK
  8
0
  5
B50
  2
*D1
 70
    65
 10
0.0
 20
0.0
 30
0.0
  3
*D1
  0
LINE
  8
0
  6
BYBLOCK
 62
     0
  5
B51
 10
327.6472
 20
265.273727
 30
0.0
 11
327.6472
 21
293.341727
 31
0.0
  0
LINE
  8
0
  6
BYBLOCK
 62
     0
  5
B52
 10
295.6472
 20
265.273727
 30
0.0
 11
295.6472
 21
293.341727
 31
0.0
  0
LINE
  8
0
  6
BYBLOCK
 62
     0
  5
B53
 10
319.6472
 20
290.675027
 30
0.0
 11
303.6472
 21
290.675027
 31
0.0
  0
INSERT
  8
0
  6
BYBLOCK
 62
     0
  5
B54
  2
_OPEN
 10
327.6472
 20
290.675027
 30
0.0
 41
8.0
 42
8.0
 43
8.0
  0
INSERT
  8
0
  6
BYBLOCK
 62
     0
  5
B55
  2
_OPEN
 10
295.6472
 20
290.675027
 30
0.0
 41
8.0
 42
8.0
 50
180.0
 43
8.0
  0
TEXT
  8
0
  6
BYBLOCK
 62
     0
  5
B56
 10
304.980533
 20
293.341727
 30
0.0
 40
8.0
  1
32
  0
POINT
  8
DEFPOINTS
  6
BYBLOCK
 62
     0
  5
B57
 10
327.6472
 20
262.607027
 30
0.0
  0
POINT
  8
DEFPOINTS
  6
BYBLOCK
 62
     0
  5
B58
 10
295.6472
 20
262.607027
 30
0.0
  0
POINT
  8
DEFPOINTS
  6
BYBLOCK
 62
     0
  5
B59
 10
295.6472
 20
290.675027
 30
0.0
  0
ENDBLK
  8
0
  5
B5A
  0
BLOCK
  8
0
  5
B7E
  2
*D2
 70
    65
 10
0.0
 20
0.0
 30
0.0
  3
*D2
  0
LINE
  8
0
  6
BYBLOCK
 62
     0
  5
B7F
 10
285.6472
 20
126.940327
 30
0.0
 11
285.6472
 21
97.884327
 31
0.0
  0
LINE
  8
0
  6
BYBLOCK
 62
     0
  5
B80
 10
305.6472
 20
126.940327
 30
0.0
 11
305.6472
 21
97.884327
 31
0.0
  0
LINE
  8
0
  6
BYBLOCK
 62
     0
  5
B81
 10
277.6472
 20
100.551027
 30
0.0
 11
269.6472
 21
100.551027
 31
0.0
  0
LINE
  8
0
  6
BYBLOCK
 62
     0
  5
B82
 10
313.6472
 20
100.551027
 30
0.0
 11
321.6472
 21
100.551027
 31
0.0
  0
LINE
  8
0
  6
BYBLOCK
 62
     0
  5
B83
 10
285.6472
 20
100.551027
 30
0.0
 11
305.6472
 21
100.551027
 31
0.0
  0
INSERT
  8
0
  6
BYBLOCK
 62
     0
  5
B84
  2
_OPEN
 10
285.6472
 20
100.551027
 30
0.0
 41
8.0
 42
8.0
 43
8.0
  0
INSERT
  8
0
  6
BYBLOCK
 62
     0
  5
B85
  2
_OPEN
 10
305.6472
 20
100.551027
 30
0.0
 41
8.0
 42
8.0
 50
180.0
 43
8.0
  0
TEXT
  8
0
  6
BYBLOCK
 62
     0
  5
B86
 10
289.6472
 20
103.217727
 30
0.0
 40
8.0
  1
20
  0
POINT
  8
DEFPOINTS
  6
BYBLOCK
 62
     0
  5
B87
 10
285.6472
 20
129.607027
 30
0.0
  0
POINT
  8
DEFPOINTS
  6
BYBLOCK
 62
     0
  5
B88
 10
305.6472
 20
129.607027
 30
0.0
  0
POINT
  8
DEFPOINTS
  6
BYBLOCK
 62
     0
  5
B89
 10
305.6472
 20
100.551027
 30
0.0
  0
ENDBLK
  8
0
  5
B8A
  0
BLOCK
  8
0
  5
B45
  2
*D3
 70
    65
 10
0.0
 20
0.0
 30
0.0
  3
*D3
  0
LINE
  8
0
  6
BYBLOCK
 62
     0
  5
B46
 10
345.6472
 20
268.273727
 30
0.0
 11
345.6472
 21
312.753727
 31
0.0
  0
LINE
  8
0
  6
BYBLOCK
 62
     0
  5
B47
 10
245.6468
 20
268.273727
 30
0.0
 11
245.6468
 21
312.753727
 31
0.0
  0
LINE
  8
0
  6
BYBLOCK
 62
     0
  5
B48
 10
337.6472
 20
310.087027
 30
0.0
 11
253.6468
 21
310.087027
 31
0.0
  0
INSERT
  8
0
  6
BYBLOCK
 62
     0
  5
B49
  2
_OPEN
 10
345.6472
 20
310.087027
 30
0.0
 41
8.0
 42
8.0
 43
8.0
  0
INSERT
  8
0
  6
BYBLOCK
 62
     0
  5
B4A
  2
_OPEN
 10
245.6468
 20
310.087027
 30
0.0
 41
8.0
 42
8.0
 50
180.0
 43
8.0
  0
TEXT
  8
0
  6
BYBLOCK
 62
     0
  5
B4B
 10
287.647
 20
312.753727
 30
0.0
 40
8.0
  1
100
  0
POINT
  8
DEFPOINTS
  6
BYBLOCK
 62
     0
  5
B4C
 10
345.6472
 20
265.607027
 30
0.0
  0
POINT
  8
DEFPOINTS
  6
BYBLOCK
 62
     0
  5
B4D
 10
245.6468
 20
265.607027
 30
0.0
  0
POINT
  8
DEFPOINTS
  6
BYBLOCK
 62
     0
  5
B4E
 10
245.6468
 20
310.087027
 30
0.0
  0
ENDBLK
  8
0
  5
B4F
  0
BLOCK
  8
0
  5
E6B
  2
*D4
 70
    65
 10
0.0
 20
0.0
 30
0.0
  3
*D4
  0
LINE
  8
0
  6
BYBLOCK
 62
     0
  5
E6C
 10
357.6472
 20
237.473727
 30
0.0
 11
357.6472
 21
330.753727
 31
0.0
  0
LINE
  8
0
  6
BYBLOCK
 62
     0
  5
E6D
 10
233.6468
 20
237.473727
 30
0.0
 11
233.6468
 21
330.753727
 31
0.0
  0
LINE
  8
0
  6
BYBLOCK
 62
     0
  5
E6E
 10
349.6472
 20
328.087027
 30
0.0
 11
241.6468
 21
328.087027
 31
0.0
  0
INSERT
  8
0
  6
BYBLOCK
 62
     0
  5
E6F
  2
_OPEN
 10
357.6472
 20
328.087027
 30
0.0
 41
8.0
 42
8.0
 43
8.0
  0
INSERT
  8
0
  6
BYBLOCK
 62
     0
  5
E70
  2
_OPEN
 10
233.6468
 20
328.087027
 30
0.0
 41
8.0
 42
8.0
 50
180.0
 43
8.0
  0
TEXT
  8
0
  6
BYBLOCK
 62
     0
  5
E71
 10
280.980333
 20
330.753727
 30
0.0
 40
8.0
  1
(125)
  0
POINT
  8
DEFPOINTS
  6
BYBLOCK
 62
     0
  5
E72
 10
357.6472
 20
234.807027
 30
0.0
  0
POINT
  8
DEFPOINTS
  6
BYBLOCK
 62
     0
  5
E73
 10
233.6468
 20
234.807027
 30
0.0
  0
POINT
  8
DEFPOINTS
  6
BYBLOCK
 62
     0
  5
E74
 10
233.6468
 20
328.087027
 30
0.0
  0
ENDBLK
  8
0
  5
E75
  0
BLOCK
  8
0
  5
B19
  2
*D5
 70
    65
 10
0.0
 20
0.0
 30
0.0
  3
*D5
  0
LINE
  8
0
  6
BYBLOCK
 62
     0
  5
B1A
 10
150.9044
 20
245.273727
 30
0.0
 11
150.9044
 21
330.753727
 31
0.0
  0
LINE
  8
0
  6
BYBLOCK
 62
     0
  5
B1B
 10
12.5544
 20
271.073727
 30
0.0
 11
12.5544
 21
330.753727
 31
0.0
  0
LINE
  8
0
  6
BYBLOCK
 62
     0
  5
B1C
 10
142.9044
 20
328.087027
 30
0.0
 11
20.5544
 21
328.087027
 31
0.0
  0
INSERT
  8
0
  6
BYBLOCK
 62
     0
  5
B1D
  2
_OPEN
 10
150.9044
 20
328.087027
 30
0.0
 41
8.0
 42
8.0
 43
8.0
  0
INSERT
  8
0
  6
BYBLOCK
 62
     0
  5
B1E
  2
_OPEN
 10
12.5544
 20
328.087027
 30
0.0
 41
8.0
 42
8.0
 50
180.0
 43
8.0
  0
TEXT
  8
0
  6
BYBLOCK
 62
     0
  5
B1F
 10
72.396066
 20
330.753727
 30
0.0
 40
8.0
  1
138
  0
POINT
  8
DEFPOINTS
  6
BYBLOCK
 62
     0
  5
B20
 10
150.9044
 20
242.607027
 30
0.0
  0
POINT
  8
DEFPOINTS
  6
BYBLOCK
 62
     0
  5
B21
 10
12.5544
 20
268.407027
 30
0.0
  0
POINT
  8
DEFPOINTS
  6
BYBLOCK
 62
     0
  5
B22
 10
12.5544
 20
328.087027
 30
0.0
  0
ENDBLK
  8
0
  5
B23
  0
BLOCK
  8
0
  5
B24
  2
*D6
 70
    65
 10
0.0
 20
0.0
 30
0.0
  3
*D6
  0
LINE
  8
0
  6
BYBLOCK
 62
     0
  5
B25
 10
106.4044
 20
275.273727
 30
0.0
 11
106.4044
 21
312.753727
 31
0.0
  0
LINE
  8
0
  6
BYBLOCK
 62
     0
  5
B26
 10
12.5544
 20
271.073727
 30
0.0
 11
12.5544
 21
312.753727
 31
0.0
  0
LINE
  8
0
  6
BYBLOCK
 62
     0
  5
B27
 10
98.4044
 20
310.087027
 30
0.0
 11
20.5544
 21
310.087027
 31
0.0
  0
INSERT
  8
0
  6
BYBLOCK
 62
     0
  5
B28
  2
_OPEN
 10
106.4044
 20
310.087027
 30
0.0
 41
8.0
 42
8.0
 43
8.0
  0
INSERT
  8
0
  6
BYBLOCK
 62
     0
  5
B29
  2
_OPEN
 10
12.5544
 20
310.087027
 30
0.0
 41
8.0
 42
8.0
 50
180.0
 43
8.0
  0
TEXT
  8
0
  6
BYBLOCK
 62
     0
  5
B2A
 10
52.812733
 20
312.753727
 30
0.0
 40
8.0
  1
94
  0
POINT
  8
DEFPOINTS
  6
BYBLOCK
 62
     0
  5
B2B
 10
106.4044
 20
272.607027
 30
0.0
  0
POINT
  8
DEFPOINTS
  6
BYBLOCK
 62
     0
  5
B2C
 10
12.5544
 20
268.407027
 30
0.0
  0
POINT
  8
DEFPOINTS
  6
BYBLOCK
 62
     0
  5
B2D
 10
12.5544
 20
310.087027
 30
0.0
  0
ENDBLK
  8
0
  5
B2E
  0
BLOCK
  8
0
  5
B68
  2
*D7
 70
    65
 10
0.0
 20
0.0
 30
0.0
  3
*D7
  0
LINE
  8
0
  6
BYBLOCK
 62
     0
  5
B69
 10
332.3139
 20
140.607027
 30
0.0
 11
379.8859
 21
140.607027
 31
0.0
  0
LINE
  8
0
  6
BYBLOCK
 62
     0
  5
B6A
 10
332.3139
 20
260.607027
 30
0.0
 11
379.8859
 21
260.607027
 31
0.0
  0
LINE
  8
0
  6
BYBLOCK
 62
     0
  5
B6B
 10
377.2192
 20
148.607027
 30
0.0
 11
377.2192
 21
252.607027
 31
0.0
  0
INSERT
  8
0
  6
BYBLOCK
 62
     0
  5
B6C
  2
_OPEN
 10
377.2192
 20
140.607027
 30
0.0
 41
8.0
 42
8.0
 50
270.0
 43
8.0
  0
INSERT
  8
0
  6
BYBLOCK
 62
     0
  5
B6D
  2
_OPEN
 10
377.2192
 20
260.607027
 30
0.0
 41
8.0
 42
8.0
 50
90.0
 43
8.0
  0
TEXT
  8
0
  6
BYBLOCK
 62
     0
  5
B6E
 10
374.5525
 20
191.94036
 30
0.0
 40
8.0
  1
120
 50
90.0
  0
POINT
  8
DEFPOINTS
  6
BYBLOCK
 62
     0
  5
B6F
 10
329.6472
 20
140.607027
 30
0.0
  0
POINT
  8
DEFPOINTS
  6
BYBLOCK
 62
     0
  5
B70
 10
329.6472
 20
260.607027
 30
0.0
  0
POINT
  8
DEFPOINTS
  6
BYBLOCK
 62
     0
  5
B71
 10
377.2192
 20
260.607027
 30
0.0
  0
ENDBLK
  8
0
  5
B72
  0
BLOCK
  8
0
  5
B73
  2
*D8
 70
    65
 10
0.0
 20
0.0
 30
0.0
  3
*D8
  0
LINE
  8
0
  6
BYBLOCK
 62
     0
  5
B74
 10
338.3139
 20
272.507027
 30
0.0
 11
398.6859
 21
272.507027
 31
0.0
  0
LINE
  8
0
  6
BYBLOCK
 62
     0
  5
B75
 10
338.3139
 20
128.707027
 30
0.0
 11
398.6859
 21
128.707027
 31
0.0
  0
LINE
  8
0
  6
BYBLOCK
 62
     0
  5
B76
 10
396.0192
 20
264.507027
 30
0.0
 11
396.0192
 21
136.707027
 31
0.0
  0
INSERT
  8
0
  6
BYBLOCK
 62
     0
  5
B77
  2
_OPEN
 10
396.0192
 20
272.507027
 30
0.0
 41
8.0
 42
8.0
 50
90.0
 43
8.0
  0
INSERT
  8
0
  6
BYBLOCK
 62
     0
  5
B78
  2
_OPEN
 10
396.0192
 20
128.707027
 30
0.0
 41
8.0
 42
8.0
 50
270.0
 43
8.0
  0
TEXT
  8
0
  6
BYBLOCK
 62
     0
  5
B79
 10
393.3525
 20
191.273693
 30
0.0
 40
8.0
  1
144
 50
90.0
  0
POINT
  8
DEFPOINTS
  6
BYBLOCK
 62
     0
  5
B7A
 10
335.6472
 20
272.507027
 30
0.0
  0
POINT
  8
DEFPOINTS
  6
BYBLOCK
 62
     0
  5
B7B
 10
335.6472
 20
128.707027
 30
0.0
  0
POINT
  8
DEFPOINTS
  6
BYBLOCK
 62
     0
  5
B7C
 10
396.0192
 20
128.707027
 30
0.0
  0
ENDBLK
  8
0
  5
B7D
  0
BLOCK
  8
0
  5
B5B
  2
*D9
 70
    65
 10
0.0
 20
0.0
 30
0.0
  3
*D9
  0
LINE
  8
0
  6
BYBLOCK
 62
     0
  5
B5C
 10
330.3139
 20
260.607027
 30
0.0
 11
379.8899
 21
260.607027
 31
0.0
  0
LINE
  8
0
  6
BYBLOCK
 62
     0
  5
B5D
 10
339.3139
 20
270.607027
 30
0.0
 11
379.8899
 21
270.607027
 31
0.0
  0
LINE
  8
0
  6
BYBLOCK
 62
     0
  5
B5E
 10
377.2232
 20
252.607027
 30
0.0
 11
377.2232
 21
244.607027
 31
0.0
  0
LINE
  8
0
  6
BYBLOCK
 62
     0
  5
B5F
 10
377.2232
 20
278.607027
 30
0.0
 11
377.2232
 21
301.27376
 31
0.0
  0
LINE
  8
0
  6
BYBLOCK
 62
     0
  5
B60
 10
377.2232
 20
260.607027
 30
0.0
 11
377.2232
 21
270.607027
 31
0.0
  0
INSERT
  8
0
  6
BYBLOCK
 62
     0
  5
B61
  2
_OPEN
 10
377.2232
 20
260.607027
 30
0.0
 41
8.0
 42
8.0
 50
90.0
 43
8.0
  0
INSERT
  8
0
  6
BYBLOCK
 62
     0
  5
B62
  2
_OPEN
 10
377.2232
 20
270.607027
 30
0.0
 41
8.0
 42
8.0
 50
270.0
 43
8.0
  0
TEXT
  8
0
  6
BYBLOCK
 62
     0
  5
B63
 10
374.5565
 20
289.273727
 30
0.0
 40
8.0
  1
10
 50
90.0
  0
POINT
  8
DEFPOINTS
  6
BYBLOCK
 62
     0
  5
B64
 10
327.6472
 20
260.607027
 30
0.0
  0
POINT
  8
DEFPOINTS
  6
BYBLOCK
 62
     0
  5
B65
 10
336.6472
 20
270.607027
 30
0.0
  0
POINT
  8
DEFPOINTS
  6
BYBLOCK
 62
     0
  5
B66
 10
377.2232
 20
270.607027
 30
0.0
  0
ENDBLK
  8
0
  5
B67
  0
BLOCK
  8
0
  5
B9A
  2
*D10
 70
    65
 10
0.0
 20
0.0
 30
0.0
  3
*D10
  0
LINE
  8
0
  6
BYBLOCK
 62
     0
  5
B9B
 10
569.0699
 20
255.607027
 30
0.0
 11
600.5659
 21
255.607027
 31
0.0
  0
LINE
  8
0
  6
BYBLOCK
 62
     0
  5
B9C
 10
557.6779
 20
272.507027
 30
0.0
 11
600.5659
 21
272.507027
 31
0.0
  0
LINE
  8
0
  6
BYBLOCK
 62
     0
  5
B9D
 10
597.8992
 20
247.607027
 30
0.0
 11
597.8992
 21
239.607027
 31
0.0
  0
LINE
  8
0
  6
BYBLOCK
 62
     0
  5
B9E
 10
597.8992
 20
280.507027
 30
0.0
 11
597.8992
 21
288.507027
 31
0.0
  0
LINE
  8
0
  6
BYBLOCK
 62
     0
  5
B9F
 10
597.8992
 20
255.607027
 30
0.0
 11
597.8992
 21
272.507027
 31
0.0
  0
INSERT
  8
0
  6
BYBLOCK
 62
     0
  5
BA0
  2
_OPEN
 10
597.8992
 20
255.607027
 30
0.0
 41
8.0
 42
8.0
 50
90.0
 43
8.0
  0
INSERT
  8
0
  6
BYBLOCK
 62
     0
  5
BA1
  2
_OPEN
 10
597.8992
 20
272.507027
 30
0.0
 41
8.0
 42
8.0
 50
270.0
 43
8.0
  0
TEXT
  8
0
  6
BYBLOCK
 62
     0
  5
BA2
 10
595.2325
 20
258.723693
 30
0.0
 40
8.0
  1
17
 50
90.0
  0
POINT
  8
DEFPOINTS
  6
BYBLOCK
 62
     0
  5
BA3
 10
566.4032
 20
255.607027
 30
0.0
  0
POINT
  8
DEFPOINTS
  6
BYBLOCK
 62
     0
  5
BA4
 10
555.0112
 20
272.507027
 30
0.0
  0
POINT
  8
DEFPOINTS
  6
BYBLOCK
 62
     0
  5
BA5
 10
597.8992
 20
272.507027
 30
0.0
  0
ENDBLK
  8
0
  5
BA6
  0
BLOCK
  8
0
  5
B2F
  2
*D11
 70
    65
 10
0.0
 20
0.0
 30
0.0
  3
*D11
  0
LINE
  8
0
  6
BYBLOCK
 62
     0
  5
B30
 10
51.3544
 20
270.273727
 30
0.0
 11
51.3544
 21
293.341727
 31
0.0
  0
LINE
  8
0
  6
BYBLOCK
 62
     0
  5
B31
 10
12.5544
 20
271.073727
 30
0.0
 11
12.5544
 21
293.341727
 31
0.0
  0
LINE
  8
0
  6
BYBLOCK
 62
     0
  5
B32
 10
43.3544
 20
290.675027
 30
0.0
 11
20.5544
 21
290.675027
 31
0.0
  0
INSERT
  8
0
  6
BYBLOCK
 62
     0
  5
B33
  2
_OPEN
 10
51.3544
 20
290.675027
 30
0.0
 41
8.0
 42
8.0
 43
8.0
  0
INSERT
  8
0
  6
BYBLOCK
 62
     0
  5
B34
  2
_OPEN
 10
12.5544
 20
290.675027
 30
0.0
 41
8.0
 42
8.0
 50
180.0
 43
8.0
  0
TEXT
  8
0
  6
BYBLOCK
 62
     0
  5
B35
 10
19.9544
 20
293.341727
 30
0.0
 40
8.0
  1
38.8
  0
POINT
  8
DEFPOINTS
  6
BYBLOCK
 62
     0
  5
B36
 10
51.3544
 20
267.607027
 30
0.0
  0
POINT
  8
DEFPOINTS
  6
BYBLOCK
 62
     0
  5
B37
 10
12.5544
 20
268.407027
 30
0.0
  0
POINT
  8
DEFPOINTS
  6
BYBLOCK
 62
     0
  5
B38
 10
12.5544
 20
290.675027
 30
0.0
  0
ENDBLK
  8
0
  5
B39
  0
BLOCK
  8
0
  5
B8B
  2
*D12
 70
    65
 10
0.0
 20
0.0
 30
0.0
  3
*D12
  0
LINE
  8
0
  6
BYBLOCK
 62
     0
  5
B8C
 10
560.0112
 20
265.697727
 30
0.0
 11
560.0112
 21
323.521727
 31
0.0
  0
LINE
  8
0
  6
BYBLOCK
 62
     0
  5
B8D
 10
470.0112
 20
155.597727
 30
0.0
 11
470.0112
 21
323.521727
 31
0.0
  0
LINE
  8
0
  6
BYBLOCK
 62
     0
  5
B8E
 10
552.0112
 20
320.855027
 30
0.0
 11
478.0112
 21
320.855027
 31
0.0
  0
INSERT
  8
0
  6
BYBLOCK
 62
     0
  5
B8F
  2
_OPEN
 10
560.0112
 20
320.855027
 30
0.0
 41
8.0
 42
8.0
 43
8.0
  0
INSERT
  8
0
  6
BYBLOCK
 62
     0
  5
B90
  2
_OPEN
 10
470.0112
 20
320.855027
 30
0.0
 41
8.0
 42
8.0
 50
180.0
 43
8.0
  0
TEXT
  8
0
  6
BYBLOCK
 62
     0
  5
B91
 10
491.544533
 20
326.188427
 30
0.0
 40
8.0
  1
(80～)90
  0
LINE
  8
0
  6
BYBLOCK
 62
     0
  5
B92
 10
488.877833
 20
323.521727
 30
0.0
 11
541.144566
 21
323.521727
 31
0.0
  0
LINE
  8
0
  6
BYBLOCK
 62
     0
  5
B93
 10
541.144566
 20
323.521727
 30
0.0
 11
541.144566
 21
336.855127
 31
0.0
  0
LINE
  8
0
  6
BYBLOCK
 62
     0
  5
B94
 10
541.144566
 20
336.855127
 30
0.0
 11
488.877833
 21
336.855127
 31
0.0
  0
LINE
  8
0
  6
BYBLOCK
 62
     0
  5
B95
 10
488.877833
 20
336.855127
 30
0.0
 11
488.877833
 21
323.521727
 31
0.0
  0
POINT
  8
DEFPOINTS
  6
BYBLOCK
 62
     0
  5
B96
 10
560.0112
 20
263.031027
 30
0.0
  0
POINT
  8
DEFPOINTS
  6
BYBLOCK
 62
     0
  5
B97
 10
470.0112
 20
152.931027
 30
0.0
  0
POINT
  8
DEFPOINTS
  6
BYBLOCK
 62
     0
  5
B98
 10
470.0112
 20
320.855027
 30
0.0
  0
ENDBLK
  8
0
  5
B99
  0
BLOCK
  8
0
  5
BA7
  2
*D13
 70
    65
 10
0.0
 20
0.0
 30
0.0
  3
*D13
  0
LINE
  8
0
  6
BYBLOCK
 62
     0
  5
BA8
 10
569.0699
 20
255.607027
 30
0.0
 11
600.5659
 21
255.607027
 31
0.0
  0
LINE
  8
0
  6
BYBLOCK
 62
     0
  5
BA9
 10
484.0699
 20
145.607027
 30
0.0
 11
600.5659
 21
145.607027
 31
0.0
  0
LINE
  8
0
  6
BYBLOCK
 62
     0
  5
BAA
 10
597.8992
 20
247.607027
 30
0.0
 11
597.8992
 21
153.607027
 31
0.0
  0
INSERT
  8
0
  6
BYBLOCK
 62
     0
  5
BAB
  2
_OPEN
 10
597.8992
 20
255.607027
 30
0.0
 41
8.0
 42
8.0
 50
90.0
 43
8.0
  0
INSERT
  8
0
  6
BYBLOCK
 62
     0
  5
BAC
  2
_OPEN
 10
597.8992
 20
145.607027
 30
0.0
 41
8.0
 42
8.0
 50
270.0
 43
8.0
  0
TEXT
  8
0
  6
BYBLOCK
 62
     0
  5
BAD
 10
592.5658
 20
193.273693
 30
0.0
 40
8.0
  1
110
 50
90.0
  0
LINE
  8
0
  6
BYBLOCK
 62
     0
  5
BAE
 10
595.2325
 20
190.606993
 30
0.0
 11
595.2325
 21
210.60706
 31
0.0
  0
LINE
  8
0
  6
BYBLOCK
 62
     0
  5
BAF
 10
595.2325
 20
210.60706
 30
0.0
 11
581.8991
 21
210.60706
 31
0.0
  0
LINE
  8
0
  6
BYBLOCK
 62
     0
  5
BB0
 10
581.8991
 20
210.60706
 30
0.0
 11
581.8991
 21
190.606993
 31
0.0
  0
LINE
  8
0
  6
BYBLOCK
 62
     0
  5
BB1
 10
581.8991
 20
190.606993
 30
0.0
 11
595.2325
 21
190.606993
 31
0.0
  0
POINT
  8
DEFPOINTS
  6
BYBLOCK
 62
     0
  5
BB2
 10
566.4032
 20
255.607027
 30
0.0
  0
POINT
  8
DEFPOINTS
  6
BYBLOCK
 62
     0
  5
BB3
 10
481.4032
 20
145.607027
 30
0.0
  0
POINT
  8
DEFPOINTS
  6
BYBLOCK
 62
     0
  5
BB4
 10
597.8992
 20
145.607027
 30
0.0
  0
ENDBLK
  8
0
  5
BB5
  0
ENDSEC
  0
SECTION
  2
ENTITIES
  0
LINE
  8
10
  6
CENTER
  5
4C3
 10
227.528
 20
200.607027
 30
0.0
 11
361.3112
 21
200.607027
 31
0.0
  0
DIMENSION
  8
FF
  5
4C4
  2
*D1
 10
295.6472
 20
290.675027
 30
0.0
 11
311.6472
 21
297.341727
 31
0.0
  1
32
 13
327.6472
 23
262.607027
 33
0.0
 14
295.6472
 24
262.607027
 34
0.0
 50
180.0
  3
FSTD1
  0
DIMENSION
  8
FF
  5
4C5
  2
*D2
 10
305.6472
 20
100.551027
 30
0.0
 11
295.6472
 21
107.217727
 31
0.0
  1
20
 13
285.6472
 23
129.607027
 33
0.0
 14
305.6472
 24
129.607027
 34
0.0
  3
FSTD1
  0
DIMENSION
  8
FF
  5
4C6
  2
*D3
 10
245.6468
 20
310.087027
 30
0.0
 11
295.647
 21
316.753727
 31
0.0
  1
100
 13
345.6472
 23
265.607027
 33
0.0
 14
245.6468
 24
265.607027
 34
0.0
 50
180.0
  3
FSTD1
  0
DIMENSION
  8
FF
  5
4C7
  2
*D4
 10
233.6468
 20
328.087027
 30
0.0
 11
295.647
 21
334.753727
 31
0.0
  1
(125)
 13
357.6472
 23
234.807027
 33
0.0
 14
233.6468
 24
234.807027
 34
0.0
 50
180.0
  3
FSTD1
  0
CIRCLE
  8
0D
  5
4C8
 10
295.6472
 20
260.607027
 30
0.0
 40
7.7
  0
CIRCLE
  8
0D
  5
4C9
 10
295.6472
 20
260.607027
 30
0.0
 40
9.0
  0
CIRCLE
  8
0D
  5
4CA
 10
295.6472
 20
260.607027
 30
0.0
 40
9.0
  0
CIRCLE
  8
0D
  5
4CB
 10
295.6472
 20
140.607027
 30
0.0
 40
9.0
  0
CIRCLE
  8
0D
  5
4CC
 10
295.6472
 20
140.607027
 30
0.0
 40
9.0
  0
CIRCLE
  8
0D
  5
4CD
 10
295.6472
 20
140.607027
 30
0.0
 40
7.7
  0
LINE
  8
0D
  5
4CE
 10
302.1472
 20
264.359027
 30
0.0
 11
295.6472
 21
268.115027
 31
0.0
  0
LINE
  8
0D
  5
4CF
 10
295.6472
 20
253.103027
 30
0.0
 11
302.1472
 21
256.855027
 31
0.0
  0
LINE
  8
0D
  5
4D0
 10
302.1472
 20
264.359027
 30
0.0
 11
295.6472
 21
268.115027
 31
0.0
  0
LINE
  8
0D
  5
4D1
 10
295.6472
 20
253.103027
 30
0.0
 11
302.1472
 21
256.855027
 31
0.0
  0
LINE
  8
0D
  5
4D2
 10
302.1472
 20
144.359027
 30
0.0
 11
295.6472
 21
148.115027
 31
0.0
  0
LINE
  8
0D
  5
4D3
 10
295.6472
 20
133.103027
 30
0.0
 11
302.1472
 21
136.855027
 31
0.0
  0
LINE
  8
0D
  5
4D4
 10
302.1472
 20
144.359027
 30
0.0
 11
295.6472
 21
148.115027
 31
0.0
  0
LINE
  8
0D
  5
4D5
 10
295.6472
 20
133.103027
 30
0.0
 11
302.1472
 21
136.855027
 31
0.0
  0
LINE
  8
0C
  5
4D6
 10
257.6472
 20
240.607027
 30
0.0
 11
333.6472
 21
240.607027
 31
0.0
  0
LINE
  8
0C
  5
4D7
 10
257.6472
 20
160.607027
 30
0.0
 11
333.6472
 21
160.607027
 31
0.0
  0
LINE
  8
0C
  5
4D8
 10
262.6472
 20
165.607027
 30
0.0
 11
328.6472
 21
165.607027
 31
0.0
  0
LINE
  8
0C
  5
4D9
 10
262.6472
 20
235.607027
 30
0.0
 11
328.6472
 21
235.607027
 31
0.0
  0
LINE
  8
0C
  5
4DA
 10
304.6472
 20
193.607027
 30
0.0
 11
286.6472
 21
193.607027
 31
0.0
  0
LINE
  8
0C
  5
4DB
 10
260.6472
 20
245.859027
 30
0.0
 11
330.6472
 21
245.859027
 31
0.0
  0
LINE
  8
0C
  5
4DC
 10
260.6472
 20
155.359027
 30
0.0
 11
330.6472
 21
155.359027
 31
0.0
  0
LINE
  8
0C
  5
4DD
 10
304.6472
 20
207.607027
 30
0.0
 11
286.6472
 21
207.607027
 31
0.0
  0
LINE
  8
0C
  5
4DE
 10
286.5952
 20
245.859027
 30
0.0
 11
304.6952
 21
245.859027
 31
0.0
  0
LINE
  8
0C
  5
4DF
 10
286.5952
 20
155.359027
 30
0.0
 11
304.6952
 21
155.359027
 31
0.0
  0
LINE
  8
0B
  5
4E0
 10
301.6472
 20
128.707027
 30
0.0
 11
289.6472
 21
128.707027
 31
0.0
  0
LINE
  8
0B
  5
4E1
 10
301.6472
 20
272.507027
 30
0.0
 11
289.6472
 21
272.507027
 31
0.0
  0
LINE
  8
0C
  5
4E2
 10
289.6472
 20
130.607027
 30
0.0
 11
301.6472
 21
130.607027
 31
0.0
  0
LINE
  8
0C
  5
4E3
 10
289.6472
 20
270.607027
 30
0.0
 11
301.6472
 21
270.607027
 31
0.0
  0
LINE
  8
10
  6
CENTER
  5
4E4
 10
295.6472
 20
124.171027
 30
0.0
 11
295.6472
 21
276.167027
 31
0.0
  0
ARC
  8
16
  5
4E5
 10
83.4656
 20
177.607027
 30
0.0
 40
1.0
 50
270.0
 51
0.000003
  0
LINE
  8
0C
  5
4E6
 10
245.6468
 20
200.607027
 30
0.0
 11
245.6468
 21
168.907027
 31
0.0
  0
LINE
  8
0C
  5
4E7
 10
247.7472
 20
191.107027
 30
0.0
 11
247.7472
 21
168.907027
 31
0.0
  0
LINE
  8
0D
  6
PHANTOM
  5
4E8
 10
233.6468
 20
232.807027
 30
0.0
 11
233.6468
 21
168.407027
 31
0.0
  0
LINE
  8
16
  5
4E9
 10
37.0656
 20
169.407027
 30
0.0
 11
37.0656
 21
200.607027
 31
0.0
  0
LINE
  8
0C
  5
4EA
 10
257.6472
 20
200.607027
 30
0.0
 11
257.6472
 21
168.907027
 31
0.0
  0
LINE
  8
0C
  5
4EB
 10
255.5472
 20
190.179027
 30
0.0
 11
255.5472
 21
168.907027
 31
0.0
  0
LINE
  8
0C
  5
4EC
 10
262.6472
 20
235.607027
 30
0.0
 11
262.6472
 21
165.607027
 31
0.0
  0
LINE
  8
0C
  5
4ED
 10
257.6472
 20
242.859027
 30
0.0
 11
257.6472
 21
158.359027
 31
0.0
  0
LINE
  8
16
  5
4EE
 10
134.2656
 20
245.859027
 30
0.0
 11
134.2656
 21
155.359027
 31
0.0
  0
LINE
  8
15
  5
4EF
 10
139.2656
 20
240.607027
 30
0.0
 11
139.2656
 21
160.607027
 31
0.0
  0
LINE
  8
0C
  5
4F0
 10
257.6472
 20
242.859027
 30
0.0
 11
257.6472
 21
158.359027
 31
0.0
  0
LINE
  8
16
  5
4F1
 10
95.2656
 20
191.107027
 30
0.0
 11
95.2656
 21
155.607027
 31
0.0
  0
LINE
  8
16
  5
4F2
 10
134.2656
 20
155.607027
 30
0.0
 11
134.2656
 21
245.607027
 31
0.0
  0
LINE
  8
16
  5
4F3
 10
95.2656
 20
191.107027
 30
0.0
 11
95.2656
 21
155.607027
 31
0.0
  0
LINE
  8
16
  5
4F4
 10
22.4156
 20
134.607027
 30
0.0
 11
22.4156
 21
266.607027
 31
0.0
  0
LINE
  8
16
  5
4F5
 10
35.9156
 20
180.107027
 30
0.0
 11
35.9156
 21
159.107027
 31
0.0
  0
LINE
  8
0C
  5
4F6
 10
257.6472
 20
186.107027
 30
0.0
 11
257.6472
 21
156.407027
 31
0.0
  0
LINE
  8
0B
  5
4F7
 10
245.6468
 20
263.607027
 30
0.0
 11
245.6468
 21
137.607027
 31
0.0
  0
CIRCLE
  8
0D
  5
4F8
 10
251.6472
 20
177.107027
 30
0.0
 40
3.0
  0
LINE
  8
0D
  5
4F9
 10
247.8472
 20
180.407027
 30
0.0
 11
247.8472
 21
173.807027
 31
0.0
  0
LINE
  8
0D
  5
4FA
 10
255.4472
 20
180.407027
 30
0.0
 11
255.4472
 21
173.807027
 31
0.0
  0
LINE
  8
0D
  5
4FB
 10
252.9072
 20
178.367027
 30
0.0
 11
250.3872
 21
175.847027
 31
0.0
  0
LINE
  8
0D
  5
4FC
 10
252.9072
 20
175.847027
 30
0.0
 11
250.3872
 21
178.367027
 31
0.0
  0
LINE
  8
0B
  5
4FD
 10
245.6468
 20
263.607027
 30
0.0
 11
245.6468
 21
137.607027
 31
0.0
  0
LINE
  8
16
  5
4FE
 10
22.4156
 20
252.607027
 30
0.0
 11
22.4156
 21
141.375027
 31
0.0
  0
LINE
  8
15
  5
4FF
 10
1.4156
 20
266.607027
 30
0.0
 11
1.4156
 21
134.607027
 31
0.0
  0
TEXT
  8
FF
  5
501
 10
-0.565961
 20
52.671027
 30
0.0
 40
12.0
  1
※１　サイドオン補助接点ユニット２個取付けた場合
 41
0.833333
  0
LINE
  8
17
  5
502
 10
94.7656
 20
149.607027
 30
0.0
 11
95.9656
 21
149.607027
 31
0.0
  0
LINE
  8
17
  5
503
 10
95.9656
 20
131.607027
 30
0.0
 11
94.7656
 21
131.607027
 31
0.0
  0
ARC
  8
17
  5
504
 10
94.7656
 20
152.107027
 30
0.0
 40
0.5
 50
270.0
 51
0.0
  0
ARC
  8
16
  5
505
 10
94.2656
 20
156.359027
 30
0.0
 40
1.0
 50
270.0
 51
0.0
  0
ARC
  8
15
  5
506
 10
94.2656
 20
153.607027
 30
0.0
 40
1.0
 50
270.0
 51
0.0
  0
LINE
  8
16
  5
523
 10
61.5788
 20
168.407027
 30
0.0
 11
38.0656
 21
168.407027
 31
0.0
  0
LINE
  8
16
  5
524
 10
80.4156
 20
153.407027
 30
0.0
 11
41.7156
 21
153.407027
 31
0.0
  0
LINE
  8
16
  5
525
 10
48.8156
 20
143.859027
 30
0.0
 11
41.7156
 21
143.859027
 31
0.0
  0
LINE
  8
15
  5
526
 10
48.8156
 20
134.607027
 30
0.0
 11
35.9156
 21
134.607027
 31
0.0
  0
LINE
  8
16
  5
527
 10
39.7156
 20
157.107027
 30
0.0
 11
39.7156
 21
135.607027
 31
0.0
  0
LINE
  8
16
  5
528
 10
0.9156
 20
151.607027
 30
0.0
 11
0.9156
 21
134.807027
 31
0.0
  0
LINE
  8
15
  5
529
 10
22.8156
 20
134.607027
 30
0.0
 11
1.4156
 21
134.607027
 31
0.0
  0
LINE
  8
16
  5
52A
 10
1.4156
 20
134.807027
 30
0.0
 11
0.9156
 21
134.807027
 31
0.0
  0
LINE
  8
15
  5
52D
 10
35.9156
 20
134.607027
 30
0.0
 11
22.4156
 21
134.607027
 31
0.0
  0
ARC
  8
16
  5
52E
 10
38.7156
 20
135.607027
 30
0.0
 40
1.0
 50
270.0
 51
0.0
  0
ARC
  8
16
  5
52F
 10
41.7156
 20
141.859027
 30
0.0
 40
2.0
 50
90.0
 51
180.0
  0
LINE
  8
16
  5
530
 10
1.4156
 20
151.607027
 30
0.0
 11
0.9156
 21
151.607027
 31
0.0
  0
ARC
  8
16
  5
531
 10
41.7156
 20
151.407027
 30
0.0
 40
2.0
 50
90.0
 51
180.0
  0
ARC
  8
16
  5
532
 10
36.9156
 20
159.107027
 30
0.0
 40
1.0
 50
180.0
 51
270.0
  0
ARC
  8
16
  5
533
 10
38.7156
 20
157.107027
 30
0.0
 40
1.0
 50
0.0
 51
90.0
  0
LINE
  8
16
  5
534
 10
38.7156
 20
158.107027
 30
0.0
 11
36.9156
 21
158.107027
 31
0.0
  0
ARC
  8
16
  5
535
 10
38.0656
 20
169.407027
 30
0.0
 40
1.0
 50
180.0
 51
270.0
  0
LINE
  8
17
  5
536
 10
94.7656
 20
131.607027
 30
0.0
 11
94.7656
 21
149.607027
 31
0.0
  0
LINE
  8
17
  5
537
 10
84.1656
 20
133.607027
 30
0.0
 11
84.1656
 21
147.607027
 31
0.0
  0
LINE
  8
17
  5
538
 10
90.7656
 20
130.607027
 30
0.0
 11
90.7656
 21
149.107027
 31
0.0
  0
LINE
  8
17
  5
539
 10
94.7656
 20
152.743027
 30
0.0
 11
94.7656
 21
130.607027
 31
0.0
  0
LINE
  8
17
  5
53A
 10
90.7656
 20
152.607027
 30
0.0
 11
90.7656
 21
130.607027
 31
0.0
  0
LINE
  8
15
  5
53B
 10
50.8156
 20
148.607027
 30
0.0
 11
50.8156
 21
136.607027
 31
0.0
  0
ARC
  8
15
  5
53C
 10
48.8156
 20
136.607027
 30
0.0
 40
2.0
 50
270.0
 51
0.0
  0
ARC
  8
16
  5
53D
 10
48.8156
 20
145.859027
 30
0.0
 40
2.0
 50
270.0
 51
0.0
  0
LINE
  8
17
  5
53E
 10
86.6656
 20
131.107027
 30
0.0
 11
84.1656
 21
133.607027
 31
0.0
  0
ARC
  8
17
  5
53F
 10
91.0656
 20
130.607027
 30
0.0
 40
1.9
 50
180.0
 51
270.0
  0
LINE
  8
17
  5
540
 10
90.7656
 20
131.107027
 30
0.0
 11
86.6656
 21
131.107027
 31
0.0
  0
ARC
  8
17
  5
541
 10
91.0656
 20
130.607027
 30
0.0
 40
0.3
 50
180.0
 51
270.0
  0
LINE
  8
17
  5
542
 10
89.1656
 20
130.607027
 30
0.0
 11
89.1656
 21
131.107027
 31
0.0
  0
LINE
  8
17
  5
543
 10
94.2656
 20
130.307027
 30
0.0
 11
91.0656
 21
130.307027
 31
0.0
  0
LINE
  8
17
  5
544
 10
94.2656
 20
128.707027
 30
0.0
 11
91.0656
 21
128.707027
 31
0.0
  0
LINE
  8
17
  5
545
 10
94.2656
 20
128.707027
 30
0.0
 11
94.2656
 21
130.307027
 31
0.0
  0
LINE
  8
17
  5
546
 10
90.7656
 20
130.607027
 30
0.0
 11
94.7656
 21
130.607027
 31
0.0
  0
LINE
  8
16
  5
547
 10
83.4656
 20
176.607027
 30
0.0
 11
64.4656
 21
176.607027
 31
0.0
  0
LINE
  8
15
  5
548
 10
89.1656
 20
148.607027
 30
0.0
 11
50.8156
 21
148.607027
 31
0.0
  0
ARC
  8
16
  5
549
 10
52.8156
 20
151.407027
 30
0.0
 40
2.0
 50
90.0
 51
180.0
  0
LINE
  8
16
  6
CONTINUOUS
  5
54A
 10
50.8156
 20
151.407027
 30
0.0
 11
50.8156
 21
148.607027
 31
0.0
  0
LINE
  8
16
  5
54B
 10
64.1976
 20
170.943027
 30
0.0
 11
63.3108
 21
169.407027
 31
0.0
  0
ARC
  8
16
  5
54C
 10
61.5788
 20
170.407027
 30
0.0
 40
2.0
 50
270.0
 51
330.0
  0
ARC
  8
16
  5
54D
 10
62.4656
 20
171.943027
 30
0.0
 40
2.0
 50
330.0
 51
0.000003
  0
LINE
  8
16
  5
54E
 10
64.4656
 20
176.607027
 30
0.0
 11
64.4656
 21
171.943027
 31
0.0
  0
LINE
  8
16
  5
54F
 10
87.6932
 20
155.359027
 30
0.0
 11
80.4156
 21
153.407027
 31
0.0
  0
ARC
  8
17
  5
550
 10
85.1656
 20
147.607027
 30
0.0
 40
1.0
 50
90.0
 51
180.0
  0
LINE
  8
15
  6
CONTINUOUS
  5
551
 10
90.4656
 20
149.107027
 30
0.0
 11
89.1656
 21
149.107027
 31
0.0
  0
LINE
  8
17
  5
552
 10
90.7656
 20
148.607027
 30
0.0
 11
89.1656
 21
148.607027
 31
0.0
  0
LINE
  8
15
  5
553
 10
89.1656
 20
148.607027
 30
0.0
 11
89.1656
 21
149.107027
 31
0.0
  0
LINE
  8
17
  5
554
 10
90.7656
 20
149.107027
 30
0.0
 11
90.4656
 21
149.107027
 31
0.0
  0
LINE
  8
15
  5
555
 10
94.2656
 20
152.607027
 30
0.0
 11
90.4656
 21
152.607027
 31
0.0
  0
LINE
  8
15
  5
556
 10
90.4656
 20
152.607027
 30
0.0
 11
90.4656
 21
149.107027
 31
0.0
  0
LINE
  8
16
  5
557
 10
90.7656
 20
155.359027
 30
0.0
 11
87.6932
 21
155.359027
 31
0.0
  0
LINE
  8
16
  5
558
 10
94.2656
 20
155.359027
 30
0.0
 11
87.6932
 21
155.359027
 31
0.0
  0
LINE
  8
17
  5
559
 10
95.9656
 20
149.607027
 30
0.0
 11
95.9656
 21
131.607027
 31
0.0
  0
LINE
  8
17
  5
55A
 10
95.9656
 20
132.907027
 30
0.0
 11
95.9656
 21
148.307027
 31
0.0
  0
LINE
  8
17
  5
55B
 10
97.9656
 20
148.307027
 30
0.0
 11
97.9656
 21
132.907027
 31
0.0
  0
LINE
  8
17
  5
55C
 10
97.9656
 20
133.103027
 30
0.0
 11
97.9656
 21
148.115027
 31
0.0
  0
LINE
  8
17
  5
55D
 10
97.9656
 20
133.107027
 30
0.0
 11
97.9656
 21
148.107027
 31
0.0
  0
LINE
  8
17
  5
55E
 10
104.4656
 20
133.107027
 30
0.0
 11
104.4656
 21
148.107027
 31
0.0
  0
LINE
  8
17
  5
55F
 10
104.4656
 20
136.607027
 30
0.0
 11
114.1656
 21
136.607027
 31
0.0
  0
LINE
  8
17
  5
560
 10
104.4656
 20
144.607027
 30
0.0
 11
114.1656
 21
144.607027
 31
0.0
  0
LINE
  8
17
  5
561
 10
95.9656
 20
139.107027
 30
0.0
 11
97.9656
 21
141.107027
 31
0.0
  0
LINE
  8
17
  5
562
 10
104.4656
 20
136.859027
 30
0.0
 11
97.9656
 21
136.859027
 31
0.0
  0
LINE
  8
17
  5
563
 10
104.4656
 20
133.107027
 30
0.0
 11
97.9656
 21
133.107027
 31
0.0
  0
LINE
  8
17
  5
564
 10
97.9656
 20
132.907027
 30
0.0
 11
95.9656
 21
132.907027
 31
0.0
  0
LINE
  8
17
  5
565
 10
104.4656
 20
144.359027
 30
0.0
 11
97.9656
 21
144.359027
 31
0.0
  0
LINE
  8
17
  5
566
 10
95.9656
 20
140.107027
 30
0.0
 11
97.9656
 21
142.107027
 31
0.0
  0
LINE
  8
17
  5
567
 10
114.1656
 20
144.607027
 30
0.0
 11
114.1656
 21
136.607027
 31
0.0
  0
LINE
  8
15
  5
568
 10
134.2656
 20
155.607027
 30
0.0
 11
95.2656
 21
155.607027
 31
0.0
  0
LINE
  8
17
  5
569
 10
105.8512
 20
149.195027
 30
0.0
 11
111.6796
 21
155.023027
 31
0.0
  0
LINE
  8
15
  6
CONTINUOUS
  5
56A
 10
95.2656
 20
153.607027
 30
0.0
 11
95.2656
 21
155.607027
 31
0.0
  0
LINE
  8
17
  5
56B
 10
104.4656
 20
148.107027
 30
0.0
 11
97.9656
 21
148.107027
 31
0.0
  0
LINE
  8
17
  5
56C
 10
104.4372
 20
148.607027
 30
0.0
 11
95.9656
 21
148.607027
 31
0.0
  0
LINE
  8
17
  6
CONTINUOUS
  5
56D
 10
95.2656
 20
152.107027
 30
0.0
 11
95.2656
 21
153.607027
 31
0.0
  0
LINE
  8
17
  5
56E
 10
95.9656
 20
148.307027
 30
0.0
 11
97.9656
 21
148.307027
 31
0.0
  0
ARC
  8
17
  5
56F
 10
104.4372
 20
150.607027
 30
0.0
 40
2.0
 50
270.0
 51
315.0
  0
ARC
  8
17
  5
570
 10
113.094
 20
153.607027
 30
0.0
 40
2.0
 50
90.0
 51
135.0
  0
ARC
  8
15
  5
571
 10
137.0916
 20
156.359027
 30
0.0
 40
1.0
 50
270.0
 51
345.0
  0
LINE
  8
15
  5
572
 10
137.0916
 20
155.359027
 30
0.0
 11
134.2656
 21
155.359027
 31
0.0
  0
LINE
  8
15
  5
573
 10
139.2656
 20
160.607027
 30
0.0
 11
138.0572
 21
156.099027
 31
0.0
  0
LINE
  8
10
  6
CENTER
  5
574
 10
245.7792
 20
145.607027
 30
0.0
 11
260.0392
 21
145.607027
 31
0.0
  0
LINE
  8
0C
  5
575
 10
255.5472
 20
171.307027
 30
0.0
 11
251.6472
 21
171.307027
 31
0.0
  0
LINE
  8
0C
  5
576
 10
249.1792
 20
142.707027
 30
0.0
 11
253.7472
 21
142.707027
 31
0.0
  0
LINE
  8
0C
  5
577
 10
249.1792
 20
148.507027
 30
0.0
 11
255.2952
 21
148.507027
 31
0.0
  0
LINE
  8
0B
  5
578
 10
253.6472
 20
134.607027
 30
0.0
 11
248.6472
 21
134.607027
 31
0.0
  0
LINE
  8
0C
  5
579
 10
255.6472
 20
158.107027
 30
0.0
 11
248.6472
 21
158.107027
 31
0.0
  0
LINE
  8
0D
  5
57A
 10
254.9472
 20
173.307027
 30
0.0
 11
248.3472
 21
173.307027
 31
0.0
  0
LINE
  8
0B
  5
57B
 10
248.6472
 20
134.607027
 30
0.0
 11
253.6472
 21
134.607027
 31
0.0
  0
LINE
  8
10
  6
CENTER
  5
57C
 10
250.6472
 20
150.931027
 30
0.0
 11
250.6472
 21
139.863027
 31
0.0
  0
ARC
  8
0C
  5
57D
 10
253.1472
 20
145.607027
 30
0.0
 40
5.4
 50
154.417
 51
205.583
  0
ARC
  8
0B
  5
57E
 10
248.6472
 20
137.607027
 30
0.0
 40
3.0
 50
180.0
 51
270.0
  0
ARC
  8
0B
  5
57F
 10
248.6472
 20
137.607027
 30
0.0
 40
3.0
 50
180.0
 51
270.0
  0
ARC
  8
0C
  5
580
 10
249.1792
 20
143.707027
 30
0.0
 40
1.0
 50
205.583
 51
270.0
  0
ARC
  8
0C
  5
581
 10
249.1792
 20
147.507027
 30
0.0
 40
1.0
 50
90.0
 51
154.417
  0
ARC
  8
0C
  5
582
 10
248.6472
 20
155.107027
 30
0.0
 40
3.0
 50
90.0
 51
180.0
  0
LINE
  8
0D
  6
PHANTOM
  5
583
 10
233.6468
 20
168.407027
 30
0.0
 11
245.6468
 21
168.407027
 31
0.0
  0
LINE
  8
0C
  5
584
 10
246.1472
 20
168.407027
 30
0.0
 11
247.2472
 21
168.407027
 31
0.0
  0
ARC
  8
0C
  5
585
 10
246.1472
 20
168.907027
 30
0.0
 40
0.5
 50
180.0
 51
270.0
  0
ARC
  8
0C
  5
586
 10
247.2472
 20
168.907027
 30
0.0
 40
0.5
 50
270.0
 51
0.0
  0
LINE
  8
0C
  5
587
 10
247.7472
 20
171.307027
 30
0.0
 11
251.6472
 21
171.307027
 31
0.0
  0
ARC
  8
0D
  5
588
 10
248.3472
 20
173.807027
 30
0.0
 40
0.5
 50
180.0
 51
270.0
  0
LINE
  8
10
  6
CENTER
  5
589
 10
255.6472
 20
150.931027
 30
0.0
 11
255.6472
 21
139.863027
 31
0.0
  0
CIRCLE
  8
0D
  5
58A
 10
263.6472
 20
140.607027
 30
0.0
 40
9.0
  0
CIRCLE
  8
0D
  5
58B
 10
263.6472
 20
140.607027
 30
0.0
 40
9.0
  0
CIRCLE
  8
0D
  5
58C
 10
263.6472
 20
140.607027
 30
0.0
 40
7.7
  0
LINE
  8
0D
  5
58D
 10
270.1472
 20
144.359027
 30
0.0
 11
263.6472
 21
148.115027
 31
0.0
  0
LINE
  8
0D
  5
58E
 10
263.6472
 20
148.115027
 30
0.0
 11
257.1472
 21
144.359027
 31
0.0
  0
LINE
  8
0D
  5
58F
 10
270.1472
 20
144.359027
 30
0.0
 11
263.6472
 21
148.115027
 31
0.0
  0
LINE
  8
0D
  5
590
 10
263.6472
 20
148.115027
 30
0.0
 11
257.1472
 21
144.359027
 31
0.0
  0
LINE
  8
0D
  5
591
 10
295.6472
 20
148.115027
 30
0.0
 11
289.1472
 21
144.359027
 31
0.0
  0
LINE
  8
0D
  5
592
 10
295.6472
 20
148.115027
 30
0.0
 11
289.1472
 21
144.359027
 31
0.0
  0
LINE
  8
0C
  5
593
 10
255.2952
 20
144.259027
 30
0.0
 11
255.2952
 21
148.607027
 31
0.0
  0
LINE
  8
0C
  5
594
 10
285.6472
 20
134.607027
 30
0.0
 11
285.6472
 21
154.007027
 31
0.0
  0
LINE
  8
0C
  5
595
 10
273.6472
 20
134.607027
 30
0.0
 11
273.6472
 21
155.359027
 31
0.0
  0
LINE
  8
0B
  5
596
 10
285.6472
 20
134.607027
 30
0.0
 11
273.6472
 21
134.607027
 31
0.0
  0
LINE
  8
0B
  5
597
 10
273.6472
 20
134.607027
 30
0.0
 11
285.6472
 21
134.607027
 31
0.0
  0
LINE
  8
0B
  6
CONTINUOUS
  5
598
 10
273.6472
 20
131.607027
 30
0.0
 11
273.6472
 21
134.607027
 31
0.0
  0
LINE
  8
0B
  6
CONTINUOUS
  5
599
 10
253.6472
 20
134.607027
 30
0.0
 11
253.6472
 21
131.607027
 31
0.0
  0
LINE
  8
0B
  5
59A
 10
269.6472
 20
128.707027
 30
0.0
 11
257.6472
 21
128.707027
 31
0.0
  0
LINE
  8
0C
  5
59B
 10
257.6472
 20
130.607027
 30
0.0
 11
269.6472
 21
130.607027
 31
0.0
  0
LINE
  8
0B
  6
CONTINUOUS
  5
59C
 10
254.6472
 20
130.607027
 30
0.0
 11
257.6472
 21
130.607027
 31
0.0
  0
LINE
  8
0B
  5
59D
 10
257.6472
 20
128.707027
 30
0.0
 11
257.6472
 21
130.607027
 31
0.0
  0
LINE
  8
0B
  5
59E
 10
253.6472
 20
131.607027
 30
0.0
 11
254.6472
 21
130.607027
 31
0.0
  0
LINE
  8
0B
  6
CONTINUOUS
  5
59F
 10
269.6472
 20
130.607027
 30
0.0
 11
272.6472
 21
130.607027
 31
0.0
  0
LINE
  8
0B
  5
5A0
 10
269.6472
 20
128.707027
 30
0.0
 11
269.6472
 21
130.607027
 31
0.0
  0
LINE
  8
0B
  5
5A1
 10
273.6472
 20
131.607027
 30
0.0
 11
272.6472
 21
130.607027
 31
0.0
  0
CIRCLE
  8
0D
  5
5A2
 10
263.6472
 20
140.607027
 30
0.0
 40
4.0
  0
CIRCLE
  8
0D
  5
5A3
 10
263.6472
 20
140.607027
 30
0.0
 40
4.0
  0
LINE
  8
0D
  5
5A4
 10
263.6472
 20
133.103027
 30
0.0
 11
270.1472
 21
136.855027
 31
0.0
  0
LINE
  8
0D
  5
5A5
 10
263.6472
 20
133.103027
 30
0.0
 11
270.1472
 21
136.855027
 31
0.0
  0
LINE
  8
0D
  5
5A6
 10
257.1472
 20
144.359027
 30
0.0
 11
257.1472
 21
136.855027
 31
0.0
  0
LINE
  8
0D
  5
5A7
 10
257.1472
 20
144.359027
 30
0.0
 11
257.1472
 21
136.855027
 31
0.0
  0
LINE
  8
0C
  5
5A8
 10
253.6472
 20
134.607027
 30
0.0
 11
253.6472
 21
142.607027
 31
0.0
  0
LINE
  8
0D
  5
5A9
 10
257.1472
 20
136.855027
 30
0.0
 11
263.6472
 21
133.103027
 31
0.0
  0
LINE
  8
0D
  5
5AA
 10
257.1472
 20
136.855027
 30
0.0
 11
263.6472
 21
133.103027
 31
0.0
  0
LINE
  8
0C
  5
5AB
 10
253.6472
 20
142.607027
 30
0.0
 11
255.5272
 21
144.487027
 31
0.0
  0
LINE
  8
0D
  5
5AC
 10
270.1472
 20
136.855027
 30
0.0
 11
270.1472
 21
144.359027
 31
0.0
  0
LINE
  8
0D
  5
5AD
 10
270.1472
 20
136.855027
 30
0.0
 11
270.1472
 21
144.359027
 31
0.0
  0
LINE
  8
0B
  6
CONTINUOUS
  5
5AE
 10
285.6472
 20
134.607027
 30
0.0
 11
285.6472
 21
131.607027
 31
0.0
  0
LINE
  8
0B
  6
CONTINUOUS
  5
5AF
 10
286.6472
 20
130.607027
 30
0.0
 11
289.6472
 21
130.607027
 31
0.0
  0
LINE
  8
0B
  5
5B0
 10
286.6472
 20
130.607027
 30
0.0
 11
285.6472
 21
131.607027
 31
0.0
  0
LINE
  8
0B
  5
5B1
 10
289.6472
 20
128.707027
 30
0.0
 11
289.6472
 21
130.607027
 31
0.0
  0
LINE
  8
0D
  5
5B2
 10
289.1472
 20
136.855027
 30
0.0
 11
295.6472
 21
133.103027
 31
0.0
  0
LINE
  8
0D
  5
5B3
 10
289.1472
 20
136.855027
 30
0.0
 11
295.6472
 21
133.103027
 31
0.0
  0
LINE
  8
0D
  5
5B4
 10
289.1472
 20
144.359027
 30
0.0
 11
289.1472
 21
136.855027
 31
0.0
  0
LINE
  8
0D
  5
5B5
 10
289.1472
 20
144.359027
 30
0.0
 11
289.1472
 21
136.855027
 31
0.0
  0
CIRCLE
  8
0D
  5
5B6
 10
295.6472
 20
140.607027
 30
0.0
 40
4.0
  0
CIRCLE
  8
0D
  5
5B7
 10
295.6472
 20
140.607027
 30
0.0
 40
4.0
  0
LINE
  8
0C
  5
5B8
 10
273.6472
 20
155.359027
 30
0.0
 11
277.1952
 21
155.359027
 31
0.0
  0
LINE
  8
0C
  5
5B9
 10
260.6472
 20
155.359027
 30
0.0
 11
273.6472
 21
155.359027
 31
0.0
  0
ARC
  8
0C
  5
5BA
 10
260.6472
 20
158.359027
 30
0.0
 40
3.0
 50
180.0
 51
270.0
  0
ARC
  8
0C
  5
5BB
 10
260.6472
 20
158.359027
 30
0.0
 40
3.0
 50
180.0
 51
270.0
  0
LINE
  8
0C
  5
5BC
 10
258.9472
 20
148.283027
 30
0.0
 11
258.9472
 21
155.307027
 31
0.0
  0
ARC
  8
0C
  5
5BD
 10
260.6472
 20
156.407027
 30
0.0
 40
3.0
 50
180.0
 51
235.482
  0
LINE
  8
0C
  5
5BE
 10
258.9472
 20
149.107027
 30
0.0
 11
257.6472
 21
149.107027
 31
0.0
  0
LINE
  8
0C
  5
5BF
 10
257.6472
 20
148.607027
 30
0.0
 11
257.6472
 21
149.107027
 31
0.0
  0
LINE
  8
0C
  5
5C0
 10
257.6472
 20
148.607027
 30
0.0
 11
256.8952
 21
148.607027
 31
0.0
  0
LINE
  8
0C
  5
5C1
 10
256.8952
 20
148.607027
 30
0.0
 11
255.2952
 21
148.607027
 31
0.0
  0
ARC
  8
0C
  5
5C2
 10
260.6472
 20
158.359027
 30
0.0
 40
3.0
 50
180.0
 51
243.554
  0
ARC
  8
0C
  5
5C3
 10
255.6472
 20
160.107027
 30
0.0
 40
2.0
 50
270.0
 51
0.0
  0
LINE
  8
0C
  5
5C4
 10
259.3112
 20
155.671027
 30
0.0
 11
258.9472
 21
155.307027
 31
0.0
  0
LINE
  8
0C
  5
5C5
 10
276.1792
 20
155.359027
 30
0.0
 11
273.6472
 21
155.359027
 31
0.0
  0
ARC
  8
0C
  5
5C6
 10
256.0472
 20
168.907027
 30
0.0
 40
0.5
 50
180.0
 51
270.0
  0
ARC
  8
0C
  5
5C7
 10
257.1472
 20
168.907027
 30
0.0
 40
0.5
 50
270.0
 51
0.0
  0
LINE
  8
0C
  5
5C8
 10
257.6472
 20
168.407027
 30
0.0
 11
256.0472
 21
168.407027
 31
0.0
  0
ARC
  8
0D
  5
5C9
 10
254.9472
 20
173.807027
 30
0.0
 40
0.5
 50
270.0
 51
0.0
  0
ARC
  8
0C
  5
5CA
 10
277.1952
 20
153.359027
 30
0.0
 40
2.0
 50
0.0
 51
90.0
  0
ARC
  8
0C
  5
5CB
 10
286.5952
 20
153.359027
 30
0.0
 40
2.0
 50
90.0
 51
180.0
  0
LINE
  8
0C
  5
5CC
 10
285.6472
 20
154.007027
 30
0.0
 11
286.9952
 21
155.359027
 31
0.0
  0
ARC
  8
0C
  5
5CD
 10
283.7952
 20
149.407027
 30
0.0
 40
0.8
 50
210.0
 51
0.0
  0
ARC
  8
0C
  5
5CE
 10
279.9952
 20
149.407027
 30
0.0
 40
0.8
 50
180.0
 51
330.0
  0
ARC
  8
0C
  5
5CF
 10
281.8952
 20
149.099027
 30
0.0
 40
1.0
 50
30.0
 51
150.0
  0
LINE
  8
0C
  5
5D0
 10
280.6912
 20
149.007027
 30
0.0
 11
281.0312
 21
149.599027
 31
0.0
  0
LINE
  8
0C
  5
5D1
 10
283.1032
 20
149.007027
 30
0.0
 11
282.7632
 21
149.599027
 31
0.0
  0
LINE
  8
0C
  5
5D2
 10
279.1952
 20
149.407027
 30
0.0
 11
279.1952
 21
153.359027
 31
0.0
  0
LINE
  8
0C
  5
5D3
 10
284.5952
 20
149.407027
 30
0.0
 11
284.5952
 21
153.359027
 31
0.0
  0
LINE
  8
1A
  6
CENTER
  5
5D4
 10
-11.6388
 20
200.607027
 30
0.0
 11
150.9044
 21
200.607027
 31
0.0
  0
DIMENSION
  8
FF
  5
5D5
  2
*D5
 10
0.9156
 20
328.087027
 30
0.0
 11
70.0906
 21
334.753727
 31
0.0
 12
-11.6388
 22
0.0
 32
0.0
  1
138
 13
139.2656
 23
242.607027
 33
0.0
 14
0.9156
 24
268.407027
 34
0.0
 50
180.0
  3
FSTD1
  0
LINE
  8
17
  5
5D6
 10
95.9656
 20
269.607027
 30
0.0
 11
94.7656
 21
269.607027
 31
0.0
  0
LINE
  8
17
  5
5D7
 10
94.7656
 20
251.607027
 30
0.0
 11
95.9656
 21
251.607027
 31
0.0
  0
ARC
  8
17
  5
5D8
 10
94.7656
 20
249.107027
 30
0.0
 40
0.5
 50
0.0
 51
90.0
  0
ARC
  8
16
  5
5D9
 10
94.2656
 20
244.859027
 30
0.0
 40
1.0
 50
0.0
 51
90.0
  0
ARC
  8
15
  5
5DA
 10
94.2656
 20
247.607027
 30
0.0
 40
1.0
 50
0.0
 51
90.0
  0
LINE
  8
16
  5
5DB
 10
97.2656
 20
191.107027
 30
0.0
 11
87.4156
 21
191.107027
 31
0.0
  0
LINE
  8
16
  5
5DC
 10
97.2656
 20
210.107027
 30
0.0
 11
87.4156
 21
210.107027
 31
0.0
  0
DIMENSION
  8
FF
  5
5DD
  2
*D6
 10
0.9156
 20
310.087027
 30
0.0
 11
47.8406
 21
316.753727
 31
0.0
 12
-11.6388
 22
0.0
 32
0.0
  1
94
 13
94.7656
 23
272.607027
 33
0.0
 14
0.9156
 24
268.407027
 34
0.0
 50
180.0
  3
FSTD1
  0
DIMENSION
  8
FF
  5
5DE
  2
*D11
 10
0.9156
 20
290.675027
 30
0.0
 11
20.3156
 21
297.341727
 31
0.0
 12
-11.6388
 22
0.0
 32
0.0
  1
38.8
 13
39.7156
 23
267.607027
 33
0.0
 14
0.9156
 24
268.407027
 34
0.0
 50
180.0
  3
FSTD2
  0
LINE
  8
16
  5
5DF
 10
35.9156
 20
242.107027
 30
0.0
 11
35.9156
 21
221.107027
 31
0.0
  0
LINE
  8
16
  5
5E0
 10
61.5788
 20
232.807027
 30
0.0
 11
38.0656
 21
232.807027
 31
0.0
  0
LINE
  8
16
  5
5E1
 10
37.0656
 20
231.807027
 30
0.0
 11
37.0656
 21
200.607027
 31
0.0
  0
LINE
  8
16
  5
5E2
 10
34.9156
 20
221.107027
 30
0.0
 11
34.9156
 21
206.607027
 31
0.0
  0
LINE
  8
16
  5
5E3
 10
34.9156
 20
194.607027
 30
0.0
 11
34.9156
 21
180.107027
 31
0.0
  0
LINE
  8
16
  5
5E4
 10
35.9156
 20
180.107027
 30
0.0
 11
34.9156
 21
180.107027
 31
0.0
  0
LINE
  8
16
  5
5E5
 10
35.9156
 20
206.607027
 30
0.0
 11
35.9156
 21
194.607027
 31
0.0
  0
LINE
  8
16
  5
5E6
 10
35.9156
 20
194.607027
 30
0.0
 11
34.9156
 21
194.607027
 31
0.0
  0
LINE
  8
16
  5
5E7
 10
35.9156
 20
206.607027
 30
0.0
 11
34.9156
 21
206.607027
 31
0.0
  0
LINE
  8
16
  5
5E8
 10
35.9156
 20
221.107027
 30
0.0
 11
34.9156
 21
221.107027
 31
0.0
  0
ARC
  8
16
  5
5E9
 10
38.0656
 20
231.807027
 30
0.0
 40
1.0
 50
90.0
 51
180.0
  0
LINE
  8
16
  5
5EA
 10
84.4656
 20
223.607027
 30
0.0
 11
84.4656
 21
200.607027
 31
0.0
  0
LINE
  8
16
  5
5EB
 10
86.4156
 20
209.107027
 30
0.0
 11
86.4156
 21
192.107027
 31
0.0
  0
LINE
  8
16
  5
5EC
 10
84.4656
 20
196.907027
 30
0.0
 11
57.2656
 21
196.907027
 31
0.0
  0
LINE
  8
16
  5
5ED
 10
84.4656
 20
204.307027
 30
0.0
 11
57.2656
 21
204.307027
 31
0.0
  0
CIRCLE
  8
17
  5
5EE
 10
55.2656
 20
186.359027
 30
0.0
 40
3.5
  0
CIRCLE
  8
17
  5
5EF
 10
55.2656
 20
186.359027
 30
0.0
 40
1.9
  0
LINE
  8
16
  5
5F0
 10
57.2656
 20
200.607027
 30
0.0
 11
57.2656
 21
196.907027
 31
0.0
  0
LINE
  8
16
  5
5F1
 10
57.2656
 20
200.607027
 30
0.0
 11
57.2656
 21
204.307027
 31
0.0
  0
LINE
  8
16
  5
5F2
 10
84.4656
 20
177.607027
 30
0.0
 11
84.4656
 21
200.607027
 31
0.0
  0
ARC
  8
16
  5
5F3
 10
87.4156
 20
192.107027
 30
0.0
 40
1.0
 50
180.0
 51
270.0
  0
ARC
  8
16
  5
5F4
 10
91.2656
 20
200.359027
 30
0.0
 40
1.0
 50
270.0
 51
0.0
  0
LINE
  8
16
  5
5F5
 10
90.7656
 20
194.107027
 30
0.0
 11
86.4156
 21
194.107027
 31
0.0
  0
ARC
  8
16
  5
5F6
 10
91.2656
 20
198.859027
 30
0.0
 40
0.5
 50
90.0
 51
180.0
  0
LINE
  8
16
  5
5F7
 10
90.7656
 20
194.107027
 30
0.0
 11
90.7656
 21
198.859027
 31
0.0
  0
LINE
  8
16
  5
5F8
 10
90.7656
 20
207.107027
 30
0.0
 11
86.4156
 21
207.107027
 31
0.0
  0
ARC
  8
16
  5
5F9
 10
91.2656
 20
200.859027
 30
0.0
 40
1.0
 50
0.0
 51
90.0
  0
ARC
  8
16
  5
5FA
 10
91.2656
 20
202.359027
 30
0.0
 40
0.5
 50
180.0
 51
270.0
  0
LINE
  8
16
  5
5FB
 10
90.7656
 20
207.107027
 30
0.0
 11
90.7656
 21
202.359027
 31
0.0
  0
LINE
  8
16
  5
5FC
 10
92.2656
 20
200.359027
 30
0.0
 11
92.2656
 21
200.859027
 31
0.0
  0
LINE
  8
16
  5
5FD
 10
83.4656
 20
224.607027
 30
0.0
 11
64.4656
 21
224.607027
 31
0.0
  0
CIRCLE
  8
17
  5
5FE
 10
55.2656
 20
214.859027
 30
0.0
 40
3.5
  0
CIRCLE
  8
17
  5
5FF
 10
55.2656
 20
214.859027
 30
0.0
 40
1.9
  0
LINE
  8
16
  5
600
 10
64.1976
 20
230.271027
 30
0.0
 11
63.3108
 21
231.807027
 31
0.0
  0
ARC
  8
16
  5
601
 10
62.4656
 20
229.271027
 30
0.0
 40
2.0
 50
0.0
 51
30.0
  0
LINE
  8
16
  5
602
 10
64.4656
 20
224.607027
 30
0.0
 11
64.4656
 21
229.271027
 31
0.0
  0
ARC
  8
16
  5
603
 10
61.5788
 20
230.807027
 30
0.0
 40
2.0
 50
30.0
 51
90.0
  0
ARC
  8
16
  5
604
 10
87.4156
 20
209.107027
 30
0.0
 40
1.0
 50
90.0
 51
180.0
  0
ARC
  8
16
  5
605
 10
83.4656
 20
223.607027
 30
0.0
 40
1.0
 50
0.0
 51
90.0
  0
LINE
  8
16
  5
606
 10
80.4156
 20
247.807027
 30
0.0
 11
41.7156
 21
247.807027
 31
0.0
  0
LINE
  8
15
  5
607
 10
48.7156
 20
266.607027
 30
0.0
 11
22.4156
 21
266.607027
 31
0.0
  0
LINE
  8
15
  5
608
 10
22.5656
 20
266.607027
 30
0.0
 11
1.4156
 21
266.607027
 31
0.0
  0
LINE
  8
16
  5
609
 10
0.9156
 20
266.407027
 30
0.0
 11
0.9156
 21
249.607027
 31
0.0
  0
LINE
  8
16
  5
60A
 10
1.4156
 20
249.607027
 30
0.0
 11
0.9156
 21
249.607027
 31
0.0
  0
LINE
  8
16
  5
60B
 10
1.4156
 20
266.407027
 30
0.0
 11
0.9156
 21
266.407027
 31
0.0
  0
ARC
  8
16
  5
60C
 10
33.7656
 20
254.607027
 30
0.0
 40
11.5
 50
343.2
 51
16.8
  0
LINE
  8
16
  5
60D
 10
39.7156
 20
259.607027
 30
0.0
 11
39.7156
 21
249.607027
 31
0.0
  0
LINE
  8
16
  5
60E
 10
40.5156
 20
258.859027
 30
0.0
 11
40.5156
 21
250.359027
 31
0.0
  0
LINE
  8
16
  5
60F
 10
40.5156
 20
249.607027
 30
0.0
 11
40.5156
 21
259.607027
 31
0.0
  0
LINE
  8
16
  5
610
 10
41.8156
 20
250.359027
 30
0.0
 11
41.8156
 21
258.859027
 31
0.0
  0
LINE
  8
16
  5
611
 10
41.8156
 20
259.107027
 30
0.0
 11
41.8156
 21
250.107027
 31
0.0
  0
LINE
  8
16
  5
612
 10
39.7156
 20
244.107027
 30
0.0
 11
39.7156
 21
265.607027
 31
0.0
  0
ARC
  8
16
  5
613
 10
36.9156
 20
242.107027
 30
0.0
 40
1.0
 50
90.0
 51
180.0
  0
ARC
  8
16
  5
614
 10
38.7156
 20
244.107027
 30
0.0
 40
1.0
 50
270.0
 51
0.0
  0
LINE
  8
16
  5
615
 10
38.7156
 20
243.107027
 30
0.0
 11
36.9156
 21
243.107027
 31
0.0
  0
LINE
  8
16
  5
616
 10
39.7156
 20
249.607027
 30
0.0
 11
40.5156
 21
249.607027
 31
0.0
  0
ARC
  8
16
  5
617
 10
41.7156
 20
249.807027
 30
0.0
 40
2.0
 50
180.0
 51
270.0
  0
ARC
  8
16
  5
618
 10
43.2312
 20
251.707027
 30
0.0
 40
1.6
 50
270.0
 51
342.967
  0
LINE
  8
16
  5
619
 10
40.5156
 20
250.359027
 30
0.0
 11
41.8156
 21
250.359027
 31
0.0
  0
LINE
  8
16
  5
61A
 10
41.8156
 20
250.107027
 30
0.0
 11
43.2312
 21
250.107027
 31
0.0
  0
LINE
  8
16
  5
61B
 10
40.5156
 20
259.607027
 30
0.0
 11
39.7156
 21
259.607027
 31
0.0
  0
ARC
  8
16
  5
61C
 10
43.2312
 20
257.507027
 30
0.0
 40
1.6
 50
17.0334
 51
90.0
  0
LINE
  8
16
  5
61D
 10
41.8156
 20
258.859027
 30
0.0
 11
40.5156
 21
258.859027
 31
0.0
  0
LINE
  8
16
  5
61E
 10
43.2312
 20
259.107027
 30
0.0
 11
41.8156
 21
259.107027
 31
0.0
  0
LINE
  8
16
  5
61F
 10
40.5156
 20
255.759027
 30
0.0
 11
41.8156
 21
254.459027
 31
0.0
  0
LINE
  8
16
  5
620
 10
40.5156
 20
254.759027
 30
0.0
 11
41.8156
 21
253.459027
 31
0.0
  0
ARC
  8
16
  5
621
 10
38.7156
 20
265.607027
 30
0.0
 40
1.0
 50
0.0
 51
90.0
  0
LINE
  8
17
  5
622
 10
94.7656
 20
269.607027
 30
0.0
 11
94.7656
 21
251.607027
 31
0.0
  0
LINE
  8
17
  5
623
 10
90.7656
 20
270.607027
 30
0.0
 11
90.7656
 21
252.107027
 31
0.0
  0
LINE
  8
17
  5
624
 10
86.6656
 20
270.107027
 30
0.0
 11
84.1656
 21
267.607027
 31
0.0
  0
LINE
  8
17
  5
625
 10
90.7656
 20
248.607027
 30
0.0
 11
90.7656
 21
270.607027
 31
0.0
  0
LINE
  8
17
  5
626
 10
94.7656
 20
248.475027
 30
0.0
 11
94.7656
 21
270.607027
 31
0.0
  0
LINE
  8
15
  5
627
 10
90.4656
 20
252.607027
 30
0.0
 11
49.7156
 21
252.629321
 31
0.0
  0
LINE
  8
15
  5
628
 10
49.7156
 20
265.607027
 30
0.0
 11
49.7156
 21
252.629321
 31
0.0
  0
LINE
  8
16
  6
CONTINUOUS
  5
629
 10
49.7156
 20
252.629321
 30
0.0
 11
49.7156
 21
249.807027
 31
0.0
  0
ARC
  8
16
  5
62A
 10
51.7156
 20
249.807027
 30
0.0
 40
2.0
 50
180.0
 51
270.0
  0
LINE
  8
16
  5
62B
 10
47.8156
 20
247.807027
 30
0.0
 11
49.7156
 21
247.807027
 31
0.0
  0
ARC
  8
15
  5
62C
 10
48.7156
 20
265.607027
 30
0.0
 40
1.0
 50
0.0
 51
90.0
  0
ARC
  8
17
  5
62D
 10
85.1656
 20
253.607027
 30
0.0
 40
1.0
 50
180.0
 51
270.0
  0
LINE
  8
16
  5
62E
 10
87.6932
 20
245.859027
 30
0.0
 11
80.4156
 21
247.807027
 31
0.0
  0
LINE
  8
15
  5
62F
 10
90.7656
 20
252.607027
 30
0.0
 11
85.1656
 21
252.607027
 31
0.0
  0
LINE
  8
16
  5
630
 10
94.2656
 20
245.859027
 30
0.0
 11
87.6932
 21
245.859027
 31
0.0
  0
LINE
  8
16
  6
CONTINUOUS
  5
631
 10
90.4656
 20
248.607027
 30
0.0
 11
90.7656
 21
248.607027
 31
0.0
  0
LINE
  8
15
  5
632
 10
90.7656
 20
248.607027
 30
0.0
 11
90.7656
 21
252.607027
 31
0.0
  0
LINE
  8
16
  5
633
 10
90.7656
 20
252.107027
 30
0.0
 11
89.1656
 21
252.107027
 31
0.0
  0
LINE
  8
16
  5
634
 10
89.1656
 20
252.607027
 30
0.0
 11
89.1656
 21
252.107027
 31
0.0
  0
LINE
  8
15
  5
635
 10
94.2656
 20
248.607027
 30
0.0
 11
90.7656
 21
248.607027
 31
0.0
  0
LINE
  8
16
  5
636
 10
90.4656
 20
248.607027
 30
0.0
 11
90.4656
 21
252.107027
 31
0.0
  0
LINE
  8
17
  5
637
 10
84.1656
 20
267.607027
 30
0.0
 11
84.1656
 21
253.607027
 31
0.0
  0
ARC
  8
17
  5
638
 10
91.0656
 20
270.607027
 30
0.0
 40
1.9
 50
90.0
 51
180.0
  0
LINE
  8
17
  5
639
 10
90.7656
 20
270.107027
 30
0.0
 11
86.6656
 21
270.107027
 31
0.0
  0
ARC
  8
17
  5
63A
 10
91.0656
 20
270.607027
 30
0.0
 40
0.3
 50
90.0
 51
180.0
  0
LINE
  8
17
  5
63B
 10
94.2656
 20
272.507027
 30
0.0
 11
94.2656
 21
270.907027
 31
0.0
  0
LINE
  8
17
  5
63C
 10
94.2656
 20
272.507027
 30
0.0
 11
91.0656
 21
272.507027
 31
0.0
  0
LINE
  8
17
  5
63D
 10
94.2656
 20
270.907027
 30
0.0
 11
91.0656
 21
270.907027
 31
0.0
  0
LINE
  8
17
  5
63E
 10
89.1656
 20
270.607027
 30
0.0
 11
89.1656
 21
270.107027
 31
0.0
  0
LINE
  8
17
  5
63F
 10
90.7656
 20
270.607027
 30
0.0
 11
94.7656
 21
270.607027
 31
0.0
  0
TEXT
  8
FF
  5
641
 10
201.1664
 20
298.199027
 30
0.0
 40
6.0
  1
M8
 41
0.928553
  0
LINE
  8
FF
  5
642
 10
217.0164
 20
294.451027
 30
0.0
 11
197.4164
 21
294.451027
 31
0.0
  0
LINE
  8
FF
  5
643
 10
217.0712
 20
242.351027
 30
0.0
 11
187.3712
 21
242.351027
 31
0.0
  0
TEXT
  8
FF
  5
644
 10
191.1212
 20
246.103027
 30
0.0
 40
6.0
  1
M3.5
 41
1.078977
  0
TEXT
  8
FF
  5
645
 10
187.554
 20
254.875027
 30
0.0
 40
8.0
  1
補助端子
 41
0.833333
  0
LINE
  8
16
  5
646
 10
95.2656
 20
245.607027
 30
0.0
 11
95.2656
 21
210.107027
 31
0.0
  0
LINE
  8
16
  5
647
 10
95.2656
 20
245.607027
 30
0.0
 11
95.2656
 21
210.107027
 31
0.0
  0
LINE
  8
16
  5
648
 10
97.2656
 20
191.607027
 30
0.0
 11
97.2656
 21
209.607027
 31
0.0
  0
LINE
  8
16
  5
649
 10
97.2656
 20
210.107027
 30
0.0
 11
97.2656
 21
191.107027
 31
0.0
  0
LINE
  8
16
  5
64A
 10
134.2656
 20
191.607027
 30
0.0
 11
97.2656
 21
191.607027
 31
0.0
  0
LINE
  8
16
  5
64B
 10
134.2656
 20
209.607027
 30
0.0
 11
97.2656
 21
209.607027
 31
0.0
  0
LINE
  8
17
  5
64C
 10
104.4656
 20
268.107027
 30
0.0
 11
104.4656
 21
253.107027
 31
0.0
  0
LINE
  8
17
  5
64D
 10
97.9656
 20
268.107027
 30
0.0
 11
97.9656
 21
253.107027
 31
0.0
  0
LINE
  8
17
  5
64E
 10
97.9656
 20
268.115027
 30
0.0
 11
97.9656
 21
253.103027
 31
0.0
  0
LINE
  8
17
  5
64F
 10
97.9656
 20
252.907027
 30
0.0
 11
97.9656
 21
268.307027
 31
0.0
  0
LINE
  8
17
  5
650
 10
95.9656
 20
268.307027
 30
0.0
 11
95.9656
 21
252.907027
 31
0.0
  0
LINE
  8
17
  5
651
 10
95.9656
 20
251.607027
 30
0.0
 11
95.9656
 21
269.607027
 31
0.0
  0
LINE
  8
15
  5
652
 10
134.2656
 20
245.607027
 30
0.0
 11
95.2656
 21
245.607027
 31
0.0
  0
LINE
  8
17
  5
653
 10
105.8512
 20
252.023027
 30
0.0
 11
111.6796
 21
246.195027
 31
0.0
  0
LINE
  8
17
  5
654
 10
104.4372
 20
252.607027
 30
0.0
 11
95.9656
 21
252.607027
 31
0.0
  0
LINE
  8
17
  6
CONTINUOUS
  5
655
 10
95.2656
 20
249.107027
 30
0.0
 11
95.2656
 21
247.607027
 31
0.0
  0
LINE
  8
15
  6
CONTINUOUS
  5
656
 10
95.2656
 20
247.607027
 30
0.0
 11
95.2656
 21
245.607027
 31
0.0
  0
LINE
  8
17
  5
657
 10
95.9656
 20
252.907027
 30
0.0
 11
97.9656
 21
252.907027
 31
0.0
  0
ARC
  8
17
  5
658
 10
104.4372
 20
250.607027
 30
0.0
 40
2.0
 50
45.0
 51
90.0
  0
ARC
  8
17
  5
659
 10
113.094
 20
247.607027
 30
0.0
 40
2.0
 50
225.0
 51
270.0
  0
LINE
  8
17
  5
65A
 10
114.1656
 20
264.607027
 30
0.0
 11
104.4656
 21
264.607027
 31
0.0
  0
LINE
  8
17
  5
65B
 10
104.4656
 20
256.607027
 30
0.0
 11
114.1656
 21
256.607027
 31
0.0
  0
LINE
  8
17
  5
65C
 10
95.9656
 20
261.107027
 30
0.0
 11
97.9656
 21
259.107027
 31
0.0
  0
LINE
  8
17
  5
65D
 10
95.9656
 20
262.107027
 30
0.0
 11
97.9656
 21
260.107027
 31
0.0
  0
LINE
  8
17
  5
65E
 10
104.4656
 20
253.107027
 30
0.0
 11
97.9656
 21
253.107027
 31
0.0
  0
LINE
  8
17
  5
65F
 10
104.4656
 20
256.859027
 30
0.0
 11
97.9656
 21
256.859027
 31
0.0
  0
LINE
  8
17
  5
660
 10
104.4656
 20
264.359027
 30
0.0
 11
97.9656
 21
264.359027
 31
0.0
  0
LINE
  8
17
  5
661
 10
114.1656
 20
256.607027
 30
0.0
 11
114.1656
 21
264.607027
 31
0.0
  0
ARC
  8
15
  5
662
 10
137.0916
 20
244.859027
 30
0.0
 40
1.0
 50
15.0
 51
90.0
  0
LINE
  8
15
  5
663
 10
139.2656
 20
240.607027
 30
0.0
 11
138.0572
 21
245.115027
 31
0.0
  0
LINE
  8
15
  5
664
 10
137.0916
 20
245.859027
 30
0.0
 11
134.2656
 21
245.859027
 31
0.0
  0
LINE
  8
17
  5
665
 10
104.4656
 20
268.107027
 30
0.0
 11
97.9656
 21
268.107027
 31
0.0
  0
LINE
  8
17
  5
666
 10
97.9656
 20
268.307027
 30
0.0
 11
95.9656
 21
268.307027
 31
0.0
  0
LINE
  8
FF
  5
667
 10
249.4552
 20
216.659027
 30
0.0
 11
217.0712
 21
242.351027
 31
0.0
  0
LINE
  8
0C
  5
668
 10
257.6472
 20
244.807027
 30
0.0
 11
257.6472
 21
215.107027
 31
0.0
  0
LINE
  8
0C
  5
669
 10
255.5472
 20
229.907027
 30
0.0
 11
251.6472
 21
229.907027
 31
0.0
  0
ARC
  8
0C
  5
66A
 10
252.6472
 20
215.107027
 30
0.0
 40
5.0
 50
270.0
 51
0.0
  0
ARC
  8
0C
  5
66B
 10
252.6472
 20
186.107027
 30
0.0
 40
5.0
 50
0.0
 51
90.0
  0
LINE
  8
0C
  5
66C
 10
252.8952
 20
191.107027
 30
0.0
 11
247.6472
 21
191.107027
 31
0.0
  0
LINE
  8
0C
  5
66D
 10
252.8952
 20
210.107027
 30
0.0
 11
247.6472
 21
210.107027
 31
0.0
  0
ARC
  8
0D
  5
66E
 10
253.1472
 20
199.607027
 30
0.0
 40
0.5
 50
90.0
 51
180.0
  0
ARC
  8
0D
  5
66F
 10
253.1472
 20
201.607027
 30
0.0
 40
0.5
 50
180.0
 51
270.0
  0
CIRCLE
  8
0D
  5
670
 10
252.1472
 20
200.607027
 30
0.0
 40
4.0
  0
ARC
  8
0C
  5
671
 10
252.6472
 20
215.107027
 30
0.0
 40
5.0
 50
270.0
 51
0.0
  0
ARC
  8
0C
  5
672
 10
252.6472
 20
186.107027
 30
0.0
 40
5.0
 50
0.0
 51
90.0
  0
CIRCLE
  8
0D
  5
673
 10
251.6472
 20
214.607027
 30
0.0
 40
3.0
  0
CIRCLE
  8
0D
  5
674
 10
251.6472
 20
224.107027
 30
0.0
 40
3.0
  0
CIRCLE
  8
0D
  5
675
 10
251.6472
 20
186.607027
 30
0.0
 40
3.0
  0
LINE
  8
0D
  5
676
 10
254.9472
 20
210.807027
 30
0.0
 11
248.3472
 21
210.807027
 31
0.0
  0
LINE
  8
0D
  5
677
 10
254.9472
 20
218.407027
 30
0.0
 11
248.3472
 21
218.407027
 31
0.0
  0
LINE
  8
0D
  5
678
 10
252.9072
 20
215.867027
 30
0.0
 11
250.3872
 21
213.347027
 31
0.0
  0
LINE
  8
0D
  5
679
 10
252.9072
 20
213.347027
 30
0.0
 11
250.3872
 21
215.867027
 31
0.0
  0
LINE
  8
0D
  5
67A
 10
254.9472
 20
220.307027
 30
0.0
 11
248.3472
 21
220.307027
 31
0.0
  0
LINE
  8
0D
  5
67B
 10
254.9472
 20
227.907027
 30
0.0
 11
248.3472
 21
227.907027
 31
0.0
  0
LINE
  8
0D
  5
67C
 10
252.9072
 20
222.847027
 30
0.0
 11
250.3872
 21
225.367027
 31
0.0
  0
LINE
  8
0D
  5
67D
 10
252.9072
 20
225.367027
 30
0.0
 11
250.3872
 21
222.847027
 31
0.0
  0
LINE
  8
0D
  5
67E
 10
254.9472
 20
180.907027
 30
0.0
 11
248.3472
 21
180.907027
 31
0.0
  0
LINE
  8
0D
  5
67F
 10
254.9472
 20
182.807027
 30
0.0
 11
248.3472
 21
182.807027
 31
0.0
  0
LINE
  8
0D
  5
680
 10
254.9472
 20
190.407027
 30
0.0
 11
248.3472
 21
190.407027
 31
0.0
  0
LINE
  8
0D
  5
681
 10
252.9072
 20
187.867027
 30
0.0
 11
250.3872
 21
185.347027
 31
0.0
  0
LINE
  8
0D
  5
682
 10
252.9072
 20
185.347027
 30
0.0
 11
250.3872
 21
187.867027
 31
0.0
  0
LINE
  8
0C
  5
683
 10
245.6468
 20
200.607027
 30
0.0
 11
245.6468
 21
232.307027
 31
0.0
  0
LINE
  8
0C
  5
684
 10
245.6468
 20
208.107027
 30
0.0
 11
245.6468
 21
193.107027
 31
0.0
  0
ARC
  8
0C
  5
685
 10
247.6472
 20
193.107027
 30
0.0
 40
2.0
 50
180.0
 51
270.0
  0
LINE
  8
0D
  5
686
 10
247.8472
 20
189.907027
 30
0.0
 11
247.8472
 21
183.307027
 31
0.0
  0
ARC
  8
0D
  5
687
 10
248.3472
 20
180.407027
 30
0.0
 40
0.5
 50
90.0
 51
180.0
  0
ARC
  8
0D
  5
688
 10
248.3472
 20
183.307027
 30
0.0
 40
0.5
 50
180.0
 51
270.0
  0
ARC
  8
0D
  5
689
 10
248.3472
 20
189.907027
 30
0.0
 40
0.5
 50
90.0
 51
180.0
  0
ARC
  8
0D
  5
68A
 10
251.1472
 20
199.607027
 30
0.0
 40
0.5
 50
0.0
 51
90.0
  0
LINE
  8
0D
  5
68B
 10
251.1472
 20
200.107027
 30
0.0
 11
248.1792
 21
200.107027
 31
0.0
  0
LINE
  8
0D
  5
68C
 10
251.6472
 20
199.607027
 30
0.0
 11
251.6472
 21
198.107027
 31
0.0
  0
LINE
  8
0D
  5
68D
 10
252.6472
 20
199.607027
 30
0.0
 11
252.6472
 21
198.107027
 31
0.0
  0
LINE
  8
0D
  5
68E
 10
251.6472
 20
198.107027
 30
0.0
 11
252.6472
 21
198.107027
 31
0.0
  0
ARC
  8
0D
  5
68F
 10
251.1472
 20
201.607027
 30
0.0
 40
0.5
 50
270.0
 51
0.0
  0
LINE
  8
0D
  5
690
 10
251.1472
 20
201.107027
 30
0.0
 11
248.1792
 21
201.107027
 31
0.0
  0
LINE
  8
0D
  5
691
 10
251.6472
 20
203.107027
 30
0.0
 11
252.6472
 21
203.107027
 31
0.0
  0
LINE
  8
0D
  5
692
 10
252.6472
 20
203.107027
 30
0.0
 11
252.6472
 21
201.607027
 31
0.0
  0
LINE
  8
0D
  5
693
 10
251.6472
 20
203.107027
 30
0.0
 11
251.6472
 21
201.607027
 31
0.0
  0
LINE
  8
FF
  5
694
 10
249.4552
 20
216.659027
 30
0.0
 11
242.0232
 21
226.676227
 31
0.0
  0
LINE
  8
0C
  5
695
 10
247.7472
 20
210.107027
 30
0.0
 11
247.7472
 21
232.307027
 31
0.0
  0
LINE
  8
0D
  5
696
 10
247.8472
 20
227.407027
 30
0.0
 11
247.8472
 21
220.807027
 31
0.0
  0
LINE
  8
FF
  5
697
 10
238.01036
 20
221.618227
 30
0.0
 11
249.4552
 21
216.659027
 31
0.0
  0
LINE
  8
0D
  5
698
 10
247.8472
 20
217.907027
 30
0.0
 11
247.8472
 21
211.307027
 31
0.0
  0
ARC
  8
0C
  5
699
 10
247.6472
 20
208.107027
 30
0.0
 40
2.0
 50
90.0
 51
180.0
  0
ARC
  8
0D
  5
69A
 10
248.3472
 20
211.307027
 30
0.0
 40
0.5
 50
180.0
 51
270.0
  0
ARC
  8
0D
  5
69B
 10
248.3472
 20
217.907027
 30
0.0
 40
0.5
 50
90.0
 51
180.0
  0
ARC
  8
0D
  5
69C
 10
248.3472
 20
220.807027
 30
0.0
 40
0.5
 50
180.0
 51
270.0
  0
LINE
  8
0D
  6
PHANTOM
  5
69D
 10
233.6468
 20
232.807027
 30
0.0
 11
245.6468
 21
232.807027
 31
0.0
  0
LINE
  8
0C
  5
69E
 10
247.7472
 20
229.907027
 30
0.0
 11
251.6472
 21
229.907027
 31
0.0
  0
ARC
  8
0D
  5
69F
 10
248.3472
 20
227.407027
 30
0.0
 40
0.5
 50
90.0
 51
180.0
  0
LINE
  8
0C
  5
6A0
 10
246.1472
 20
232.807027
 30
0.0
 11
247.2472
 21
232.807027
 31
0.0
  0
ARC
  8
0C
  5
6A1
 10
246.1472
 20
232.307027
 30
0.0
 40
0.5
 50
90.0
 51
180.0
  0
ARC
  8
0C
  5
6A2
 10
247.2472
 20
232.307027
 30
0.0
 40
0.5
 50
0.0
 51
90.0
  0
LINE
  8
0C
  5
6A3
 10
257.6472
 20
200.607027
 30
0.0
 11
257.6472
 21
232.307027
 31
0.0
  0
LINE
  8
0D
  5
6A4
 10
255.4472
 20
189.907027
 30
0.0
 11
255.4472
 21
183.307027
 31
0.0
  0
ARC
  8
0D
  5
6A5
 10
254.9472
 20
180.407027
 30
0.0
 40
0.5
 50
0.0
 51
90.0
  0
ARC
  8
0D
  5
6A6
 10
254.9472
 20
183.307027
 30
0.0
 40
0.5
 50
270.0
 51
0.0
  0
ARC
  8
0D
  5
6A7
 10
254.9472
 20
189.907027
 30
0.0
 40
0.5
 50
0.0
 51
90.0
  0
LINE
  8
0D
  5
6A8
 10
256.1152
 20
200.107027
 30
0.0
 11
253.1472
 21
200.107027
 31
0.0
  0
LINE
  8
0D
  5
6A9
 10
256.1152
 20
201.107027
 30
0.0
 11
253.1472
 21
201.107027
 31
0.0
  0
LINE
  8
0C
  5
6AA
 10
286.6472
 20
207.607027
 30
0.0
 11
286.6472
 21
193.607027
 31
0.0
  0
LINE
  8
0C
  5
6AB
 10
255.5472
 20
211.035027
 30
0.0
 11
255.5472
 21
232.307027
 31
0.0
  0
LINE
  8
0D
  5
6AC
 10
255.4472
 20
227.407027
 30
0.0
 11
255.4472
 21
220.807027
 31
0.0
  0
LINE
  8
0D
  5
6AD
 10
255.4472
 20
217.907027
 30
0.0
 11
255.4472
 21
211.307027
 31
0.0
  0
ARC
  8
0D
  5
6AE
 10
254.9472
 20
211.307027
 30
0.0
 40
0.5
 50
270.0
 51
0.0
  0
ARC
  8
0D
  5
6AF
 10
254.9472
 20
217.907027
 30
0.0
 40
0.5
 50
0.0
 51
90.0
  0
ARC
  8
0D
  5
6B0
 10
254.9472
 20
220.807027
 30
0.0
 40
0.5
 50
270.0
 51
0.0
  0
ARC
  8
0D
  5
6B1
 10
254.9472
 20
227.407027
 30
0.0
 40
0.5
 50
0.0
 51
90.0
  0
ARC
  8
0C
  5
6B2
 10
257.1472
 20
232.307027
 30
0.0
 40
0.5
 50
0.0
 51
90.0
  0
ARC
  8
0C
  5
6B3
 10
256.0472
 20
232.307027
 30
0.0
 40
0.5
 50
90.0
 51
180.0
  0
LINE
  8
0C
  5
6B4
 10
257.6472
 20
232.807027
 30
0.0
 11
256.0472
 21
232.807027
 31
0.0
  0
LINE
  8
FF
  5
6B5
 10
256.9072
 20
266.575027
 30
0.0
 11
217.0164
 21
294.451027
 31
0.0
  0
LINE
  8
FF
  5
6B6
 10
256.9072
 20
266.575027
 30
0.0
 11
248.8808
 21
276.122227
 31
0.0
  0
LINE
  8
FF
  5
6B7
 10
245.1824
 20
270.830227
 30
0.0
 11
256.9072
 21
266.575027
 31
0.0
  0
CIRCLE
  8
0D
  5
6B8
 10
251.1472
 20
254.607027
 30
0.0
 40
4.0
  0
CIRCLE
  8
0D
  5
6B9
 10
251.1472
 20
254.607027
 30
0.0
 40
3.5
  0
LINE
  8
0C
  5
6BA
 10
255.6472
 20
243.107027
 30
0.0
 11
248.6472
 21
243.107027
 31
0.0
  0
LINE
  8
0B
  5
6BB
 10
253.6472
 20
266.607027
 30
0.0
 11
248.6472
 21
266.607027
 31
0.0
  0
LINE
  8
0B
  5
6BC
 10
248.6472
 20
266.607027
 30
0.0
 11
253.6472
 21
266.607027
 31
0.0
  0
ARC
  8
0C
  5
6BD
 10
248.6472
 20
246.107027
 30
0.0
 40
3.0
 50
180.0
 51
270.0
  0
LINE
  8
0D
  5
6BE
 10
249.6752
 20
256.079027
 30
0.0
 11
252.6152
 21
253.139027
 31
0.0
  0
LINE
  8
0D
  5
6BF
 10
252.6152
 20
256.079027
 30
0.0
 11
249.6752
 21
253.139027
 31
0.0
  0
ARC
  8
0B
  5
6C0
 10
248.6472
 20
263.607027
 30
0.0
 40
3.0
 50
90.0
 51
180.0
  0
ARC
  8
0B
  5
6C1
 10
248.6472
 20
263.607027
 30
0.0
 40
3.0
 50
90.0
 51
180.0
  0
LINE
  8
0B
  6
CONTINUOUS
  5
6C2
 10
273.6472
 20
269.607027
 30
0.0
 11
273.6472
 21
266.607027
 31
0.0
  0
LINE
  8
0B
  6
CONTINUOUS
  5
6C3
 10
253.6472
 20
269.607027
 30
0.0
 11
253.6472
 21
266.607027
 31
0.0
  0
LINE
  8
0B
  6
CONTINUOUS
  5
6C4
 10
285.6472
 20
269.607027
 30
0.0
 11
285.6472
 21
266.607027
 31
0.0
  0
CIRCLE
  8
0D
  5
6C5
 10
263.6472
 20
260.607027
 30
0.0
 40
7.7
  0
CIRCLE
  8
0D
  5
6C6
 10
263.6472
 20
260.607027
 30
0.0
 40
9.0
  0
CIRCLE
  8
0D
  5
6C7
 10
263.6472
 20
260.607027
 30
0.0
 40
9.0
  0
LINE
  8
0D
  5
6C8
 10
295.6472
 20
268.115027
 30
0.0
 11
289.1472
 21
264.359027
 31
0.0
  0
LINE
  8
0D
  5
6C9
 10
295.6472
 20
268.115027
 30
0.0
 11
289.1472
 21
264.359027
 31
0.0
  0
LINE
  8
0D
  5
6CA
 10
270.1472
 20
264.359027
 30
0.0
 11
263.6472
 21
268.115027
 31
0.0
  0
LINE
  8
0D
  5
6CB
 10
263.6472
 20
268.115027
 30
0.0
 11
257.1472
 21
264.359027
 31
0.0
  0
LINE
  8
0D
  5
6CC
 10
270.1472
 20
264.359027
 30
0.0
 11
263.6472
 21
268.115027
 31
0.0
  0
LINE
  8
0D
  5
6CD
 10
263.6472
 20
268.115027
 30
0.0
 11
257.1472
 21
264.359027
 31
0.0
  0
LINE
  8
0C
  5
6CE
 10
260.6472
 20
245.859027
 30
0.0
 11
277.1952
 21
245.859027
 31
0.0
  0
LINE
  8
0C
  5
6CF
 10
273.6472
 20
253.007027
 30
0.0
 11
285.6472
 21
253.007027
 31
0.0
  0
CIRCLE
  8
0D
  5
6D0
 10
279.6472
 20
260.307027
 30
0.0
 40
3.0
  0
LINE
  8
0D
  5
6D1
 10
276.3472
 20
264.107027
 30
0.0
 11
282.9472
 21
264.107027
 31
0.0
  0
LINE
  8
0D
  5
6D2
 10
276.3472
 20
256.507027
 30
0.0
 11
282.9472
 21
256.507027
 31
0.0
  0
LINE
  8
0B
  5
6D3
 10
273.6472
 20
266.607027
 30
0.0
 11
285.6472
 21
266.607027
 31
0.0
  0
LINE
  8
0C
  5
6D4
 10
255.2952
 20
256.959027
 30
0.0
 11
255.2952
 21
252.607027
 31
0.0
  0
LINE
  8
0C
  5
6D5
 10
273.6472
 20
266.607027
 30
0.0
 11
273.6472
 21
245.859027
 31
0.0
  0
LINE
  8
0C
  5
6D6
 10
276.1792
 20
245.859027
 30
0.0
 11
260.6472
 21
245.859027
 31
0.0
  0
ARC
  8
0C
  5
6D7
 10
260.6472
 20
242.859027
 30
0.0
 40
3.0
 50
90.0
 51
180.0
  0
ARC
  8
0C
  5
6D8
 10
260.6472
 20
242.859027
 30
0.0
 40
3.0
 50
90.0
 51
180.0
  0
ARC
  8
0C
  5
6D9
 10
260.6472
 20
244.807027
 30
0.0
 40
3.0
 50
124.518
 51
180.0
  0
ARC
  8
0C
  5
6DA
 10
260.6472
 20
242.859027
 30
0.0
 40
3.0
 50
90.0
 51
180.0
  0
ARC
  8
0C
  5
6DB
 10
255.6472
 20
241.107027
 30
0.0
 40
2.0
 50
0.0
 51
90.0
  0
LINE
  8
0C
  5
6DC
 10
258.9472
 20
252.107027
 30
0.0
 11
257.6472
 21
252.107027
 31
0.0
  0
LINE
  8
0C
  5
6DD
 10
256.8952
 20
252.607027
 30
0.0
 11
255.2952
 21
252.607027
 31
0.0
  0
LINE
  8
0C
  5
6DE
 10
257.6472
 20
252.607027
 30
0.0
 11
256.8952
 21
252.607027
 31
0.0
  0
LINE
  8
0C
  5
6DF
 10
257.6472
 20
252.607027
 30
0.0
 11
257.6472
 21
252.107027
 31
0.0
  0
LINE
  8
0C
  5
6E0
 10
259.3112
 20
245.543027
 30
0.0
 11
258.9472
 21
245.907027
 31
0.0
  0
LINE
  8
0C
  5
6E1
 10
258.9472
 20
252.931027
 30
0.0
 11
258.9472
 21
245.907027
 31
0.0
  0
CIRCLE
  8
0D
  5
6E2
 10
263.6472
 20
260.607027
 30
0.0
 40
4.0
  0
CIRCLE
  8
0D
  5
6E3
 10
263.6472
 20
260.607027
 30
0.0
 40
4.0
  0
LINE
  8
0D
  5
6E4
 10
263.6472
 20
253.103027
 30
0.0
 11
270.1472
 21
256.855027
 31
0.0
  0
LINE
  8
0D
  5
6E5
 10
263.6472
 20
253.103027
 30
0.0
 11
270.1472
 21
256.855027
 31
0.0
  0
LINE
  8
0D
  5
6E6
 10
257.1472
 20
264.359027
 30
0.0
 11
257.1472
 21
256.855027
 31
0.0
  0
LINE
  8
0D
  5
6E7
 10
257.1472
 20
264.359027
 30
0.0
 11
257.1472
 21
256.855027
 31
0.0
  0
LINE
  8
0C
  5
6E8
 10
253.6472
 20
266.607027
 30
0.0
 11
253.6472
 21
258.607027
 31
0.0
  0
LINE
  8
0D
  5
6E9
 10
257.1472
 20
256.855027
 30
0.0
 11
263.6472
 21
253.103027
 31
0.0
  0
LINE
  8
0D
  5
6EA
 10
257.1472
 20
256.855027
 30
0.0
 11
263.6472
 21
253.103027
 31
0.0
  0
LINE
  8
0C
  5
6EB
 10
253.6472
 20
258.607027
 30
0.0
 11
255.5272
 21
256.731027
 31
0.0
  0
LINE
  8
0D
  5
6EC
 10
270.1472
 20
256.855027
 30
0.0
 11
270.1472
 21
264.359027
 31
0.0
  0
LINE
  8
0D
  5
6ED
 10
270.1472
 20
256.855027
 30
0.0
 11
270.1472
 21
264.359027
 31
0.0
  0
LINE
  8
0D
  5
6EE
 10
275.8472
 20
263.607027
 30
0.0
 11
275.8472
 21
257.007027
 31
0.0
  0
LINE
  8
0C
  5
6EF
 10
276.1472
 20
256.507027
 30
0.0
 11
276.1472
 21
253.007027
 31
0.0
  0
ARC
  8
0D
  5
6F0
 10
276.3472
 20
257.007027
 30
0.0
 40
0.5
 50
180.0
 51
270.0
  0
LINE
  8
0C
  5
6F1
 10
276.1472
 20
253.607027
 30
0.0
 11
273.6472
 21
253.607027
 31
0.0
  0
ARC
  8
0D
  5
6F2
 10
276.3472
 20
263.607027
 30
0.0
 40
0.5
 50
90.0
 51
180.0
  0
LINE
  8
0C
  5
6F3
 10
285.6472
 20
266.607027
 30
0.0
 11
285.6472
 21
247.207027
 31
0.0
  0
ARC
  8
0C
  5
6F4
 10
283.7952
 20
251.807027
 30
0.0
 40
0.8
 50
0.0
 51
150.0
  0
ARC
  8
0C
  5
6F5
 10
281.8952
 20
252.115027
 30
0.0
 40
1.0
 50
210.0
 51
330.0
  0
ARC
  8
0C
  5
6F6
 10
279.9952
 20
251.807027
 30
0.0
 40
0.8
 50
30.0
 51
180.0
  0
ARC
  8
0C
  5
6F7
 10
277.1952
 20
247.859027
 30
0.0
 40
2.0
 50
270.0
 51
0.0
  0
LINE
  8
0C
  5
6F8
 10
283.1032
 20
252.207027
 30
0.0
 11
282.7632
 21
251.615027
 31
0.0
  0
LINE
  8
0C
  5
6F9
 10
280.6912
 20
252.207027
 30
0.0
 11
281.0312
 21
251.615027
 31
0.0
  0
LINE
  8
0C
  5
6FA
 10
279.1952
 20
251.807027
 30
0.0
 11
279.1952
 21
247.859027
 31
0.0
  0
ARC
  8
0C
  5
6FB
 10
286.5952
 20
247.859027
 30
0.0
 40
2.0
 50
180.0
 51
270.0
  0
LINE
  8
0C
  5
6FC
 10
284.5952
 20
251.807027
 30
0.0
 11
284.5952
 21
247.859027
 31
0.0
  0
LINE
  8
0C
  5
6FD
 10
285.6472
 20
247.207027
 30
0.0
 11
286.9952
 21
245.859027
 31
0.0
  0
LINE
  8
0D
  5
6FE
 10
289.1472
 20
256.855027
 30
0.0
 11
295.6472
 21
253.103027
 31
0.0
  0
LINE
  8
0D
  5
6FF
 10
289.1472
 20
256.855027
 30
0.0
 11
295.6472
 21
253.103027
 31
0.0
  0
LINE
  8
0D
  5
700
 10
289.1472
 20
264.359027
 30
0.0
 11
289.1472
 21
256.855027
 31
0.0
  0
LINE
  8
0D
  5
701
 10
289.1472
 20
264.359027
 30
0.0
 11
289.1472
 21
256.855027
 31
0.0
  0
LINE
  8
0D
  5
702
 10
278.3872
 20
261.567027
 30
0.0
 11
280.9072
 21
259.047027
 31
0.0
  0
LINE
  8
0D
  5
703
 10
278.3872
 20
259.047027
 30
0.0
 11
280.9072
 21
261.567027
 31
0.0
  0
LINE
  8
0D
  5
704
 10
283.4472
 20
263.607027
 30
0.0
 11
283.4472
 21
257.007027
 31
0.0
  0
ARC
  8
0D
  5
705
 10
282.9472
 20
257.007027
 30
0.0
 40
0.5
 50
270.0
 51
0.0
  0
LINE
  8
0C
  5
706
 10
285.6472
 20
253.607027
 30
0.0
 11
283.1472
 21
253.607027
 31
0.0
  0
LINE
  8
0C
  5
707
 10
283.1472
 20
256.507027
 30
0.0
 11
283.1472
 21
253.007027
 31
0.0
  0
LINE
  8
0C
  5
708
 10
278.1472
 20
255.007027
 30
0.0
 11
281.1472
 21
255.007027
 31
0.0
  0
LINE
  8
0C
  5
709
 10
278.1472
 20
255.007027
 30
0.0
 11
278.1472
 21
253.007027
 31
0.0
  0
LINE
  8
0C
  5
70A
 10
281.1472
 20
255.007027
 30
0.0
 11
281.1472
 21
253.007027
 31
0.0
  0
LINE
  8
0C
  5
70B
 10
278.1472
 20
253.607027
 30
0.0
 11
278.1472
 21
253.007027
 31
0.0
  0
LINE
  8
0C
  5
70C
 10
281.1472
 20
253.607027
 30
0.0
 11
281.1472
 21
253.007027
 31
0.0
  0
LINE
  8
0C
  5
70D
 10
281.1472
 20
253.607027
 30
0.0
 11
278.1472
 21
253.607027
 31
0.0
  0
ARC
  8
0D
  5
70E
 10
282.9472
 20
263.607027
 30
0.0
 40
0.5
 50
0.0
 51
90.0
  0
CIRCLE
  8
0D
  5
70F
 10
295.6472
 20
260.607027
 30
0.0
 40
4.0
  0
CIRCLE
  8
0D
  5
710
 10
295.6472
 20
260.607027
 30
0.0
 40
4.0
  0
LINE
  8
0B
  5
711
 10
269.6472
 20
272.507027
 30
0.0
 11
257.6472
 21
272.507027
 31
0.0
  0
LINE
  8
0C
  5
712
 10
257.6472
 20
270.607027
 30
0.0
 11
269.6472
 21
270.607027
 31
0.0
  0
LINE
  8
0B
  6
CONTINUOUS
  5
713
 10
254.6472
 20
270.607027
 30
0.0
 11
257.6472
 21
270.607027
 31
0.0
  0
LINE
  8
0B
  5
714
 10
257.6472
 20
270.607027
 30
0.0
 11
257.6472
 21
272.507027
 31
0.0
  0
LINE
  8
0B
  5
715
 10
253.6472
 20
269.607027
 30
0.0
 11
254.6472
 21
270.607027
 31
0.0
  0
LINE
  8
0B
  6
CONTINUOUS
  5
716
 10
269.6472
 20
270.607027
 30
0.0
 11
272.6472
 21
270.607027
 31
0.0
  0
LINE
  8
0B
  5
717
 10
269.6472
 20
272.507027
 30
0.0
 11
269.6472
 21
270.607027
 31
0.0
  0
LINE
  8
0B
  5
718
 10
273.6472
 20
269.607027
 30
0.0
 11
272.6472
 21
270.607027
 31
0.0
  0
LINE
  8
0B
  6
CONTINUOUS
  5
719
 10
286.6472
 20
270.607027
 30
0.0
 11
289.6472
 21
270.607027
 31
0.0
  0
LINE
  8
0B
  5
71A
 10
286.6472
 20
270.607027
 30
0.0
 11
285.6472
 21
269.607027
 31
0.0
  0
LINE
  8
0B
  5
71B
 10
289.6472
 20
272.507027
 30
0.0
 11
289.6472
 21
270.607027
 31
0.0
  0
TEXT
  8
FF
  5
71C
 10
196.9724
 20
307.607027
 30
0.0
 40
8.0
  1
主端子
 41
0.833333
  0
LINE
  8
38
  6
CENTER
  5
71D
 10
534.606126
 20
280.847027
 30
0.0
 11
534.606126
 21
119.095027
 31
0.0
  0
DIMENSION
  8
FF
  5
71E
  2
*D12
 10
489.606126
 20
320.855027
 30
0.0
 11
534.606126
 21
330.188427
 31
0.0
 12
19.594926
 22
0.0
 32
0.0
  1
(80～)90
 13
579.606126
 23
263.031027
 33
0.0
 14
489.606126
 24
152.931027
 34
0.0
 50
180.0
  3
FSTD3
  0
DIMENSION
  8
FF
  5
71F
  2
*D7
 10
377.2192
 20
260.607027
 30
0.0
 11
370.5525
 21
200.607027
 31
0.0
  1
120
 13
329.6472
 23
140.607027
 33
0.0
 14
329.6472
 24
260.607027
 34
0.0
 50
90.0
  3
FSTD1
  0
DIMENSION
  8
FF
  5
720
  2
*D8
 10
396.0192
 20
128.707027
 30
0.0
 11
389.3525
 21
200.607027
 31
0.0
  1
144
 13
335.6472
 23
272.507027
 33
0.0
 14
335.6472
 24
128.707027
 34
0.0
 50
270.0
  3
FSTD1
  0
DIMENSION
  8
FF
  5
721
  2
*D13
 10
617.494126
 20
145.607027
 30
0.0
 11
608.160726
 21
200.607027
 31
0.0
 12
19.594926
 22
0.0
 32
0.0
  1
110
 13
585.998126
 23
255.607027
 33
0.0
 14
500.998126
 24
145.607027
 34
0.0
 50
270.0
  3
FSTD3
  0
LINE
  8
0D
  6
PHANTOM
  5
722
 10
357.6472
 20
232.807027
 30
0.0
 11
357.6472
 21
168.407027
 31
0.0
  0
LINE
  8
0C
  5
723
 10
343.5472
 20
191.107027
 30
0.0
 11
343.5472
 21
168.907027
 31
0.0
  0
LINE
  8
0C
  5
724
 10
345.6472
 20
200.607027
 30
0.0
 11
345.6472
 21
168.907027
 31
0.0
  0
LINE
  8
0C
  5
725
 10
335.7472
 20
190.179027
 30
0.0
 11
335.7472
 21
168.907027
 31
0.0
  0
LINE
  8
0C
  5
726
 10
333.6472
 20
200.607027
 30
0.0
 11
333.6472
 21
168.907027
 31
0.0
  0
LINE
  8
0C
  5
727
 10
333.6472
 20
242.859027
 30
0.0
 11
333.6472
 21
158.359027
 31
0.0
  0
LINE
  8
0C
  5
728
 10
328.6472
 20
235.607027
 30
0.0
 11
328.6472
 21
165.607027
 31
0.0
  0
LINE
  8
0C
  5
729
 10
333.6472
 20
158.359027
 30
0.0
 11
333.6472
 21
242.859027
 31
0.0
  0
LINE
  8
0C
  5
72A
 10
333.6472
 20
186.107027
 30
0.0
 11
333.6472
 21
156.407027
 31
0.0
  0
LINE
  8
0B
  5
72B
 10
345.6472
 20
263.607027
 30
0.0
 11
345.6472
 21
137.607027
 31
0.0
  0
CIRCLE
  8
0D
  5
72C
 10
339.6472
 20
177.107027
 30
0.0
 40
3.0
  0
LINE
  8
0D
  5
72D
 10
338.3872
 20
175.847027
 30
0.0
 11
340.9072
 21
178.367027
 31
0.0
  0
LINE
  8
0D
  5
72E
 10
338.3872
 20
178.367027
 30
0.0
 11
340.9072
 21
175.847027
 31
0.0
  0
LINE
  8
0D
  5
72F
 10
335.8472
 20
180.407027
 30
0.0
 11
335.8472
 21
173.807027
 31
0.0
  0
LINE
  8
0D
  5
730
 10
343.4472
 20
180.407027
 30
0.0
 11
343.4472
 21
173.807027
 31
0.0
  0
LINE
  8
34
  6
PHANTOM
  5
731
 10
584.606126
 20
263.607027
 30
0.0
 11
584.606126
 21
137.607027
 31
0.0
  0
LINE
  8
34
  6
PHANTOM
  5
732
 10
484.606126
 20
263.607027
 30
0.0
 11
484.606126
 21
137.607027
 31
0.0
  0
LINE
  8
0B
  5
733
 10
345.6472
 20
263.607027
 30
0.0
 11
345.6472
 21
137.607027
 31
0.0
  0
LINE
  8
34
  6
PHANTOM
  5
734
 10
512.606126
 20
134.607027
 30
0.0
 11
524.606126
 21
134.607027
 31
0.0
  0
LINE
  8
0D
  6
PHANTOM
  5
735
 10
357.6472
 20
168.407027
 30
0.0
 11
345.6472
 21
168.407027
 31
0.0
  0
CIRCLE
  8
0D
  5
736
 10
327.6472
 20
140.607027
 30
0.0
 40
9.0
  0
CIRCLE
  8
0D
  5
737
 10
327.6472
 20
140.607027
 30
0.0
 40
7.7
  0
CIRCLE
  8
0D
  5
738
 10
327.6472
 20
140.607027
 30
0.0
 40
9.0
  0
LINE
  8
0D
  5
739
 10
327.6472
 20
148.115027
 30
0.0
 11
321.1472
 21
144.359027
 31
0.0
  0
LINE
  8
0D
  5
73A
 10
334.1472
 20
144.359027
 30
0.0
 11
327.6472
 21
148.115027
 31
0.0
  0
LINE
  8
0D
  5
73B
 10
327.6472
 20
148.115027
 30
0.0
 11
321.1472
 21
144.359027
 31
0.0
  0
LINE
  8
0D
  5
73C
 10
334.1472
 20
144.359027
 30
0.0
 11
327.6472
 21
148.115027
 31
0.0
  0
LINE
  8
0C
  5
73D
 10
335.9952
 20
144.259027
 30
0.0
 11
335.9952
 21
148.607027
 31
0.0
  0
CIRCLE
  8
0D
  5
73E
 10
340.1472
 20
146.607027
 30
0.0
 40
4.0
  0
CIRCLE
  8
0D
  5
73F
 10
340.1472
 20
146.607027
 30
0.0
 40
3.5
  0
LINE
  8
0D
  5
740
 10
338.6752
 20
148.079027
 30
0.0
 11
341.6152
 21
145.139027
 31
0.0
  0
LINE
  8
0D
  5
741
 10
341.6152
 20
148.079027
 30
0.0
 11
338.6752
 21
145.139027
 31
0.0
  0
LINE
  8
0C
  5
742
 10
317.6472
 20
134.607027
 30
0.0
 11
317.6472
 21
155.359027
 31
0.0
  0
LINE
  8
0C
  5
743
 10
305.6472
 20
134.607027
 30
0.0
 11
305.6472
 21
154.007027
 31
0.0
  0
CIRCLE
  8
0D
  5
744
 10
327.6472
 20
140.607027
 30
0.0
 40
4.0
  0
CIRCLE
  8
0D
  5
745
 10
327.6472
 20
140.607027
 30
0.0
 40
4.0
  0
LINE
  8
0D
  5
746
 10
321.1472
 20
136.855027
 30
0.0
 11
327.6472
 21
133.103027
 31
0.0
  0
LINE
  8
0D
  5
747
 10
321.1472
 20
136.855027
 30
0.0
 11
327.6472
 21
133.103027
 31
0.0
  0
LINE
  8
0B
  5
748
 10
333.6472
 20
128.707027
 30
0.0
 11
321.6472
 21
128.707027
 31
0.0
  0
LINE
  8
0C
  5
749
 10
333.6472
 20
130.607027
 30
0.0
 11
321.6472
 21
130.607027
 31
0.0
  0
LINE
  8
0B
  6
CONTINUOUS
  5
74A
 10
317.6472
 20
134.607027
 30
0.0
 11
317.6472
 21
131.607027
 31
0.0
  0
LINE
  8
0B
  6
CONTINUOUS
  5
74B
 10
305.6472
 20
131.607027
 30
0.0
 11
305.6472
 21
134.607027
 31
0.0
  0
LINE
  8
0B
  6
CONTINUOUS
  5
74C
 10
301.6472
 20
130.607027
 30
0.0
 11
304.6472
 21
130.607027
 31
0.0
  0
LINE
  8
0B
  5
74D
 10
301.6472
 20
128.707027
 30
0.0
 11
301.6472
 21
130.607027
 31
0.0
  0
LINE
  8
0B
  5
74E
 10
305.6472
 20
131.607027
 30
0.0
 11
304.6472
 21
130.607027
 31
0.0
  0
LINE
  8
0B
  6
CONTINUOUS
  5
74F
 10
318.6472
 20
130.607027
 30
0.0
 11
321.6472
 21
130.607027
 31
0.0
  0
LINE
  8
0B
  5
750
 10
317.6472
 20
131.607027
 30
0.0
 11
318.6472
 21
130.607027
 31
0.0
  0
LINE
  8
0B
  5
751
 10
321.6472
 20
128.707027
 30
0.0
 11
321.6472
 21
130.607027
 31
0.0
  0
LINE
  8
0B
  5
752
 10
317.6472
 20
134.607027
 30
0.0
 11
305.6472
 21
134.607027
 31
0.0
  0
LINE
  8
0B
  5
753
 10
305.6472
 20
134.607027
 30
0.0
 11
317.6472
 21
134.607027
 31
0.0
  0
LINE
  8
0D
  5
754
 10
302.1472
 20
136.855027
 30
0.0
 11
302.1472
 21
144.359027
 31
0.0
  0
LINE
  8
0D
  5
755
 10
302.1472
 20
136.855027
 30
0.0
 11
302.1472
 21
144.359027
 31
0.0
  0
LINE
  8
0D
  5
756
 10
321.1472
 20
144.359027
 30
0.0
 11
321.1472
 21
136.855027
 31
0.0
  0
LINE
  8
0D
  5
757
 10
321.1472
 20
144.359027
 30
0.0
 11
321.1472
 21
136.855027
 31
0.0
  0
LINE
  8
0B
  6
CONTINUOUS
  5
758
 10
337.6472
 20
131.607027
 30
0.0
 11
337.6472
 21
134.607027
 31
0.0
  0
LINE
  8
0B
  6
CONTINUOUS
  5
759
 10
333.6472
 20
130.607027
 30
0.0
 11
336.6472
 21
130.607027
 31
0.0
  0
LINE
  8
0B
  5
75A
 10
333.6472
 20
128.707027
 30
0.0
 11
333.6472
 21
130.607027
 31
0.0
  0
LINE
  8
0B
  5
75B
 10
337.6472
 20
131.607027
 30
0.0
 11
336.6472
 21
130.607027
 31
0.0
  0
LINE
  8
0B
  5
75C
 10
342.6472
 20
134.607027
 30
0.0
 11
337.6472
 21
134.607027
 31
0.0
  0
LINE
  8
0B
  5
75D
 10
337.6472
 20
134.607027
 30
0.0
 11
342.6472
 21
134.607027
 31
0.0
  0
LINE
  8
0D
  5
75E
 10
334.1472
 20
136.855027
 30
0.0
 11
334.1472
 21
144.359027
 31
0.0
  0
LINE
  8
0D
  5
75F
 10
334.1472
 20
136.855027
 30
0.0
 11
334.1472
 21
144.359027
 31
0.0
  0
LINE
  8
0C
  5
760
 10
337.6472
 20
134.607027
 30
0.0
 11
337.6472
 21
142.607027
 31
0.0
  0
LINE
  8
0D
  5
761
 10
327.6472
 20
133.103027
 30
0.0
 11
334.1472
 21
136.855027
 31
0.0
  0
LINE
  8
0D
  5
762
 10
327.6472
 20
133.103027
 30
0.0
 11
334.1472
 21
136.855027
 31
0.0
  0
LINE
  8
0C
  5
763
 10
337.6472
 20
142.607027
 30
0.0
 11
335.7672
 21
144.487027
 31
0.0
  0
ARC
  8
0B
  5
764
 10
342.6472
 20
137.607027
 30
0.0
 40
3.0
 50
270.0
 51
0.0
  0
ARC
  8
0B
  5
765
 10
342.6472
 20
137.607027
 30
0.0
 40
3.0
 50
270.0
 51
0.0
  0
LINE
  8
0C
  5
766
 10
314.0952
 20
155.359027
 30
0.0
 11
330.6472
 21
155.359027
 31
0.0
  0
LINE
  8
0C
  5
767
 10
330.6472
 20
155.359027
 30
0.0
 11
315.1152
 21
155.359027
 31
0.0
  0
ARC
  8
0C
  5
768
 10
314.0952
 20
153.359027
 30
0.0
 40
2.0
 50
90.0
 51
180.0
  0
ARC
  8
0C
  5
769
 10
304.6952
 20
153.359027
 30
0.0
 40
2.0
 50
0.0
 51
90.0
  0
LINE
  8
0C
  5
76A
 10
305.6472
 20
154.007027
 30
0.0
 11
304.2952
 21
155.359027
 31
0.0
  0
ARC
  8
0C
  5
76B
 10
307.4952
 20
149.407027
 30
0.0
 40
0.8
 50
179.646
 51
330.0
  0
LINE
  8
0C
  5
76C
 10
306.6952
 20
149.411027
 30
0.0
 11
306.6952
 21
153.359027
 31
0.0
  0
ARC
  8
0C
  5
76D
 10
311.2952
 20
149.407027
 30
0.0
 40
0.8
 50
210.0
 51
0.0
  0
ARC
  8
0C
  5
76E
 10
309.3952
 20
149.099027
 30
0.0
 40
1.0
 50
30.0
 51
150.0
  0
LINE
  8
0C
  5
76F
 10
308.1912
 20
149.007027
 30
0.0
 11
308.5312
 21
149.599027
 31
0.0
  0
LINE
  8
0C
  5
770
 10
310.6032
 20
149.007027
 30
0.0
 11
310.2632
 21
149.599027
 31
0.0
  0
LINE
  8
0C
  5
771
 10
312.0952
 20
149.407027
 30
0.0
 11
312.0952
 21
153.359027
 31
0.0
  0
LINE
  8
0C
  5
772
 10
335.6472
 20
158.107027
 30
0.0
 11
342.6472
 21
158.107027
 31
0.0
  0
ARC
  8
0C
  5
773
 10
330.6472
 20
158.359027
 30
0.0
 40
3.0
 50
270.0
 51
0.0
  0
ARC
  8
0C
  5
774
 10
330.6472
 20
158.359027
 30
0.0
 40
3.0
 50
270.0
 51
0.0
  0
LINE
  8
0C
  5
775
 10
332.3472
 20
148.283027
 30
0.0
 11
332.3472
 21
155.307027
 31
0.0
  0
ARC
  8
0C
  5
776
 10
330.6472
 20
158.359027
 30
0.0
 40
3.0
 50
270.0
 51
0.0
  0
ARC
  8
0C
  5
777
 10
330.6472
 20
156.407027
 30
0.0
 40
3.0
 50
304.518
 51
0.0
  0
LINE
  8
0C
  5
778
 10
335.9952
 20
148.607027
 30
0.0
 11
334.3952
 21
148.607027
 31
0.0
  0
LINE
  8
0C
  5
779
 10
334.3952
 20
148.607027
 30
0.0
 11
333.6472
 21
148.607027
 31
0.0
  0
LINE
  8
0C
  5
77A
 10
333.6472
 20
148.607027
 30
0.0
 11
333.6472
 21
149.107027
 31
0.0
  0
LINE
  8
0C
  5
77B
 10
333.6472
 20
149.107027
 30
0.0
 11
332.3472
 21
149.107027
 31
0.0
  0
LINE
  8
0C
  5
77C
 10
331.9832
 20
155.671027
 30
0.0
 11
332.3472
 21
155.307027
 31
0.0
  0
ARC
  8
0C
  5
77D
 10
335.6472
 20
160.107027
 30
0.0
 40
2.0
 50
180.0
 51
270.0
  0
ARC
  8
0C
  5
77E
 10
342.6472
 20
155.107027
 30
0.0
 40
3.0
 50
0.0
 51
90.0
  0
LINE
  8
0C
  5
77F
 10
335.7472
 20
171.307027
 30
0.0
 11
339.6472
 21
171.307027
 31
0.0
  0
LINE
  8
0D
  5
780
 10
336.3472
 20
173.307027
 30
0.0
 11
342.9472
 21
173.307027
 31
0.0
  0
ARC
  8
0C
  5
781
 10
334.1472
 20
168.907027
 30
0.0
 40
0.5
 50
180.0
 51
270.0
  0
ARC
  8
0C
  5
782
 10
335.2472
 20
168.907027
 30
0.0
 40
0.5
 50
270.0
 51
0.0
  0
LINE
  8
0C
  5
783
 10
333.6472
 20
168.407027
 30
0.0
 11
335.2472
 21
168.407027
 31
0.0
  0
ARC
  8
0D
  5
784
 10
336.3472
 20
173.807027
 30
0.0
 40
0.5
 50
180.0
 51
270.0
  0
LINE
  8
0C
  5
785
 10
345.1472
 20
168.407027
 30
0.0
 11
344.0472
 21
168.407027
 31
0.0
  0
ARC
  8
0C
  5
786
 10
344.0472
 20
168.907027
 30
0.0
 40
0.5
 50
180.0
 51
270.0
  0
ARC
  8
0C
  5
787
 10
345.1472
 20
168.907027
 30
0.0
 40
0.5
 50
270.0
 51
0.0
  0
LINE
  8
0C
  5
788
 10
343.5472
 20
171.307027
 30
0.0
 11
339.6472
 21
171.307027
 31
0.0
  0
ARC
  8
0D
  5
789
 10
342.9472
 20
173.807027
 30
0.0
 40
0.5
 50
270.0
 51
0.0
  0
LINE
  8
FF
  5
78A
 10
487.234126
 20
143.275027
 30
0.0
 11
467.350126
 21
98.035027
 31
0.0
  0
TEXT
  8
FF
  5
78B
 10
436.674351
 20
99.779348
 30
0.0
 40
8.0
  1
２－Ｍ５
 41
0.833333
  0
LINE
  8
FF
  5
78C
 10
467.350126
 20
98.035027
 30
0.0
 11
437.506126
 21
98.035027
 31
0.0
  0
TEXT
  8
FF
  5
78D
 10
436.476941
 20
110.431382
 30
0.0
 40
8.0
  1
取付穴
 41
0.833333
  0
LINE
  8
38
  6
CENTER
  5
78E
 10
489.606126
 20
150.931027
 30
0.0
 11
489.606126
 21
139.863027
 31
0.0
  0
LINE
  8
38
  6
CENTER
  5
78F
 10
494.606126
 20
150.931027
 30
0.0
 11
494.606126
 21
139.863027
 31
0.0
  0
ARC
  8
33
  5
790
 10
492.106126
 20
145.607027
 30
0.0
 40
5.4
 50
334.417
 51
25.583
  0
ARC
  8
33
  5
791
 10
492.106126
 20
145.607027
 30
0.0
 40
5.4
 50
154.417
 51
205.583
  0
LINE
  8
38
  6
CENTER
  5
792
 10
484.742126
 20
145.607027
 30
0.0
 11
498.998126
 21
145.607027
 31
0.0
  0
LINE
  8
33
  5
793
 10
488.138126
 20
142.707027
 30
0.0
 11
496.074126
 21
142.707027
 31
0.0
  0
LINE
  8
34
  6
PHANTOM
  5
794
 10
487.606126
 20
134.607027
 30
0.0
 11
492.606126
 21
134.607027
 31
0.0
  0
LINE
  8
FF
  5
795
 10
485.341726
 20
130.946227
 30
0.0
 11
487.234126
 21
143.275027
 31
0.0
  0
LINE
  8
FF
  5
796
 10
487.234126
 20
143.275027
 30
0.0
 11
479.430926
 21
133.544227
 31
0.0
  0
ARC
  8
34
  6
PHANTOM
  5
797
 10
487.606126
 20
137.607027
 30
0.0
 40
3.0
 50
180.0
 51
270.0
  0
ARC
  8
33
  5
798
 10
488.138126
 20
143.707027
 30
0.0
 40
1.0
 50
205.583
 51
270.0
  0
LINE
  8
34
  6
PHANTOM
  5
799
 10
512.606126
 20
131.607027
 30
0.0
 11
512.606126
 21
134.607027
 31
0.0
  0
LINE
  8
34
  6
PHANTOM
  5
79A
 10
492.606126
 20
131.607027
 30
0.0
 11
492.606126
 21
134.607027
 31
0.0
  0
LINE
  8
34
  6
PHANTOM
  5
79B
 10
508.606126
 20
128.707027
 30
0.0
 11
496.606126
 21
128.707027
 31
0.0
  0
LINE
  8
34
  6
PHANTOM
  5
79C
 10
496.606126
 20
128.707027
 30
0.0
 11
496.606126
 21
130.607027
 31
0.0
  0
LINE
  8
34
  6
PHANTOM
  5
79D
 10
493.606126
 20
130.607027
 30
0.0
 11
496.606126
 21
130.607027
 31
0.0
  0
LINE
  8
34
  6
PHANTOM
  5
79E
 10
492.606126
 20
131.607027
 30
0.0
 11
493.606126
 21
130.607027
 31
0.0
  0
LINE
  8
34
  6
PHANTOM
  5
79F
 10
508.606126
 20
130.607027
 30
0.0
 11
511.606126
 21
130.607027
 31
0.0
  0
LINE
  8
34
  6
PHANTOM
  5
7A0
 10
508.606126
 20
128.707027
 30
0.0
 11
508.606126
 21
130.607027
 31
0.0
  0
LINE
  8
34
  6
PHANTOM
  5
7A1
 10
512.606126
 20
131.607027
 30
0.0
 11
511.606126
 21
130.607027
 31
0.0
  0
ARC
  8
33
  5
7A2
 10
496.074126
 20
143.707027
 30
0.0
 40
1.0
 50
270.0
 51
334.417
  0
LINE
  8
33
  5
7A3
 10
488.138126
 20
148.507027
 30
0.0
 11
496.074126
 21
148.507027
 31
0.0
  0
ARC
  8
33
  5
7A4
 10
488.138126
 20
147.507027
 30
0.0
 40
1.0
 50
90.0
 51
154.417
  0
ARC
  8
33
  5
7A5
 10
496.074126
 20
147.507027
 30
0.0
 40
1.0
 50
25.583
 51
90.0
  0
LINE
  8
34
  6
PHANTOM
  5
7A6
 10
572.606126
 20
128.707027
 30
0.0
 11
560.606126
 21
128.707027
 31
0.0
  0
LINE
  8
34
  6
PHANTOM
  5
7A7
 10
540.606126
 20
128.707027
 30
0.0
 11
528.606126
 21
128.707027
 31
0.0
  0
LINE
  8
34
  6
PHANTOM
  5
7A8
 10
524.606126
 20
131.607027
 30
0.0
 11
524.606126
 21
134.607027
 31
0.0
  0
LINE
  8
34
  6
PHANTOM
  5
7A9
 10
525.606126
 20
130.607027
 30
0.0
 11
528.606126
 21
130.607027
 31
0.0
  0
LINE
  8
34
  6
PHANTOM
  5
7AA
 10
525.606126
 20
130.607027
 30
0.0
 11
524.606126
 21
131.607027
 31
0.0
  0
LINE
  8
34
  6
PHANTOM
  5
7AB
 10
528.606126
 20
128.707027
 30
0.0
 11
528.606126
 21
130.607027
 31
0.0
  0
LINE
  8
34
  6
PHANTOM
  5
7AC
 10
556.606126
 20
131.607027
 30
0.0
 11
556.606126
 21
134.607027
 31
0.0
  0
LINE
  8
34
  6
PHANTOM
  5
7AD
 10
544.606126
 20
131.607027
 30
0.0
 11
544.606126
 21
134.607027
 31
0.0
  0
LINE
  8
34
  6
PHANTOM
  5
7AE
 10
540.606126
 20
128.707027
 30
0.0
 11
540.606126
 21
130.607027
 31
0.0
  0
LINE
  8
34
  6
PHANTOM
  5
7AF
 10
544.606126
 20
131.607027
 30
0.0
 11
543.606126
 21
130.607027
 31
0.0
  0
LINE
  8
34
  6
PHANTOM
  5
7B0
 10
540.606126
 20
130.607027
 30
0.0
 11
543.606126
 21
130.607027
 31
0.0
  0
LINE
  8
34
  6
PHANTOM
  5
7B1
 10
560.606126
 20
130.607027
 30
0.0
 11
557.606126
 21
130.607027
 31
0.0
  0
LINE
  8
34
  6
PHANTOM
  5
7B2
 10
556.606126
 20
131.607027
 30
0.0
 11
557.606126
 21
130.607027
 31
0.0
  0
LINE
  8
34
  6
PHANTOM
  5
7B3
 10
560.606126
 20
128.707027
 30
0.0
 11
560.606126
 21
130.607027
 31
0.0
  0
LINE
  8
34
  6
PHANTOM
  5
7B4
 10
544.606126
 20
134.607027
 30
0.0
 11
556.606126
 21
134.607027
 31
0.0
  0
LINE
  8
34
  6
PHANTOM
  5
7B5
 10
576.606126
 20
131.607027
 30
0.0
 11
576.606126
 21
134.607027
 31
0.0
  0
LINE
  8
34
  6
PHANTOM
  5
7B6
 10
576.606126
 20
131.607027
 30
0.0
 11
575.606126
 21
130.607027
 31
0.0
  0
LINE
  8
34
  6
PHANTOM
  5
7B7
 10
572.606126
 20
128.707027
 30
0.0
 11
572.606126
 21
130.607027
 31
0.0
  0
LINE
  8
34
  6
PHANTOM
  5
7B8
 10
575.606126
 20
130.607027
 30
0.0
 11
572.606126
 21
130.607027
 31
0.0
  0
ARC
  8
34
  6
PHANTOM
  5
7B9
 10
581.606126
 20
137.607027
 30
0.0
 40
3.0
 50
270.0
 51
0.0
  0
LINE
  8
34
  6
PHANTOM
  5
7BA
 10
576.606126
 20
134.607027
 30
0.0
 11
581.606126
 21
134.607027
 31
0.0
  0
TEXT
  8
FF
  5
7BB
 10
498.634126
 20
348.887027
 30
0.0
 40
12.0
  1
取付穴寸法図
 41
0.833333
  0
LINE
  8
38
  6
CENTER
  5
7BC
 10
476.374126
 20
200.607027
 30
0.0
 11
594.274126
 21
200.607027
 31
0.0
  0
LINE
  8
34
  6
PHANTOM
  5
7BD
 10
512.606126
 20
266.607027
 30
0.0
 11
524.606126
 21
266.607027
 31
0.0
  0
LINE
  8
FF
  5
7BE
 10
313.9152
 20
262.271027
 30
0.0
 11
372.0472
 21
319.163027
 31
0.0
  0
LINE
  8
0C
  5
7BF
 10
333.6472
 20
244.807027
 30
0.0
 11
333.6472
 21
215.107027
 31
0.0
  0
LINE
  8
0D
  6
PHANTOM
  5
7C0
 10
357.6472
 20
232.807027
 30
0.0
 11
345.6472
 21
232.807027
 31
0.0
  0
LINE
  8
0C
  5
7C1
 10
345.6472
 20
200.607027
 30
0.0
 11
345.6472
 21
232.307027
 31
0.0
  0
LINE
  8
0C
  5
7C2
 10
333.6472
 20
200.607027
 30
0.0
 11
333.6472
 21
232.307027
 31
0.0
  0
LINE
  8
0C
  5
7C3
 10
345.6472
 20
208.107027
 30
0.0
 11
345.6472
 21
193.107027
 31
0.0
  0
LINE
  8
0C
  5
7C4
 10
304.6472
 20
207.607027
 30
0.0
 11
304.6472
 21
193.607027
 31
0.0
  0
ARC
  8
0C
  5
7C5
 10
343.6472
 20
193.107027
 30
0.0
 40
2.0
 50
270.0
 51
0.0
  0
ARC
  8
0C
  5
7C6
 10
338.6472
 20
186.107027
 30
0.0
 40
5.0
 50
90.0
 51
180.0
  0
ARC
  8
0C
  5
7C7
 10
338.6472
 20
186.107027
 30
0.0
 40
5.0
 50
90.0
 51
180.0
  0
CIRCLE
  8
0D
  5
7C8
 10
339.6472
 20
186.607027
 30
0.0
 40
3.0
  0
LINE
  8
0D
  5
7C9
 10
336.3472
 20
190.407027
 30
0.0
 11
342.9472
 21
190.407027
 31
0.0
  0
LINE
  8
0D
  5
7CA
 10
336.3472
 20
182.807027
 30
0.0
 11
342.9472
 21
182.807027
 31
0.0
  0
LINE
  8
0D
  5
7CB
 10
336.3472
 20
180.907027
 30
0.0
 11
342.9472
 21
180.907027
 31
0.0
  0
LINE
  8
0D
  5
7CC
 10
335.8472
 20
189.907027
 30
0.0
 11
335.8472
 21
183.307027
 31
0.0
  0
ARC
  8
0D
  5
7CD
 10
336.3472
 20
183.307027
 30
0.0
 40
0.5
 50
180.0
 51
270.0
  0
ARC
  8
0D
  5
7CE
 10
336.3472
 20
180.407027
 30
0.0
 40
0.5
 50
90.0
 51
180.0
  0
ARC
  8
0D
  5
7CF
 10
336.3472
 20
189.907027
 30
0.0
 40
0.5
 50
90.0
 51
180.0
  0
LINE
  8
0D
  5
7D0
 10
343.4472
 20
189.907027
 30
0.0
 11
343.4472
 21
183.307027
 31
0.0
  0
ARC
  8
0D
  5
7D1
 10
342.9472
 20
183.307027
 30
0.0
 40
0.5
 50
270.0
 51
0.0
  0
ARC
  8
0D
  5
7D2
 10
342.9472
 20
180.407027
 30
0.0
 40
0.5
 50
0.0
 51
90.0
  0
LINE
  8
0C
  5
7D3
 10
338.3952
 20
191.107027
 30
0.0
 11
343.6472
 21
191.107027
 31
0.0
  0
ARC
  8
0D
  5
7D4
 10
342.9472
 20
189.907027
 30
0.0
 40
0.5
 50
0.0
 51
90.0
  0
LINE
  8
0D
  5
7D5
 10
338.3872
 20
185.347027
 30
0.0
 11
340.9072
 21
187.867027
 31
0.0
  0
LINE
  8
0D
  5
7D6
 10
338.3872
 20
187.867027
 30
0.0
 11
340.9072
 21
185.347027
 31
0.0
  0
CIRCLE
  8
0D
  5
7D7
 10
339.1472
 20
200.607027
 30
0.0
 40
4.0
  0
LINE
  8
0D
  5
7D8
 10
338.1472
 20
200.107027
 30
0.0
 11
335.1792
 21
200.107027
 31
0.0
  0
LINE
  8
0D
  5
7D9
 10
338.1472
 20
201.107027
 30
0.0
 11
335.1792
 21
201.107027
 31
0.0
  0
ARC
  8
0D
  5
7DA
 10
338.1472
 20
199.607027
 30
0.0
 40
0.5
 50
0.0
 51
90.0
  0
ARC
  8
0D
  5
7DB
 10
340.1472
 20
199.607027
 30
0.0
 40
0.5
 50
90.0
 51
180.0
  0
LINE
  8
0D
  5
7DC
 10
338.6472
 20
199.607027
 30
0.0
 11
338.6472
 21
198.107027
 31
0.0
  0
LINE
  8
0D
  5
7DD
 10
339.6472
 20
199.607027
 30
0.0
 11
339.6472
 21
198.107027
 31
0.0
  0
LINE
  8
0D
  5
7DE
 10
338.6472
 20
198.107027
 30
0.0
 11
339.6472
 21
198.107027
 31
0.0
  0
LINE
  8
0D
  5
7DF
 10
343.1152
 20
200.107027
 30
0.0
 11
340.1472
 21
200.107027
 31
0.0
  0
ARC
  8
0D
  5
7E0
 10
338.1472
 20
201.607027
 30
0.0
 40
0.5
 50
270.0
 51
0.0
  0
ARC
  8
0D
  5
7E1
 10
340.1472
 20
201.607027
 30
0.0
 40
0.5
 50
180.0
 51
270.0
  0
LINE
  8
0D
  5
7E2
 10
338.6472
 20
203.107027
 30
0.0
 11
339.6472
 21
203.107027
 31
0.0
  0
LINE
  8
0D
  5
7E3
 10
339.6472
 20
203.107027
 30
0.0
 11
339.6472
 21
201.607027
 31
0.0
  0
LINE
  8
0D
  5
7E4
 10
338.6472
 20
203.107027
 30
0.0
 11
338.6472
 21
201.607027
 31
0.0
  0
LINE
  8
0D
  5
7E5
 10
343.1152
 20
201.107027
 30
0.0
 11
340.1472
 21
201.107027
 31
0.0
  0
LINE
  8
0C
  5
7E6
 10
343.5472
 20
210.107027
 30
0.0
 11
343.5472
 21
232.307027
 31
0.0
  0
LINE
  8
0C
  5
7E7
 10
335.7472
 20
211.035027
 30
0.0
 11
335.7472
 21
232.307027
 31
0.0
  0
CIRCLE
  8
0D
  5
7E8
 10
339.6472
 20
224.107027
 30
0.0
 40
3.0
  0
LINE
  8
0D
  5
7E9
 10
335.8472
 20
227.407027
 30
0.0
 11
335.8472
 21
220.807027
 31
0.0
  0
LINE
  8
0D
  5
7EA
 10
343.4472
 20
227.407027
 30
0.0
 11
343.4472
 21
220.807027
 31
0.0
  0
ARC
  8
0C
  5
7EB
 10
338.6472
 20
215.107027
 30
0.0
 40
5.0
 50
180.0
 51
270.0
  0
ARC
  8
0C
  5
7EC
 10
338.6472
 20
215.107027
 30
0.0
 40
5.0
 50
180.0
 51
270.0
  0
CIRCLE
  8
0D
  5
7ED
 10
339.6472
 20
214.607027
 30
0.0
 40
3.0
  0
LINE
  8
0D
  5
7EE
 10
336.3472
 20
220.307027
 30
0.0
 11
342.9472
 21
220.307027
 31
0.0
  0
LINE
  8
0D
  5
7EF
 10
336.3472
 20
218.407027
 30
0.0
 11
342.9472
 21
218.407027
 31
0.0
  0
LINE
  8
0D
  5
7F0
 10
336.3472
 20
210.807027
 30
0.0
 11
342.9472
 21
210.807027
 31
0.0
  0
LINE
  8
0D
  5
7F1
 10
335.8472
 20
217.907027
 30
0.0
 11
335.8472
 21
211.307027
 31
0.0
  0
ARC
  8
0D
  5
7F2
 10
336.3472
 20
211.307027
 30
0.0
 40
0.5
 50
180.0
 51
270.0
  0
ARC
  8
0D
  5
7F3
 10
336.3472
 20
220.807027
 30
0.0
 40
0.5
 50
180.0
 51
270.0
  0
ARC
  8
0D
  5
7F4
 10
336.3472
 20
217.907027
 30
0.0
 40
0.5
 50
90.0
 51
180.0
  0
LINE
  8
0D
  5
7F5
 10
338.3872
 20
213.347027
 30
0.0
 11
340.9072
 21
215.867027
 31
0.0
  0
LINE
  8
0D
  5
7F6
 10
338.3872
 20
215.867027
 30
0.0
 11
340.9072
 21
213.347027
 31
0.0
  0
LINE
  8
0D
  5
7F7
 10
343.4472
 20
217.907027
 30
0.0
 11
343.4472
 21
211.307027
 31
0.0
  0
ARC
  8
0C
  5
7F8
 10
343.6472
 20
208.107027
 30
0.0
 40
2.0
 50
0.0
 51
90.0
  0
LINE
  8
0C
  5
7F9
 10
338.3952
 20
210.107027
 30
0.0
 11
343.6472
 21
210.107027
 31
0.0
  0
ARC
  8
0D
  5
7FA
 10
342.9472
 20
211.307027
 30
0.0
 40
0.5
 50
270.0
 51
0.0
  0
ARC
  8
0D
  5
7FB
 10
342.9472
 20
220.807027
 30
0.0
 40
0.5
 50
270.0
 51
0.0
  0
ARC
  8
0D
  5
7FC
 10
342.9472
 20
217.907027
 30
0.0
 40
0.5
 50
0.0
 51
90.0
  0
LINE
  8
0C
  5
7FD
 10
335.7472
 20
229.907027
 30
0.0
 11
339.6472
 21
229.907027
 31
0.0
  0
LINE
  8
0D
  5
7FE
 10
336.3472
 20
227.907027
 30
0.0
 11
342.9472
 21
227.907027
 31
0.0
  0
ARC
  8
0D
  5
7FF
 10
336.3472
 20
227.407027
 30
0.0
 40
0.5
 50
90.0
 51
180.0
  0
ARC
  8
0C
  5
800
 10
335.2472
 20
232.307027
 30
0.0
 40
0.5
 50
0.0
 51
90.0
  0
ARC
  8
0C
  5
801
 10
334.1472
 20
232.307027
 30
0.0
 40
0.5
 50
90.0
 51
180.0
  0
LINE
  8
0C
  5
802
 10
333.6472
 20
232.807027
 30
0.0
 11
335.2472
 21
232.807027
 31
0.0
  0
LINE
  8
0C
  5
803
 10
343.5472
 20
229.907027
 30
0.0
 11
339.6472
 21
229.907027
 31
0.0
  0
ARC
  8
0D
  5
804
 10
342.9472
 20
227.407027
 30
0.0
 40
0.5
 50
0.0
 51
90.0
  0
LINE
  8
0D
  5
805
 10
338.3872
 20
225.367027
 30
0.0
 11
340.9072
 21
222.847027
 31
0.0
  0
LINE
  8
0D
  5
806
 10
338.3872
 20
222.847027
 30
0.0
 11
340.9072
 21
225.367027
 31
0.0
  0
LINE
  8
0C
  5
807
 10
345.1472
 20
232.807027
 30
0.0
 11
344.0472
 21
232.807027
 31
0.0
  0
ARC
  8
0C
  5
808
 10
344.0472
 20
232.307027
 30
0.0
 40
0.5
 50
90.0
 51
180.0
  0
ARC
  8
0C
  5
809
 10
345.1472
 20
232.307027
 30
0.0
 40
0.5
 50
0.0
 51
90.0
  0
DIMENSION
  8
FF
  6
CONTINUOUS
  5
80A
  2
*D9
 10
377.2232
 20
270.607027
 30
0.0
 11
370.5565
 21
293.940393
 31
0.0
  1
10
 13
327.6472
 23
260.607027
 33
0.0
 14
336.6472
 24
270.607027
 34
0.0
 50
90.0
  3
FSTD1
  0
LINE
  8
FF
  5
80B
 10
313.9152
 20
262.271027
 30
0.0
 11
324.7836
 21
268.390627
 31
0.0
  0
LINE
  8
FF
  5
80C
 10
320.2676
 20
273.005027
 30
0.0
 11
313.9152
 21
262.271027
 31
0.0
  0
LINE
  8
0B
  6
CONTINUOUS
  5
80D
 10
305.6472
 20
269.607027
 30
0.0
 11
305.6472
 21
266.607027
 31
0.0
  0
LINE
  8
0B
  6
CONTINUOUS
  5
80E
 10
337.6472
 20
269.607027
 30
0.0
 11
337.6472
 21
266.607027
 31
0.0
  0
LINE
  8
0B
  6
CONTINUOUS
  5
80F
 10
317.6472
 20
269.607027
 30
0.0
 11
317.6472
 21
266.607027
 31
0.0
  0
CIRCLE
  8
0D
  5
810
 10
327.6472
 20
260.607027
 30
0.0
 40
9.0
  0
CIRCLE
  8
0D
  5
811
 10
327.6472
 20
260.607027
 30
0.0
 40
9.0
  0
CIRCLE
  8
0D
  5
812
 10
327.6472
 20
260.607027
 30
0.0
 40
7.7
  0
LINE
  8
0D
  5
813
 10
334.1472
 20
264.359027
 30
0.0
 11
327.6472
 21
268.115027
 31
0.0
  0
LINE
  8
0D
  5
814
 10
327.6472
 20
268.115027
 30
0.0
 11
321.1472
 21
264.359027
 31
0.0
  0
LINE
  8
0D
  5
815
 10
334.1472
 20
264.359027
 30
0.0
 11
327.6472
 21
268.115027
 31
0.0
  0
LINE
  8
0D
  5
816
 10
327.6472
 20
268.115027
 30
0.0
 11
321.1472
 21
264.359027
 31
0.0
  0
CIRCLE
  8
0D
  5
817
 10
327.6472
 20
260.607027
 30
0.0
 40
4.0
  0
CIRCLE
  8
0D
  5
818
 10
327.6472
 20
260.607027
 30
0.0
 40
4.0
  0
LINE
  8
0D
  5
819
 10
321.1472
 20
256.855027
 30
0.0
 11
327.6472
 21
253.103027
 31
0.0
  0
LINE
  8
0D
  5
81A
 10
321.1472
 20
256.855027
 30
0.0
 11
327.6472
 21
253.103027
 31
0.0
  0
LINE
  8
0C
  5
81B
 10
314.0952
 20
245.859027
 30
0.0
 11
330.6472
 21
245.859027
 31
0.0
  0
LINE
  8
0C
  5
81C
 10
330.6472
 20
245.859027
 30
0.0
 11
315.1152
 21
245.859027
 31
0.0
  0
LINE
  8
0C
  5
81D
 10
317.6472
 20
266.607027
 30
0.0
 11
317.6472
 21
245.859027
 31
0.0
  0
LINE
  8
0C
  5
81E
 10
305.6472
 20
266.607027
 30
0.0
 11
305.6472
 21
247.207027
 31
0.0
  0
ARC
  8
0C
  5
81F
 10
314.0952
 20
247.859027
 30
0.0
 40
2.0
 50
180.0
 51
270.0
  0
ARC
  8
0C
  5
820
 10
307.4952
 20
251.807027
 30
0.0
 40
0.8
 50
30.0
 51
180.0
  0
ARC
  8
0C
  5
821
 10
304.6952
 20
247.859027
 30
0.0
 40
2.0
 50
270.0
 51
0.0
  0
LINE
  8
0C
  5
822
 10
306.6952
 20
251.807027
 30
0.0
 11
306.6952
 21
247.859027
 31
0.0
  0
LINE
  8
0C
  5
823
 10
305.6472
 20
247.207027
 30
0.0
 11
304.2952
 21
245.859027
 31
0.0
  0
ARC
  8
0C
  5
824
 10
311.2952
 20
251.807027
 30
0.0
 40
0.8
 50
0.0
 51
150.0
  0
ARC
  8
0C
  5
825
 10
309.3952
 20
252.115027
 30
0.0
 40
1.0
 50
210.0
 51
330.0
  0
LINE
  8
0C
  5
826
 10
312.0952
 20
251.807027
 30
0.0
 11
312.0952
 21
247.859027
 31
0.0
  0
LINE
  8
0C
  5
827
 10
310.6032
 20
252.207027
 30
0.0
 11
310.2632
 21
251.615027
 31
0.0
  0
LINE
  8
0C
  5
828
 10
308.1912
 20
252.207027
 30
0.0
 11
308.5312
 21
251.615027
 31
0.0
  0
LINE
  8
0C
  5
829
 10
317.6472
 20
253.007027
 30
0.0
 11
305.6472
 21
253.007027
 31
0.0
  0
CIRCLE
  8
0D
  5
82A
 10
311.6472
 20
260.307027
 30
0.0
 40
3.0
  0
LINE
  8
0D
  5
82B
 10
308.3472
 20
264.107027
 30
0.0
 11
314.9472
 21
264.107027
 31
0.0
  0
LINE
  8
0D
  5
82C
 10
308.3472
 20
256.507027
 30
0.0
 11
314.9472
 21
256.507027
 31
0.0
  0
LINE
  8
0B
  5
82D
 10
305.6472
 20
266.607027
 30
0.0
 11
317.6472
 21
266.607027
 31
0.0
  0
LINE
  8
0D
  5
82E
 10
302.1472
 20
256.855027
 30
0.0
 11
302.1472
 21
264.359027
 31
0.0
  0
LINE
  8
0D
  5
82F
 10
302.1472
 20
256.855027
 30
0.0
 11
302.1472
 21
264.359027
 31
0.0
  0
LINE
  8
0D
  5
830
 10
310.3872
 20
261.567027
 30
0.0
 11
312.9072
 21
259.047027
 31
0.0
  0
LINE
  8
0D
  5
831
 10
310.3872
 20
259.047027
 30
0.0
 11
312.9072
 21
261.567027
 31
0.0
  0
LINE
  8
0D
  5
832
 10
307.8472
 20
263.607027
 30
0.0
 11
307.8472
 21
257.007027
 31
0.0
  0
LINE
  8
0C
  5
833
 10
308.1472
 20
253.607027
 30
0.0
 11
305.6472
 21
253.607027
 31
0.0
  0
LINE
  8
0C
  5
834
 10
308.1472
 20
256.507027
 30
0.0
 11
308.1472
 21
253.007027
 31
0.0
  0
LINE
  8
0C
  5
835
 10
310.1472
 20
255.007027
 30
0.0
 11
313.1472
 21
255.007027
 31
0.0
  0
LINE
  8
0C
  5
836
 10
310.1472
 20
255.007027
 30
0.0
 11
310.1472
 21
253.007027
 31
0.0
  0
LINE
  8
0C
  5
837
 10
313.1472
 20
255.007027
 30
0.0
 11
313.1472
 21
253.007027
 31
0.0
  0
ARC
  8
0D
  5
838
 10
308.3472
 20
257.007027
 30
0.0
 40
0.5
 50
180.0
 51
270.0
  0
LINE
  8
0C
  5
839
 10
310.1472
 20
253.607027
 30
0.0
 11
310.1472
 21
253.007027
 31
0.0
  0
LINE
  8
0C
  5
83A
 10
313.1472
 20
253.607027
 30
0.0
 11
313.1472
 21
253.007027
 31
0.0
  0
LINE
  8
0C
  5
83B
 10
313.1472
 20
253.607027
 30
0.0
 11
310.1472
 21
253.607027
 31
0.0
  0
ARC
  8
0D
  5
83C
 10
308.3472
 20
263.607027
 30
0.0
 40
0.5
 50
90.0
 51
180.0
  0
LINE
  8
0D
  5
83D
 10
321.1472
 20
264.359027
 30
0.0
 11
321.1472
 21
256.855027
 31
0.0
  0
LINE
  8
0D
  5
83E
 10
321.1472
 20
264.359027
 30
0.0
 11
321.1472
 21
256.855027
 31
0.0
  0
LINE
  8
0D
  5
83F
 10
315.4472
 20
263.607027
 30
0.0
 11
315.4472
 21
257.007027
 31
0.0
  0
LINE
  8
0C
  5
840
 10
315.1472
 20
256.507027
 30
0.0
 11
315.1472
 21
253.007027
 31
0.0
  0
ARC
  8
0D
  5
841
 10
314.9472
 20
257.007027
 30
0.0
 40
0.5
 50
270.0
 51
0.0
  0
LINE
  8
0C
  5
842
 10
317.6472
 20
253.607027
 30
0.0
 11
315.1472
 21
253.607027
 31
0.0
  0
ARC
  8
0D
  5
843
 10
314.9472
 20
263.607027
 30
0.0
 40
0.5
 50
0.0
 51
90.0
  0
LINE
  8
10
  6
CENTER
  5
844
 10
335.6472
 20
261.031027
 30
0.0
 11
335.6472
 21
249.763027
 31
0.0
  0
LINE
  8
10
  6
CENTER
  5
845
 10
340.6472
 20
261.031027
 30
0.0
 11
340.6472
 21
249.763027
 31
0.0
  0
LINE
  8
0C
  5
846
 10
335.9952
 20
256.959027
 30
0.0
 11
335.9952
 21
252.607027
 31
0.0
  0
ARC
  8
0C
  5
847
 10
342.1152
 20
253.707027
 30
0.0
 40
1.0
 50
270.0
 51
334.417
  0
LINE
  8
0C
  5
848
 10
335.9952
 20
252.707027
 30
0.0
 11
342.1152
 21
252.707027
 31
0.0
  0
LINE
  8
0C
  5
849
 10
335.6472
 20
243.107027
 30
0.0
 11
342.6472
 21
243.107027
 31
0.0
  0
ARC
  8
0C
  5
84A
 10
330.6472
 20
242.859027
 30
0.0
 40
3.0
 50
0.0
 51
90.0
  0
ARC
  8
0C
  5
84B
 10
330.6472
 20
242.859027
 30
0.0
 40
3.0
 50
0.0
 51
90.0
  0
ARC
  8
0C
  5
84C
 10
330.6472
 20
242.859027
 30
0.0
 40
3.0
 50
0.0
 51
90.0
  0
ARC
  8
0C
  5
84D
 10
330.6472
 20
244.807027
 30
0.0
 40
3.0
 50
0.0
 51
55.4818
  0
ARC
  8
0C
  5
84E
 10
335.6472
 20
241.107027
 30
0.0
 40
2.0
 50
90.0
 51
180.0
  0
LINE
  8
0C
  5
84F
 10
333.6472
 20
252.107027
 30
0.0
 11
332.3472
 21
252.107027
 31
0.0
  0
LINE
  8
0C
  5
850
 10
333.6472
 20
252.607027
 30
0.0
 11
333.6472
 21
252.107027
 31
0.0
  0
LINE
  8
0C
  5
851
 10
334.3952
 20
252.607027
 30
0.0
 11
333.6472
 21
252.607027
 31
0.0
  0
LINE
  8
0C
  5
852
 10
335.9952
 20
252.607027
 30
0.0
 11
334.3952
 21
252.607027
 31
0.0
  0
LINE
  8
0C
  5
853
 10
332.3472
 20
252.931027
 30
0.0
 11
332.3472
 21
245.907027
 31
0.0
  0
LINE
  8
0C
  5
854
 10
331.9832
 20
245.543027
 30
0.0
 11
332.3472
 21
245.907027
 31
0.0
  0
ARC
  8
0C
  5
855
 10
342.6472
 20
246.107027
 30
0.0
 40
3.0
 50
270.0
 51
0.0
  0
LINE
  8
10
  6
CENTER
  5
856
 10
330.7792
 20
255.607027
 30
0.0
 11
345.0392
 21
255.607027
 31
0.0
  0
LINE
  8
0C
  5
857
 10
337.5472
 20
258.507027
 30
0.0
 11
342.1152
 21
258.507027
 31
0.0
  0
LINE
  8
0B
  5
858
 10
337.6472
 20
266.607027
 30
0.0
 11
342.6472
 21
266.607027
 31
0.0
  0
LINE
  8
0B
  5
859
 10
337.6472
 20
266.607027
 30
0.0
 11
342.6472
 21
266.607027
 31
0.0
  0
LINE
  8
0D
  5
85A
 10
334.1472
 20
256.855027
 30
0.0
 11
334.1472
 21
264.359027
 31
0.0
  0
LINE
  8
0C
  5
85B
 10
334.1472
 20
256.855027
 30
0.0
 11
334.1472
 21
264.359027
 31
0.0
  0
LINE
  8
0C
  5
85C
 10
337.6472
 20
266.607027
 30
0.0
 11
337.6472
 21
258.607027
 31
0.0
  0
LINE
  8
0D
  5
85D
 10
327.6472
 20
253.103027
 30
0.0
 11
334.1472
 21
256.855027
 31
0.0
  0
LINE
  8
0D
  5
85E
 10
327.6472
 20
253.103027
 30
0.0
 11
334.1472
 21
256.855027
 31
0.0
  0
LINE
  8
0C
  5
85F
 10
337.6472
 20
258.607027
 30
0.0
 11
335.7672
 21
256.731027
 31
0.0
  0
ARC
  8
0C
  5
860
 10
338.1472
 20
255.607027
 30
0.0
 40
5.4
 50
334.417
 51
25.583
  0
ARC
  8
0C
  5
861
 10
342.1152
 20
257.507027
 30
0.0
 40
1.0
 50
25.583
 51
90.0
  0
ARC
  8
0B
  5
862
 10
342.6472
 20
263.607027
 30
0.0
 40
3.0
 50
0.0
 51
90.0
  0
ARC
  8
0B
  5
863
 10
342.6472
 20
263.607027
 30
0.0
 40
3.0
 50
0.0
 51
90.0
  0
LINE
  8
0B
  5
864
 10
333.6472
 20
272.507027
 30
0.0
 11
321.6472
 21
272.507027
 31
0.0
  0
LINE
  8
0C
  5
865
 10
333.6472
 20
270.607027
 30
0.0
 11
321.6472
 21
270.607027
 31
0.0
  0
LINE
  8
0B
  6
CONTINUOUS
  5
866
 10
301.6472
 20
270.607027
 30
0.0
 11
304.6472
 21
270.607027
 31
0.0
  0
LINE
  8
0B
  5
867
 10
301.6472
 20
272.507027
 30
0.0
 11
301.6472
 21
270.607027
 31
0.0
  0
LINE
  8
0B
  5
868
 10
305.6472
 20
269.607027
 30
0.0
 11
304.6472
 21
270.607027
 31
0.0
  0
LINE
  8
0B
  6
CONTINUOUS
  5
869
 10
321.6472
 20
270.607027
 30
0.0
 11
318.6472
 21
270.607027
 31
0.0
  0
LINE
  8
0B
  5
86A
 10
317.6472
 20
269.607027
 30
0.0
 11
318.6472
 21
270.607027
 31
0.0
  0
LINE
  8
0B
  5
86B
 10
321.6472
 20
270.607027
 30
0.0
 11
321.6472
 21
272.507027
 31
0.0
  0
LINE
  8
0B
  6
CONTINUOUS
  5
86C
 10
333.6472
 20
270.607027
 30
0.0
 11
336.6472
 21
270.607027
 31
0.0
  0
LINE
  8
0B
  5
86D
 10
333.6472
 20
272.507027
 30
0.0
 11
333.6472
 21
270.607027
 31
0.0
  0
LINE
  8
0B
  5
86E
 10
337.6472
 20
269.607027
 30
0.0
 11
336.6472
 21
270.607027
 31
0.0
  0
LINE
  8
34
  6
PHANTOM
  5
86F
 10
512.606126
 20
269.607027
 30
0.0
 11
512.606126
 21
266.607027
 31
0.0
  0
LINE
  8
34
  6
PHANTOM
  5
870
 10
492.606126
 20
269.607027
 30
0.0
 11
492.606126
 21
266.607027
 31
0.0
  0
LINE
  8
34
  6
PHANTOM
  5
871
 10
487.606126
 20
266.607027
 30
0.0
 11
492.606126
 21
266.607027
 31
0.0
  0
ARC
  8
34
  6
PHANTOM
  5
872
 10
487.606126
 20
263.607027
 30
0.0
 40
3.0
 50
90.0
 51
180.0
  0
LINE
  8
34
  6
PHANTOM
  5
873
 10
508.606126
 20
272.507027
 30
0.0
 11
496.606126
 21
272.507027
 31
0.0
  0
LINE
  8
34
  6
PHANTOM
  5
874
 10
496.606126
 20
270.607027
 30
0.0
 11
496.606126
 21
272.507027
 31
0.0
  0
LINE
  8
34
  6
PHANTOM
  5
875
 10
492.606126
 20
269.607027
 30
0.0
 11
493.606126
 21
270.607027
 31
0.0
  0
LINE
  8
34
  6
PHANTOM
  5
876
 10
493.606126
 20
270.607027
 30
0.0
 11
496.606126
 21
270.607027
 31
0.0
  0
LINE
  8
34
  6
PHANTOM
  5
877
 10
508.606126
 20
270.607027
 30
0.0
 11
511.606126
 21
270.607027
 31
0.0
  0
LINE
  8
34
  6
PHANTOM
  5
878
 10
508.606126
 20
272.507027
 30
0.0
 11
508.606126
 21
270.607027
 31
0.0
  0
LINE
  8
34
  6
PHANTOM
  5
879
 10
512.606126
 20
269.607027
 30
0.0
 11
511.606126
 21
270.607027
 31
0.0
  0
TEXT
  8
FF
  5
87A
 10
368.6032
 20
332.739027
 30
0.0
 40
8.0
  1
コイル端子
 41
0.833333
  0
TEXT
  8
FF
  5
87B
 10
313.300179
 20
330.739027
 30
0.0
 40
7.0
  1
※１
 41
0.833333
  0
TEXT
  8
FF
  5
87C
 10
375.7992
 20
322.911027
 30
0.0
 40
6.0
  1
M3.5
 41
1.078977
  0
LINE
  8
FF
  5
87D
 10
372.0472
 20
319.163027
 30
0.0
 11
397.0912
 21
319.163027
 31
0.0
  0
DIMENSION
  8
FF
  5
87E
  2
*D10
 10
617.494126
 20
272.507027
 30
0.0
 11
610.827426
 21
264.057027
 31
0.0
 12
19.594926
 22
0.0
 32
0.0
  1
17
 13
585.998126
 23
255.607027
 33
0.0
 14
574.606126
 24
272.507027
 34
0.0
 50
90.0
  3
FSTD1
  0
LINE
  8
34
  6
PHANTOM
  5
87F
 10
572.606126
 20
272.507027
 30
0.0
 11
560.606126
 21
272.507027
 31
0.0
  0
LINE
  8
34
  6
PHANTOM
  5
880
 10
556.606126
 20
269.607027
 30
0.0
 11
556.606126
 21
266.607027
 31
0.0
  0
LINE
  8
34
  6
PHANTOM
  5
881
 10
524.606126
 20
269.607027
 30
0.0
 11
524.606126
 21
266.607027
 31
0.0
  0
LINE
  8
34
  6
PHANTOM
  5
882
 10
544.606126
 20
269.607027
 30
0.0
 11
544.606126
 21
266.607027
 31
0.0
  0
LINE
  8
34
  6
PHANTOM
  5
883
 10
544.606126
 20
266.607027
 30
0.0
 11
556.606126
 21
266.607027
 31
0.0
  0
LINE
  8
34
  6
PHANTOM
  5
884
 10
540.606126
 20
272.507027
 30
0.0
 11
528.606126
 21
272.507027
 31
0.0
  0
LINE
  8
34
  6
PHANTOM
  5
885
 10
525.606126
 20
270.607027
 30
0.0
 11
528.606126
 21
270.607027
 31
0.0
  0
LINE
  8
34
  6
PHANTOM
  5
886
 10
525.606126
 20
270.607027
 30
0.0
 11
524.606126
 21
269.607027
 31
0.0
  0
LINE
  8
34
  6
PHANTOM
  5
887
 10
528.606126
 20
272.507027
 30
0.0
 11
528.606126
 21
270.607027
 31
0.0
  0
LINE
  8
34
  6
PHANTOM
  5
888
 10
540.606126
 20
272.507027
 30
0.0
 11
540.606126
 21
270.607027
 31
0.0
  0
LINE
  8
34
  6
PHANTOM
  5
889
 10
544.606126
 20
269.607027
 30
0.0
 11
543.606126
 21
270.607027
 31
0.0
  0
LINE
  8
34
  6
PHANTOM
  5
88A
 10
540.606126
 20
270.607027
 30
0.0
 11
543.606126
 21
270.607027
 31
0.0
  0
LINE
  8
34
  6
PHANTOM
  5
88B
 10
560.606126
 20
270.607027
 30
0.0
 11
557.606126
 21
270.607027
 31
0.0
  0
LINE
  8
34
  6
PHANTOM
  5
88C
 10
556.606126
 20
269.607027
 30
0.0
 11
557.606126
 21
270.607027
 31
0.0
  0
LINE
  8
34
  6
PHANTOM
  5
88D
 10
560.606126
 20
270.607027
 30
0.0
 11
560.606126
 21
272.507027
 31
0.0
  0
LINE
  8
34
  6
PHANTOM
  5
88E
 10
576.606126
 20
269.607027
 30
0.0
 11
576.606126
 21
266.607027
 31
0.0
  0
LINE
  8
38
  6
CENTER
  5
88F
 10
579.606126
 20
261.031027
 30
0.0
 11
579.606126
 21
249.763027
 31
0.0
  0
LINE
  8
38
  6
CENTER
  5
890
 10
574.606126
 20
261.031027
 30
0.0
 11
574.606126
 21
249.763027
 31
0.0
  0
ARC
  8
33
  5
891
 10
573.138126
 20
253.707027
 30
0.0
 40
1.0
 50
205.583
 51
270.0
  0
ARC
  8
33
  5
892
 10
581.074126
 20
253.707027
 30
0.0
 40
1.0
 50
270.0
 51
334.417
  0
LINE
  8
33
  5
893
 10
573.138126
 20
252.707027
 30
0.0
 11
581.074126
 21
252.707027
 31
0.0
  0
LINE
  8
38
  6
CENTER
  5
894
 10
569.742126
 20
255.607027
 30
0.0
 11
583.998126
 21
255.607027
 31
0.0
  0
LINE
  8
33
  5
895
 10
573.138126
 20
258.507027
 30
0.0
 11
581.074126
 21
258.507027
 31
0.0
  0
ARC
  8
33
  5
896
 10
573.138126
 20
257.507027
 30
0.0
 40
1.0
 50
90.0
 51
154.417
  0
ARC
  8
33
  5
897
 10
577.106126
 20
255.607027
 30
0.0
 40
5.4
 50
154.417
 51
205.583
  0
ARC
  8
33
  5
898
 10
577.106126
 20
255.607027
 30
0.0
 40
5.4
 50
334.417
 51
25.583
  0
ARC
  8
33
  5
899
 10
581.074126
 20
257.507027
 30
0.0
 40
1.0
 50
25.583
 51
90.0
  0
ARC
  8
34
  6
PHANTOM
  5
89A
 10
581.606126
 20
263.607027
 30
0.0
 40
3.0
 50
0.0
 51
90.0
  0
LINE
  8
34
  6
PHANTOM
  5
89B
 10
576.606126
 20
266.607027
 30
0.0
 11
581.606126
 21
266.607027
 31
0.0
  0
LINE
  8
34
  6
PHANTOM
  5
89C
 10
576.606126
 20
269.607027
 30
0.0
 11
575.606126
 21
270.607027
 31
0.0
  0
LINE
  8
34
  6
PHANTOM
  5
89D
 10
572.606126
 20
272.507027
 30
0.0
 11
572.606126
 21
270.607027
 31
0.0
  0
LINE
  8
34
  6
PHANTOM
  5
89E
 10
575.606126
 20
270.607027
 30
0.0
 11
572.606126
 21
270.607027
 31
0.0
  0
TEXT
  8
FF
  5
A22
 10
198.099173
 20
176.85271
 30
0.0
 40
8.0
  1
※１
 41
0.8333
  0
LINE
  8
FF
  5
A23
 10
212.828287
 20
180.531685
 30
0.0
 11
238.604239
 21
190.230799
 31
0.0
  0
TEXT
  8
FF
  5
CCC
 10
46.5312
 20
-38.468833
 30
0.0
 40
14.0
  1
Type
  0
ARC
  8
FF
  5
CD2
 10
16.794767
 20
-25.78829
 30
0.0
 40
8.739426
 50
1.499529
 51
100.57959
1001
ACAD
1000
ASC_BOUNDS
1002
{
1070
    19
1002
}
  0
ARC
  8
FF
  5
CD3
 10
16.760824
 20
-25.875627
 30
0.0
 40
7.446965
 50
2.961866
 51
93.426847
  0
LINE
  8
FF
  5
CD4
 10
8.989246
 20
-25.490833
 30
0.0
 11
24.197841
 21
-25.490833
 31
0.0
  0
LINE
  8
FF
  5
CD5
 10
8.668556
 20
-27.002833
 30
0.0
 11
25.5312
 21
-27.002833
 31
0.0
  0
ARC
  8
FF
  5
CD6
 10
12.730832
 20
-26.238959
 30
0.0
 40
12.678652
 50
279.159834
 51
342.417868
1001
ACAD
1000
ASC_BOUNDS
1002
{
1070
    19
1002
}
  0
ARC
  8
FF
  5
CD7
 10
12.361186
 20
-25.908623
 30
0.0
 40
11.787403
 50
280.279158
 51
339.332945
1001
ACAD
1000
ASC_BOUNDS
1002
{
1070
    19
1002
}
  0
POLYLINE
  8
FF
  5
CD9
 66
     1
 10
0.0
 20
0.0
 30
0.0
 70
   128
  0
VERTEX
  8
FF
  5
E99
 10
6.221552
 20
-26.959589
 30
0.0
  0
VERTEX
  8
FF
  5
E9A
 10
5.826089
 20
-28.758582
 30
0.0
  0
VERTEX
  8
FF
  5
E9B
 10
5.741391
 20
-30.515451
 30
0.0
  0
SEQEND
  8
FF
  5
E9C
  0
LINE
  8
FF
  5
CDA
 10
-11.6388
 20
-38.468833
 30
0.0
 11
-7.794913
 21
-20.379952
 31
0.0
  0
ARC
  8
FF
  5
CDB
 10
13.223579
 20
-30.068871
 30
0.0
 40
8.82
 50
182.729155
 51
279.960292
1001
ACAD
1000
ASC_BOUNDS
1002
{
1070
    19
1002
}
  0
LINE
  8
FF
  5
CDC
 10
-3.609724
 20
-30.488833
 30
0.0
 11
4.413582
 21
-30.488833
 31
0.0
  0
LINE
  8
FF
  5
CDD
 10
-11.6388
 20
-38.468833
 30
0.0
 11
-5.305474
 21
-38.468833
 31
0.0
  0
LINE
  8
FF
  5
CDE
 10
-5.305474
 20
-38.468833
 30
0.0
 11
-3.609724
 21
-30.488833
 31
0.0
  0
ARC
  8
FF
  5
CDF
 10
13.583884
 20
-29.670446
 30
0.0
 40
7.885726
 50
186.002385
 51
276.412304
1001
ACAD
1000
ASC_BOUNDS
1002
{
1070
    19
1002
}
  0
LINE
  8
FF
  5
CE0
 10
-4.200179
 20
-17.468833
 30
0.0
 11
8.9937
 21
-17.468833
 31
0.0
  0
LINE
  8
FF
  5
CE1
 10
-2.547649
 20
-25.490833
 30
0.0
 11
5.36012
 21
-25.490833
 31
0.0
  0
LINE
  8
FF
  5
CE2
 10
-1.135054
 20
-22.844833
 30
0.0
 11
6.806147
 21
-22.844833
 31
0.0
  0
ARC
  8
FF
  5
CE3
 10
-4.200179
 20
-21.143833
 30
0.0
 40
3.675
 50
90.0
 51
168.003101
  0
ARC
  8
FF
  5
CE4
 10
-1.135054
 20
-23.894833
 30
0.0
 40
1.05
 50
90.0
 51
168.003101
  0
LINE
  8
FF
  5
CE5
 10
-2.547649
 20
-25.490833
 30
0.0
 11
-2.162121
 21
-23.676581
 31
0.0
  0
ARC
  8
FF
  5
CE6
 10
16.911411
 20
-28.781403
 30
0.0
 40
11.710882
 50
98.442625
 51
137.3304
1001
ACAD
1000
ASC_BOUNDS
1002
{
1070
    19
1002
}
  0
POLYLINE
  8
FF
  5
CE7
 66
     1
 10
0.0
 20
0.0
 30
0.0
 70
   128
  0
VERTEX
  8
FF
  5
E9D
 10
16.315688
 20
-18.441977
 30
0.0
  0
VERTEX
  8
FF
  5
E9E
 10
14.508374
 20
-18.702267
 30
0.0
  0
VERTEX
  8
FF
  5
E9F
 10
12.733693
 20
-19.333162
 30
0.0
  0
VERTEX
  8
FF
  5
EA0
 10
11.049065
 20
-20.314251
 30
0.0
  0
VERTEX
  8
FF
  5
EA1
 10
9.508993
 20
-21.61379
 30
0.0
  0
VERTEX
  8
FF
  5
EA2
 10
8.163308
 20
-23.189735
 30
0.0
  0
VERTEX
  8
FF
  5
EA3
 10
7.055547
 20
-24.991095
 30
0.0
  0
VERTEX
  8
FF
  5
EA4
 10
6.221552
 20
-26.959589
 30
0.0
  0
SEQEND
  8
FF
  5
EA5
  0
LINE
  8
FF
  5
CE8
 10
8.9937
 20
-17.468833
 30
0.0
 11
8.3007
 21
-20.844123
 31
0.0
  0
LINE
  8
FF
  5
CE9
 10
8.989246
 20
-25.490833
 30
0.0
 11
8.668556
 21
-27.002833
 31
0.0
  0
ARC
  8
FF
  5
CEA
 10
17.162077
 20
-30.222427
 30
0.0
 40
12.715116
 50
144.533818
 51
158.153358
  0
LINE
  8
FF
  5
CEC
 10
24.8172
 20
-30.068833
 30
0.0
 11
23.390036
 21
-30.068833
 31
0.0
  0
LINE
  8
FF
  5
CED
 10
25.5312
 20
-27.002833
 30
0.0
 11
25.5312
 21
-25.55959
 31
0.0
  0
TEXT
  8
FF
  5
CF1
 10
116.5312
 20
-38.468833
 30
0.0
 40
14.0
  1
SC-N6
  0
LINE
  8
FF
  5
CF3
 10
354.160826
 20
-80.468833
 30
0.0
 11
620.160826
 21
-80.468833
 31
0.0
  0
LINE
  8
FF
  5
CF4
 10
354.160826
 20
-66.468833
 30
0.0
 11
620.160826
 21
-66.468833
 31
0.0
  0
LINE
  8
FF
  5
CF5
 10
354.160826
 20
-52.468833
 30
0.0
 11
620.160826
 21
-52.468833
 31
0.0
  0
LINE
  8
FF
  5
CF6
 10
354.160826
 20
-38.468833
 30
0.0
 11
620.160826
 21
-38.468833
 31
0.0
  0
LINE
  8
FF
  5
CF9
 10
354.160826
 20
-24.468833
 30
0.0
 11
620.160826
 21
-24.468833
 31
0.0
  0
TEXT
  8
FF
  6
CONTINUOUS
  5
CFC
 10
360.977115
 20
-62.59942
 30
0.0
 40
7.0
  1
変更
  0
TEXT
  8
FF
  6
CONTINUOUS
  5
CFD
 10
360.977115
 20
-49.374672
 30
0.0
 40
7.0
  1
作成
  0
LINE
  8
FF
  5
D00
 10
354.160826
 20
-24.468833
 30
0.0
 11
354.160826
 21
-80.468833
 31
0.0
  0
LINE
  8
FF
  5
D01
 10
438.160826
 20
-24.468833
 30
0.0
 11
438.160826
 21
-80.468833
 31
0.0
  0
LINE
  8
FF
  5
D02
 10
382.160826
 20
-24.468833
 30
0.0
 11
382.160826
 21
-80.468833
 31
0.0
  0
TEXT
  8
FF
  6
CONTINUOUS
  5
D04
 10
390.637898
 20
-49.374672
 30
0.0
 40
7.0
  1
2004-3
  0
TEXT
  8
FF
  6
CONTINUOUS
  5
D05
 10
401.662828
 20
-35.162232
 30
0.0
 40
7.0
  1
日付
  0
LINE
  8
FF
  5
D0A
 10
508.160826
 20
-24.468833
 30
0.0
 11
508.160826
 21
-80.468833
 31
0.0
  0
TEXT
  8
FF
  6
CONTINUOUS
  5
D0C
 10
462.273102
 20
-35.162232
 30
0.0
 40
7.0
  1
ﾌｧｲﾙ名
  0
TEXT
  8
FF
  6
CONTINUOUS
  5
D0D
 10
442.936906
 20
-49.374672
 30
0.0
 40
7.0
  1
SC-N6
  0
TEXT
  8
FF
  6
CONTINUOUS
  5
D0E
 10
532.441611
 20
-35.162232
 30
0.0
 40
7.0
  1
図面番号
  0
LINE
  8
FF
  5
D0F
 10
620.160826
 20
-24.468833
 30
0.0
 11
620.160826
 21
-80.468833
 31
0.0
  0
LINE
  8
FF
  5
D10
 10
592.160826
 20
-24.468833
 30
0.0
 11
592.160826
 21
-80.468833
 31
0.0
  0
TEXT
  8
FF
  6
CONTINUOUS
  5
D12
 10
599.465963
 20
-35.162232
 30
0.0
 40
7.0
  1
変更
  0
TEXT
  8
FF
  5
E86
 10
116.5312
 20
-55.848489
 30
0.0
 40
14.0
  1
SC-N6(H2)
  0
TEXT
  8
FF
  6
CONTINUOUS
  5
E87
 10
390.637898
 20
-63.374672
 30
0.0
 40
7.0
  1
2005-12
  0
TEXT
  8
FF
  6
CONTINUOUS
  5
E88
 10
442.936906
 20
-63.374672
 30
0.0
 40
7.0
  1
SC-N6
  0
TEXT
  8
FF
  5
E93
 10
116.5312
 20
-75.023441
 30
0.0
 40
14.0
  1
SC-N6H
  0
ENDSEC
  0
EOF
