  0
SECTION
  2
HEADER
  9
$ACADVER
  1
AC1009
  9
$INSBASE
 10
0.0
 20
0.0
 30
0.0
  9
$EXTMIN
 10
-23.87868
 20
-78.902652
 30
0.0
  9
$EXTMAX
 10
607.325223
 20
386.925443
 30
0.0
  9
$LIMMIN
 10
-48.773976
 20
-90.236113
  9
$LIMMAX
 10
640.039107
 20
411.339536
  9
$ORTHOMODE
 70
     1
  9
$REGENMODE
 70
     1
  9
$FILLMODE
 70
     1
  9
$QTEXTMODE
 70
     0
  9
$MIRRTEXT
 70
     1
  9
$DRAGMODE
 70
     2
  9
$LTSCALE
 40
7.0
  9
$OSMODE
 70
   673
  9
$ATTMODE
 70
     1
  9
$TEXTSIZE
 40
8.0
  9
$TRACEWID
 40
1.0
  9
$TEXTSTYLE
  7
STANDARD
  9
$CLAYER
  8
FF
  9
$CELTYPE
  6
BYLAYER
  9
$CECOLOR
 62
   256
  9
$DIMSCALE
 40
1.0
  9
$DIMASZ
 40
8.0
  9
$DIMEXO
 40
2.6667
  9
$DIMDLI
 40
0.38
  9
$DIMRND
 40
0.0
  9
$DIMDLE
 40
0.0
  9
$DIMEXE
 40
2.6667
  9
$DIMTP
 40
0.0
  9
$DIMTM
 40
0.0
  9
$DIMTXT
 40
8.0
  9
$DIMCEN
 40
0.09
  9
$DIMTSZ
 40
0.0
  9
$DIMTOL
 70
     0
  9
$DIMLIM
 70
     0
  9
$DIMTIH
 70
     0
  9
$DIMTOH
 70
     0
  9
$DIMSE1
 70
     0
  9
$DIMSE2
 70
     0
  9
$DIMTAD
 70
     1
  9
$DIMZIN
 70
     0
  9
$DIMBLK
  1

  9
$DIMASO
 70
     1
  9
$DIMSHO
 70
     1
  9
$DIMPOST
  1

  9
$DIMAPOST
  1

  9
$DIMALT
 70
     0
  9
$DIMALTD
 70
     2
  9
$DIMALTF
 40
25.4
  9
$DIMLFAC
 40
1.0
  9
$DIMTOFL
 70
     1
  9
$DIMTVP
 40
0.0
  9
$DIMTIX
 70
     0
  9
$DIMSOXD
 70
     0
  9
$DIMSAH
 70
     1
  9
$DIMBLK1
  1
_OPEN
  9
$DIMBLK2
  1
_OPEN
  9
$DIMSTYLE
  2
FSTD2
  9
$DIMCLRD
 70
     0
  9
$DIMCLRE
 70
     0
  9
$DIMCLRT
 70
     0
  9
$DIMTFAC
 40
1.0
  9
$DIMGAP
 40
2.6667
  9
$LUNITS
 70
     2
  9
$LUPREC
 70
     4
  9
$SKETCHINC
 40
1.0
  9
$FILLETRAD
 40
10.0
  9
$AUNITS
 70
     0
  9
$AUPREC
 70
     0
  9
$MENU
  1
acad
  9
$ELEVATION
 40
0.0
  9
$PELEVATION
 40
0.0
  9
$THICKNESS
 40
0.0
  9
$LIMCHECK
 70
     0
  9
$BLIPMODE
 70
     0
  9
$CHAMFERA
 40
10.0
  9
$CHAMFERB
 40
10.0
  9
$SKPOLY
 70
     0
  9
$TDCREATE
 40
2452132.385633449
  9
$TDUPDATE
 40
2453742.428012720
  9
$TDINDWG
 40
0.0155634606
  9
$TDUSRTIMER
 40
0.0155634606
  9
$USRTIMER
 70
     1
  9
$ANGBASE
 50
0.0
  9
$ANGDIR
 70
     0
  9
$PDMODE
 70
     0
  9
$PDSIZE
 40
0.0
  9
$PLINEWID
 40
0.0
  9
$COORDS
 70
     1
  9
$SPLFRAME
 70
     0
  9
$SPLINETYPE
 70
     6
  9
$SPLINESEGS
 70
     8
  9
$ATTDIA
 70
     0
  9
$ATTREQ
 70
     1
  9
$HANDLING
 70
     1
  9
$HANDSEED
  5
1437
  9
$SURFTAB1
 70
     6
  9
$SURFTAB2
 70
     6
  9
$SURFTYPE
 70
     6
  9
$SURFU
 70
     6
  9
$SURFV
 70
     6
  9
$UCSNAME
  2

  9
$UCSORG
 10
0.0
 20
0.0
 30
0.0
  9
$UCSXDIR
 10
1.0
 20
0.0
 30
0.0
  9
$UCSYDIR
 10
0.0
 20
1.0
 30
0.0
  9
$PUCSNAME
  2

  9
$PUCSORG
 10
0.0
 20
0.0
 30
0.0
  9
$PUCSXDIR
 10
1.0
 20
0.0
 30
0.0
  9
$PUCSYDIR
 10
0.0
 20
1.0
 30
0.0
  9
$USERI1
 70
     0
  9
$USERI2
 70
     0
  9
$USERI3
 70
     0
  9
$USERI4
 70
     0
  9
$USERI5
 70
     0
  9
$USERR1
 40
0.0
  9
$USERR2
 40
0.0
  9
$USERR3
 40
0.0
  9
$USERR4
 40
0.0
  9
$USERR5
 40
0.0
  9
$WORLDVIEW
 70
     1
  9
$SHADEDGE
 70
     3
  9
$SHADEDIF
 70
    70
  9
$TILEMODE
 70
     1
  9
$MAXACTVP
 70
    16
  9
$PINSBASE
 10
0.0
 20
0.0
 30
0.0
  9
$PLIMCHECK
 70
     0
  9
$PEXTMIN
 10
1.000000E+20
 20
1.000000E+20
 30
1.000000E+20
  9
$PEXTMAX
 10
-1.000000E+20
 20
-1.000000E+20
 30
-1.000000E+20
  9
$PLIMMIN
 10
0.0
 20
0.0
  9
$PLIMMAX
 10
420.0
 20
297.0
  9
$UNITMODE
 70
     0
  9
$VISRETAIN
 70
     1
  9
$PLINEGEN
 70
     0
  9
$PSLTSCALE
 70
     1
  9
$TREEDEPTH
 70
  3020
  9
$DWGCODEPAGE
  3
dos932
  0
ENDSEC
  0
SECTION
  2
TABLES
  0
TABLE
  2
VPORT
 70
     2
  0
VPORT
  2
*ACTIVE
 70
     0
 10
0.0
 20
0.0
 11
1.0
 21
1.0
 12
382.765017
 22
202.292665
 13
0.0
 23
0.0
 14
10.0
 24
10.0
 15
10.0
 25
10.0
 16
0.0
 26
0.0
 36
1.0
 17
0.0
 27
0.0
 37
0.0
 40
585.057555
 41
1.475202
 42
50.0
 43
0.0
 44
0.0
 50
0.0
 51
0.0
 71
     0
 72
   100
 73
     1
 74
     1
 75
     0
 76
     0
 77
     0
 78
     0
  0
ENDTAB
  0
TABLE
  2
LTYPE
 70
     3
  0
LTYPE
  2
CONTINUOUS
 70
    64
  3
Solid line
 72
    65
 73
     0
 40
0.0
  0
LTYPE
  2
CENTER
 70
    64
  3
CENTER
 72
    65
 73
     4
 40
2.0
 49
1.25
 49
-0.25
 49
0.25
 49
-0.25
  0
LTYPE
  2
PHANTOM
 70
    64
  3
PHANTOM
 72
    65
 73
     6
 40
2.5
 49
1.25
 49
-0.25
 49
0.25
 49
-0.25
 49
0.25
 49
-0.25
  0
ENDTAB
  0
TABLE
  2
LAYER
 70
    14
  0
LAYER
  2
0
 70
    64
 62
     7
  6
CONTINUOUS
  0
LAYER
  2
FF
 70
    64
 62
     4
  6
CONTINUOUS
  0
LAYER
  2
DEFPOINTS
 70
    64
 62
     7
  6
CONTINUOUS
  0
LAYER
  2
0B
 70
    64
 62
     6
  6
CONTINUOUS
  0
LAYER
  2
0C
 70
    64
 62
     3
  6
CONTINUOUS
  0
LAYER
  2
0D
 70
    64
 62
     2
  6
CONTINUOUS
  0
LAYER
  2
10
 70
    64
 62
     6
  6
CENTER
  0
LAYER
  2
15
 70
    64
 62
     6
  6
CONTINUOUS
  0
LAYER
  2
16
 70
    64
 62
     3
  6
CONTINUOUS
  0
LAYER
  2
17
 70
    64
 62
     2
  6
CONTINUOUS
  0
LAYER
  2
1A
 70
    64
 62
     6
  6
CENTER
  0
LAYER
  2
33
 70
    64
 62
     6
  6
CONTINUOUS
  0
LAYER
  2
34
 70
    64
 62
     3
  6
CONTINUOUS
  0
LAYER
  2
38
 70
    64
 62
     6
  6
CENTER
  0
ENDTAB
  0
TABLE
  2
STYLE
 70
     1
  0
STYLE
  2
STANDARD
 70
    64
 40
0.0
 41
1.0
 50
0.0
 71
     0
 42
8.0
  3
txt.shx
  4
bigfont.shx
  0
ENDTAB
  0
TABLE
  2
VIEW
 70
     0
  0
ENDTAB
  0
TABLE
  2
UCS
 70
     0
  0
ENDTAB
  0
TABLE
  2
APPID
 70
     1
  0
APPID
  2
ACAD
 70
    64
  0
ENDTAB
  0
TABLE
  2
DIMSTYLE
 70
     4
  0
DIMSTYLE
  2
STANDARD
 70
     0
  3

  4

  5

  6

  7

 40
1.0
 41
0.18
 42
0.0625
 43
0.38
 44
0.18
 45
0.0
 46
0.0
 47
0.0
 48
0.0
140
0.18
141
0.09
142
0.0
143
25.4
144
1.0
145
0.0
146
1.0
147
0.09
 71
     0
 72
     0
 73
     1
 74
     1
 75
     0
 76
     0
 77
     0
 78
     0
170
     0
171
     2
172
     0
173
     0
174
     0
175
     0
176
     0
177
     0
178
     0
  0
DIMSTYLE
  2
FSTD1
 70
    64
  3

  4

  5

  6
_OPEN
  7
_OPEN
 40
1.0
 41
8.0
 42
2.6667
 43
0.38
 44
2.6667
 45
0.0
 46
0.0
 47
0.0
 48
0.0
140
8.0
141
0.09
142
0.0
143
25.4
144
1.0
145
0.0
146
1.0
147
2.6667
 71
     0
 72
     0
 73
     0
 74
     0
 75
     0
 76
     0
 77
     1
 78
     0
170
     0
171
     2
172
     1
173
     1
174
     0
175
     0
176
     0
177
     0
178
     0
  0
DIMSTYLE
  2
FSTD2
 70
    64
  3

  4

  5

  6
_OPEN
  7
_OPEN
 40
1.0
 41
8.0
 42
2.6667
 43
0.38
 44
2.6667
 45
0.0
 46
0.0
 47
0.0
 48
0.0
140
8.0
141
0.09
142
0.0
143
25.4
144
1.0
145
0.0
146
1.0
147
2.6667
 71
     0
 72
     0
 73
     0
 74
     0
 75
     0
 76
     0
 77
     1
 78
     0
170
     0
171
     2
172
     1
173
     1
174
     0
175
     0
176
     0
177
     0
178
     0
  0
DIMSTYLE
  2
FSTD3
 70
    64
  3

  4

  5

  6
_OPEN
  7
_OPEN
 40
1.0
 41
8.0
 42
2.6667
 43
0.38
 44
2.6667
 45
0.0
 46
0.0
 47
0.0
 48
0.0
140
8.0
141
0.09
142
0.0
143
25.4
144
1.0
145
0.0
146
1.0
147
-2.6667
 71
     0
 72
     0
 73
     0
 74
     0
 75
     0
 76
     0
 77
     1
 78
     0
170
     0
171
     2
172
     1
173
     1
174
     0
175
     0
176
     0
177
     0
178
     0
  0
ENDTAB
  0
ENDSEC
  0
SECTION
  2
BLOCKS
  0
BLOCK
  8
0
  5
CE
  2
_OPEN
 70
    64
 10
0.0
 20
0.0
 30
0.0
  3
_OPEN
  0
LINE
  8
0
  6
BYBLOCK
 62
     0
  5
CB
 10
-1.0
 20
0.166667
 30
0.0
 11
0.0
 21
0.0
 31
0.0
  0
LINE
  8
0
  6
BYBLOCK
 62
     0
  5
CC
 10
0.0
 20
0.0
 30
0.0
 11
-1.0
 21
-0.166667
 31
0.0
  0
LINE
  8
0
  6
BYBLOCK
 62
     0
  5
CD
 10
0.0
 20
0.0
 30
0.0
 11
-1.0
 21
0.0
 31
0.0
  0
ENDBLK
  8
0
  5
CF
  0
BLOCK
  8
0
  5
E26
  2
*D1
 70
    65
 10
0.0
 20
0.0
 30
0.0
  3
*D1
  0
LINE
  8
0
  6
BYBLOCK
 62
     0
  5
E27
 10
329.60492
 20
241.144143
 30
0.0
 11
329.60492
 21
330.864143
 31
0.0
  0
LINE
  8
0
  6
BYBLOCK
 62
     0
  5
E28
 10
214.60572
 20
241.144143
 30
0.0
 11
214.60572
 21
330.864143
 31
0.0
  0
LINE
  8
0
  6
BYBLOCK
 62
     0
  5
E29
 10
321.60492
 20
328.197443
 30
0.0
 11
222.60572
 21
328.197443
 31
0.0
  0
INSERT
  8
0
  6
BYBLOCK
 62
     0
  5
E2A
  2
_OPEN
 10
329.60492
 20
328.197443
 30
0.0
 41
8.0
 42
8.0
 43
8.0
  0
INSERT
  8
0
  6
BYBLOCK
 62
     0
  5
E2B
  2
_OPEN
 10
214.60572
 20
328.197443
 30
0.0
 41
8.0
 42
8.0
 50
180.0
 43
8.0
  0
TEXT
  8
0
  6
BYBLOCK
 62
     0
  5
E2C
 10
264.10532
 20
330.864143
 30
0.0
 40
8.0
  1
115
  0
POINT
  8
DEFPOINTS
  6
BYBLOCK
 62
     0
  5
E2D
 10
329.60492
 20
238.477443
 30
0.0
  0
POINT
  8
DEFPOINTS
  6
BYBLOCK
 62
     0
  5
E2E
 10
214.60572
 20
238.477443
 30
0.0
  0
POINT
  8
DEFPOINTS
  6
BYBLOCK
 62
     0
  5
E2F
 10
214.60572
 20
328.197443
 30
0.0
  0
ENDBLK
  8
0
  5
E30
  0
BLOCK
  8
0
  5
E31
  2
*D2
 70
    65
 10
0.0
 20
0.0
 30
0.0
  3
*D2
  0
LINE
  8
0
  6
BYBLOCK
 62
     0
  5
E32
 10
312.10492
 20
275.392143
 30
0.0
 11
312.10492
 21
313.740143
 31
0.0
  0
LINE
  8
0
  6
BYBLOCK
 62
     0
  5
E33
 10
272.10492
 20
275.392143
 30
0.0
 11
272.10492
 21
313.740143
 31
0.0
  0
LINE
  8
0
  6
BYBLOCK
 62
     0
  5
E34
 10
304.10492
 20
311.073443
 30
0.0
 11
280.10492
 21
311.073443
 31
0.0
  0
INSERT
  8
0
  6
BYBLOCK
 62
     0
  5
E35
  2
_OPEN
 10
312.10492
 20
311.073443
 30
0.0
 41
8.0
 42
8.0
 43
8.0
  0
INSERT
  8
0
  6
BYBLOCK
 62
     0
  5
E36
  2
_OPEN
 10
272.10492
 20
311.073443
 30
0.0
 41
8.0
 42
8.0
 50
180.0
 43
8.0
  0
TEXT
  8
0
  6
BYBLOCK
 62
     0
  5
E37
 10
286.10492
 20
313.740143
 30
0.0
 40
8.0
  1
40
  0
POINT
  8
DEFPOINTS
  6
BYBLOCK
 62
     0
  5
E38
 10
312.10492
 20
272.725443
 30
0.0
  0
POINT
  8
DEFPOINTS
  6
BYBLOCK
 62
     0
  5
E39
 10
272.10492
 20
272.725443
 30
0.0
  0
POINT
  8
DEFPOINTS
  6
BYBLOCK
 62
     0
  5
E3A
 10
272.10492
 20
311.073443
 30
0.0
  0
ENDBLK
  8
0
  5
E3B
  0
BLOCK
  8
0
  5
114F
  2
*D3
 70
    65
 10
0.0
 20
0.0
 30
0.0
  3
*D3
  0
LINE
  8
0
  6
BYBLOCK
 62
     0
  5
1150
 10
341.60492
 20
241.644143
 30
0.0
 11
341.60492
 21
349.656143
 31
0.0
  0
LINE
  8
0
  6
BYBLOCK
 62
     0
  5
1151
 10
202.60572
 20
241.644143
 30
0.0
 11
202.60572
 21
349.656143
 31
0.0
  0
LINE
  8
0
  6
BYBLOCK
 62
     0
  5
1152
 10
333.60492
 20
346.989443
 30
0.0
 11
210.60572
 21
346.989443
 31
0.0
  0
INSERT
  8
0
  6
BYBLOCK
 62
     0
  5
1153
  2
_OPEN
 10
341.60492
 20
346.989443
 30
0.0
 41
8.0
 42
8.0
 43
8.0
  0
INSERT
  8
0
  6
BYBLOCK
 62
     0
  5
1154
  2
_OPEN
 10
202.60572
 20
346.989443
 30
0.0
 41
8.0
 42
8.0
 50
180.0
 43
8.0
  0
TEXT
  8
0
  6
BYBLOCK
 62
     0
  5
1155
 10
258.10532
 20
349.656143
 30
0.0
 40
8.0
  1
(140)
  0
POINT
  8
DEFPOINTS
  6
BYBLOCK
 62
     0
  5
1156
 10
341.60492
 20
238.977443
 30
0.0
  0
POINT
  8
DEFPOINTS
  6
BYBLOCK
 62
     0
  5
1157
 10
202.60572
 20
238.977443
 30
0.0
  0
POINT
  8
DEFPOINTS
  6
BYBLOCK
 62
     0
  5
1158
 10
202.60572
 20
346.989443
 30
0.0
  0
ENDBLK
  8
0
  5
1159
  0
BLOCK
  8
0
  5
E5F
  2
*D4
 70
    65
 10
0.0
 20
0.0
 30
0.0
  3
*D4
  0
LINE
  8
0
  6
BYBLOCK
 62
     0
  5
E60
 10
262.10492
 20
125.158743
 30
0.0
 11
262.10492
 21
96.574743
 31
0.0
  0
LINE
  8
0
  6
BYBLOCK
 62
     0
  5
E61
 10
282.10492
 20
125.158743
 30
0.0
 11
282.10492
 21
96.574743
 31
0.0
  0
LINE
  8
0
  6
BYBLOCK
 62
     0
  5
E62
 10
254.10492
 20
99.241443
 30
0.0
 11
246.10492
 21
99.241443
 31
0.0
  0
LINE
  8
0
  6
BYBLOCK
 62
     0
  5
E63
 10
290.10492
 20
99.241443
 30
0.0
 11
298.10492
 21
99.241443
 31
0.0
  0
LINE
  8
0
  6
BYBLOCK
 62
     0
  5
E64
 10
262.10492
 20
99.241443
 30
0.0
 11
282.10492
 21
99.241443
 31
0.0
  0
INSERT
  8
0
  6
BYBLOCK
 62
     0
  5
E65
  2
_OPEN
 10
262.10492
 20
99.241443
 30
0.0
 41
8.0
 42
8.0
 43
8.0
  0
INSERT
  8
0
  6
BYBLOCK
 62
     0
  5
E66
  2
_OPEN
 10
282.10492
 20
99.241443
 30
0.0
 41
8.0
 42
8.0
 50
180.0
 43
8.0
  0
TEXT
  8
0
  6
BYBLOCK
 62
     0
  5
E67
 10
266.10492
 20
101.908143
 30
0.0
 40
8.0
  1
20
  0
POINT
  8
DEFPOINTS
  6
BYBLOCK
 62
     0
  5
E68
 10
262.10492
 20
127.825443
 30
0.0
  0
POINT
  8
DEFPOINTS
  6
BYBLOCK
 62
     0
  5
E69
 10
282.10492
 20
127.825443
 30
0.0
  0
POINT
  8
DEFPOINTS
  6
BYBLOCK
 62
     0
  5
E6A
 10
282.10492
 20
99.241443
 30
0.0
  0
ENDBLK
  8
0
  5
E6B
  0
BLOCK
  8
0
  5
DE4
  2
*D5
 70
    65
 10
0.0
 20
0.0
 30
0.0
  3
*D5
  0
LINE
  8
0
  6
BYBLOCK
 62
     0
  5
DE5
 10
148.58252
 20
252.444143
 30
0.0
 11
148.58252
 21
349.592143
 31
0.0
  0
LINE
  8
0
  6
BYBLOCK
 62
     0
  5
DE6
 10
8.63252
 20
275.244143
 30
0.0
 11
8.63252
 21
349.592143
 31
0.0
  0
LINE
  8
0
  6
BYBLOCK
 62
     0
  5
DE7
 10
140.58252
 20
346.925443
 30
0.0
 11
16.63252
 21
346.925443
 31
0.0
  0
INSERT
  8
0
  6
BYBLOCK
 62
     0
  5
DE8
  2
_OPEN
 10
148.58252
 20
346.925443
 30
0.0
 41
8.0
 42
8.0
 43
8.0
  0
INSERT
  8
0
  6
BYBLOCK
 62
     0
  5
DE9
  2
_OPEN
 10
8.63252
 20
346.925443
 30
0.0
 41
8.0
 42
8.0
 50
180.0
 43
8.0
  0
TEXT
  8
0
  6
BYBLOCK
 62
     0
  5
DEA
 10
69.940854
 20
349.592143
 30
0.0
 40
8.0
  1
140
  0
POINT
  8
DEFPOINTS
  6
BYBLOCK
 62
     0
  5
DEB
 10
148.58252
 20
249.777443
 30
0.0
  0
POINT
  8
DEFPOINTS
  6
BYBLOCK
 62
     0
  5
DEC
 10
8.63252
 20
272.577443
 30
0.0
  0
POINT
  8
DEFPOINTS
  6
BYBLOCK
 62
     0
  5
DED
 10
8.63252
 20
346.925443
 30
0.0
  0
ENDBLK
  8
0
  5
DEE
  0
BLOCK
  8
0
  5
DEF
  2
*D6
 70
    65
 10
0.0
 20
0.0
 30
0.0
  3
*D6
  0
LINE
  8
0
  6
BYBLOCK
 62
     0
  5
DF0
 10
102.48252
 20
285.392143
 30
0.0
 11
102.48252
 21
330.864143
 31
0.0
  0
LINE
  8
0
  6
BYBLOCK
 62
     0
  5
DF1
 10
8.63252
 20
275.244143
 30
0.0
 11
8.63252
 21
330.864143
 31
0.0
  0
LINE
  8
0
  6
BYBLOCK
 62
     0
  5
DF2
 10
94.48252
 20
328.197443
 30
0.0
 11
16.63252
 21
328.197443
 31
0.0
  0
INSERT
  8
0
  6
BYBLOCK
 62
     0
  5
DF3
  2
_OPEN
 10
102.48252
 20
328.197443
 30
0.0
 41
8.0
 42
8.0
 43
8.0
  0
INSERT
  8
0
  6
BYBLOCK
 62
     0
  5
DF4
  2
_OPEN
 10
8.63252
 20
328.197443
 30
0.0
 41
8.0
 42
8.0
 50
180.0
 43
8.0
  0
TEXT
  8
0
  6
BYBLOCK
 62
     0
  5
DF5
 10
48.890854
 20
330.864143
 30
0.0
 40
8.0
  1
94
  0
POINT
  8
DEFPOINTS
  6
BYBLOCK
 62
     0
  5
DF6
 10
102.48252
 20
282.725443
 30
0.0
  0
POINT
  8
DEFPOINTS
  6
BYBLOCK
 62
     0
  5
DF7
 10
8.63252
 20
272.577443
 30
0.0
  0
POINT
  8
DEFPOINTS
  6
BYBLOCK
 62
     0
  5
DF8
 10
8.63252
 20
328.197443
 30
0.0
  0
ENDBLK
  8
0
  5
DF9
  0
BLOCK
  8
0
  5
E54
  2
*D7
 70
    65
 10
0.0
 20
0.0
 30
0.0
  3
*D7
  0
LINE
  8
0
  6
BYBLOCK
 62
     0
  5
E55
 10
322.77162
 20
126.925443
 30
0.0
 11
387.67962
 21
126.925443
 31
0.0
  0
LINE
  8
0
  6
BYBLOCK
 62
     0
  5
E56
 10
322.77162
 20
282.625443
 30
0.0
 11
387.67962
 21
282.625443
 31
0.0
  0
LINE
  8
0
  6
BYBLOCK
 62
     0
  5
E57
 10
385.01292
 20
134.925443
 30
0.0
 11
385.01292
 21
274.625443
 31
0.0
  0
INSERT
  8
0
  6
BYBLOCK
 62
     0
  5
E58
  2
_OPEN
 10
385.01292
 20
126.925443
 30
0.0
 41
8.0
 42
8.0
 50
270.0
 43
8.0
  0
INSERT
  8
0
  6
BYBLOCK
 62
     0
  5
E59
  2
_OPEN
 10
385.01292
 20
282.625443
 30
0.0
 41
8.0
 42
8.0
 50
90.0
 43
8.0
  0
TEXT
  8
0
  6
BYBLOCK
 62
     0
  5
E5A
 10
382.34622
 20
195.44211
 30
0.0
 40
8.0
  1
156
 50
90.0
  0
POINT
  8
DEFPOINTS
  6
BYBLOCK
 62
     0
  5
E5B
 10
320.10492
 20
126.925443
 30
0.0
  0
POINT
  8
DEFPOINTS
  6
BYBLOCK
 62
     0
  5
E5C
 10
320.10492
 20
282.625443
 30
0.0
  0
POINT
  8
DEFPOINTS
  6
BYBLOCK
 62
     0
  5
E5D
 10
385.01292
 20
282.625443
 30
0.0
  0
ENDBLK
  8
0
  5
E5E
  0
BLOCK
  8
0
  5
E49
  2
*D8
 70
    65
 10
0.0
 20
0.0
 30
0.0
  3
*D8
  0
LINE
  8
0
  6
BYBLOCK
 62
     0
  5
E4A
 10
316.77162
 20
138.825443
 30
0.0
 11
371.47962
 21
138.825443
 31
0.0
  0
LINE
  8
0
  6
BYBLOCK
 62
     0
  5
E4B
 10
316.77162
 20
270.725443
 30
0.0
 11
371.47962
 21
270.725443
 31
0.0
  0
LINE
  8
0
  6
BYBLOCK
 62
     0
  5
E4C
 10
368.81292
 20
146.825443
 30
0.0
 11
368.81292
 21
262.725443
 31
0.0
  0
INSERT
  8
0
  6
BYBLOCK
 62
     0
  5
E4D
  2
_OPEN
 10
368.81292
 20
138.825443
 30
0.0
 41
8.0
 42
8.0
 50
270.0
 43
8.0
  0
INSERT
  8
0
  6
BYBLOCK
 62
     0
  5
E4E
  2
_OPEN
 10
368.81292
 20
270.725443
 30
0.0
 41
8.0
 42
8.0
 50
90.0
 43
8.0
  0
TEXT
  8
0
  6
BYBLOCK
 62
     0
  5
E4F
 10
366.14622
 20
195.44211
 30
0.0
 40
8.0
  1
132
 50
90.0
  0
POINT
  8
DEFPOINTS
  6
BYBLOCK
 62
     0
  5
E50
 10
314.10492
 20
138.825443
 30
0.0
  0
POINT
  8
DEFPOINTS
  6
BYBLOCK
 62
     0
  5
E51
 10
314.10492
 20
270.725443
 30
0.0
  0
POINT
  8
DEFPOINTS
  6
BYBLOCK
 62
     0
  5
E52
 10
368.81292
 20
270.725443
 30
0.0
  0
ENDBLK
  8
0
  5
E53
  0
BLOCK
  8
0
  5
E3C
  2
*D9
 70
    65
 10
0.0
 20
0.0
 30
0.0
  3
*D9
  0
LINE
  8
0
  6
BYBLOCK
 62
     0
  5
E3D
 10
316.77162
 20
270.725443
 30
0.0
 11
371.47962
 21
270.725443
 31
0.0
  0
LINE
  8
0
  6
BYBLOCK
 62
     0
  5
E3E
 10
325.77162
 20
280.725443
 30
0.0
 11
371.47962
 21
280.725443
 31
0.0
  0
LINE
  8
0
  6
BYBLOCK
 62
     0
  5
E3F
 10
368.81292
 20
262.725443
 30
0.0
 11
368.81292
 21
254.725443
 31
0.0
  0
LINE
  8
0
  6
BYBLOCK
 62
     0
  5
E40
 10
368.81292
 20
288.725443
 30
0.0
 11
368.81292
 21
311.392176
 31
0.0
  0
LINE
  8
0
  6
BYBLOCK
 62
     0
  5
E41
 10
368.81292
 20
270.725443
 30
0.0
 11
368.81292
 21
280.725443
 31
0.0
  0
INSERT
  8
0
  6
BYBLOCK
 62
     0
  5
E42
  2
_OPEN
 10
368.81292
 20
270.725443
 30
0.0
 41
8.0
 42
8.0
 50
90.0
 43
8.0
  0
INSERT
  8
0
  6
BYBLOCK
 62
     0
  5
E43
  2
_OPEN
 10
368.81292
 20
280.725443
 30
0.0
 41
8.0
 42
8.0
 50
270.0
 43
8.0
  0
TEXT
  8
0
  6
BYBLOCK
 62
     0
  5
E44
 10
366.14622
 20
299.392143
 30
0.0
 40
8.0
  1
10
 50
90.0
  0
POINT
  8
DEFPOINTS
  6
BYBLOCK
 62
     0
  5
E45
 10
314.10492
 20
270.725443
 30
0.0
  0
POINT
  8
DEFPOINTS
  6
BYBLOCK
 62
     0
  5
E46
 10
323.10492
 20
280.725443
 30
0.0
  0
POINT
  8
DEFPOINTS
  6
BYBLOCK
 62
     0
  5
E47
 10
368.81292
 20
280.725443
 30
0.0
  0
ENDBLK
  8
0
  5
E48
  0
BLOCK
  8
0
  5
E95
  2
*D10
 70
    65
 10
0.0
 20
0.0
 30
0.0
  3
*D10
  0
LINE
  8
0
  6
BYBLOCK
 62
     0
  5
E96
 10
553.07562
 20
259.777443
 30
0.0
 11
585.56362
 21
259.777443
 31
0.0
  0
LINE
  8
0
  6
BYBLOCK
 62
     0
  5
E97
 10
549.38762
 20
282.625443
 30
0.0
 11
585.56362
 21
282.625443
 31
0.0
  0
LINE
  8
0
  6
BYBLOCK
 62
     0
  5
E98
 10
582.89692
 20
267.777443
 30
0.0
 11
582.89692
 21
274.625443
 31
0.0
  0
INSERT
  8
0
  6
BYBLOCK
 62
     0
  5
E99
  2
_OPEN
 10
582.89692
 20
259.777443
 30
0.0
 41
8.0
 42
8.0
 50
270.0
 43
8.0
  0
INSERT
  8
0
  6
BYBLOCK
 62
     0
  5
E9A
  2
_OPEN
 10
582.89692
 20
282.625443
 30
0.0
 41
8.0
 42
8.0
 50
90.0
 43
8.0
  0
TEXT
  8
0
  6
BYBLOCK
 62
     0
  5
E9B
 10
580.23022
 20
264.534776
 30
0.0
 40
8.0
  1
23
 50
90.0
  0
POINT
  8
DEFPOINTS
  6
BYBLOCK
 62
     0
  5
E9C
 10
550.40892
 20
259.777443
 30
0.0
  0
POINT
  8
DEFPOINTS
  6
BYBLOCK
 62
     0
  5
E9D
 10
546.72092
 20
282.625443
 30
0.0
  0
POINT
  8
DEFPOINTS
  6
BYBLOCK
 62
     0
  5
E9E
 10
582.89692
 20
282.625443
 30
0.0
  0
ENDBLK
  8
0
  5
E9F
  0
BLOCK
  8
0
  5
E10
  2
*D11
 70
    65
 10
0.0
 20
0.0
 30
0.0
  3
*D11
  0
LINE
  8
0
  6
BYBLOCK
 62
     0
  5
E11
 10
47.43252
 20
274.444143
 30
0.0
 11
47.43252
 21
313.740143
 31
0.0
  0
LINE
  8
0
  6
BYBLOCK
 62
     0
  5
E12
 10
8.63252
 20
275.244143
 30
0.0
 11
8.63252
 21
313.740143
 31
0.0
  0
LINE
  8
0
  6
BYBLOCK
 62
     0
  5
E13
 10
39.43252
 20
311.073443
 30
0.0
 11
16.63252
 21
311.073443
 31
0.0
  0
INSERT
  8
0
  6
BYBLOCK
 62
     0
  5
E14
  2
_OPEN
 10
47.43252
 20
311.073443
 30
0.0
 41
8.0
 42
8.0
 43
8.0
  0
INSERT
  8
0
  6
BYBLOCK
 62
     0
  5
E15
  2
_OPEN
 10
8.63252
 20
311.073443
 30
0.0
 41
8.0
 42
8.0
 50
180.0
 43
8.0
  0
TEXT
  8
0
  6
BYBLOCK
 62
     0
  5
E16
 10
16.03252
 20
313.740143
 30
0.0
 40
8.0
  1
38.8
  0
POINT
  8
DEFPOINTS
  6
BYBLOCK
 62
     0
  5
E17
 10
47.43252
 20
271.777443
 30
0.0
  0
POINT
  8
DEFPOINTS
  6
BYBLOCK
 62
     0
  5
E18
 10
8.63252
 20
272.577443
 30
0.0
  0
POINT
  8
DEFPOINTS
  6
BYBLOCK
 62
     0
  5
E19
 10
8.63252
 20
311.073443
 30
0.0
  0
ENDBLK
  8
0
  5
E1A
  0
BLOCK
  8
0
  5
E6C
  2
*D12
 70
    65
 10
0.0
 20
0.0
 30
0.0
  3
*D12
  0
LINE
  8
0
  6
BYBLOCK
 62
     0
  5
E6D
 10
543.72092
 20
269.220143
 30
0.0
 11
543.72092
 21
348.588143
 31
0.0
  0
LINE
  8
0
  6
BYBLOCK
 62
     0
  5
E6E
 10
453.72092
 20
159.364143
 30
0.0
 11
453.72092
 21
348.588143
 31
0.0
  0
LINE
  8
0
  6
BYBLOCK
 62
     0
  5
E6F
 10
535.72092
 20
345.921443
 30
0.0
 11
461.72092
 21
345.921443
 31
0.0
  0
INSERT
  8
0
  6
BYBLOCK
 62
     0
  5
E70
  2
_OPEN
 10
543.72092
 20
345.921443
 30
0.0
 41
8.0
 42
8.0
 43
8.0
  0
INSERT
  8
0
  6
BYBLOCK
 62
     0
  5
E71
  2
_OPEN
 10
453.72092
 20
345.921443
 30
0.0
 41
8.0
 42
8.0
 50
180.0
 43
8.0
  0
TEXT
  8
0
  6
BYBLOCK
 62
     0
  5
E72
 10
475.254254
 20
351.254843
 30
0.0
 40
8.0
  1
(80～)90
  0
LINE
  8
0
  6
BYBLOCK
 62
     0
  5
E73
 10
472.587554
 20
348.588143
 30
0.0
 11
524.854287
 21
348.588143
 31
0.0
  0
LINE
  8
0
  6
BYBLOCK
 62
     0
  5
E74
 10
524.854287
 20
348.588143
 30
0.0
 11
524.854287
 21
361.921543
 31
0.0
  0
LINE
  8
0
  6
BYBLOCK
 62
     0
  5
E75
 10
524.854287
 20
361.921543
 30
0.0
 11
472.587554
 21
361.921543
 31
0.0
  0
LINE
  8
0
  6
BYBLOCK
 62
     0
  5
E76
 10
472.587554
 20
361.921543
 30
0.0
 11
472.587554
 21
348.588143
 31
0.0
  0
POINT
  8
DEFPOINTS
  6
BYBLOCK
 62
     0
  5
E77
 10
543.72092
 20
266.553443
 30
0.0
  0
POINT
  8
DEFPOINTS
  6
BYBLOCK
 62
     0
  5
E78
 10
453.72092
 20
156.697443
 30
0.0
  0
POINT
  8
DEFPOINTS
  6
BYBLOCK
 62
     0
  5
E79
 10
453.72092
 20
345.921443
 30
0.0
  0
ENDBLK
  8
0
  5
E7A
  0
BLOCK
  8
0
  5
E86
  2
*D13
 70
    65
 10
0.0
 20
0.0
 30
0.0
  3
*D13
  0
LINE
  8
0
  6
BYBLOCK
 62
     0
  5
E87
 10
553.07562
 20
259.777443
 30
0.0
 11
585.56362
 21
259.777443
 31
0.0
  0
LINE
  8
0
  6
BYBLOCK
 62
     0
  5
E88
 10
468.07562
 20
149.777443
 30
0.0
 11
585.56362
 21
149.777443
 31
0.0
  0
LINE
  8
0
  6
BYBLOCK
 62
     0
  5
E89
 10
582.89692
 20
251.777443
 30
0.0
 11
582.89692
 21
157.777443
 31
0.0
  0
INSERT
  8
0
  6
BYBLOCK
 62
     0
  5
E8A
  2
_OPEN
 10
582.89692
 20
259.777443
 30
0.0
 41
8.0
 42
8.0
 50
90.0
 43
8.0
  0
INSERT
  8
0
  6
BYBLOCK
 62
     0
  5
E8B
  2
_OPEN
 10
582.89692
 20
149.777443
 30
0.0
 41
8.0
 42
8.0
 50
270.0
 43
8.0
  0
TEXT
  8
0
  6
BYBLOCK
 62
     0
  5
E8C
 10
577.56352
 20
197.44411
 30
0.0
 40
8.0
  1
110
 50
90.0
  0
LINE
  8
0
  6
BYBLOCK
 62
     0
  5
E8D
 10
580.23022
 20
194.77741
 30
0.0
 11
580.23022
 21
214.777476
 31
0.0
  0
LINE
  8
0
  6
BYBLOCK
 62
     0
  5
E8E
 10
580.23022
 20
214.777476
 30
0.0
 11
566.89682
 21
214.777476
 31
0.0
  0
LINE
  8
0
  6
BYBLOCK
 62
     0
  5
E8F
 10
566.89682
 20
214.777476
 30
0.0
 11
566.89682
 21
194.77741
 31
0.0
  0
LINE
  8
0
  6
BYBLOCK
 62
     0
  5
E90
 10
566.89682
 20
194.77741
 30
0.0
 11
580.23022
 21
194.77741
 31
0.0
  0
POINT
  8
DEFPOINTS
  6
BYBLOCK
 62
     0
  5
E91
 10
550.40892
 20
259.777443
 30
0.0
  0
POINT
  8
DEFPOINTS
  6
BYBLOCK
 62
     0
  5
E92
 10
465.40892
 20
149.777443
 30
0.0
  0
POINT
  8
DEFPOINTS
  6
BYBLOCK
 62
     0
  5
E93
 10
582.89692
 20
149.777443
 30
0.0
  0
ENDBLK
  8
0
  5
E94
  0
ENDSEC
  0
SECTION
  2
ENTITIES
  0
LINE
  8
FF
  5
4B4
 10
290.35292
 20
266.465443
 30
0.0
 11
300.76412
 21
272.740643
 31
0.0
  0
LINE
  8
FF
  5
4B5
 10
290.35292
 20
266.465443
 30
0.0
 11
355.62092
 21
334.237443
 31
0.0
  0
LINE
  8
1A
  6
CENTER
  5
4B6
 10
197.12292
 20
204.777443
 30
0.0
 11
344.90892
 21
204.777443
 31
0.0
  0
DIMENSION
  8
FF
  5
4B7
  2
*D1
 10
214.60572
 20
328.197443
 30
0.0
 11
272.10532
 21
334.864143
 31
0.0
  1
115
 13
329.60492
 23
238.477443
 33
0.0
 14
214.60572
 24
238.477443
 34
0.0
 50
180.0
  3
FSTD1
  0
DIMENSION
  8
FF
  5
4B8
  2
*D2
 10
272.10492
 20
311.073443
 30
0.0
 11
292.10492
 21
317.740143
 31
0.0
  1
40
 13
312.10492
 23
272.725443
 33
0.0
 14
272.10492
 24
272.725443
 34
0.0
 50
180.0
  3
FSTD1
  0
DIMENSION
  8
FF
  5
4B9
  2
*D3
 10
202.60572
 20
346.989443
 30
0.0
 11
272.10532
 21
353.656143
 31
0.0
  1
(140)
 13
341.60492
 23
238.977443
 33
0.0
 14
202.60572
 24
238.977443
 34
0.0
 50
180.0
  3
FSTD1
  0
TEXT
  8
FF
  5
4BA
 10
288.34092
 20
349.693443
 30
0.0
 40
7.0
  1
※１
 41
0.833333
  0
LINE
  8
0C
  5
4BB
 10
317.60492
 20
161.777443
 30
0.0
 11
226.60492
 21
161.777443
 31
0.0
  0
LINE
  8
0C
  5
4BC
 10
312.60492
 20
166.777443
 30
0.0
 11
231.60492
 21
166.777443
 31
0.0
  0
LINE
  8
0C
  5
4BD
 10
317.60492
 20
247.777443
 30
0.0
 11
226.60492
 21
247.777443
 31
0.0
  0
LINE
  8
0C
  5
4BE
 10
231.60492
 20
242.777443
 30
0.0
 11
312.60492
 21
242.777443
 31
0.0
  0
LINE
  8
0C
  5
4BF
 10
228.60492
 20
155.977443
 30
0.0
 11
315.60492
 21
155.977443
 31
0.0
  0
LINE
  8
0C
  5
4C0
 10
228.60492
 20
253.577443
 30
0.0
 11
315.60492
 21
253.577443
 31
0.0
  0
LINE
  8
0C
  5
4C1
 10
292.80492
 20
253.577443
 30
0.0
 11
315.60492
 21
253.577443
 31
0.0
  0
LINE
  8
0C
  5
4C2
 10
292.80492
 20
155.977443
 30
0.0
 11
315.60492
 21
155.977443
 31
0.0
  0
LINE
  8
0C
  5
4C3
 10
294.45692
 20
156.025443
 30
0.0
 11
302.10492
 21
137.093443
 31
0.0
  0
LINE
  8
0C
  5
4C4
 10
294.45692
 20
253.525443
 30
0.0
 11
301.42492
 21
270.777443
 31
0.0
  0
LINE
  8
0B
  5
4C5
 10
295.10492
 20
270.777443
 30
0.0
 11
301.42492
 21
270.777443
 31
0.0
  0
LINE
  8
0C
  5
4C6
 10
315.60492
 20
155.977443
 30
0.0
 11
293.90892
 21
155.977443
 31
0.0
  0
LINE
  8
0B
  5
4C7
 10
301.60492
 20
131.777443
 30
0.0
 11
291.95692
 21
131.777443
 31
0.0
  0
LINE
  8
0C
  5
4C8
 10
315.60492
 20
253.577443
 30
0.0
 11
293.90892
 21
253.577443
 31
0.0
  0
LINE
  8
0C
  5
4C9
 10
294.90492
 20
142.025443
 30
0.0
 11
300.11292
 21
142.025443
 31
0.0
  0
LINE
  8
0C
  5
4CA
 10
301.00492
 20
136.725443
 30
0.0
 11
294.90492
 21
136.725443
 31
0.0
  0
LINE
  8
0B
  5
4CB
 10
282.10492
 20
270.777443
 30
0.0
 11
301.42492
 21
270.777443
 31
0.0
  0
LINE
  8
1A
  6
CENTER
  5
4CC
 10
272.10492
 20
289.549443
 30
0.0
 11
272.10492
 21
121.913443
 31
0.0
  0
CIRCLE
  8
17
  5
4CD
 10
35.46852
 20
189.945443
 30
0.0
 40
1.9
  0
CIRCLE
  8
17
  5
4CE
 10
35.46852
 20
189.945443
 30
0.0
 40
3.5
  0
LINE
  8
0D
  6
PHANTOM
  5
4CF
 10
202.60572
 20
236.977443
 30
0.0
 11
202.60572
 21
172.577443
 31
0.0
  0
LINE
  8
16
  5
4D1
 10
64.66852
 20
181.193443
 30
0.0
 11
64.66852
 21
204.193443
 31
0.0
  0
LINE
  8
16
  5
4D2
 10
17.26852
 20
172.993443
 30
0.0
 11
17.26852
 21
204.193443
 31
0.0
  0
LINE
  8
0C
  5
4D4
 10
231.60492
 20
242.777443
 30
0.0
 11
231.60492
 21
166.777443
 31
0.0
  0
LINE
  8
0C
  5
4D5
 10
226.60492
 20
251.577443
 30
0.0
 11
226.60492
 21
157.977443
 31
0.0
  0
LINE
  8
15
  5
4D6
 10
121.11852
 20
247.193443
 30
0.0
 11
121.11852
 21
161.193443
 31
0.0
  0
LINE
  8
16
  5
4D7
 10
116.11852
 20
155.393443
 30
0.0
 11
116.11852
 21
252.993443
 31
0.0
  0
LINE
  8
0C
  5
4D8
 10
226.60492
 20
251.577443
 30
0.0
 11
226.60492
 21
157.977443
 31
0.0
  0
LINE
  8
16
  5
4D9
 10
75.51852
 20
152.593443
 30
0.0
 11
75.51852
 21
194.693443
 31
0.0
  0
LINE
  8
16
  5
4DA
 10
116.11852
 20
155.393443
 30
0.0
 11
116.11852
 21
252.993443
 31
0.0
  0
LINE
  8
16
  5
4DB
 10
75.51852
 20
194.693443
 30
0.0
 11
75.51852
 21
155.393443
 31
0.0
  0
LINE
  8
16
  5
4DC
 10
2.66852
 20
270.193443
 30
0.0
 11
2.66852
 21
138.193443
 31
0.0
  0
LINE
  8
16
  5
4DD
 10
15.16852
 20
198.193443
 30
0.0
 11
15.16852
 21
183.693443
 31
0.0
  0
LINE
  8
16
  5
4DE
 10
75.51852
 20
194.693443
 30
0.0
 11
75.51852
 21
155.393443
 31
0.0
  0
LINE
  8
0C
  5
4E0
 10
226.60492
 20
190.277443
 30
0.0
 11
226.60492
 21
157.977443
 31
0.0
  0
LINE
  8
16
  5
4E5
 10
2.66852
 20
256.193443
 30
0.0
 11
2.66852
 21
144.961443
 31
0.0
  0
LINE
  8
15
  5
4E6
 10
-18.33148
 20
270.193443
 30
0.0
 11
-18.33148
 21
138.193443
 31
0.0
  0
TEXT
  8
FF
  5
4E9
 10
7.24892
 20
54.665443
 30
0.0
 40
12.0
  1
※１　サイドオン補助接点ユニット２個取付けた場合
 41
0.833333
  0
LINE
  8
17
  5
4EA
 10
76.21852
 20
129.241443
 30
0.0
 11
75.01852
 21
129.241443
 31
0.0
  0
LINE
  8
17
  5
4EB
 10
75.01852
 20
147.241443
 30
0.0
 11
76.21852
 21
147.241443
 31
0.0
  0
LINE
  8
15
  5
4EC
 10
116.11852
 20
155.393443
 30
0.0
 11
75.51852
 21
155.393443
 31
0.0
  0
LINE
  8
17
  5
4ED
 10
84.29012
 20
148.593443
 30
0.0
 11
75.01852
 21
148.593443
 31
0.0
  0
LINE
  8
16
  5
50B
 10
41.78172
 20
171.993443
 30
0.0
 11
18.26852
 21
171.993443
 31
0.0
  0
ARC
  8
15
  5
50C
 10
27.06852
 20
135.193443
 30
0.0
 40
4.0
 50
270.0
 51
0.0
  0
LINE
  8
16
  5
50D
 10
75.21852
 20
155.393443
 30
0.0
 11
20.46852
 21
155.393443
 31
0.0
  0
LINE
  8
16
  5
50E
 10
29.06852
 20
141.493443
 30
0.0
 11
21.96852
 21
141.493443
 31
0.0
  0
ARC
  8
16
  5
50F
 10
18.96852
 20
156.393443
 30
0.0
 40
1.0
 50
0.0
 51
90.0
  0
ARC
  8
15
  5
510
 10
4.66852
 20
133.193443
 30
0.0
 40
2.0
 50
180.0
 51
270.0
  0
LINE
  8
16
  5
511
 10
18.96852
 20
138.193443
 30
0.0
 11
2.66852
 21
138.193443
 31
0.0
  0
LINE
  8
16
  5
512
 10
-18.83148
 20
155.193443
 30
0.0
 11
-18.83148
 21
138.393443
 31
0.0
  0
LINE
  8
15
  5
513
 10
2.66852
 20
138.193443
 30
0.0
 11
-18.33148
 21
138.193443
 31
0.0
  0
LINE
  8
16
  5
514
 10
-18.33148
 20
138.393443
 30
0.0
 11
-18.83148
 21
138.393443
 31
0.0
  0
LINE
  8
15
  6
CONTINUOUS
  5
515
 10
2.66852
 20
138.193443
 30
0.0
 11
2.66852
 21
133.193443
 31
0.0
  0
LINE
  8
16
  5
516
 10
-18.33148
 20
155.193443
 30
0.0
 11
-18.83148
 21
155.193443
 31
0.0
  0
ARC
  8
16
  5
518
 10
21.96852
 20
139.493443
 30
0.0
 40
2.0
 50
90.0
 51
180.0
  0
LINE
  8
16
  5
519
 10
19.96852
 20
156.393443
 30
0.0
 11
19.96852
 21
139.193443
 31
0.0
  0
LINE
  8
15
  5
51A
 10
27.06852
 20
131.193443
 30
0.0
 11
4.66852
 21
131.193443
 31
0.0
  0
LINE
  8
16
  5
51B
 10
8.66852
 20
137.193443
 30
0.0
 11
8.66852
 21
131.193443
 31
0.0
  0
ARC
  8
16
  5
51C
 10
9.66852
 20
137.193443
 30
0.0
 40
1.0
 50
90.0
 51
180.0
  0
ARC
  8
16
  5
51D
 10
18.96852
 20
139.193443
 30
0.0
 40
1.0
 50
270.0
 51
0.0
  0
ARC
  8
16
  5
51E
 10
20.46852
 20
154.893443
 30
0.0
 40
0.5
 50
90.0
 51
180.0
  0
ARC
  8
16
  5
51F
 10
18.26852
 20
172.993443
 30
0.0
 40
1.0
 50
180.0
 51
270.0
  0
LINE
  8
16
  5
520
 10
16.16852
 20
183.693443
 30
0.0
 11
16.16852
 21
158.393443
 31
0.0
  0
ARC
  8
16
  5
521
 10
17.16852
 20
158.393443
 30
0.0
 40
1.0
 50
180.0
 51
270.0
  0
LINE
  8
16
  5
522
 10
18.96852
 20
157.393443
 30
0.0
 11
17.16852
 21
157.393443
 31
0.0
  0
LINE
  8
16
  5
523
 10
16.16852
 20
183.693443
 30
0.0
 11
15.16852
 21
183.693443
 31
0.0
  0
LINE
  8
15
  5
524
 10
70.71852
 20
148.593443
 30
0.0
 11
32.06852
 21
148.593443
 31
0.0
  0
LINE
  8
15
  5
525
 10
31.06852
 20
147.593443
 30
0.0
 11
31.06852
 21
135.193443
 31
0.0
  0
LINE
  8
16
  6
CONTINUOUS
  5
526
 10
31.06852
 20
147.593443
 30
0.0
 11
31.06852
 21
153.393443
 31
0.0
  0
ARC
  8
15
  5
527
 10
32.06852
 20
147.593443
 30
0.0
 40
1.0
 50
90.0
 51
180.0
  0
ARC
  8
16
  5
528
 10
29.06852
 20
143.493443
 30
0.0
 40
2.0
 50
270.0
 51
0.0
  0
ARC
  8
16
  5
529
 10
33.06852
 20
153.393443
 30
0.0
 40
2.0
 50
90.0
 51
180.0
  0
LINE
  8
17
  5
52A
 10
75.01852
 20
129.241443
 30
0.0
 11
75.01852
 21
147.241443
 31
0.0
  0
LINE
  8
17
  5
52B
 10
64.41852
 20
131.541443
 30
0.0
 11
64.41852
 21
145.541443
 31
0.0
  0
LINE
  8
17
  5
52C
 10
71.01852
 20
128.541443
 30
0.0
 11
71.01852
 21
147.041443
 31
0.0
  0
LINE
  8
17
  5
52D
 10
71.01852
 20
152.593443
 30
0.0
 11
71.01852
 21
128.241443
 31
0.0
  0
LINE
  8
17
  5
52E
 10
75.01852
 20
152.593443
 30
0.0
 11
75.01852
 21
128.241443
 31
0.0
  0
ARC
  8
17
  5
52F
 10
71.31852
 20
128.541443
 30
0.0
 40
1.9
 50
180.0
 51
270.0
  0
LINE
  8
17
  5
530
 10
71.01852
 20
129.041443
 30
0.0
 11
66.91852
 21
129.041443
 31
0.0
  0
LINE
  8
17
  5
531
 10
66.91852
 20
129.041443
 30
0.0
 11
64.41852
 21
131.541443
 31
0.0
  0
LINE
  8
17
  5
532
 10
69.41852
 20
128.541443
 30
0.0
 11
69.41852
 21
129.041443
 31
0.0
  0
ARC
  8
17
  5
533
 10
71.31852
 20
128.541443
 30
0.0
 40
0.3
 50
180.0
 51
270.0
  0
LINE
  8
17
  5
534
 10
74.51852
 20
128.241443
 30
0.0
 11
71.31852
 21
128.241443
 31
0.0
  0
LINE
  8
17
  5
535
 10
74.51852
 20
126.641443
 30
0.0
 11
71.31852
 21
126.641443
 31
0.0
  0
LINE
  8
17
  5
536
 10
74.51852
 20
126.641443
 30
0.0
 11
74.51852
 21
128.241443
 31
0.0
  0
LINE
  8
17
  5
537
 10
71.01852
 20
128.241443
 30
0.0
 11
75.01852
 21
128.241443
 31
0.0
  0
LINE
  8
17
  5
538
 10
71.01852
 20
146.541443
 30
0.0
 11
65.41852
 21
146.541443
 31
0.0
  0
LINE
  8
17
  5
539
 10
71.01852
 20
147.041443
 30
0.0
 11
69.41852
 21
147.041443
 31
0.0
  0
ARC
  8
17
  5
53A
 10
65.41852
 20
145.541443
 30
0.0
 40
1.0
 50
90.0
 51
180.0
  0
LINE
  8
17
  5
53B
 10
69.41852
 20
146.541443
 30
0.0
 11
69.41852
 21
147.041443
 31
0.0
  0
LINE
  8
15
  6
CONTINUOUS
  5
53C
 10
75.21852
 20
155.393443
 30
0.0
 11
75.51852
 21
155.393443
 31
0.0
  0
ARC
  8
16
  5
53D
 10
75.01852
 20
152.593443
 30
0.0
 40
0.5
 50
270.0
 51
0.0
  0
LINE
  8
16
  5
53E
 10
71.01852
 20
148.593443
 30
0.0
 11
71.01852
 21
152.593443
 31
0.0
  0
LINE
  8
15
  5
53F
 10
75.21852
 20
155.393443
 30
0.0
 11
75.21852
 21
152.593443
 31
0.0
  0
LINE
  8
15
  5
540
 10
70.71852
 20
152.593443
 30
0.0
 11
70.71852
 21
148.593443
 31
0.0
  0
LINE
  8
15
  5
541
 10
75.21852
 20
152.593443
 30
0.0
 11
70.71852
 21
152.593443
 31
0.0
  0
LINE
  8
16
  5
542
 10
63.66852
 20
180.193443
 30
0.0
 11
44.66852
 21
180.193443
 31
0.0
  0
ARC
  8
16
  5
543
 10
41.78172
 20
173.993443
 30
0.0
 40
2.0
 50
270.0
 51
330.0
  0
ARC
  8
16
  5
544
 10
42.66852
 20
175.529443
 30
0.0
 40
2.0
 50
330.0
 51
0.000003
  0
LINE
  8
16
  5
545
 10
44.66852
 20
180.193443
 30
0.0
 11
44.66852
 21
175.529443
 31
0.0
  0
LINE
  8
16
  5
546
 10
44.40052
 20
174.529443
 30
0.0
 11
43.51372
 21
172.993443
 31
0.0
  0
ARC
  8
16
  5
547
 10
63.66852
 20
181.193443
 30
0.0
 40
1.0
 50
270.0
 51
0.000003
  0
LINE
  8
15
  5
548
 10
121.11852
 20
161.193443
 30
0.0
 11
119.76292
 21
156.133443
 31
0.0
  0
LINE
  8
17
  5
549
 10
76.21852
 20
147.241443
 30
0.0
 11
76.21852
 21
129.241443
 31
0.0
  0
LINE
  8
17
  5
54A
 10
76.21852
 20
130.541443
 30
0.0
 11
76.21852
 21
145.941443
 31
0.0
  0
LINE
  8
17
  5
54B
 10
78.21852
 20
145.941443
 30
0.0
 11
78.21852
 21
130.541443
 31
0.0
  0
LINE
  8
17
  5
54C
 10
78.21852
 20
130.737443
 30
0.0
 11
78.21852
 21
145.749443
 31
0.0
  0
LINE
  8
17
  5
54D
 10
94.41852
 20
142.241443
 30
0.0
 11
94.41852
 21
134.241443
 31
0.0
  0
LINE
  8
17
  5
54E
 10
78.21852
 20
130.741443
 30
0.0
 11
78.21852
 21
145.741443
 31
0.0
  0
LINE
  8
17
  5
54F
 10
84.71852
 20
130.741443
 30
0.0
 11
84.71852
 21
145.741443
 31
0.0
  0
LINE
  8
17
  5
550
 10
94.41852
 20
134.241443
 30
0.0
 11
84.71852
 21
134.241443
 31
0.0
  0
LINE
  8
17
  5
551
 10
84.71852
 20
130.741443
 30
0.0
 11
78.21852
 21
130.741443
 31
0.0
  0
LINE
  8
17
  5
552
 10
78.21852
 20
130.541443
 30
0.0
 11
76.21852
 21
130.541443
 31
0.0
  0
LINE
  8
17
  5
553
 10
84.71852
 20
134.493443
 30
0.0
 11
78.21852
 21
134.493443
 31
0.0
  0
LINE
  8
17
  5
554
 10
76.21852
 20
136.741443
 30
0.0
 11
78.21852
 21
138.741443
 31
0.0
  0
LINE
  8
17
  5
555
 10
76.21852
 20
137.741443
 30
0.0
 11
78.21852
 21
139.741443
 31
0.0
  0
LINE
  8
17
  5
556
 10
84.71852
 20
142.241443
 30
0.0
 11
94.41852
 21
142.241443
 31
0.0
  0
LINE
  8
17
  5
557
 10
85.70412
 20
149.177443
 30
0.0
 11
91.33292
 21
154.809443
 31
0.0
  0
LINE
  8
17
  5
558
 10
84.71852
 20
141.993443
 30
0.0
 11
78.21852
 21
141.993443
 31
0.0
  0
LINE
  8
17
  5
559
 10
84.71852
 20
145.741443
 30
0.0
 11
78.21852
 21
145.741443
 31
0.0
  0
LINE
  8
17
  5
55A
 10
76.21852
 20
145.941443
 30
0.0
 11
78.21852
 21
145.941443
 31
0.0
  0
ARC
  8
17
  5
55B
 10
84.29012
 20
150.593443
 30
0.0
 40
2.0
 50
270.0
 51
315.0
  0
ARC
  8
17
  5
55C
 10
92.74692
 20
153.393443
 30
0.0
 40
2.0
 50
90.0
 51
135.0
  0
LINE
  8
15
  5
55D
 10
118.79692
 20
155.393443
 30
0.0
 11
116.11852
 21
155.393443
 31
0.0
  0
ARC
  8
15
  5
55E
 10
118.79692
 20
156.393443
 30
0.0
 40
1.0
 50
270.0
 51
345.0
  0
DIMENSION
  8
FF
  5
55F
  2
*D4
 10
282.10492
 20
99.241443
 30
0.0
 11
272.10492
 21
105.908143
 31
0.0
  1
20
 13
262.10492
 23
127.825443
 33
0.0
 14
282.10492
 24
127.825443
 34
0.0
  3
FSTD1
  0
LINE
  8
0C
  5
560
 10
228.60492
 20
155.977443
 30
0.0
 11
251.40492
 21
155.977443
 31
0.0
  0
LINE
  8
0C
  5
561
 10
249.75692
 20
156.025443
 30
0.0
 11
242.10492
 21
137.093443
 31
0.0
  0
LINE
  8
0C
  5
562
 10
250.30092
 20
155.977443
 30
0.0
 11
228.60492
 21
155.977443
 31
0.0
  0
LINE
  8
0C
  5
563
 10
249.30492
 20
142.025443
 30
0.0
 11
244.10092
 21
142.025443
 31
0.0
  0
LINE
  8
0B
  5
564
 10
252.25692
 20
131.777443
 30
0.0
 11
242.60492
 21
131.777443
 31
0.0
  0
LINE
  8
0C
  5
565
 10
243.20492
 20
136.725443
 30
0.0
 11
249.30492
 21
136.725443
 31
0.0
  0
LINE
  8
0B
  6
CONTINUOUS
  5
566
 10
222.10572
 20
175.477443
 30
0.0
 11
222.10572
 21
145.825443
 31
0.0
  0
ARC
  8
0C
  5
567
 10
228.60492
 20
157.977443
 30
0.0
 40
2.0
 50
180.0
 51
270.0
  0
ARC
  8
0C
  5
568
 10
228.60492
 20
157.977443
 30
0.0
 40
2.0
 50
180.0
 51
270.0
  0
ARC
  8
0C
  5
569
 10
228.60492
 20
157.977443
 30
0.0
 40
2.0
 50
180.0
 51
270.0
  0
ARC
  8
0C
  5
56A
 10
224.10492
 20
155.977443
 30
0.0
 40
2.0
 50
90.0
 51
180.0
  0
LINE
  8
0B
  6
CONTINUOUS
  5
56B
 10
223.10572
 20
128.825443
 30
0.0
 11
226.10492
 21
128.825443
 31
0.0
  0
LINE
  8
1A
  6
CENTER
  5
56C
 10
221.43412
 20
149.777443
 30
0.0
 11
236.79292
 21
149.777443
 31
0.0
  0
CIRCLE
  8
0D
  5
56D
 10
232.10492
 20
138.825443
 30
0.0
 40
9.0
  0
LINE
  8
0C
  5
56E
 10
223.10572
 20
146.825443
 30
0.0
 11
227.88092
 21
146.825443
 31
0.0
  0
ARC
  8
0C
  5
56F
 10
229.60492
 20
149.777443
 30
0.0
 40
5.4
 50
154.417
 51
205.583
  0
LINE
  8
0B
  5
570
 10
222.10572
 20
129.825443
 30
0.0
 11
222.10572
 21
145.825443
 31
0.0
  0
LINE
  8
0B
  5
571
 10
222.10572
 20
129.825443
 30
0.0
 11
223.10572
 21
128.825443
 31
0.0
  0
LINE
  8
0C
  5
572
 10
222.10572
 20
145.825443
 30
0.0
 11
223.10572
 21
146.825443
 31
0.0
  0
CIRCLE
  8
0D
  5
573
 10
232.10492
 20
138.825443
 30
0.0
 40
7.7
  0
CIRCLE
  8
0D
  5
574
 10
232.10492
 20
138.825443
 30
0.0
 40
4.0
  0
LINE
  8
0D
  5
575
 10
225.60492
 20
142.581443
 30
0.0
 11
225.60492
 21
135.073443
 31
0.0
  0
LINE
  8
0D
  5
576
 10
238.60492
 20
135.073443
 30
0.0
 11
238.60492
 21
142.581443
 31
0.0
  0
LINE
  8
0D
  5
577
 10
232.10492
 20
131.321443
 30
0.0
 11
238.60492
 21
135.073443
 31
0.0
  0
LINE
  8
0B
  5
578
 10
238.10492
 20
126.925443
 30
0.0
 11
226.10492
 21
126.925443
 31
0.0
  0
LINE
  8
0C
  5
579
 10
226.10492
 20
128.825443
 30
0.0
 11
238.10492
 21
128.825443
 31
0.0
  0
LINE
  8
0D
  5
57A
 10
225.60492
 20
135.073443
 30
0.0
 11
232.10492
 21
131.321443
 31
0.0
  0
LINE
  8
0B
  5
57B
 10
226.10492
 20
126.925443
 30
0.0
 11
226.10492
 21
128.825443
 31
0.0
  0
LINE
  8
0C
  5
57C
 10
242.104924
 20
131.819403
 30
0.0
 11
242.10492
 21
137.093443
 31
0.0
  0
ARC
  8
0C
  5
57D
 10
242.60492
 20
134.777443
 30
0.0
 40
3.0
 50
260.406
 51
270.0
  0
LINE
  8
0B
  6
CONTINUOUS
  5
57E
 10
242.104924
 20
131.819403
 30
0.0
 11
242.10492
 21
129.825443
 31
0.0
  0
LINE
  8
0B
  6
CONTINUOUS
  5
57F
 10
238.10492
 20
128.825443
 30
0.0
 11
241.10492
 21
128.825443
 31
0.0
  0
LINE
  8
0B
  5
580
 10
238.10492
 20
126.925443
 30
0.0
 11
238.10492
 21
128.825443
 31
0.0
  0
LINE
  8
0B
  5
581
 10
241.10492
 20
128.825443
 30
0.0
 11
242.10492
 21
129.825443
 31
0.0
  0
ARC
  8
0C
  5
582
 10
243.20492
 20
137.225443
 30
0.0
 40
0.5
 50
180.0
 51
270.0
  0
LINE
  8
0C
  5
583
 10
242.70492
 20
138.577443
 30
0.0
 11
242.70492
 21
137.225443
 31
0.0
  0
LINE
  8
0D
  5
584
 10
238.60492
 20
142.581443
 30
0.0
 11
232.10492
 21
146.333443
 31
0.0
  0
LINE
  8
1A
  6
CENTER
  5
585
 10
232.10492
 20
154.697443
 30
0.0
 11
232.10492
 21
143.881443
 31
0.0
  0
LINE
  8
1A
  6
CENTER
  5
586
 10
227.10492
 20
154.697443
 30
0.0
 11
227.10492
 21
143.881443
 31
0.0
  0
LINE
  8
0C
  5
587
 10
234.43292
 20
155.977443
 30
0.0
 11
230.70092
 21
148.325443
 31
0.0
  0
LINE
  8
0D
  5
588
 10
232.10492
 20
146.333443
 30
0.0
 11
225.60492
 21
142.581443
 31
0.0
  0
LINE
  8
0C
  5
589
 10
230.70092
 20
148.325443
 30
0.0
 11
227.88092
 21
146.825443
 31
0.0
  0
LINE
  8
0C
  5
58A
 10
226.10492
 20
146.825443
 30
0.0
 11
225.35692
 21
146.825443
 31
0.0
  0
LINE
  8
0C
  5
58B
 10
228.82092
 20
147.325443
 30
0.0
 11
226.10492
 21
147.325443
 31
0.0
  0
LINE
  8
0C
  5
58C
 10
226.10492
 20
146.825443
 30
0.0
 11
226.10492
 21
147.325443
 31
0.0
  0
ARC
  8
0C
  5
58D
 10
225.63692
 20
147.877443
 30
0.0
 40
1.0
 50
205.583
 51
270.0
  0
LINE
  8
0C
  5
58E
 10
225.63692
 20
146.877443
 30
0.0
 11
226.10492
 21
146.877443
 31
0.0
  0
LINE
  8
0C
  5
58F
 10
225.63692
 20
152.677443
 30
0.0
 11
232.82092
 21
152.677443
 31
0.0
  0
ARC
  8
0C
  5
590
 10
225.63692
 20
151.677443
 30
0.0
 40
1.0
 50
90.0
 51
154.417
  0
ARC
  8
0C
  5
591
 10
232.60492
 20
148.977443
 30
0.0
 40
7.0
 50
75.7688
 51
90.0
  0
LINE
  8
0C
  5
593
 10
224.60492
 20
157.977443
 30
0.0
 11
224.10492
 21
157.977443
 31
0.0
  0
LINE
  8
0D
  5
595
 10
202.60572
 20
172.577443
 30
0.0
 11
215.10572
 21
172.577443
 31
0.0
  0
ARC
  8
0B
  5
596
 10
216.20572
 20
173.077443
 30
0.0
 40
0.5
 50
270.0
 51
0.0
  0
ARC
  8
0C
  5
597
 10
215.10572
 20
173.077443
 30
0.0
 40
0.5
 50
180.0
 51
270.0
  0
LINE
  8
0B
  5
598
 10
215.10572
 20
172.577443
 30
0.0
 11
216.20572
 21
172.577443
 31
0.0
  0
ARC
  8
0C
  5
5A9
 10
224.60492
 20
159.977443
 30
0.0
 40
2.0
 50
270.0
 51
0.0
  0
CIRCLE
  8
0D
  5
5AA
 10
272.10492
 20
138.825443
 30
0.0
 40
7.7
  0
CIRCLE
  8
0D
  5
5AB
 10
272.10492
 20
138.825443
 30
0.0
 40
4.0
  0
CIRCLE
  8
0D
  5
5AC
 10
272.10492
 20
138.825443
 30
0.0
 40
9.0
  0
LINE
  8
0D
  5
5AD
 10
272.10492
 20
131.321443
 30
0.0
 11
278.60492
 21
135.073443
 31
0.0
  0
LINE
  8
0D
  5
5AE
 10
278.60492
 20
142.581443
 30
0.0
 11
272.10492
 21
146.333443
 31
0.0
  0
LINE
  8
0C
  5
5AF
 10
260.80492
 20
155.977443
 30
0.0
 11
283.40492
 21
155.977443
 31
0.0
  0
LINE
  8
0B
  5
5B0
 10
278.10492
 20
126.925443
 30
0.0
 11
266.10492
 21
126.925443
 31
0.0
  0
LINE
  8
0C
  5
5B1
 10
266.10492
 20
128.825443
 30
0.0
 11
278.10492
 21
128.825443
 31
0.0
  0
LINE
  8
0D
  5
5B2
 10
265.60492
 20
142.581443
 30
0.0
 11
265.60492
 21
135.073443
 31
0.0
  0
LINE
  8
0C
  5
5B3
 10
262.10492
 20
138.777443
 30
0.0
 11
262.10492
 21
151.477443
 31
0.0
  0
LINE
  8
0C
  5
5B4
 10
249.30492
 20
142.025443
 30
0.0
 11
249.30492
 21
132.777443
 31
0.0
  0
LINE
  8
0B
  5
5B5
 10
262.10492
 20
138.777443
 30
0.0
 11
254.25692
 21
138.777443
 31
0.0
  0
LINE
  8
0B
  5
5B6
 10
254.25692
 20
138.777443
 30
0.0
 11
262.10492
 21
138.777443
 31
0.0
  0
ARC
  8
0C
  5
5B7
 10
250.30492
 20
132.777443
 30
0.0
 40
1.0
 50
180.0
 51
270.0
  0
ARC
  8
0B
  5
5B8
 10
252.25692
 20
132.777443
 30
0.0
 40
1.0
 50
270.0
 51
0.0
  0
ARC
  8
0B
  5
5B9
 10
254.25692
 20
137.777443
 30
0.0
 40
1.0
 50
90.0
 51
180.0
  0
LINE
  8
0B
  5
5BA
 10
253.25692
 20
137.777443
 30
0.0
 11
253.25692
 21
132.777443
 31
0.0
  0
LINE
  8
0B
  6
CONTINUOUS
  5
5BB
 10
262.10492
 20
138.777443
 30
0.0
 11
262.10492
 21
129.825443
 31
0.0
  0
LINE
  8
0D
  5
5BC
 10
265.60492
 20
135.073443
 30
0.0
 11
272.10492
 21
131.321443
 31
0.0
  0
LINE
  8
0B
  6
CONTINUOUS
  5
5BD
 10
263.10492
 20
128.825443
 30
0.0
 11
266.10492
 21
128.825443
 31
0.0
  0
LINE
  8
0B
  5
5BE
 10
266.10492
 20
128.825443
 30
0.0
 11
266.10492
 21
126.925443
 31
0.0
  0
LINE
  8
0B
  5
5BF
 10
262.10492
 20
129.825443
 30
0.0
 11
263.10492
 21
128.825443
 31
0.0
  0
ARC
  8
0C
  5
5C0
 10
260.80492
 20
153.977443
 30
0.0
 40
2.0
 50
90.0
 51
180.0
  0
ARC
  8
0C
  5
5C1
 10
254.20492
 20
149.977443
 30
0.0
 40
0.8
 50
180.0
 51
330.0
  0
ARC
  8
0C
  5
5C2
 10
251.40492
 20
153.977443
 30
0.0
 40
2.0
 50
0.0
 51
90.0
  0
LINE
  8
0C
  5
5C3
 10
253.40492
 20
153.977443
 30
0.0
 11
253.40492
 21
149.977443
 31
0.0
  0
ARC
  8
0C
  5
5C4
 10
258.00492
 20
149.977443
 30
0.0
 40
0.8
 50
210.0
 51
0.0
  0
ARC
  8
0C
  5
5C5
 10
256.10492
 20
149.669443
 30
0.0
 40
1.0
 50
30.0
 51
150.0
  0
LINE
  8
0C
  5
5C6
 10
254.89692
 20
149.577443
 30
0.0
 11
255.24092
 21
150.169443
 31
0.0
  0
LINE
  8
0C
  5
5C7
 10
257.31292
 20
149.577443
 30
0.0
 11
256.97292
 21
150.169443
 31
0.0
  0
LINE
  8
0C
  5
5C8
 10
258.80492
 20
153.977443
 30
0.0
 11
258.80492
 21
149.977443
 31
0.0
  0
LINE
  8
0D
  5
5C9
 10
272.10492
 20
146.333443
 30
0.0
 11
265.60492
 21
142.581443
 31
0.0
  0
LINE
  8
0C
  5
5CA
 10
264.45692
 20
155.977443
 30
0.0
 11
264.45692
 21
153.825443
 31
0.0
  0
LINE
  8
0C
  5
5CB
 10
262.10492
 20
151.477443
 30
0.0
 11
264.45692
 21
153.825443
 31
0.0
  0
LINE
  8
0D
  5
5CC
 10
278.60492
 20
135.073443
 30
0.0
 11
278.60492
 21
142.581443
 31
0.0
  0
LINE
  8
0C
  5
5CD
 10
282.10492
 20
138.777443
 30
0.0
 11
282.10492
 21
151.477443
 31
0.0
  0
LINE
  8
0C
  5
5CE
 10
294.90492
 20
142.025443
 30
0.0
 11
294.90492
 21
132.725443
 31
0.0
  0
LINE
  8
0B
  5
5CF
 10
289.95692
 20
138.777443
 30
0.0
 11
282.10492
 21
138.777443
 31
0.0
  0
LINE
  8
0B
  5
5D0
 10
282.10492
 20
138.777443
 30
0.0
 11
289.95692
 21
138.777443
 31
0.0
  0
LINE
  8
0B
  6
CONTINUOUS
  5
5D1
 10
282.10492
 20
138.777443
 30
0.0
 11
282.10492
 21
129.825443
 31
0.0
  0
LINE
  8
0B
  6
CONTINUOUS
  5
5D2
 10
278.10492
 20
128.825443
 30
0.0
 11
281.10492
 21
128.825443
 31
0.0
  0
LINE
  8
0B
  5
5D3
 10
278.10492
 20
126.925443
 30
0.0
 11
278.10492
 21
128.825443
 31
0.0
  0
LINE
  8
0B
  5
5D4
 10
281.10492
 20
128.825443
 30
0.0
 11
282.10492
 21
129.825443
 31
0.0
  0
ARC
  8
0B
  5
5D5
 10
291.95692
 20
132.777443
 30
0.0
 40
1.0
 50
180.0
 51
270.0
  0
ARC
  8
0C
  5
5D6
 10
293.90492
 20
132.777443
 30
0.0
 40
1.0
 50
270.0
 51
0.0
  0
ARC
  8
0B
  5
5D7
 10
289.95692
 20
137.777443
 30
0.0
 40
1.0
 50
0.0
 51
90.0
  0
LINE
  8
0B
  5
5D8
 10
290.95692
 20
137.777443
 30
0.0
 11
290.95692
 21
132.777443
 31
0.0
  0
ARC
  8
0C
  5
5D9
 10
283.40492
 20
153.977443
 30
0.0
 40
2.0
 50
0.0
 51
90.0
  0
LINE
  8
0C
  5
5DA
 10
282.10492
 20
151.477443
 30
0.0
 11
279.75692
 21
153.825443
 31
0.0
  0
LINE
  8
0C
  5
5DB
 10
279.75692
 20
153.825443
 30
0.0
 11
279.75692
 21
155.977443
 31
0.0
  0
ARC
  8
0C
  5
5DC
 10
290.00492
 20
149.977443
 30
0.0
 40
0.8
 50
210.0
 51
0.0
  0
ARC
  8
0C
  5
5DD
 10
292.80492
 20
153.977443
 30
0.0
 40
2.0
 50
90.0
 51
180.0
  0
ARC
  8
0C
  5
5DE
 10
286.20492
 20
149.977443
 30
0.0
 40
0.8
 50
180.0
 51
330.0
  0
ARC
  8
0C
  5
5DF
 10
288.10492
 20
149.669443
 30
0.0
 40
1.0
 50
30.0
 51
150.0
  0
LINE
  8
0C
  5
5E0
 10
286.89692
 20
149.577443
 30
0.0
 11
287.24092
 21
150.169443
 31
0.0
  0
LINE
  8
0C
  5
5E1
 10
289.31292
 20
149.577443
 30
0.0
 11
288.97292
 21
150.169443
 31
0.0
  0
LINE
  8
0C
  5
5E2
 10
285.40492
 20
153.977443
 30
0.0
 11
285.40492
 21
149.977443
 31
0.0
  0
LINE
  8
0C
  5
5E3
 10
290.80492
 20
153.977443
 30
0.0
 11
290.80492
 21
149.977443
 31
0.0
  0
LINE
  8
10
  6
CENTER
  5
5E4
 10
128.06852
 20
204.193443
 30
0.0
 11
-23.87868
 21
204.193443
 31
0.0
  0
DIMENSION
  8
FF
  5
5E5
  2
*D5
 10
-18.83148
 20
346.341443
 30
0.0
 11
51.14352
 21
353.008143
 31
0.0
 12
-27.464
 22
-0.584
 32
0.0
  1
140
 13
121.11852
 23
249.193443
 33
0.0
 14
-18.83148
 24
271.993443
 34
0.0
 50
180.0
  3
FSTD1
  0
LINE
  8
17
  5
5E6
 10
75.01852
 20
261.141443
 30
0.0
 11
76.21852
 21
261.141443
 31
0.0
  0
LINE
  8
17
  5
5E7
 10
76.21852
 20
279.141443
 30
0.0
 11
75.01852
 21
279.141443
 31
0.0
  0
LINE
  8
15
  5
5E8
 10
116.11852
 20
252.993443
 30
0.0
 11
75.51852
 21
252.993443
 31
0.0
  0
LINE
  8
17
  5
5E9
 10
84.29012
 20
259.793443
 30
0.0
 11
75.01852
 21
259.793443
 31
0.0
  0
LINE
  8
16
  5
5EA
 10
78.51852
 20
213.693443
 30
0.0
 11
67.66852
 21
213.693443
 31
0.0
  0
LINE
  8
16
  5
5EB
 10
78.51852
 20
194.693443
 30
0.0
 11
67.66852
 21
194.693443
 31
0.0
  0
DIMENSION
  8
FF
  5
5EC
  2
*D6
 10
-18.83148
 20
327.613443
 30
0.0
 11
28.09352
 21
334.280143
 31
0.0
 12
-27.464
 22
-0.584
 32
0.0
  1
94
 13
75.01852
 23
282.141443
 33
0.0
 14
-18.83148
 24
271.993443
 34
0.0
 50
180.0
  3
FSTD1
  0
DIMENSION
  8
FF
  5
5ED
  2
*D11
 10
-18.83148
 20
310.489443
 30
0.0
 11
0.56852
 21
317.156143
 31
0.0
 12
-27.464
 22
-0.584
 32
0.0
  1
38.8
 13
19.96852
 23
271.193443
 33
0.0
 14
-18.83148
 24
271.993443
 34
0.0
 50
180.0
  3
FSTD2
  0
LINE
  8
16
  5
5EE
 10
75.51852
 20
213.693443
 30
0.0
 11
75.51852
 21
255.793443
 31
0.0
  0
ARC
  8
16
  5
5EF
 10
23.48412
 20
255.293443
 30
0.0
 40
1.6
 50
270.0
 51
342.967
  0
LINE
  8
16
  5
5F0
 10
22.06852
 20
253.693443
 30
0.0
 11
22.06852
 21
262.693443
 31
0.0
  0
LINE
  8
16
  5
5F1
 10
19.96852
 20
253.193443
 30
0.0
 11
19.96852
 21
263.193443
 31
0.0
  0
LINE
  8
16
  5
5F2
 10
20.76852
 20
263.193443
 30
0.0
 11
20.76852
 21
253.193443
 31
0.0
  0
LINE
  8
16
  5
5F3
 10
20.76852
 20
253.941443
 30
0.0
 11
20.76852
 21
262.441443
 31
0.0
  0
LINE
  8
16
  5
5F4
 10
22.06852
 20
262.441443
 30
0.0
 11
22.06852
 21
253.941443
 31
0.0
  0
ARC
  8
16
  5
5F5
 10
31.96852
 20
254.993443
 30
0.0
 40
2.0
 50
180.0
 51
270.0
  0
LINE
  8
15
  5
5F6
 10
75.21852
 20
255.793443
 30
0.0
 11
75.21852
 21
252.993443
 31
0.0
  0
LINE
  8
16
  5
5F7
 10
19.96852
 20
251.993443
 30
0.0
 11
19.96852
 21
269.193443
 31
0.0
  0
LINE
  8
16
  5
5F8
 10
-18.83148
 20
269.993443
 30
0.0
 11
-18.83148
 21
253.193443
 31
0.0
  0
LINE
  8
16
  5
5F9
 10
41.78172
 20
236.393443
 30
0.0
 11
18.26852
 21
236.393443
 31
0.0
  0
LINE
  8
16
  5
5FA
 10
75.21852
 20
252.993443
 30
0.0
 11
20.46852
 21
252.993443
 31
0.0
  0
LINE
  8
16
  5
5FB
 10
17.26852
 20
235.393443
 30
0.0
 11
17.26852
 21
204.193443
 31
0.0
  0
LINE
  8
16
  5
5FC
 10
15.16852
 20
210.193443
 30
0.0
 11
15.16852
 21
224.693443
 31
0.0
  0
LINE
  8
16
  5
5FD
 10
16.16852
 20
210.193443
 30
0.0
 11
16.16852
 21
198.193443
 31
0.0
  0
LINE
  8
16
  5
5FE
 10
16.16852
 20
198.193443
 30
0.0
 11
15.16852
 21
198.193443
 31
0.0
  0
LINE
  8
16
  5
5FF
 10
16.16852
 20
210.193443
 30
0.0
 11
15.16852
 21
210.193443
 31
0.0
  0
LINE
  8
15
  5
600
 10
-18.33148
 20
253.193443
 30
0.0
 11
-18.83148
 21
253.193443
 31
0.0
  0
LINE
  8
16
  5
601
 10
16.16852
 20
249.993443
 30
0.0
 11
16.16852
 21
224.693443
 31
0.0
  0
LINE
  8
16
  5
602
 10
16.16852
 20
224.693443
 30
0.0
 11
15.16852
 21
224.693443
 31
0.0
  0
ARC
  8
16
  5
603
 10
18.26852
 20
235.393443
 30
0.0
 40
1.0
 50
90.0
 51
180.0
  0
LINE
  8
16
  5
604
 10
22.06852
 20
253.941443
 30
0.0
 11
20.76852
 21
253.941443
 31
0.0
  0
LINE
  8
16
  5
605
 10
20.76852
 20
253.193443
 30
0.0
 11
19.96852
 21
253.193443
 31
0.0
  0
ARC
  8
16
  5
606
 10
18.96852
 20
251.993443
 30
0.0
 40
1.0
 50
270.0
 51
0.0
  0
ARC
  8
16
  5
607
 10
17.16852
 20
249.993443
 30
0.0
 40
1.0
 50
90.0
 51
180.0
  0
ARC
  8
16
  5
608
 10
20.46852
 20
253.493443
 30
0.0
 40
0.5
 50
180.0
 51
270.0
  0
LINE
  8
16
  5
609
 10
18.96852
 20
250.993443
 30
0.0
 11
17.16852
 21
250.993443
 31
0.0
  0
LINE
  8
16
  5
60A
 10
23.48412
 20
253.693443
 30
0.0
 11
22.06852
 21
253.693443
 31
0.0
  0
CIRCLE
  8
17
  5
60B
 10
35.46852
 20
218.445443
 30
0.0
 40
3.5
  0
LINE
  8
16
  5
60C
 10
64.66852
 20
227.193443
 30
0.0
 11
64.66852
 21
204.193443
 31
0.0
  0
LINE
  8
16
  5
60D
 10
75.51852
 20
252.993443
 30
0.0
 11
75.51852
 21
213.693443
 31
0.0
  0
LINE
  8
16
  5
60E
 10
64.66852
 20
200.493443
 30
0.0
 11
37.46852
 21
200.493443
 31
0.0
  0
LINE
  8
16
  5
60F
 10
64.66852
 20
207.893443
 30
0.0
 11
37.46852
 21
207.893443
 31
0.0
  0
LINE
  8
16
  5
610
 10
37.46852
 20
204.193443
 30
0.0
 11
37.46852
 21
207.893443
 31
0.0
  0
LINE
  8
16
  5
611
 10
37.46852
 20
204.193443
 30
0.0
 11
37.46852
 21
200.493443
 31
0.0
  0
CIRCLE
  8
17
  5
612
 10
35.46852
 20
218.445443
 30
0.0
 40
1.9
  0
ARC
  8
16
  5
613
 10
71.51852
 20
204.693443
 30
0.0
 40
1.0
 50
0.0
 51
90.0
  0
LINE
  8
16
  5
614
 10
66.66852
 20
212.693443
 30
0.0
 11
66.66852
 21
195.693443
 31
0.0
  0
ARC
  8
16
  5
615
 10
67.66852
 20
195.693443
 30
0.0
 40
1.0
 50
180.0
 51
270.0
  0
LINE
  8
16
  5
616
 10
71.01852
 20
198.193443
 30
0.0
 11
66.66852
 21
198.193443
 31
0.0
  0
ARC
  8
16
  5
617
 10
71.51852
 20
203.693443
 30
0.0
 40
1.0
 50
270.0
 51
0.0
  0
ARC
  8
16
  5
618
 10
71.51852
 20
202.193443
 30
0.0
 40
0.5
 50
90.0
 51
180.0
  0
LINE
  8
16
  5
619
 10
71.01852
 20
198.193443
 30
0.0
 11
71.01852
 21
202.193443
 31
0.0
  0
LINE
  8
16
  5
61A
 10
72.51852
 20
203.693443
 30
0.0
 11
72.51852
 21
204.693443
 31
0.0
  0
ARC
  8
16
  5
61B
 10
67.66852
 20
212.693443
 30
0.0
 40
1.0
 50
90.0
 51
180.0
  0
LINE
  8
16
  5
61C
 10
71.01852
 20
210.193443
 30
0.0
 11
66.66852
 21
210.193443
 31
0.0
  0
ARC
  8
16
  5
61D
 10
71.51852
 20
206.193443
 30
0.0
 40
0.5
 50
180.0
 51
270.0
  0
LINE
  8
16
  5
61E
 10
71.01852
 20
210.193443
 30
0.0
 11
71.01852
 21
206.193443
 31
0.0
  0
LINE
  8
16
  5
61F
 10
63.66852
 20
228.193443
 30
0.0
 11
44.66852
 21
228.193443
 31
0.0
  0
LINE
  8
16
  5
620
 10
44.66852
 20
228.193443
 30
0.0
 11
44.66852
 21
232.857443
 31
0.0
  0
ARC
  8
16
  5
621
 10
41.78172
 20
234.393443
 30
0.0
 40
2.0
 50
30.0
 51
90.0
  0
ARC
  8
16
  5
622
 10
42.66852
 20
232.857443
 30
0.0
 40
2.0
 50
0.0
 51
30.0
  0
LINE
  8
16
  5
623
 10
44.40052
 20
233.857443
 30
0.0
 11
43.51372
 21
235.393443
 31
0.0
  0
ARC
  8
16
  5
624
 10
63.66852
 20
227.193443
 30
0.0
 40
1.0
 50
0.0
 51
90.0
  0
LINE
  8
15
  6
CONTINUOUS
  5
625
 10
75.21852
 20
252.993443
 30
0.0
 11
75.51852
 21
252.993443
 31
0.0
  0
LINE
  8
15
  5
626
 10
28.96852
 20
270.193443
 30
0.0
 11
2.66852
 21
270.193443
 31
0.0
  0
LINE
  8
15
  5
627
 10
2.81852
 20
270.193443
 30
0.0
 11
-18.33148
 21
270.193443
 31
0.0
  0
LINE
  8
16
  5
628
 10
-18.33148
 20
269.993443
 30
0.0
 11
-18.83148
 21
269.993443
 31
0.0
  0
ARC
  8
16
  5
629
 10
23.48412
 20
261.093443
 30
0.0
 40
1.6
 50
17.0334
 51
90.0
  0
LINE
  8
16
  5
62A
 10
20.76852
 20
262.441443
 30
0.0
 11
22.06852
 21
262.441443
 31
0.0
  0
LINE
  8
16
  5
62B
 10
20.76852
 20
257.041443
 30
0.0
 11
22.06852
 21
258.341443
 31
0.0
  0
LINE
  8
16
  5
62C
 10
20.76852
 20
258.041443
 30
0.0
 11
22.06852
 21
259.341443
 31
0.0
  0
ARC
  8
16
  5
62D
 10
14.01852
 20
258.193443
 30
0.0
 40
11.5
 50
343.2
 51
16.8
  0
LINE
  8
16
  5
62E
 10
19.96852
 20
263.193443
 30
0.0
 11
20.76852
 21
263.193443
 31
0.0
  0
ARC
  8
16
  5
62F
 10
18.96852
 20
269.193443
 30
0.0
 40
1.0
 50
0.0
 51
90.0
  0
LINE
  8
16
  5
630
 10
22.06852
 20
262.693443
 30
0.0
 11
23.48412
 21
262.693443
 31
0.0
  0
LINE
  8
15
  5
631
 10
70.71852
 20
259.793443
 30
0.0
 11
29.96852
 21
259.793443
 31
0.0
  0
LINE
  8
15
  6
CONTINUOUS
  5
632
 10
29.96852
 20
259.793443
 30
0.0
 11
29.96852
 21
269.193443
 31
0.0
  0
LINE
  8
16
  5
633
 10
29.96852
 20
259.793443
 30
0.0
 11
29.96852
 21
254.993443
 31
0.0
  0
ARC
  8
15
  5
634
 10
28.96852
 20
269.193443
 30
0.0
 40
1.0
 50
0.0
 51
90.0
  0
LINE
  8
17
  5
635
 10
75.01852
 20
279.141443
 30
0.0
 11
75.01852
 21
261.141443
 31
0.0
  0
LINE
  8
17
  5
636
 10
71.01852
 20
279.841443
 30
0.0
 11
71.01852
 21
261.341443
 31
0.0
  0
LINE
  8
17
  5
637
 10
64.41852
 20
276.841443
 30
0.0
 11
64.41852
 21
262.841443
 31
0.0
  0
LINE
  8
17
  5
638
 10
71.01852
 20
255.793443
 30
0.0
 11
71.01852
 21
280.141443
 31
0.0
  0
LINE
  8
17
  5
639
 10
75.01852
 20
255.793443
 30
0.0
 11
75.01852
 21
280.141443
 31
0.0
  0
ARC
  8
17
  5
63A
 10
65.41852
 20
262.841443
 30
0.0
 40
1.0
 50
180.0
 51
270.0
  0
LINE
  8
17
  5
63B
 10
71.01852
 20
261.341443
 30
0.0
 11
69.41852
 21
261.341443
 31
0.0
  0
LINE
  8
17
  5
63C
 10
71.01852
 20
261.841443
 30
0.0
 11
65.41852
 21
261.841443
 31
0.0
  0
LINE
  8
17
  5
63D
 10
69.41852
 20
261.841443
 30
0.0
 11
69.41852
 21
261.341443
 31
0.0
  0
ARC
  8
16
  5
63E
 10
75.01852
 20
255.793443
 30
0.0
 40
0.5
 50
0.0
 51
90.0
  0
LINE
  8
16
  5
63F
 10
71.01852
 20
255.793443
 30
0.0
 11
71.01852
 21
259.793443
 31
0.0
  0
LINE
  8
15
  5
640
 10
75.21852
 20
255.793443
 30
0.0
 11
70.71852
 21
255.793443
 31
0.0
  0
LINE
  8
15
  5
641
 10
70.71852
 20
255.793443
 30
0.0
 11
70.71852
 21
259.793443
 31
0.0
  0
LINE
  8
17
  5
642
 10
66.91852
 20
279.341443
 30
0.0
 11
64.41852
 21
276.841443
 31
0.0
  0
ARC
  8
17
  5
643
 10
71.31852
 20
279.841443
 30
0.0
 40
1.9
 50
90.0
 51
180.0
  0
LINE
  8
17
  5
644
 10
71.01852
 20
279.341443
 30
0.0
 11
66.91852
 21
279.341443
 31
0.0
  0
LINE
  8
17
  5
645
 10
69.41852
 20
279.841443
 30
0.0
 11
69.41852
 21
279.341443
 31
0.0
  0
ARC
  8
17
  5
646
 10
71.31852
 20
279.841443
 30
0.0
 40
0.3
 50
90.0
 51
180.0
  0
LINE
  8
17
  5
647
 10
74.51852
 20
281.741443
 30
0.0
 11
74.51852
 21
280.141443
 31
0.0
  0
LINE
  8
17
  5
648
 10
74.51852
 20
281.741443
 30
0.0
 11
71.31852
 21
281.741443
 31
0.0
  0
LINE
  8
17
  5
649
 10
74.51852
 20
280.141443
 30
0.0
 11
71.31852
 21
280.141443
 31
0.0
  0
LINE
  8
17
  5
64A
 10
71.01852
 20
280.141443
 30
0.0
 11
75.01852
 21
280.141443
 31
0.0
  0
LINE
  8
FF
  5
64C
 10
225.38092
 20
276.705443
 30
0.0
 11
191.30772
 21
296.405443
 31
0.0
  0
LINE
  8
FF
  5
64D
 10
218.72812
 20
230.617443
 30
0.0
 11
193.21092
 21
260.681443
 31
0.0
  0
LINE
  8
17
  5
64E
 10
85.70412
 20
259.209443
 30
0.0
 11
91.33292
 21
253.577443
 31
0.0
  0
LINE
  8
16
  5
64F
 10
116.11852
 20
213.693443
 30
0.0
 11
78.51852
 21
213.693443
 31
0.0
  0
LINE
  8
16
  5
650
 10
116.11852
 20
194.693443
 30
0.0
 11
78.51852
 21
194.693443
 31
0.0
  0
LINE
  8
16
  5
651
 10
78.51852
 20
213.693443
 30
0.0
 11
78.51852
 21
194.693443
 31
0.0
  0
LINE
  8
16
  5
652
 10
78.51852
 20
194.693443
 30
0.0
 11
78.51852
 21
213.693443
 31
0.0
  0
ARC
  8
17
  5
653
 10
92.74692
 20
254.993443
 30
0.0
 40
2.0
 50
225.0
 51
270.0
  0
LINE
  8
15
  5
654
 10
118.79772
 20
252.993443
 30
0.0
 11
116.11852
 21
252.993443
 31
0.0
  0
ARC
  8
15
  5
655
 10
118.79772
 20
251.993443
 30
0.0
 40
1.0
 50
14.9992
 51
90.0
  0
LINE
  8
15
  5
656
 10
121.11852
 20
247.193443
 30
0.0
 11
119.76372
 21
252.253443
 31
0.0
  0
LINE
  8
17
  5
657
 10
84.71852
 20
277.641443
 30
0.0
 11
84.71852
 21
262.641443
 31
0.0
  0
LINE
  8
17
  5
658
 10
78.21852
 20
277.641443
 30
0.0
 11
78.21852
 21
262.641443
 31
0.0
  0
LINE
  8
17
  5
659
 10
94.41852
 20
266.141443
 30
0.0
 11
94.41852
 21
274.141443
 31
0.0
  0
LINE
  8
17
  5
65A
 10
78.21852
 20
277.649443
 30
0.0
 11
78.21852
 21
262.637443
 31
0.0
  0
LINE
  8
17
  5
65B
 10
76.21852
 20
271.641443
 30
0.0
 11
78.21852
 21
269.641443
 31
0.0
  0
LINE
  8
17
  5
65C
 10
78.21852
 20
262.441443
 30
0.0
 11
78.21852
 21
277.841443
 31
0.0
  0
LINE
  8
17
  5
65D
 10
76.21852
 20
277.841443
 30
0.0
 11
76.21852
 21
262.441443
 31
0.0
  0
LINE
  8
17
  5
65E
 10
76.21852
 20
261.141443
 30
0.0
 11
76.21852
 21
279.141443
 31
0.0
  0
LINE
  8
17
  5
65F
 10
84.71852
 20
266.141443
 30
0.0
 11
94.41852
 21
266.141443
 31
0.0
  0
LINE
  8
17
  5
660
 10
76.21852
 20
262.441443
 30
0.0
 11
78.21852
 21
262.441443
 31
0.0
  0
ARC
  8
17
  5
661
 10
84.29012
 20
257.793443
 30
0.0
 40
2.0
 50
45.0
 51
90.0
  0
LINE
  8
17
  5
662
 10
84.71852
 20
262.641443
 30
0.0
 11
78.21852
 21
262.641443
 31
0.0
  0
LINE
  8
17
  5
663
 10
84.71852
 20
266.393443
 30
0.0
 11
78.21852
 21
266.393443
 31
0.0
  0
LINE
  8
17
  5
664
 10
76.21852
 20
270.641443
 30
0.0
 11
78.21852
 21
268.641443
 31
0.0
  0
LINE
  8
17
  5
665
 10
94.41852
 20
274.141443
 30
0.0
 11
84.71852
 21
274.141443
 31
0.0
  0
LINE
  8
17
  5
666
 10
84.71852
 20
277.641443
 30
0.0
 11
78.21852
 21
277.641443
 31
0.0
  0
LINE
  8
17
  5
667
 10
84.71852
 20
273.893443
 30
0.0
 11
78.21852
 21
273.893443
 31
0.0
  0
LINE
  8
17
  5
668
 10
78.21852
 20
277.841443
 30
0.0
 11
76.21852
 21
277.841443
 31
0.0
  0
LINE
  8
FF
  5
669
 10
193.21092
 20
260.681443
 30
0.0
 11
160.26692
 21
260.681443
 31
0.0
  0
TEXT
  8
FF
  5
66A
 10
160.36092
 20
264.433443
 30
0.0
 40
6.0
  1
M3.5
 41
1.181776
  0
TEXT
  8
FF
  5
66B
 10
159.18812
 20
272.909443
 30
0.0
 40
8.0
  1
補助端子
 41
0.833333
  0
LINE
  8
FF
  5
66C
 10
191.30772
 20
296.405443
 30
0.0
 11
168.36372
 21
296.405443
 31
0.0
  0
TEXT
  8
FF
  5
66D
 10
168.45772
 20
300.153443
 30
0.0
 40
6.0
  1
M8
 41
1.0636
  0
TEXT
  8
FF
  5
66E
 10
167.52532
 20
308.545476
 30
0.0
 40
8.0
  1
主端子
 41
0.833333
  0
LINE
  8
0B
  6
CONTINUOUS
  5
66F
 10
222.10572
 20
234.077443
 30
0.0
 11
222.10572
 21
263.725443
 31
0.0
  0
ARC
  8
0C
  5
670
 10
251.40492
 20
255.577443
 30
0.0
 40
2.0
 50
270.0
 51
0.0
  0
ARC
  8
0C
  5
671
 10
260.80492
 20
255.577443
 30
0.0
 40
2.0
 50
180.0
 51
270.0
  0
ARC
  8
0C
  5
672
 10
283.40492
 20
255.577443
 30
0.0
 40
2.0
 50
270.0
 51
0.0
  0
ARC
  8
0C
  5
673
 10
292.80492
 20
255.577443
 30
0.0
 40
2.0
 50
180.0
 51
270.0
  0
ARC
  8
0D
  5
674
 10
227.60492
 20
258.777443
 30
0.0
 40
4.0
 50
112.024
 51
10.5413
  0
LINE
  8
0C
  5
675
 10
234.45692
 20
253.525443
 30
0.0
 11
230.70092
 21
261.225443
 31
0.0
  0
LINE
  8
0C
  5
676
 10
249.75692
 20
253.525443
 30
0.0
 11
242.78492
 21
270.777443
 31
0.0
  0
LINE
  8
0C
  5
677
 10
279.75692
 20
255.725443
 30
0.0
 11
279.75692
 21
253.577443
 31
0.0
  0
LINE
  8
0C
  5
678
 10
264.45692
 20
253.577443
 30
0.0
 11
264.45692
 21
255.725443
 31
0.0
  0
LINE
  8
0C
  5
679
 10
228.60492
 20
253.577443
 30
0.0
 11
251.40492
 21
253.577443
 31
0.0
  0
LINE
  8
0C
  5
67A
 10
250.30092
 20
253.577443
 30
0.0
 11
228.60492
 21
253.577443
 31
0.0
  0
LINE
  8
0C
  5
67D
 10
226.60492
 20
251.577443
 30
0.0
 11
226.60492
 21
219.277443
 31
0.0
  0
LINE
  8
0C
  5
6A8
 10
224.60492
 20
251.577443
 30
0.0
 11
224.10492
 21
251.577443
 31
0.0
  0
LINE
  8
FF
  5
6A9
 10
218.72812
 20
230.617443
 30
0.0
 11
213.52868
 21
241.605443
 31
0.0
  0
LINE
  8
FF
  5
6AA
 10
208.73132
 20
237.533443
 30
0.0
 11
218.72812
 21
230.617443
 31
0.0
  0
LINE
  8
0D
  5
6AB
 10
202.60572
 20
236.977443
 30
0.0
 11
215.10572
 21
236.977443
 31
0.0
  0
LINE
  8
0B
  5
6B5
 10
216.70572
 20
234.077443
 30
0.0
 11
220.60572
 21
234.077443
 31
0.0
  0
ARC
  8
0B
  5
6B8
 10
215.10572
 20
236.477443
 30
0.0
 40
0.5
 50
90.0
 51
180.0
  0
ARC
  8
0B
  5
6B9
 10
216.20572
 20
236.477443
 30
0.0
 40
0.5
 50
0.0
 51
90.0
  0
LINE
  8
0B
  5
6BA
 10
215.10572
 20
236.977443
 30
0.0
 11
216.20572
 21
236.977443
 31
0.0
  0
ARC
  8
0C
  5
6BE
 10
224.10492
 20
253.577443
 30
0.0
 40
2.0
 50
180.0
 51
270.0
  0
ARC
  8
0C
  5
6BF
 10
228.60492
 20
251.577443
 30
0.0
 40
2.0
 50
90.0
 51
180.0
  0
ARC
  8
0C
  5
6C0
 10
228.60492
 20
251.577443
 30
0.0
 40
2.0
 50
90.0
 51
180.0
  0
ARC
  8
0C
  5
6C1
 10
224.60492
 20
249.577443
 30
0.0
 40
2.0
 50
0.0
 51
90.0
  0
ARC
  8
0C
  5
6C2
 10
228.60492
 20
251.577443
 30
0.0
 40
2.0
 50
90.0
 51
180.0
  0
LINE
  8
0C
  5
6C3
 10
281.10492
 20
197.777443
 30
0.0
 11
263.10492
 21
197.777443
 31
0.0
  0
LINE
  8
0C
  5
6C4
 10
281.10492
 20
211.777443
 30
0.0
 11
263.10492
 21
211.777443
 31
0.0
  0
LINE
  8
0C
  5
6C5
 10
263.10492
 20
211.777443
 30
0.0
 11
263.10492
 21
197.777443
 31
0.0
  0
LINE
  8
0C
  5
6C6
 10
281.10492
 20
211.777443
 30
0.0
 11
281.10492
 21
197.777443
 31
0.0
  0
LINE
  8
0C
  5
6C7
 10
260.80492
 20
253.577443
 30
0.0
 11
283.40492
 21
253.577443
 31
0.0
  0
LINE
  8
0C
  5
6C8
 10
282.30092
 20
253.577443
 30
0.0
 11
261.90892
 21
253.577443
 31
0.0
  0
LINE
  8
0C
  5
6C9
 10
294.45692
 20
253.525443
 30
0.0
 11
294.45692
 21
253.577443
 31
0.0
  0
LINE
  8
0C
  5
6CA
 10
249.10492
 20
270.777443
 30
0.0
 11
242.78492
 21
270.777443
 31
0.0
  0
LINE
  8
0B
  5
6CB
 10
242.78492
 20
270.777443
 30
0.0
 11
262.10492
 21
270.777443
 31
0.0
  0
LINE
  8
FF
  5
6CC
 10
225.38092
 20
276.705443
 30
0.0
 11
216.7906
 21
285.306243
 31
0.0
  0
LINE
  8
FF
  5
6CD
 10
213.64104
 20
279.858643
 30
0.0
 11
225.38092
 21
276.705443
 31
0.0
  0
LINE
  8
0B
  6
CONTINUOUS
  5
6CE
 10
226.10492
 20
280.725443
 30
0.0
 11
223.10572
 21
280.725443
 31
0.0
  0
CIRCLE
  8
0D
  5
6CF
 10
232.10492
 20
270.725443
 30
0.0
 40
9.0
  0
LINE
  8
0C
  5
6D0
 10
225.35692
 20
262.725443
 30
0.0
 11
223.75572
 21
262.725443
 31
0.0
  0
ARC
  8
0D
  5
6D1
 10
227.60492
 20
258.777443
 30
0.0
 40
3.5
 50
99.6964
 51
80.3036
  0
LINE
  8
0C
  5
6D2
 10
223.10572
 20
262.725443
 30
0.0
 11
227.88092
 21
262.725443
 31
0.0
  0
LINE
  8
0B
  5
6D3
 10
222.10572
 20
279.725443
 30
0.0
 11
222.10572
 21
263.725443
 31
0.0
  0
LINE
  8
0C
  5
6D4
 10
222.10572
 20
263.725443
 30
0.0
 11
223.10572
 21
262.725443
 31
0.0
  0
LINE
  8
0B
  5
6D5
 10
222.10572
 20
279.725443
 30
0.0
 11
223.10572
 21
280.725443
 31
0.0
  0
LINE
  8
0B
  6
CONTINUOUS
  5
6D6
 10
242.10492
 20
272.461443
 30
0.0
 11
242.78492
 21
270.777443
 31
0.0
  0
CIRCLE
  8
0D
  5
6D7
 10
232.10492
 20
270.725443
 30
0.0
 40
7.7
  0
CIRCLE
  8
0D
  5
6D8
 10
232.10492
 20
270.725443
 30
0.0
 40
4.0
  0
LINE
  8
0D
  5
6D9
 10
225.60492
 20
274.481443
 30
0.0
 11
225.60492
 21
266.973443
 31
0.0
  0
LINE
  8
0D
  5
6DA
 10
238.60492
 20
266.973443
 30
0.0
 11
238.60492
 21
274.481443
 31
0.0
  0
LINE
  8
0D
  5
6DB
 10
232.10492
 20
263.221443
 30
0.0
 11
238.60492
 21
266.973443
 31
0.0
  0
LINE
  8
0C
  5
6DC
 10
230.70092
 20
261.225443
 30
0.0
 11
227.88092
 21
262.725443
 31
0.0
  0
LINE
  8
0C
  5
6DD
 10
226.10492
 20
262.725443
 30
0.0
 11
226.10492
 21
262.225443
 31
0.0
  0
LINE
  8
0C
  5
6DE
 10
228.82092
 20
262.225443
 30
0.0
 11
226.10492
 21
262.225443
 31
0.0
  0
LINE
  8
0C
  5
6DF
 10
226.10492
 20
262.725443
 30
0.0
 11
225.35692
 21
262.725443
 31
0.0
  0
LINE
  8
0D
  5
6E0
 10
226.13692
 20
260.245443
 30
0.0
 11
229.07692
 21
257.305443
 31
0.0
  0
LINE
  8
0D
  5
6E1
 10
229.07692
 20
260.245443
 30
0.0
 11
226.13692
 21
257.305443
 31
0.0
  0
LINE
  8
0D
  5
6E2
 10
225.60492
 20
266.973443
 30
0.0
 11
232.10492
 21
263.221443
 31
0.0
  0
ARC
  8
0C
  5
6E3
 10
244.10492
 20
268.777443
 30
0.0
 40
2.0
 50
90.0
 51
125.714
  0
LINE
  8
0D
  5
6E4
 10
238.60492
 20
274.481443
 30
0.0
 11
232.10492
 21
278.233443
 31
0.0
  0
LINE
  8
0B
  5
6E5
 10
238.10492
 20
282.625443
 30
0.0
 11
226.10492
 21
282.625443
 31
0.0
  0
LINE
  8
0C
  5
6E6
 10
226.10492
 20
280.725443
 30
0.0
 11
238.10492
 21
280.725443
 31
0.0
  0
LINE
  8
0D
  5
6E7
 10
232.10492
 20
278.233443
 30
0.0
 11
225.60492
 21
274.481443
 31
0.0
  0
LINE
  8
0B
  5
6E8
 10
226.10492
 20
282.625443
 30
0.0
 11
226.10492
 21
280.725443
 31
0.0
  0
LINE
  8
0B
  5
6E9
 10
242.10492
 20
279.725443
 30
0.0
 11
242.10492
 21
272.461443
 31
0.0
  0
LINE
  8
0B
  6
CONTINUOUS
  5
6EA
 10
238.10492
 20
280.725443
 30
0.0
 11
241.10492
 21
280.725443
 31
0.0
  0
LINE
  8
0B
  5
6EB
 10
238.10492
 20
282.625443
 30
0.0
 11
238.10492
 21
280.725443
 31
0.0
  0
LINE
  8
0B
  5
6EC
 10
241.10492
 20
280.725443
 30
0.0
 11
242.10492
 21
279.725443
 31
0.0
  0
CIRCLE
  8
0D
  5
6ED
 10
272.10492
 20
270.725443
 30
0.0
 40
4.0
  0
CIRCLE
  8
0D
  5
6EE
 10
272.10492
 20
270.725443
 30
0.0
 40
9.0
  0
CIRCLE
  8
0D
  5
6EF
 10
272.10492
 20
270.725443
 30
0.0
 40
7.7
  0
LINE
  8
0D
  5
6F0
 10
272.10492
 20
263.221443
 30
0.0
 11
278.60492
 21
266.973443
 31
0.0
  0
LINE
  8
0D
  5
6F1
 10
278.60492
 20
274.481443
 30
0.0
 11
272.10492
 21
278.233443
 31
0.0
  0
LINE
  8
0B
  5
6F2
 10
278.10492
 20
282.625443
 30
0.0
 11
266.10492
 21
282.625443
 31
0.0
  0
LINE
  8
0C
  5
6F3
 10
266.10492
 20
280.725443
 30
0.0
 11
278.10492
 21
280.725443
 31
0.0
  0
LINE
  8
0B
  6
CONTINUOUS
  5
6F4
 10
262.10492
 20
270.777443
 30
0.0
 11
262.10492
 21
279.725443
 31
0.0
  0
LINE
  8
0D
  5
6F5
 10
265.60492
 20
274.481443
 30
0.0
 11
265.60492
 21
266.973443
 31
0.0
  0
LINE
  8
0C
  5
6F6
 10
258.80492
 20
257.177443
 30
0.0
 11
263.00492
 21
257.177443
 31
0.0
  0
LINE
  8
0C
  5
6F7
 10
262.40492
 20
257.777443
 30
0.0
 11
258.80492
 21
257.777443
 31
0.0
  0
LINE
  8
0C
  5
6F8
 10
249.10492
 20
270.777443
 30
0.0
 11
249.10492
 21
257.177443
 31
0.0
  0
CIRCLE
  8
0D
  5
6F9
 10
256.10492
 20
264.477443
 30
0.0
 40
3.0
  0
LINE
  8
0D
  5
6FA
 10
252.30492
 20
267.777443
 30
0.0
 11
252.30492
 21
261.177443
 31
0.0
  0
LINE
  8
0D
  5
6FB
 10
259.90492
 20
267.777443
 30
0.0
 11
259.90492
 21
261.177443
 31
0.0
  0
LINE
  8
0C
  5
6FC
 10
249.30492
 20
268.277443
 30
0.0
 11
249.30492
 21
258.277443
 31
0.0
  0
ARC
  8
0C
  5
6FD
 10
254.20492
 20
259.577443
 30
0.0
 40
0.8
 50
30.0
 51
180.0
  0
LINE
  8
0D
  5
6FE
 10
252.80492
 20
260.677443
 30
0.0
 11
259.40492
 21
260.677443
 31
0.0
  0
LINE
  8
0C
  5
6FF
 10
253.40492
 20
259.577443
 30
0.0
 11
253.40492
 21
255.577443
 31
0.0
  0
LINE
  8
0C
  5
700
 10
252.60492
 20
260.677443
 30
0.0
 11
252.60492
 21
257.777443
 31
0.0
  0
LINE
  8
0C
  5
701
 10
249.10492
 20
257.177443
 30
0.0
 11
253.40492
 21
257.177443
 31
0.0
  0
ARC
  8
0D
  5
702
 10
252.80492
 20
261.177443
 30
0.0
 40
0.5
 50
180.0
 51
270.0
  0
ARC
  8
0C
  5
703
 10
249.80492
 20
258.277443
 30
0.0
 40
0.5
 50
180.0
 51
270.0
  0
LINE
  8
0C
  5
704
 10
253.40492
 20
257.777443
 30
0.0
 11
249.80492
 21
257.777443
 31
0.0
  0
ARC
  8
0C
  5
705
 10
256.10492
 20
259.885443
 30
0.0
 40
1.0
 50
210.0
 51
330.0
  0
ARC
  8
0C
  5
706
 10
258.00492
 20
259.577443
 30
0.0
 40
0.8
 50
0.0
 51
150.0
  0
LINE
  8
0C
  5
707
 10
257.31292
 20
259.977443
 30
0.0
 11
256.97292
 21
259.385443
 31
0.0
  0
LINE
  8
0C
  5
708
 10
254.89692
 20
259.977443
 30
0.0
 11
255.24092
 21
259.385443
 31
0.0
  0
LINE
  8
0C
  5
709
 10
258.80492
 20
259.577443
 30
0.0
 11
258.80492
 21
255.577443
 31
0.0
  0
LINE
  8
0C
  5
70A
 10
259.60492
 20
260.677443
 30
0.0
 11
259.60492
 21
257.777443
 31
0.0
  0
ARC
  8
0D
  5
70B
 10
259.40492
 20
261.177443
 30
0.0
 40
0.5
 50
270.0
 51
0.0
  0
LINE
  8
0D
  5
70C
 10
252.80492
 20
268.277443
 30
0.0
 11
259.40492
 21
268.277443
 31
0.0
  0
ARC
  8
0D
  5
70D
 10
252.80492
 20
267.777443
 30
0.0
 40
0.5
 50
90.0
 51
180.0
  0
LINE
  8
0C
  5
70E
 10
249.12492
 20
270.777443
 30
0.0
 11
249.12492
 21
268.277443
 31
0.0
  0
LINE
  8
0C
  5
70F
 10
249.10492
 20
268.277443
 30
0.0
 11
249.30492
 21
268.277443
 31
0.0
  0
ARC
  8
0D
  5
710
 10
259.40492
 20
267.777443
 30
0.0
 40
0.5
 50
0.0
 51
90.0
  0
LINE
  8
0D
  5
711
 10
254.84492
 20
265.737443
 30
0.0
 11
257.36492
 21
263.217443
 31
0.0
  0
LINE
  8
0D
  5
712
 10
254.84492
 20
263.217443
 30
0.0
 11
257.36492
 21
265.737443
 31
0.0
  0
LINE
  8
0C
  5
713
 10
262.10492
 20
270.777443
 30
0.0
 11
262.10492
 21
258.077443
 31
0.0
  0
LINE
  8
0C
  5
714
 10
262.10492
 20
258.077443
 30
0.0
 11
264.45692
 21
255.725443
 31
0.0
  0
LINE
  8
0D
  5
715
 10
265.60492
 20
266.973443
 30
0.0
 11
272.10492
 21
263.221443
 31
0.0
  0
LINE
  8
0D
  5
716
 10
272.10492
 20
278.233443
 30
0.0
 11
265.60492
 21
274.481443
 31
0.0
  0
LINE
  8
0B
  6
CONTINUOUS
  5
717
 10
266.10492
 20
280.725443
 30
0.0
 11
263.10492
 21
280.725443
 31
0.0
  0
LINE
  8
0B
  5
718
 10
266.10492
 20
282.625443
 30
0.0
 11
266.10492
 21
280.725443
 31
0.0
  0
LINE
  8
0B
  5
719
 10
262.10492
 20
279.725443
 30
0.0
 11
263.10492
 21
280.725443
 31
0.0
  0
LINE
  8
FF
  5
71A
 10
296.23172
 20
277.105443
 30
0.0
 11
290.35292
 21
266.465443
 31
0.0
  0
LINE
  8
0B
  6
CONTINUOUS
  5
71B
 10
282.10492
 20
270.777443
 30
0.0
 11
282.10492
 21
279.725443
 31
0.0
  0
LINE
  8
0D
  5
71C
 10
278.60492
 20
266.973443
 30
0.0
 11
278.60492
 21
274.481443
 31
0.0
  0
LINE
  8
0C
  5
71D
 10
281.20492
 20
257.177443
 30
0.0
 11
285.40492
 21
257.177443
 31
0.0
  0
ARC
  8
0D
  5
71E
 10
284.80492
 20
267.777443
 30
0.0
 40
0.5
 50
90.0
 51
180.0
  0
ARC
  8
0D
  5
71F
 10
284.80492
 20
261.177443
 30
0.0
 40
0.5
 50
180.0
 51
270.0
  0
LINE
  8
0C
  5
720
 10
285.40492
 20
257.777443
 30
0.0
 11
281.80492
 21
257.777443
 31
0.0
  0
LINE
  8
0C
  5
721
 10
282.10492
 20
270.777443
 30
0.0
 11
282.10492
 21
258.077443
 31
0.0
  0
LINE
  8
0D
  5
722
 10
284.30492
 20
267.777443
 30
0.0
 11
284.30492
 21
261.177443
 31
0.0
  0
LINE
  8
0C
  5
723
 10
284.60492
 20
260.677443
 30
0.0
 11
284.60492
 21
257.777443
 31
0.0
  0
LINE
  8
0C
  5
724
 10
282.10492
 20
258.077443
 30
0.0
 11
279.75692
 21
255.725443
 31
0.0
  0
LINE
  8
0C
  5
725
 10
295.10492
 20
270.777443
 30
0.0
 11
295.10492
 21
257.177443
 31
0.0
  0
CIRCLE
  8
0D
  5
726
 10
288.10492
 20
264.477443
 30
0.0
 40
3.0
  0
LINE
  8
0D
  5
727
 10
291.90492
 20
267.777443
 30
0.0
 11
291.90492
 21
261.177443
 31
0.0
  0
LINE
  8
0C
  5
728
 10
294.90492
 20
268.277443
 30
0.0
 11
294.90492
 21
258.277443
 31
0.0
  0
ARC
  8
0C
  5
729
 10
290.00492
 20
259.577443
 30
0.0
 40
0.8
 50
0.0
 51
150.0
  0
LINE
  8
0D
  5
72A
 10
284.80492
 20
260.677443
 30
0.0
 11
291.40492
 21
260.677443
 31
0.0
  0
ARC
  8
0C
  5
72B
 10
288.10492
 20
259.885443
 30
0.0
 40
1.0
 50
210.0
 51
330.0
  0
ARC
  8
0C
  5
72C
 10
286.20492
 20
259.577443
 30
0.0
 40
0.8
 50
30.0
 51
180.0
  0
LINE
  8
0C
  5
72D
 10
289.31292
 20
259.977443
 30
0.0
 11
288.97292
 21
259.385443
 31
0.0
  0
LINE
  8
0C
  5
72E
 10
286.89692
 20
259.977443
 30
0.0
 11
287.24092
 21
259.385443
 31
0.0
  0
LINE
  8
0C
  5
72F
 10
285.40492
 20
259.577443
 30
0.0
 11
285.40492
 21
255.577443
 31
0.0
  0
LINE
  8
0C
  5
730
 10
290.80492
 20
259.577443
 30
0.0
 11
290.80492
 21
255.577443
 31
0.0
  0
LINE
  8
0C
  5
731
 10
291.60492
 20
260.677443
 30
0.0
 11
291.60492
 21
257.777443
 31
0.0
  0
LINE
  8
0C
  5
732
 10
290.80492
 20
257.177443
 30
0.0
 11
295.10492
 21
257.177443
 31
0.0
  0
ARC
  8
0D
  5
733
 10
291.40492
 20
261.177443
 30
0.0
 40
0.5
 50
270.0
 51
0.0
  0
ARC
  8
0C
  5
734
 10
294.40492
 20
258.277443
 30
0.0
 40
0.5
 50
270.0
 51
0.0
  0
LINE
  8
0C
  5
735
 10
294.40492
 20
257.777443
 30
0.0
 11
290.80492
 21
257.777443
 31
0.0
  0
LINE
  8
0D
  5
736
 10
284.80492
 20
268.277443
 30
0.0
 11
291.40492
 21
268.277443
 31
0.0
  0
LINE
  8
0D
  5
737
 10
286.84492
 20
265.737443
 30
0.0
 11
289.36492
 21
263.217443
 31
0.0
  0
LINE
  8
0D
  5
738
 10
286.84492
 20
263.217443
 30
0.0
 11
289.36492
 21
265.737443
 31
0.0
  0
ARC
  8
0D
  5
739
 10
291.40492
 20
267.777443
 30
0.0
 40
0.5
 50
0.0
 51
90.0
  0
LINE
  8
0C
  5
73A
 10
295.08892
 20
270.777443
 30
0.0
 11
295.08892
 21
268.277443
 31
0.0
  0
LINE
  8
0C
  5
73B
 10
294.90492
 20
268.277443
 30
0.0
 11
295.10492
 21
268.277443
 31
0.0
  0
LINE
  8
0B
  6
CONTINUOUS
  5
73C
 10
278.10492
 20
280.725443
 30
0.0
 11
281.10492
 21
280.725443
 31
0.0
  0
LINE
  8
0B
  5
73D
 10
278.10492
 20
282.625443
 30
0.0
 11
278.10492
 21
280.725443
 31
0.0
  0
LINE
  8
0B
  5
73E
 10
281.10492
 20
280.725443
 30
0.0
 11
282.10492
 21
279.725443
 31
0.0
  0
LINE
  8
34
  6
PHANTOM
  5
73F
 10
577.982523
 20
173.077443
 30
0.0
 11
577.982523
 21
236.477443
 31
0.0
  0
LINE
  8
34
  6
PHANTOM
  5
740
 10
462.982523
 20
173.077443
 30
0.0
 11
462.982523
 21
236.477443
 31
0.0
  0
LINE
  8
38
  6
CENTER
  5
741
 10
520.482523
 20
284.981443
 30
0.0
 11
520.482523
 21
124.129443
 31
0.0
  0
DIMENSION
  8
FF
  5
742
  2
*D12
 10
475.482523
 20
345.921443
 30
0.0
 11
520.482523
 21
355.254843
 31
0.0
 12
21.761602
 22
0.0
 32
0.0
  1
(80～)90
 13
565.482523
 23
266.553443
 33
0.0
 14
475.482523
 24
156.697443
 34
0.0
 50
180.0
  3
FSTD3
  0
DIMENSION
  8
FF
  5
743
  2
*D13
 10
604.658523
 20
149.777443
 30
0.0
 11
595.325123
 21
204.777443
 31
0.0
 12
21.761602
 22
0.0
 32
0.0
  1
110
 13
572.170523
 23
259.777443
 33
0.0
 14
487.170523
 24
149.777443
 34
0.0
 50
270.0
  3
FSTD3
  0
DIMENSION
  8
FF
  5
744
  2
*D7
 10
385.01292
 20
282.625443
 30
0.0
 11
378.34622
 21
204.775443
 31
0.0
  1
156
 13
320.10492
 23
126.925443
 33
0.0
 14
320.10492
 24
282.625443
 34
0.0
 50
90.0
  3
FSTD1
  0
DIMENSION
  8
FF
  5
745
  2
*D8
 10
368.81292
 20
270.725443
 30
0.0
 11
362.14622
 21
204.775443
 31
0.0
  1
132
 13
314.10492
 23
138.825443
 33
0.0
 14
314.10492
 24
270.725443
 34
0.0
 50
90.0
  3
FSTD1
  0
LINE
  8
0D
  6
PHANTOM
  5
746
 10
341.60492
 20
236.977443
 30
0.0
 11
341.60492
 21
172.577443
 31
0.0
  0
LINE
  8
0C
  5
749
 10
317.60492
 20
251.577443
 30
0.0
 11
317.60492
 21
157.977443
 31
0.0
  0
LINE
  8
0C
  5
74A
 10
312.60492
 20
242.777443
 30
0.0
 11
312.60492
 21
166.777443
 31
0.0
  0
LINE
  8
0C
  5
74B
 10
317.60492
 20
251.577443
 30
0.0
 11
317.60492
 21
157.977443
 31
0.0
  0
LINE
  8
0C
  5
74D
 10
317.60492
 20
190.277443
 30
0.0
 11
317.60492
 21
157.977443
 31
0.0
  0
LINE
  8
34
  6
PHANTOM
  5
753
 10
511.482523
 20
128.825443
 30
0.0
 11
514.482523
 21
128.825443
 31
0.0
  0
LINE
  8
FF
  5
754
 10
440.094523
 20
96.069443
 30
0.0
 11
410.250523
 21
96.069443
 31
0.0
  0
TEXT
  8
FF
  5
755
 10
409.267689
 20
108.830051
 30
0.0
 40
8.0
  1
取付穴
 41
0.833333
  0
TEXT
  8
FF
  5
756
 10
409.254523
 20
98.485247
 30
0.0
 40
8.0
  1
２－Ｍ５
 41
0.833333
  0
LINE
  8
0B
  6
CONTINUOUS
  5
757
 10
322.10492
 20
175.477443
 30
0.0
 11
322.10492
 21
145.825443
 31
0.0
  0
ARC
  8
0C
  5
758
 10
315.60492
 20
157.977443
 30
0.0
 40
2.0
 50
270.0
 51
0.0
  0
ARC
  8
0C
  5
759
 10
315.60492
 20
157.977443
 30
0.0
 40
2.0
 50
270.0
 51
0.0
  0
ARC
  8
0C
  5
75A
 10
315.60492
 20
157.977443
 30
0.0
 40
2.0
 50
270.0
 51
0.0
  0
ARC
  8
0C
  5
75B
 10
320.10492
 20
155.977443
 30
0.0
 40
2.0
 50
0.0
 51
90.0
  0
LINE
  8
0B
  6
CONTINUOUS
  5
75C
 10
318.10492
 20
128.825443
 30
0.0
 11
321.10492
 21
128.825443
 31
0.0
  0
CIRCLE
  8
0D
  5
75D
 10
312.10492
 20
138.825443
 30
0.0
 40
9.0
  0
LINE
  8
0C
  5
75E
 10
321.10492
 20
146.825443
 30
0.0
 11
316.33292
 21
146.825443
 31
0.0
  0
CIRCLE
  8
0D
  5
75F
 10
312.10492
 20
138.825443
 30
0.0
 40
7.7
  0
CIRCLE
  8
0D
  5
760
 10
312.10492
 20
138.825443
 30
0.0
 40
4.0
  0
LINE
  8
0D
  5
761
 10
318.60492
 20
135.073443
 30
0.0
 11
318.60492
 21
142.581443
 31
0.0
  0
LINE
  8
0D
  5
762
 10
305.60492
 20
142.581443
 30
0.0
 11
305.60492
 21
135.073443
 31
0.0
  0
LINE
  8
0D
  5
763
 10
305.60492
 20
135.073443
 30
0.0
 11
312.10492
 21
131.321443
 31
0.0
  0
LINE
  8
0B
  5
764
 10
318.10492
 20
126.925443
 30
0.0
 11
306.10492
 21
126.925443
 31
0.0
  0
LINE
  8
0C
  5
765
 10
318.10492
 20
128.825443
 30
0.0
 11
306.10492
 21
128.825443
 31
0.0
  0
LINE
  8
0C
  5
766
 10
302.104917
 20
131.819403
 30
0.0
 11
302.10492
 21
137.093443
 31
0.0
  0
LINE
  8
0B
  5
767
 10
303.10492
 20
128.825443
 30
0.0
 11
302.10492
 21
129.825443
 31
0.0
  0
LINE
  8
0B
  6
CONTINUOUS
  5
768
 10
302.104917
 20
131.819403
 30
0.0
 11
302.10492
 21
129.825443
 31
0.0
  0
ARC
  8
0B
  5
769
 10
301.60492
 20
134.777443
 30
0.0
 40
3.0
 50
270.0
 51
279.594
  0
LINE
  8
0B
  6
CONTINUOUS
  5
76A
 10
303.10492
 20
128.825443
 30
0.0
 11
306.10492
 21
128.825443
 31
0.0
  0
LINE
  8
0B
  5
76B
 10
306.10492
 20
126.925443
 30
0.0
 11
306.10492
 21
128.825443
 31
0.0
  0
ARC
  8
0C
  5
76C
 10
301.00492
 20
137.225443
 30
0.0
 40
0.5
 50
270.0
 51
0.0
  0
LINE
  8
0C
  5
76D
 10
301.42492
 20
138.777443
 30
0.0
 11
301.50492
 21
138.777443
 31
0.0
  0
LINE
  8
0C
  5
76E
 10
301.50492
 20
138.577443
 30
0.0
 11
301.50492
 21
137.225443
 31
0.0
  0
LINE
  8
0D
  5
76F
 10
312.10492
 20
131.321443
 30
0.0
 11
318.60492
 21
135.073443
 31
0.0
  0
LINE
  8
0B
  5
770
 10
318.10492
 20
128.825443
 30
0.0
 11
318.10492
 21
126.925443
 31
0.0
  0
LINE
  8
0D
  5
771
 10
312.10492
 20
146.333443
 30
0.0
 11
305.60492
 21
142.581443
 31
0.0
  0
ARC
  8
0D
  5
772
 10
316.60492
 20
150.777443
 30
0.0
 40
4.0
 50
292.024
 51
190.541
  0
ARC
  8
0D
  5
773
 10
316.60492
 20
150.777443
 30
0.0
 40
3.5
 50
279.696
 51
260.304
  0
LINE
  8
0C
  5
774
 10
309.75692
 20
156.025443
 30
0.0
 11
313.51292
 21
148.325443
 31
0.0
  0
LINE
  8
0D
  5
775
 10
318.60492
 20
142.581443
 30
0.0
 11
312.10492
 21
146.333443
 31
0.0
  0
LINE
  8
0C
  5
776
 10
313.51292
 20
148.325443
 30
0.0
 11
316.33292
 21
146.825443
 31
0.0
  0
LINE
  8
0C
  5
777
 10
315.39292
 20
147.325443
 30
0.0
 11
318.10492
 21
147.325443
 31
0.0
  0
LINE
  8
0C
  5
778
 10
318.10492
 20
146.825443
 30
0.0
 11
318.10492
 21
147.325443
 31
0.0
  0
LINE
  8
0C
  5
779
 10
318.85692
 20
146.825443
 30
0.0
 11
318.10492
 21
146.825443
 31
0.0
  0
LINE
  8
0C
  5
77A
 10
320.45692
 20
146.825443
 30
0.0
 11
318.85692
 21
146.825443
 31
0.0
  0
ARC
  8
0C
  5
77B
 10
311.60492
 20
148.977443
 30
0.0
 40
7.0
 50
90.0
 51
104.231
  0
LINE
  8
0D
  5
77C
 10
318.07692
 20
149.305443
 30
0.0
 11
315.13692
 21
152.245443
 31
0.0
  0
LINE
  8
0D
  5
77D
 10
315.13692
 20
149.305443
 30
0.0
 11
318.07692
 21
152.245443
 31
0.0
  0
LINE
  8
0B
  5
77E
 10
322.10492
 20
129.825443
 30
0.0
 11
322.10492
 21
145.825443
 31
0.0
  0
LINE
  8
0B
  5
77F
 10
322.10492
 20
129.825443
 30
0.0
 11
321.10492
 21
128.825443
 31
0.0
  0
LINE
  8
0C
  5
780
 10
322.10492
 20
145.825443
 30
0.0
 11
321.10492
 21
146.825443
 31
0.0
  0
ARC
  8
0C
  5
783
 10
319.60492
 20
159.977443
 30
0.0
 40
2.0
 50
180.0
 51
270.0
  0
LINE
  8
0C
  5
784
 10
319.60492
 20
157.977443
 30
0.0
 11
320.10492
 21
157.977443
 31
0.0
  0
LINE
  8
0D
  5
787
 10
341.60492
 20
172.577443
 30
0.0
 11
329.10492
 21
172.577443
 31
0.0
  0
LINE
  8
FF
  5
799
 10
476.942523
 20
146.877443
 30
0.0
 11
440.094523
 21
96.069443
 31
0.0
  0
ARC
  8
34
  6
PHANTOM
  5
79A
 10
463.482523
 20
173.077443
 30
0.0
 40
0.5
 50
180.0
 51
270.0
  0
LINE
  8
34
  6
PHANTOM
  5
79B
 10
470.482523
 20
175.477443
 30
0.0
 11
470.482523
 21
141.777443
 31
0.0
  0
LINE
  8
34
  6
PHANTOM
  5
79C
 10
486.482523
 20
128.825443
 30
0.0
 11
489.482523
 21
128.825443
 31
0.0
  0
LINE
  8
FF
  5
79D
 10
476.942523
 20
146.877443
 30
0.0
 11
467.502123
 21
139.219443
 31
0.0
  0
LINE
  8
FF
  5
79E
 10
472.595723
 20
135.525043
 30
0.0
 11
476.942523
 21
146.877443
 31
0.0
  0
LINE
  8
34
  6
PHANTOM
  5
79F
 10
470.482523
 20
129.825443
 30
0.0
 11
470.482523
 21
145.825443
 31
0.0
  0
LINE
  8
34
  6
PHANTOM
  5
7A0
 10
486.482523
 20
126.925443
 30
0.0
 11
474.482523
 21
126.925443
 31
0.0
  0
LINE
  8
34
  6
PHANTOM
  5
7A1
 10
474.482523
 20
126.925443
 30
0.0
 11
474.482523
 21
128.825443
 31
0.0
  0
LINE
  8
34
  6
PHANTOM
  5
7A2
 10
471.482523
 20
128.825443
 30
0.0
 11
474.482523
 21
128.825443
 31
0.0
  0
LINE
  8
34
  6
PHANTOM
  5
7A3
 10
470.482523
 20
129.825443
 30
0.0
 11
471.482523
 21
128.825443
 31
0.0
  0
LINE
  8
34
  6
PHANTOM
  5
7A4
 10
486.482523
 20
126.925443
 30
0.0
 11
486.482523
 21
128.825443
 31
0.0
  0
LINE
  8
38
  6
CENTER
  5
7A5
 10
469.810523
 20
149.777443
 30
0.0
 11
485.170523
 21
149.777443
 31
0.0
  0
LINE
  8
33
  5
7A6
 10
474.014523
 20
152.677443
 30
0.0
 11
481.950523
 21
152.677443
 31
0.0
  0
LINE
  8
33
  5
7A7
 10
474.014523
 20
146.877443
 30
0.0
 11
481.950523
 21
146.877443
 31
0.0
  0
ARC
  8
33
  5
7A8
 10
477.982523
 20
149.777443
 30
0.0
 40
5.4
 50
154.417
 51
205.583
  0
ARC
  8
33
  5
7A9
 10
474.014523
 20
147.877443
 30
0.0
 40
1.0
 50
205.583
 51
270.0
  0
ARC
  8
33
  5
7AA
 10
474.014523
 20
151.677443
 30
0.0
 40
1.0
 50
90.0
 51
154.417
  0
LINE
  8
38
  6
CENTER
  5
7AB
 10
475.482523
 20
154.697443
 30
0.0
 11
475.482523
 21
143.881443
 31
0.0
  0
LINE
  8
38
  6
CENTER
  5
7AC
 10
480.482523
 20
154.697443
 30
0.0
 11
480.482523
 21
143.881443
 31
0.0
  0
ARC
  8
33
  5
7AD
 10
477.982523
 20
149.777443
 30
0.0
 40
5.4
 50
334.417
 51
25.583
  0
ARC
  8
33
  5
7AE
 10
481.950523
 20
147.877443
 30
0.0
 40
1.0
 50
270.0
 51
334.417
  0
ARC
  8
33
  5
7AF
 10
481.950523
 20
151.677443
 30
0.0
 40
1.0
 50
25.583
 51
90.0
  0
LINE
  8
34
  6
PHANTOM
  5
7B0
 10
500.630523
 20
131.777443
 30
0.0
 11
490.982523
 21
131.777443
 31
0.0
  0
ARC
  8
34
  6
PHANTOM
  5
7B1
 10
490.982523
 20
134.777443
 30
0.0
 40
3.0
 50
260.406
 51
270.0
  0
LINE
  8
34
  6
PHANTOM
  5
7B2
 10
490.482523
 20
129.825443
 30
0.0
 11
490.482523
 21
131.777443
 31
0.0
  0
LINE
  8
34
  6
PHANTOM
  5
7B3
 10
489.482523
 20
128.825443
 30
0.0
 11
490.482523
 21
129.825443
 31
0.0
  0
ARC
  8
34
  6
PHANTOM
  5
7B4
 10
500.630523
 20
132.777443
 30
0.0
 40
1.0
 50
270.0
 51
0.0
  0
LINE
  8
34
  6
PHANTOM
  5
7B5
 10
510.482523
 20
129.825443
 30
0.0
 11
510.482523
 21
138.777443
 31
0.0
  0
LINE
  8
34
  6
PHANTOM
  5
7B6
 10
510.482523
 20
129.825443
 30
0.0
 11
511.482523
 21
128.825443
 31
0.0
  0
LINE
  8
34
  6
PHANTOM
  5
7B7
 10
510.482523
 20
138.777443
 30
0.0
 11
502.630523
 21
138.777443
 31
0.0
  0
ARC
  8
34
  6
PHANTOM
  5
7B8
 10
502.630523
 20
137.777443
 30
0.0
 40
1.0
 50
90.0
 51
180.0
  0
LINE
  8
34
  6
PHANTOM
  5
7B9
 10
501.630523
 20
137.777443
 30
0.0
 11
501.630523
 21
132.777443
 31
0.0
  0
LINE
  8
34
  6
PHANTOM
  5
7BA
 10
465.082523
 20
175.477443
 30
0.0
 11
465.082523
 21
173.077443
 31
0.0
  0
ARC
  8
34
  6
PHANTOM
  5
7BB
 10
464.582523
 20
173.077443
 30
0.0
 40
0.5
 50
270.0
 51
0.0
  0
LINE
  8
34
  6
PHANTOM
  5
7BC
 10
463.482523
 20
172.577443
 30
0.0
 11
464.582523
 21
172.577443
 31
0.0
  0
LINE
  8
34
  6
PHANTOM
  5
7BD
 10
465.082523
 20
175.477443
 30
0.0
 11
470.482523
 21
175.477443
 31
0.0
  0
LINE
  8
34
  6
PHANTOM
  5
7BE
 10
566.482523
 20
126.925443
 30
0.0
 11
554.482523
 21
126.925443
 31
0.0
  0
LINE
  8
34
  6
PHANTOM
  5
7BF
 10
538.330523
 20
138.777443
 30
0.0
 11
530.482523
 21
138.777443
 31
0.0
  0
LINE
  8
34
  6
PHANTOM
  5
7C0
 10
526.482523
 20
126.925443
 30
0.0
 11
514.482523
 21
126.925443
 31
0.0
  0
LINE
  8
34
  6
PHANTOM
  5
7C1
 10
514.482523
 20
128.825443
 30
0.0
 11
514.482523
 21
126.925443
 31
0.0
  0
LINE
  8
34
  6
PHANTOM
  5
7C2
 10
530.482523
 20
129.825443
 30
0.0
 11
530.482523
 21
138.777443
 31
0.0
  0
LINE
  8
34
  6
PHANTOM
  5
7C3
 10
529.482523
 20
128.825443
 30
0.0
 11
530.482523
 21
129.825443
 31
0.0
  0
LINE
  8
34
  6
PHANTOM
  5
7C4
 10
526.482523
 20
128.825443
 30
0.0
 11
529.482523
 21
128.825443
 31
0.0
  0
LINE
  8
34
  6
PHANTOM
  5
7C5
 10
526.482523
 20
126.925443
 30
0.0
 11
526.482523
 21
128.825443
 31
0.0
  0
LINE
  8
34
  6
PHANTOM
  5
7C6
 10
550.482523
 20
131.777443
 30
0.0
 11
540.330523
 21
131.777443
 31
0.0
  0
ARC
  8
34
  6
PHANTOM
  5
7C7
 10
540.330523
 20
132.777443
 30
0.0
 40
1.0
 50
180.0
 51
270.0
  0
ARC
  8
34
  6
PHANTOM
  5
7C8
 10
538.330523
 20
137.777443
 30
0.0
 40
1.0
 50
0.0
 51
90.0
  0
LINE
  8
34
  6
PHANTOM
  5
7C9
 10
539.330523
 20
137.777443
 30
0.0
 11
539.330523
 21
132.777443
 31
0.0
  0
LINE
  8
34
  6
PHANTOM
  5
7CA
 10
554.482523
 20
128.825443
 30
0.0
 11
551.482523
 21
128.825443
 31
0.0
  0
LINE
  8
34
  6
PHANTOM
  5
7CB
 10
551.482523
 20
128.825443
 30
0.0
 11
550.482523
 21
129.825443
 31
0.0
  0
LINE
  8
34
  6
PHANTOM
  5
7CC
 10
550.482523
 20
129.825443
 30
0.0
 11
550.482523
 21
131.777443
 31
0.0
  0
LINE
  8
34
  6
PHANTOM
  5
7CD
 10
554.482523
 20
126.925443
 30
0.0
 11
554.482523
 21
128.825443
 31
0.0
  0
LINE
  8
34
  6
PHANTOM
  5
7CE
 10
570.482523
 20
175.477443
 30
0.0
 11
570.482523
 21
141.777443
 31
0.0
  0
LINE
  8
34
  6
PHANTOM
  5
7CF
 10
570.482523
 20
129.825443
 30
0.0
 11
570.482523
 21
145.825443
 31
0.0
  0
LINE
  8
34
  6
PHANTOM
  5
7D0
 10
570.482523
 20
129.825443
 30
0.0
 11
569.482523
 21
128.825443
 31
0.0
  0
LINE
  8
34
  6
PHANTOM
  5
7D1
 10
569.482523
 20
128.825443
 30
0.0
 11
566.482523
 21
128.825443
 31
0.0
  0
LINE
  8
34
  6
PHANTOM
  5
7D2
 10
566.482523
 20
128.825443
 30
0.0
 11
566.482523
 21
126.925443
 31
0.0
  0
LINE
  8
34
  6
PHANTOM
  5
7D3
 10
575.882523
 20
175.477443
 30
0.0
 11
575.882523
 21
173.077443
 31
0.0
  0
ARC
  8
34
  5
7D4
 10
577.482523
 20
173.077443
 30
0.0
 40
0.5
 50
270.0
 51
0.0
  0
ARC
  8
34
  6
PHANTOM
  5
7D5
 10
576.382523
 20
173.077443
 30
0.0
 40
0.5
 50
180.0
 51
270.0
  0
LINE
  8
34
  6
PHANTOM
  5
7D6
 10
577.482523
 20
172.577443
 30
0.0
 11
576.382523
 21
172.577443
 31
0.0
  0
LINE
  8
34
  6
PHANTOM
  5
7D7
 10
575.882523
 20
175.477443
 30
0.0
 11
570.482523
 21
175.477443
 31
0.0
  0
TEXT
  8
FF
  5
7D8
 10
482.058523
 20
374.925443
 30
0.0
 40
12.0
  1
取付穴寸法図
 41
0.833333
  0
LINE
  8
34
  6
PHANTOM
  5
7D9
 10
511.482523
 20
280.725443
 30
0.0
 11
514.482523
 21
280.725443
 31
0.0
  0
LINE
  8
38
  6
CENTER
  5
7DA
 10
450.902523
 20
204.777443
 30
0.0
 11
580.982523
 21
204.777443
 31
0.0
  0
LINE
  8
0B
  6
CONTINUOUS
  5
7DB
 10
322.10492
 20
234.077443
 30
0.0
 11
322.10492
 21
263.725443
 31
0.0
  0
LINE
  8
1A
  6
CENTER
  5
7DC
 10
312.10492
 20
264.553443
 30
0.0
 11
312.10492
 21
253.845443
 31
0.0
  0
LINE
  8
1A
  6
CENTER
  5
7DD
 10
317.10492
 20
264.553443
 30
0.0
 11
317.10492
 21
253.845443
 31
0.0
  0
LINE
  8
0C
  5
7DE
 10
309.75692
 20
253.525443
 30
0.0
 11
313.51292
 21
261.225443
 31
0.0
  0
LINE
  8
0C
  5
7E1
 10
317.60492
 20
251.577443
 30
0.0
 11
317.60492
 21
219.277443
 31
0.0
  0
ARC
  8
0C
  5
80E
 10
320.10492
 20
253.577443
 30
0.0
 40
2.0
 50
270.0
 51
0.0
  0
ARC
  8
0C
  5
811
 10
315.60492
 20
251.577443
 30
0.0
 40
2.0
 50
0.0
 51
90.0
  0
ARC
  8
0C
  5
812
 10
315.60492
 20
251.577443
 30
0.0
 40
2.0
 50
0.0
 51
90.0
  0
ARC
  8
0C
  5
813
 10
315.60492
 20
251.577443
 30
0.0
 40
2.0
 50
0.0
 51
90.0
  0
ARC
  8
0C
  5
814
 10
319.60492
 20
249.577443
 30
0.0
 40
2.0
 50
90.0
 51
180.0
  0
LINE
  8
0C
  5
815
 10
319.60492
 20
251.577443
 30
0.0
 11
320.10492
 21
251.577443
 31
0.0
  0
LINE
  8
0D
  5
816
 10
341.60492
 20
236.977443
 30
0.0
 11
329.10492
 21
236.977443
 31
0.0
  0
DIMENSION
  8
FF
  5
827
  2
*D9
 10
368.81292
 20
280.725443
 30
0.0
 11
362.14622
 21
304.05881
 31
0.0
  1
10
 13
314.10492
 23
270.725443
 33
0.0
 14
323.10492
 24
280.725443
 34
0.0
 50
90.0
  3
FSTD1
  0
LINE
  8
0B
  6
CONTINUOUS
  5
828
 10
318.10492
 20
280.725443
 30
0.0
 11
321.10492
 21
280.725443
 31
0.0
  0
LINE
  8
1A
  6
CENTER
  5
829
 10
306.43292
 20
259.777443
 30
0.0
 11
321.79292
 21
259.777443
 31
0.0
  0
CIRCLE
  8
0D
  5
82A
 10
312.10492
 20
270.725443
 30
0.0
 40
9.0
  0
LINE
  8
0C
  5
82B
 10
321.10492
 20
262.725443
 30
0.0
 11
316.33292
 21
262.725443
 31
0.0
  0
LINE
  8
0B
  6
CONTINUOUS
  5
82C
 10
301.42492
 20
270.777443
 30
0.0
 11
302.10492
 21
272.461443
 31
0.0
  0
CIRCLE
  8
0D
  5
82D
 10
312.10492
 20
270.725443
 30
0.0
 40
4.0
  0
CIRCLE
  8
0D
  5
82E
 10
312.10492
 20
270.725443
 30
0.0
 40
7.7
  0
LINE
  8
0D
  5
82F
 10
305.60492
 20
274.481443
 30
0.0
 11
305.60492
 21
266.973443
 31
0.0
  0
LINE
  8
0D
  5
830
 10
318.60492
 20
266.973443
 30
0.0
 11
318.60492
 21
274.481443
 31
0.0
  0
LINE
  8
0D
  5
831
 10
305.60492
 20
266.973443
 30
0.0
 11
312.10492
 21
263.221443
 31
0.0
  0
ARC
  8
0C
  5
832
 10
300.10492
 20
268.777443
 30
0.0
 40
2.0
 50
54.2856
 51
90.0
  0
LINE
  8
0C
  5
833
 10
313.51292
 20
261.225443
 30
0.0
 11
316.33292
 21
262.725443
 31
0.0
  0
LINE
  8
0C
  5
834
 10
311.38892
 20
256.877443
 30
0.0
 11
318.57292
 21
256.877443
 31
0.0
  0
LINE
  8
0C
  5
835
 10
318.10492
 20
262.725443
 30
0.0
 11
318.10492
 21
262.225443
 31
0.0
  0
LINE
  8
0C
  5
836
 10
315.39292
 20
262.225443
 30
0.0
 11
318.10492
 21
262.225443
 31
0.0
  0
LINE
  8
0C
  5
837
 10
320.45692
 20
262.725443
 30
0.0
 11
318.85692
 21
262.725443
 31
0.0
  0
LINE
  8
0C
  5
838
 10
318.85692
 20
262.725443
 30
0.0
 11
318.10492
 21
262.725443
 31
0.0
  0
ARC
  8
0C
  5
839
 10
314.60492
 20
259.777443
 30
0.0
 40
5.4
 50
334.417
 51
25.583
  0
ARC
  8
0C
  5
83A
 10
318.57292
 20
261.677443
 30
0.0
 40
1.0
 50
25.583
 51
90.0
  0
ARC
  8
0C
  5
83B
 10
318.57292
 20
257.877443
 30
0.0
 40
1.0
 50
270.0
 51
334.417
  0
LINE
  8
0C
  5
83C
 10
318.10492
 20
262.677443
 30
0.0
 11
318.57292
 21
262.677443
 31
0.0
  0
LINE
  8
0D
  5
83D
 10
312.10492
 20
263.221443
 30
0.0
 11
318.60492
 21
266.973443
 31
0.0
  0
LINE
  8
0D
  5
83E
 10
312.10492
 20
278.233443
 30
0.0
 11
305.60492
 21
274.481443
 31
0.0
  0
LINE
  8
0B
  5
83F
 10
318.10492
 20
282.625443
 30
0.0
 11
306.10492
 21
282.625443
 31
0.0
  0
LINE
  8
0C
  5
840
 10
318.10492
 20
280.725443
 30
0.0
 11
306.10492
 21
280.725443
 31
0.0
  0
LINE
  8
0B
  5
841
 10
302.10492
 20
279.725443
 30
0.0
 11
302.10492
 21
272.461443
 31
0.0
  0
LINE
  8
0B
  5
842
 10
303.10492
 20
280.725443
 30
0.0
 11
302.10492
 21
279.725443
 31
0.0
  0
LINE
  8
0B
  6
CONTINUOUS
  5
843
 10
303.10492
 20
280.725443
 30
0.0
 11
306.10492
 21
280.725443
 31
0.0
  0
LINE
  8
0B
  5
844
 10
306.10492
 20
282.625443
 30
0.0
 11
306.10492
 21
280.725443
 31
0.0
  0
LINE
  8
0D
  5
845
 10
318.60492
 20
274.481443
 30
0.0
 11
312.10492
 21
278.233443
 31
0.0
  0
LINE
  8
0B
  5
846
 10
318.10492
 20
282.625443
 30
0.0
 11
318.10492
 21
280.725443
 31
0.0
  0
LINE
  8
0B
  5
847
 10
322.10492
 20
279.725443
 30
0.0
 11
322.10492
 21
263.725443
 31
0.0
  0
LINE
  8
0C
  5
848
 10
322.10492
 20
263.725443
 30
0.0
 11
321.10492
 21
262.725443
 31
0.0
  0
LINE
  8
0B
  5
849
 10
322.10492
 20
279.725443
 30
0.0
 11
321.10492
 21
280.725443
 31
0.0
  0
LINE
  8
34
  6
PHANTOM
  5
84A
 10
470.482523
 20
267.777443
 30
0.0
 11
470.482523
 21
234.077443
 31
0.0
  0
ARC
  8
34
  6
PHANTOM
  5
84B
 10
463.482523
 20
236.477443
 30
0.0
 40
0.5
 50
90.0
 51
180.0
  0
LINE
  8
34
  6
PHANTOM
  5
84C
 10
465.082523
 20
234.077443
 30
0.0
 11
470.482523
 21
234.077443
 31
0.0
  0
ARC
  8
34
  6
PHANTOM
  5
84D
 10
464.582523
 20
236.477443
 30
0.0
 40
0.5
 50
0.0
 51
90.0
  0
LINE
  8
34
  6
PHANTOM
  5
84E
 10
463.482523
 20
236.977443
 30
0.0
 11
464.582523
 21
236.977443
 31
0.0
  0
LINE
  8
34
  6
PHANTOM
  5
84F
 10
465.082523
 20
234.077443
 30
0.0
 11
465.082523
 21
236.477443
 31
0.0
  0
LINE
  8
34
  6
PHANTOM
  5
850
 10
486.482523
 20
280.725443
 30
0.0
 11
489.482523
 21
280.725443
 31
0.0
  0
LINE
  8
34
  6
PHANTOM
  5
851
 10
470.482523
 20
279.725443
 30
0.0
 11
470.482523
 21
263.725443
 31
0.0
  0
LINE
  8
34
  6
PHANTOM
  5
852
 10
486.482523
 20
282.625443
 30
0.0
 11
474.482523
 21
282.625443
 31
0.0
  0
LINE
  8
34
  6
PHANTOM
  5
853
 10
470.482523
 20
279.725443
 30
0.0
 11
471.482523
 21
280.725443
 31
0.0
  0
LINE
  8
34
  6
PHANTOM
  5
854
 10
471.482523
 20
280.725443
 30
0.0
 11
474.482523
 21
280.725443
 31
0.0
  0
LINE
  8
34
  6
PHANTOM
  5
855
 10
474.482523
 20
282.625443
 30
0.0
 11
474.482523
 21
280.725443
 31
0.0
  0
LINE
  8
34
  6
PHANTOM
  5
856
 10
486.482523
 20
282.625443
 30
0.0
 11
486.482523
 21
280.725443
 31
0.0
  0
LINE
  8
34
  6
PHANTOM
  5
857
 10
510.482523
 20
279.725443
 30
0.0
 11
510.482523
 21
270.777443
 31
0.0
  0
LINE
  8
34
  6
PHANTOM
  5
858
 10
491.162523
 20
270.777443
 30
0.0
 11
490.482523
 21
272.461443
 31
0.0
  0
LINE
  8
34
  6
PHANTOM
  5
859
 10
491.162523
 20
270.777443
 30
0.0
 11
510.482523
 21
270.777443
 31
0.0
  0
LINE
  8
34
  6
PHANTOM
  5
85A
 10
490.482523
 20
279.725443
 30
0.0
 11
490.482523
 21
272.461443
 31
0.0
  0
LINE
  8
34
  6
PHANTOM
  5
85B
 10
489.482523
 20
280.725443
 30
0.0
 11
490.482523
 21
279.725443
 31
0.0
  0
LINE
  8
34
  6
PHANTOM
  5
85C
 10
510.482523
 20
279.725443
 30
0.0
 11
511.482523
 21
280.725443
 31
0.0
  0
TEXT
  8
FF
  5
85D
 10
351.54492
 20
348.545443
 30
0.0
 40
8.0
  1
コイル端子
 41
0.833333
  0
LINE
  8
FF
  5
85E
 10
355.62092
 20
334.237443
 30
0.0
 11
380.66492
 21
334.237443
 31
0.0
  0
TEXT
  8
FF
  5
85F
 10
359.36892
 20
337.985443
 30
0.0
 40
6.0
  1
M3.5
 41
1.078977
  0
LINE
  8
34
  6
PHANTOM
  5
860
 10
570.482523
 20
267.777443
 30
0.0
 11
570.482523
 21
234.077443
 31
0.0
  0
LINE
  8
38
  6
CENTER
  5
861
 10
565.482523
 20
264.553443
 30
0.0
 11
565.482523
 21
253.845443
 31
0.0
  0
LINE
  8
38
  6
CENTER
  5
862
 10
560.482523
 20
264.553443
 30
0.0
 11
560.482523
 21
253.845443
 31
0.0
  0
LINE
  8
34
  6
PHANTOM
  5
863
 10
575.882523
 20
234.077443
 30
0.0
 11
570.482523
 21
234.077443
 31
0.0
  0
ARC
  8
34
  6
PHANTOM
  5
864
 10
577.482523
 20
236.477443
 30
0.0
 40
0.5
 50
0.0
 51
90.0
  0
ARC
  8
34
  6
PHANTOM
  5
865
 10
576.382523
 20
236.477443
 30
0.0
 40
0.5
 50
90.0
 51
180.0
  0
LINE
  8
34
  6
PHANTOM
  5
866
 10
575.882523
 20
234.077443
 30
0.0
 11
575.882523
 21
236.477443
 31
0.0
  0
LINE
  8
34
  6
PHANTOM
  5
867
 10
577.482523
 20
236.977443
 30
0.0
 11
576.382523
 21
236.977443
 31
0.0
  0
LINE
  8
34
  6
PHANTOM
  5
868
 10
566.482523
 20
282.625443
 30
0.0
 11
554.482523
 21
282.625443
 31
0.0
  0
LINE
  8
38
  6
CENTER
  5
869
 10
554.810523
 20
259.777443
 30
0.0
 11
570.170523
 21
259.777443
 31
0.0
  0
LINE
  8
33
  5
86A
 10
559.014523
 20
262.677443
 30
0.0
 11
566.950523
 21
262.677443
 31
0.0
  0
LINE
  8
33
  5
86B
 10
559.014523
 20
256.877443
 30
0.0
 11
566.950523
 21
256.877443
 31
0.0
  0
LINE
  8
34
  6
PHANTOM
  5
86C
 10
530.482523
 20
270.777443
 30
0.0
 11
549.802523
 21
270.777443
 31
0.0
  0
LINE
  8
34
  6
PHANTOM
  5
86D
 10
530.482523
 20
279.725443
 30
0.0
 11
530.482523
 21
270.777443
 31
0.0
  0
LINE
  8
34
  6
PHANTOM
  5
86E
 10
526.482523
 20
282.625443
 30
0.0
 11
514.482523
 21
282.625443
 31
0.0
  0
LINE
  8
34
  6
PHANTOM
  5
86F
 10
514.482523
 20
282.625443
 30
0.0
 11
514.482523
 21
280.725443
 31
0.0
  0
LINE
  8
34
  6
PHANTOM
  5
870
 10
529.482523
 20
280.725443
 30
0.0
 11
530.482523
 21
279.725443
 31
0.0
  0
LINE
  8
34
  6
PHANTOM
  5
871
 10
526.482523
 20
282.625443
 30
0.0
 11
526.482523
 21
280.725443
 31
0.0
  0
LINE
  8
34
  6
PHANTOM
  5
872
 10
526.482523
 20
280.725443
 30
0.0
 11
529.482523
 21
280.725443
 31
0.0
  0
LINE
  8
34
  6
PHANTOM
  5
873
 10
549.802523
 20
270.777443
 30
0.0
 11
550.482523
 21
272.461443
 31
0.0
  0
ARC
  8
33
  5
874
 10
559.014523
 20
257.877443
 30
0.0
 40
1.0
 50
205.583
 51
270.0
  0
ARC
  8
33
  5
875
 10
559.014523
 20
261.677443
 30
0.0
 40
1.0
 50
90.0
 51
154.417
  0
ARC
  8
33
  5
876
 10
562.982523
 20
259.777443
 30
0.0
 40
5.4
 50
154.417
 51
205.583
  0
LINE
  8
34
  6
PHANTOM
  5
877
 10
550.482523
 20
279.725443
 30
0.0
 11
550.482523
 21
272.461443
 31
0.0
  0
LINE
  8
34
  6
PHANTOM
  5
878
 10
554.482523
 20
280.725443
 30
0.0
 11
551.482523
 21
280.725443
 31
0.0
  0
LINE
  8
34
  6
PHANTOM
  5
879
 10
551.482523
 20
280.725443
 30
0.0
 11
550.482523
 21
279.725443
 31
0.0
  0
LINE
  8
34
  6
PHANTOM
  5
87A
 10
554.482523
 20
282.625443
 30
0.0
 11
554.482523
 21
280.725443
 31
0.0
  0
DIMENSION
  8
FF
  5
87B
  2
*D10
 10
604.658523
 20
282.625443
 30
0.0
 11
597.991823
 21
271.201443
 31
0.0
 12
21.761602
 22
0.0
 32
0.0
  1
23
 13
572.170523
 23
259.777443
 33
0.0
 14
568.482523
 24
282.625443
 34
0.0
 50
90.0
  3
FSTD1
  0
LINE
  8
34
  6
PHANTOM
  5
87C
 10
570.482523
 20
279.725443
 30
0.0
 11
570.482523
 21
263.725443
 31
0.0
  0
ARC
  8
33
  5
87D
 10
566.950523
 20
257.877443
 30
0.0
 40
1.0
 50
270.0
 51
334.417
  0
ARC
  8
33
  5
87E
 10
566.950523
 20
261.677443
 30
0.0
 40
1.0
 50
25.583
 51
90.0
  0
ARC
  8
33
  5
87F
 10
562.982523
 20
259.777443
 30
0.0
 40
5.4
 50
334.417
 51
25.583
  0
LINE
  8
34
  6
PHANTOM
  5
880
 10
569.482523
 20
280.725443
 30
0.0
 11
566.482523
 21
280.725443
 31
0.0
  0
LINE
  8
34
  6
PHANTOM
  5
881
 10
570.482523
 20
279.725443
 30
0.0
 11
569.482523
 21
280.725443
 31
0.0
  0
LINE
  8
34
  6
PHANTOM
  5
882
 10
566.482523
 20
282.625443
 30
0.0
 11
566.482523
 21
280.725443
 31
0.0
  0
LINE
  8
0C
  5
ACA
 10
224.50572
 20
194.349443
 30
0.0
 11
224.50572
 21
173.077443
 31
0.0
  0
LINE
  8
0D
  5
ACB
 10
221.86572
 20
180.017443
 30
0.0
 11
219.34572
 21
182.537443
 31
0.0
  0
LINE
  8
0D
  5
ACC
 10
221.86572
 20
182.537443
 30
0.0
 11
219.34572
 21
180.017443
 31
0.0
  0
LINE
  8
0D
  5
ACD
 10
224.40572
 20
184.577443
 30
0.0
 11
224.40572
 21
177.977443
 31
0.0
  0
LINE
  8
0D
  5
ACE
 10
216.80572
 20
184.577443
 30
0.0
 11
216.80572
 21
177.977443
 31
0.0
  0
CIRCLE
  8
0D
  5
ACF
 10
220.60572
 20
181.277443
 30
0.0
 40
3.0
  0
LINE
  8
0C
  5
AD0
 10
226.60572
 20
204.777443
 30
0.0
 11
226.60572
 21
173.077443
 31
0.0
  0
LINE
  8
0C
  5
AD1
 10
216.70572
 20
195.277443
 30
0.0
 11
216.70572
 21
175.477443
 31
0.0
  0
LINE
  8
0C
  5
AD2
 10
214.60532
 20
204.777443
 30
0.0
 11
214.60532
 21
173.077443
 31
0.0
  0
LINE
  8
0B
  5
AD3
 10
216.70572
 20
175.477443
 30
0.0
 11
222.10572
 21
175.477443
 31
0.0
  0
LINE
  8
0D
  5
AD4
 10
223.90572
 20
177.477443
 30
0.0
 11
217.30572
 21
177.477443
 31
0.0
  0
LINE
  8
0B
  5
AD7
 10
215.10572
 20
172.577443
 30
0.0
 11
216.20572
 21
172.577443
 31
0.0
  0
ARC
  8
0D
  5
AD8
 10
217.30572
 20
177.977443
 30
0.0
 40
0.5
 50
180.0
 51
270.0
  0
LINE
  8
0C
  5
AD9
 10
226.60572
 20
172.577443
 30
0.0
 11
225.00572
 21
172.577443
 31
0.0
  0
ARC
  8
0C
  5
ADA
 10
226.10572
 20
173.077443
 30
0.0
 40
0.5
 50
270.0
 51
0.0
  0
ARC
  8
0C
  5
ADB
 10
225.00572
 20
173.077443
 30
0.0
 40
0.5
 50
180.0
 51
270.0
  0
ARC
  8
0D
  5
ADC
 10
223.90572
 20
177.977443
 30
0.0
 40
0.5
 50
270.0
 51
0.0
  0
LINE
  8
0C
  5
ADD
 10
224.50572
 20
175.477443
 30
0.0
 11
222.10572
 21
175.477443
 31
0.0
  0
LINE
  8
0B
  5
ADE
 10
216.70572
 20
234.077443
 30
0.0
 11
222.10572
 21
234.077443
 31
0.0
  0
LINE
  8
0D
  5
ADF
 10
220.10572
 20
205.277443
 30
0.0
 11
217.13772
 21
205.277443
 31
0.0
  0
LINE
  8
0D
  5
AE0
 10
220.10572
 20
204.277443
 30
0.0
 11
217.13772
 21
204.277443
 31
0.0
  0
LINE
  8
0D
  5
AE1
 10
223.90572
 20
194.577443
 30
0.0
 11
217.30572
 21
194.577443
 31
0.0
  0
LINE
  8
0D
  5
AE2
 10
223.90572
 20
186.977443
 30
0.0
 11
217.30572
 21
186.977443
 31
0.0
  0
LINE
  8
0D
  5
AE3
 10
223.90572
 20
185.077443
 30
0.0
 11
217.30572
 21
185.077443
 31
0.0
  0
LINE
  8
0D
  5
AE4
 10
223.90572
 20
232.077443
 30
0.0
 11
217.30572
 21
232.077443
 31
0.0
  0
LINE
  8
0D
  5
AE5
 10
223.90572
 20
224.477443
 30
0.0
 11
217.30572
 21
224.477443
 31
0.0
  0
LINE
  8
0D
  5
AE6
 10
223.90572
 20
222.577443
 30
0.0
 11
217.30572
 21
222.577443
 31
0.0
  0
LINE
  8
0D
  5
AE7
 10
223.90572
 20
214.977443
 30
0.0
 11
217.30572
 21
214.977443
 31
0.0
  0
CIRCLE
  8
0D
  5
AE8
 10
220.60572
 20
190.777443
 30
0.0
 40
3.0
  0
CIRCLE
  8
0D
  5
AE9
 10
220.60572
 20
228.277443
 30
0.0
 40
3.0
  0
CIRCLE
  8
0D
  5
AEA
 10
220.60572
 20
218.777443
 30
0.0
 40
3.0
  0
CIRCLE
  8
0D
  5
AEB
 10
221.10572
 20
204.777443
 30
0.0
 40
4.0
  0
LINE
  8
0C
  5
AEC
 10
221.85372
 20
214.277443
 30
0.0
 11
216.60572
 21
214.277443
 31
0.0
  0
LINE
  8
0C
  5
AED
 10
221.85372
 20
195.277443
 30
0.0
 11
216.60572
 21
195.277443
 31
0.0
  0
ARC
  8
0C
  5
AEE
 10
216.60572
 20
212.277443
 30
0.0
 40
2.0
 50
90.0
 51
180.0
  0
LINE
  8
0C
  5
AEF
 10
214.60532
 20
204.777443
 30
0.0
 11
214.60532
 21
236.477443
 31
0.0
  0
LINE
  8
0C
  5
AF0
 10
214.60532
 20
212.277443
 30
0.0
 11
214.60532
 21
197.277443
 31
0.0
  0
LINE
  8
0D
  5
AF1
 10
216.80572
 20
194.077443
 30
0.0
 11
216.80572
 21
187.477443
 31
0.0
  0
ARC
  8
0D
  5
AF2
 10
217.30572
 20
187.477443
 30
0.0
 40
0.5
 50
180.0
 51
270.0
  0
ARC
  8
0D
  5
AF3
 10
217.30572
 20
184.577443
 30
0.0
 40
0.5
 50
90.0
 51
180.0
  0
ARC
  8
0D
  5
AF4
 10
217.30572
 20
194.077443
 30
0.0
 40
0.5
 50
90.0
 51
180.0
  0
ARC
  8
0C
  5
AF5
 10
216.60572
 20
197.277443
 30
0.0
 40
2.0
 50
180.0
 51
270.0
  0
LINE
  8
0D
  5
AF6
 10
216.80572
 20
231.577443
 30
0.0
 11
216.80572
 21
224.977443
 31
0.0
  0
LINE
  8
0C
  5
AF7
 10
216.70572
 20
214.277443
 30
0.0
 11
216.70572
 21
234.077443
 31
0.0
  0
LINE
  8
0D
  5
AF8
 10
216.80572
 20
222.077443
 30
0.0
 11
216.80572
 21
215.477443
 31
0.0
  0
ARC
  8
0D
  5
AF9
 10
217.30572
 20
215.477443
 30
0.0
 40
0.5
 50
180.0
 51
270.0
  0
ARC
  8
0D
  5
AFA
 10
217.30572
 20
224.977443
 30
0.0
 40
0.5
 50
180.0
 51
270.0
  0
ARC
  8
0D
  5
AFB
 10
217.30572
 20
222.077443
 30
0.0
 40
0.5
 50
90.0
 51
180.0
  0
ARC
  8
0D
  5
AFC
 10
217.30572
 20
231.577443
 30
0.0
 40
0.5
 50
90.0
 51
180.0
  0
ARC
  8
0B
  5
AFD
 10
216.20572
 20
236.477443
 30
0.0
 40
0.5
 50
0.0
 51
90.0
  0
ARC
  8
0C
  5
AFE
 10
215.10572
 20
236.477443
 30
0.0
 40
0.5
 50
90.0
 51
180.0
  0
LINE
  8
0B
  5
AFF
 10
215.10572
 20
236.977443
 30
0.0
 11
216.20572
 21
236.977443
 31
0.0
  0
LINE
  8
0C
  5
B00
 10
226.60572
 20
204.777443
 30
0.0
 11
226.60572
 21
236.477443
 31
0.0
  0
LINE
  8
0D
  5
B01
 10
224.40572
 20
194.077443
 30
0.0
 11
224.40572
 21
187.477443
 31
0.0
  0
LINE
  8
0D
  5
B02
 10
221.86572
 20
189.517443
 30
0.0
 11
219.34572
 21
192.037443
 31
0.0
  0
LINE
  8
0D
  5
B03
 10
221.86572
 20
192.037443
 30
0.0
 11
219.34572
 21
189.517443
 31
0.0
  0
ARC
  8
0D
  5
B04
 10
223.90572
 20
187.477443
 30
0.0
 40
0.5
 50
270.0
 51
0.0
  0
ARC
  8
0D
  5
B05
 10
223.90572
 20
184.577443
 30
0.0
 40
0.5
 50
0.0
 51
90.0
  0
ARC
  8
0D
  5
B06
 10
223.90572
 20
194.077443
 30
0.0
 40
0.5
 50
0.0
 51
90.0
  0
ARC
  8
0C
  5
B07
 10
221.60572
 20
190.277443
 30
0.0
 40
5.0
 50
0.0
 51
90.0
  0
ARC
  8
0C
  5
B08
 10
221.60572
 20
190.277443
 30
0.0
 40
5.0
 50
0.0
 51
90.0
  0
LINE
  8
0D
  5
B09
 10
225.07372
 20
204.277443
 30
0.0
 11
222.10572
 21
204.277443
 31
0.0
  0
LINE
  8
0D
  5
B0A
 10
220.60572
 20
202.277443
 30
0.0
 11
221.60572
 21
202.277443
 31
0.0
  0
LINE
  8
0D
  5
B0B
 10
221.60572
 20
203.777443
 30
0.0
 11
221.60572
 21
202.277443
 31
0.0
  0
LINE
  8
0D
  5
B0C
 10
220.60572
 20
203.777443
 30
0.0
 11
220.60572
 21
202.277443
 31
0.0
  0
ARC
  8
0D
  5
B0D
 10
220.10572
 20
203.777443
 30
0.0
 40
0.5
 50
0.0
 51
90.0
  0
ARC
  8
0D
  5
B0E
 10
222.10572
 20
203.777443
 30
0.0
 40
0.5
 50
90.0
 51
180.0
  0
LINE
  8
0D
  5
B0F
 10
225.07372
 20
205.277443
 30
0.0
 11
222.10572
 21
205.277443
 31
0.0
  0
LINE
  8
0D
  5
B10
 10
220.60572
 20
207.277443
 30
0.0
 11
220.60572
 21
205.777443
 31
0.0
  0
LINE
  8
0D
  5
B11
 10
221.60572
 20
207.277443
 30
0.0
 11
221.60572
 21
205.777443
 31
0.0
  0
LINE
  8
0D
  5
B12
 10
220.60572
 20
207.277443
 30
0.0
 11
221.60572
 21
207.277443
 31
0.0
  0
ARC
  8
0D
  5
B13
 10
220.10572
 20
205.777443
 30
0.0
 40
0.5
 50
270.0
 51
0.0
  0
ARC
  8
0D
  5
B14
 10
222.10572
 20
205.777443
 30
0.0
 40
0.5
 50
180.0
 51
270.0
  0
LINE
  8
0D
  5
B15
 10
224.40572
 20
231.577443
 30
0.0
 11
224.40572
 21
224.977443
 31
0.0
  0
LINE
  8
0C
  5
B16
 10
224.50572
 20
215.205443
 30
0.0
 11
224.50572
 21
236.477443
 31
0.0
  0
LINE
  8
0D
  5
B17
 10
221.86572
 20
229.537443
 30
0.0
 11
219.34572
 21
227.017443
 31
0.0
  0
LINE
  8
0D
  5
B18
 10
221.86572
 20
227.017443
 30
0.0
 11
219.34572
 21
229.537443
 31
0.0
  0
LINE
  8
0D
  5
B19
 10
224.40572
 20
222.077443
 30
0.0
 11
224.40572
 21
215.477443
 31
0.0
  0
ARC
  8
0D
  5
B1A
 10
223.90572
 20
215.477443
 30
0.0
 40
0.5
 50
270.0
 51
0.0
  0
ARC
  8
0C
  5
B1B
 10
221.60572
 20
219.277443
 30
0.0
 40
5.0
 50
270.0
 51
0.0
  0
ARC
  8
0C
  5
B1C
 10
221.60572
 20
219.277443
 30
0.0
 40
5.0
 50
270.0
 51
0.0
  0
LINE
  8
0D
  5
B1D
 10
221.86572
 20
217.517443
 30
0.0
 11
219.34572
 21
220.037443
 31
0.0
  0
LINE
  8
0D
  5
B1E
 10
221.86572
 20
220.037443
 30
0.0
 11
219.34572
 21
217.517443
 31
0.0
  0
ARC
  8
0D
  5
B1F
 10
223.90572
 20
224.977443
 30
0.0
 40
0.5
 50
270.0
 51
0.0
  0
ARC
  8
0D
  5
B20
 10
223.90572
 20
222.077443
 30
0.0
 40
0.5
 50
0.0
 51
90.0
  0
ARC
  8
0D
  5
B21
 10
223.90572
 20
231.577443
 30
0.0
 40
0.5
 50
0.0
 51
90.0
  0
LINE
  8
0C
  5
B22
 10
224.50572
 20
234.077443
 30
0.0
 11
222.10572
 21
234.077443
 31
0.0
  0
LINE
  8
0C
  5
B23
 10
226.60572
 20
236.977443
 30
0.0
 11
225.00572
 21
236.977443
 31
0.0
  0
ARC
  8
0C
  5
B24
 10
225.00572
 20
236.477443
 30
0.0
 40
0.5
 50
90.0
 51
180.0
  0
ARC
  8
0C
  5
B25
 10
226.10572
 20
236.477443
 30
0.0
 40
0.5
 50
0.0
 51
90.0
  0
LINE
  8
0B
  5
B26
 10
216.70572
 20
173.077443
 30
0.0
 11
216.70572
 21
175.477443
 31
0.0
  0
LINE
  8
0B
  5
B27
 10
216.70572
 20
236.477443
 30
0.0
 11
216.70572
 21
234.077443
 31
0.0
  0
LINE
  8
0D
  5
B89
 10
327.40492
 20
184.577443
 30
0.0
 11
327.40492
 21
177.977443
 31
0.0
  0
LINE
  8
0D
  5
B8A
 10
319.80492
 20
184.577443
 30
0.0
 11
319.80492
 21
177.977443
 31
0.0
  0
LINE
  8
0D
  5
B8B
 10
322.34492
 20
182.537443
 30
0.0
 11
324.86492
 21
180.017443
 31
0.0
  0
LINE
  8
0D
  5
B8C
 10
322.34492
 20
180.017443
 30
0.0
 11
324.86492
 21
182.537443
 31
0.0
  0
CIRCLE
  8
0D
  5
B8D
 10
323.60492
 20
181.277443
 30
0.0
 40
3.0
  0
LINE
  8
0C
  5
B8E
 10
317.60492
 20
204.777443
 30
0.0
 11
317.60492
 21
173.077443
 31
0.0
  0
LINE
  8
0C
  5
B8F
 10
319.70492
 20
194.349443
 30
0.0
 11
319.70492
 21
173.077443
 31
0.0
  0
LINE
  8
0C
  5
B90
 10
329.60492
 20
204.777443
 30
0.0
 11
329.60492
 21
173.077443
 31
0.0
  0
LINE
  8
0C
  5
B91
 10
327.50492
 20
195.277443
 30
0.0
 11
327.50492
 21
175.477443
 31
0.0
  0
LINE
  8
0C
  5
B92
 10
317.60492
 20
172.577443
 30
0.0
 11
319.20492
 21
172.577443
 31
0.0
  0
ARC
  8
0C
  5
B93
 10
318.10492
 20
173.077443
 30
0.0
 40
0.5
 50
180.0
 51
270.0
  0
ARC
  8
0C
  5
B94
 10
319.20492
 20
173.077443
 30
0.0
 40
0.5
 50
270.0
 51
0.0
  0
ARC
  8
0C
  5
B95
 10
329.10492
 20
173.077443
 30
0.0
 40
0.5
 50
270.0
 51
0.0
  0
ARC
  8
0B
  5
B96
 10
328.00492
 20
173.077443
 30
0.0
 40
0.5
 50
180.0
 51
270.0
  0
LINE
  8
0B
  5
B97
 10
329.10492
 20
172.577443
 30
0.0
 11
328.00492
 21
172.577443
 31
0.0
  0
LINE
  8
0B
  5
B98
 10
327.50492
 20
175.477443
 30
0.0
 11
322.10492
 21
175.477443
 31
0.0
  0
LINE
  8
0D
  5
B99
 10
320.30492
 20
177.477443
 30
0.0
 11
326.90492
 21
177.477443
 31
0.0
  0
ARC
  8
0D
  5
B9A
 10
320.30492
 20
177.977443
 30
0.0
 40
0.5
 50
180.0
 51
270.0
  0
LINE
  8
0C
  5
B9B
 10
319.70492
 20
175.477443
 30
0.0
 11
322.10492
 21
175.477443
 31
0.0
  0
ARC
  8
0D
  5
B9C
 10
326.90492
 20
177.977443
 30
0.0
 40
0.5
 50
270.0
 51
0.0
  0
ARC
  8
0C
  5
B9D
 10
327.60492
 20
212.277443
 30
0.0
 40
2.0
 50
0.0
 51
90.0
  0
LINE
  8
0C
  5
B9E
 10
317.60492
 20
204.777443
 30
0.0
 11
317.60492
 21
236.477443
 31
0.0
  0
LINE
  8
0C
  5
B9F
 10
329.60492
 20
204.777443
 30
0.0
 11
329.60492
 21
236.477443
 31
0.0
  0
LINE
  8
0C
  5
BA0
 10
329.60492
 20
212.277443
 30
0.0
 11
329.60492
 21
197.277443
 31
0.0
  0
ARC
  8
0C
  5
BA1
 10
322.60492
 20
190.277443
 30
0.0
 40
5.0
 50
90.0
 51
180.0
  0
ARC
  8
0C
  5
BA2
 10
322.60492
 20
190.277443
 30
0.0
 40
5.0
 50
90.0
 51
180.0
  0
LINE
  8
0D
  5
BA3
 10
322.34492
 20
192.037443
 30
0.0
 11
324.86492
 21
189.517443
 31
0.0
  0
LINE
  8
0D
  5
BA4
 10
322.34492
 20
189.517443
 30
0.0
 11
324.86492
 21
192.037443
 31
0.0
  0
LINE
  8
0D
  5
BA5
 10
327.40492
 20
194.077443
 30
0.0
 11
327.40492
 21
187.477443
 31
0.0
  0
LINE
  8
0D
  5
BA6
 10
319.80492
 20
194.077443
 30
0.0
 11
319.80492
 21
187.477443
 31
0.0
  0
CIRCLE
  8
0D
  5
BA7
 10
323.60492
 20
190.777443
 30
0.0
 40
3.0
  0
LINE
  8
0D
  5
BA8
 10
320.30492
 20
185.077443
 30
0.0
 11
326.90492
 21
185.077443
 31
0.0
  0
LINE
  8
0D
  5
BA9
 10
320.30492
 20
186.977443
 30
0.0
 11
326.90492
 21
186.977443
 31
0.0
  0
ARC
  8
0D
  5
BAA
 10
320.30492
 20
184.577443
 30
0.0
 40
0.5
 50
90.0
 51
180.0
  0
ARC
  8
0D
  5
BAB
 10
320.30492
 20
187.477443
 30
0.0
 40
0.5
 50
180.0
 51
270.0
  0
ARC
  8
0D
  5
BAC
 10
326.90492
 20
184.577443
 30
0.0
 40
0.5
 50
0.0
 51
90.0
  0
ARC
  8
0D
  5
BAD
 10
326.90492
 20
187.477443
 30
0.0
 40
0.5
 50
270.0
 51
0.0
  0
LINE
  8
0C
  5
BAE
 10
322.35292
 20
195.277443
 30
0.0
 11
327.60492
 21
195.277443
 31
0.0
  0
LINE
  8
0D
  5
BAF
 10
320.30492
 20
194.577443
 30
0.0
 11
326.90492
 21
194.577443
 31
0.0
  0
ARC
  8
0D
  5
BB0
 10
320.30492
 20
194.077443
 30
0.0
 40
0.5
 50
90.0
 51
180.0
  0
ARC
  8
0D
  5
BB1
 10
326.90492
 20
194.077443
 30
0.0
 40
0.5
 50
0.0
 51
90.0
  0
ARC
  8
0C
  5
BB2
 10
327.60492
 20
197.277443
 30
0.0
 40
2.0
 50
270.0
 51
0.0
  0
CIRCLE
  8
0D
  5
BB3
 10
323.10492
 20
204.777443
 30
0.0
 40
4.0
  0
LINE
  8
0D
  5
BB4
 10
327.07292
 20
204.277443
 30
0.0
 11
324.10492
 21
204.277443
 31
0.0
  0
LINE
  8
0D
  5
BB5
 10
322.60492
 20
202.277443
 30
0.0
 11
323.60492
 21
202.277443
 31
0.0
  0
LINE
  8
0D
  5
BB6
 10
323.60492
 20
203.777443
 30
0.0
 11
323.60492
 21
202.277443
 31
0.0
  0
LINE
  8
0D
  5
BB7
 10
322.60492
 20
203.777443
 30
0.0
 11
322.60492
 21
202.277443
 31
0.0
  0
ARC
  8
0D
  5
BB8
 10
324.10492
 20
203.777443
 30
0.0
 40
0.5
 50
90.0
 51
180.0
  0
ARC
  8
0D
  5
BB9
 10
322.10492
 20
203.777443
 30
0.0
 40
0.5
 50
0.0
 51
90.0
  0
LINE
  8
0D
  5
BBA
 10
322.10492
 20
204.277443
 30
0.0
 11
319.13692
 21
204.277443
 31
0.0
  0
LINE
  8
0D
  5
BBB
 10
327.07292
 20
205.277443
 30
0.0
 11
324.10492
 21
205.277443
 31
0.0
  0
LINE
  8
0D
  5
BBC
 10
322.60492
 20
207.277443
 30
0.0
 11
322.60492
 21
205.777443
 31
0.0
  0
LINE
  8
0D
  5
BBD
 10
323.60492
 20
207.277443
 30
0.0
 11
323.60492
 21
205.777443
 31
0.0
  0
LINE
  8
0D
  5
BBE
 10
322.60492
 20
207.277443
 30
0.0
 11
323.60492
 21
207.277443
 31
0.0
  0
ARC
  8
0D
  5
BBF
 10
324.10492
 20
205.777443
 30
0.0
 40
0.5
 50
180.0
 51
270.0
  0
ARC
  8
0D
  5
BC0
 10
322.10492
 20
205.777443
 30
0.0
 40
0.5
 50
270.0
 51
0.0
  0
LINE
  8
0D
  5
BC1
 10
322.10492
 20
205.277443
 30
0.0
 11
319.13692
 21
205.277443
 31
0.0
  0
LINE
  8
0D
  5
BC2
 10
322.34492
 20
227.017443
 30
0.0
 11
324.86492
 21
229.537443
 31
0.0
  0
LINE
  8
0D
  5
BC3
 10
322.34492
 20
229.537443
 30
0.0
 11
324.86492
 21
227.017443
 31
0.0
  0
LINE
  8
0D
  5
BC4
 10
327.40492
 20
231.577443
 30
0.0
 11
327.40492
 21
224.977443
 31
0.0
  0
LINE
  8
0D
  5
BC5
 10
319.80492
 20
231.577443
 30
0.0
 11
319.80492
 21
224.977443
 31
0.0
  0
CIRCLE
  8
0D
  5
BC6
 10
323.60492
 20
228.277443
 30
0.0
 40
3.0
  0
LINE
  8
0C
  5
BC7
 10
319.70492
 20
215.205443
 30
0.0
 11
319.70492
 21
236.477443
 31
0.0
  0
LINE
  8
0C
  5
BC8
 10
327.50492
 20
214.277443
 30
0.0
 11
327.50492
 21
234.077443
 31
0.0
  0
ARC
  8
0C
  5
BC9
 10
322.60492
 20
219.277443
 30
0.0
 40
5.0
 50
180.0
 51
270.0
  0
ARC
  8
0C
  5
BCA
 10
322.60492
 20
219.277443
 30
0.0
 40
5.0
 50
180.0
 51
270.0
  0
LINE
  8
0D
  5
BCB
 10
327.40492
 20
222.077443
 30
0.0
 11
327.40492
 21
215.477443
 31
0.0
  0
LINE
  8
0D
  5
BCC
 10
319.80492
 20
222.077443
 30
0.0
 11
319.80492
 21
215.477443
 31
0.0
  0
CIRCLE
  8
0D
  5
BCD
 10
323.60492
 20
218.777443
 30
0.0
 40
3.0
  0
LINE
  8
0C
  5
BCE
 10
322.35292
 20
214.277443
 30
0.0
 11
327.60492
 21
214.277443
 31
0.0
  0
LINE
  8
0D
  5
BCF
 10
320.30492
 20
214.977443
 30
0.0
 11
326.90492
 21
214.977443
 31
0.0
  0
LINE
  8
0D
  5
BD0
 10
322.34492
 20
220.037443
 30
0.0
 11
324.86492
 21
217.517443
 31
0.0
  0
LINE
  8
0D
  5
BD1
 10
322.34492
 20
217.517443
 30
0.0
 11
324.86492
 21
220.037443
 31
0.0
  0
ARC
  8
0D
  5
BD2
 10
320.30492
 20
215.477443
 30
0.0
 40
0.5
 50
180.0
 51
270.0
  0
ARC
  8
0D
  5
BD3
 10
326.90492
 20
215.477443
 30
0.0
 40
0.5
 50
270.0
 51
0.0
  0
LINE
  8
0D
  5
BD4
 10
320.30492
 20
222.577443
 30
0.0
 11
326.90492
 21
222.577443
 31
0.0
  0
LINE
  8
0D
  5
BD5
 10
320.30492
 20
224.477443
 30
0.0
 11
326.90492
 21
224.477443
 31
0.0
  0
ARC
  8
0D
  5
BD6
 10
320.30492
 20
222.077443
 30
0.0
 40
0.5
 50
90.0
 51
180.0
  0
ARC
  8
0D
  5
BD7
 10
320.30492
 20
224.977443
 30
0.0
 40
0.5
 50
180.0
 51
270.0
  0
ARC
  8
0D
  5
BD8
 10
326.90492
 20
222.077443
 30
0.0
 40
0.5
 50
0.0
 51
90.0
  0
ARC
  8
0D
  5
BD9
 10
326.90492
 20
224.977443
 30
0.0
 40
0.5
 50
270.0
 51
0.0
  0
LINE
  8
0C
  5
BDA
 10
317.60492
 20
236.977443
 30
0.0
 11
319.20492
 21
236.977443
 31
0.0
  0
ARC
  8
0C
  5
BDB
 10
318.10492
 20
236.477443
 30
0.0
 40
0.5
 50
90.0
 51
180.0
  0
LINE
  8
0B
  5
BDC
 10
327.50492
 20
234.077443
 30
0.0
 11
322.10492
 21
234.077443
 31
0.0
  0
LINE
  8
0D
  5
BDD
 10
320.30492
 20
232.077443
 30
0.0
 11
326.90492
 21
232.077443
 31
0.0
  0
ARC
  8
0D
  5
BDE
 10
320.30492
 20
231.577443
 30
0.0
 40
0.5
 50
90.0
 51
180.0
  0
LINE
  8
0C
  5
BDF
 10
319.70492
 20
234.077443
 30
0.0
 11
322.10492
 21
234.077443
 31
0.0
  0
ARC
  8
0D
  5
BE0
 10
326.90492
 20
231.577443
 30
0.0
 40
0.5
 50
0.0
 51
90.0
  0
ARC
  8
0C
  5
BE1
 10
319.20492
 20
236.477443
 30
0.0
 40
0.5
 50
0.0
 51
90.0
  0
ARC
  8
0C
  5
BE2
 10
329.10492
 20
236.477443
 30
0.0
 40
0.5
 50
0.0
 51
90.0
  0
ARC
  8
0B
  5
BE3
 10
328.00492
 20
236.477443
 30
0.0
 40
0.5
 50
90.0
 51
180.0
  0
LINE
  8
0B
  5
BE4
 10
329.10492
 20
236.977443
 30
0.0
 11
328.00492
 21
236.977443
 31
0.0
  0
LINE
  8
0B
  5
BE6
 10
327.50492
 20
234.077443
 30
0.0
 11
327.50492
 21
236.477443
 31
0.0
  0
LINE
  8
0B
  5
BE7
 10
327.50492
 20
175.477443
 30
0.0
 11
327.50492
 21
173.077443
 31
0.0
  0
TEXT
  8
FF
  5
C0D
 10
170.232919
 20
181.064254
 30
0.0
 40
8.0
  1
※１
 41
0.8333
  0
LINE
  8
FF
  5
C0E
 10
184.024161
 20
185.870835
 30
0.0
 11
208.399379
 21
195.804436
 31
0.0
  0
TEXT
  8
FF
  5
126A
 10
34.29132
 20
-36.902652
 30
0.0
 40
14.0
  1
Type
  0
ARC
  8
FF
  5
1270
 10
4.554887
 20
-24.22211
 30
0.0
 40
8.739426
 50
1.499529
 51
100.57959
1001
ACAD
1000
ASC_BOUNDS
1002
{
1070
    19
1002
}
  0
ARC
  8
FF
  5
1271
 10
4.520944
 20
-24.309447
 30
0.0
 40
7.446965
 50
2.961866
 51
93.426847
  0
LINE
  8
FF
  5
1272
 10
-3.250634
 20
-23.924652
 30
0.0
 11
11.957962
 21
-23.924652
 31
0.0
  0
LINE
  8
FF
  5
1273
 10
-3.571324
 20
-25.436652
 30
0.0
 11
13.29132
 21
-25.436652
 31
0.0
  0
ARC
  8
FF
  5
1274
 10
0.490952
 20
-24.672779
 30
0.0
 40
12.678652
 50
279.159834
 51
342.417868
1001
ACAD
1000
ASC_BOUNDS
1002
{
1070
    19
1002
}
  0
ARC
  8
FF
  5
1275
 10
0.121306
 20
-24.342443
 30
0.0
 40
11.787403
 50
280.279158
 51
339.332945
1001
ACAD
1000
ASC_BOUNDS
1002
{
1070
    19
1002
}
  0
POLYLINE
  8
FF
  5
1277
 66
     1
 10
0.0
 20
0.0
 30
0.0
 70
   128
  0
VERTEX
  8
FF
  5
142A
 10
-6.018327
 20
-25.393409
 30
0.0
  0
VERTEX
  8
FF
  5
142B
 10
-6.413791
 20
-27.192402
 30
0.0
  0
VERTEX
  8
FF
  5
142C
 10
-6.498488
 20
-28.949271
 30
0.0
  0
SEQEND
  8
FF
  5
142D
  0
LINE
  8
FF
  5
1278
 10
-23.87868
 20
-36.902652
 30
0.0
 11
-20.034793
 21
-18.813771
 31
0.0
  0
ARC
  8
FF
  5
1279
 10
0.983699
 20
-28.50269
 30
0.0
 40
8.82
 50
182.729155
 51
279.960292
1001
ACAD
1000
ASC_BOUNDS
1002
{
1070
    19
1002
}
  0
LINE
  8
FF
  5
127A
 10
-15.849604
 20
-28.922652
 30
0.0
 11
-7.826297
 21
-28.922652
 31
0.0
  0
LINE
  8
FF
  5
127B
 10
-23.87868
 20
-36.902652
 30
0.0
 11
-17.545354
 21
-36.902652
 31
0.0
  0
LINE
  8
FF
  5
127C
 10
-17.545354
 20
-36.902652
 30
0.0
 11
-15.849604
 21
-28.922652
 31
0.0
  0
ARC
  8
FF
  5
127D
 10
1.344005
 20
-28.104265
 30
0.0
 40
7.885726
 50
186.002385
 51
276.412304
1001
ACAD
1000
ASC_BOUNDS
1002
{
1070
    19
1002
}
  0
LINE
  8
FF
  5
127E
 10
-16.440059
 20
-15.902652
 30
0.0
 11
-3.24618
 21
-15.902652
 31
0.0
  0
LINE
  8
FF
  5
127F
 10
-14.787529
 20
-23.924652
 30
0.0
 11
-6.879759
 21
-23.924652
 31
0.0
  0
LINE
  8
FF
  5
1280
 10
-13.374933
 20
-21.278652
 30
0.0
 11
-5.433732
 21
-21.278652
 31
0.0
  0
ARC
  8
FF
  5
1281
 10
-16.440059
 20
-19.577652
 30
0.0
 40
3.675
 50
90.0
 51
168.003101
  0
ARC
  8
FF
  5
1282
 10
-13.374933
 20
-22.328652
 30
0.0
 40
1.05
 50
90.0
 51
168.003101
  0
LINE
  8
FF
  5
1283
 10
-14.787529
 20
-23.924652
 30
0.0
 11
-14.402
 21
-22.110401
 31
0.0
  0
ARC
  8
FF
  5
1284
 10
4.671531
 20
-27.215223
 30
0.0
 40
11.710882
 50
98.442625
 51
137.3304
1001
ACAD
1000
ASC_BOUNDS
1002
{
1070
    19
1002
}
  0
POLYLINE
  8
FF
  5
1285
 66
     1
 10
0.0
 20
0.0
 30
0.0
 70
   128
  0
VERTEX
  8
FF
  5
142E
 10
4.075809
 20
-16.875797
 30
0.0
  0
VERTEX
  8
FF
  5
142F
 10
2.268495
 20
-17.136086
 30
0.0
  0
VERTEX
  8
FF
  5
1430
 10
0.493814
 20
-17.766982
 30
0.0
  0
VERTEX
  8
FF
  5
1431
 10
-1.190815
 20
-18.74807
 30
0.0
  0
VERTEX
  8
FF
  5
1432
 10
-2.730886
 20
-20.04761
 30
0.0
  0
VERTEX
  8
FF
  5
1433
 10
-4.076572
 20
-21.623555
 30
0.0
  0
VERTEX
  8
FF
  5
1434
 10
-5.184332
 20
-23.424915
 30
0.0
  0
VERTEX
  8
FF
  5
1435
 10
-6.018327
 20
-25.393409
 30
0.0
  0
SEQEND
  8
FF
  5
1436
  0
LINE
  8
FF
  5
1286
 10
-3.24618
 20
-15.902652
 30
0.0
 11
-3.93918
 21
-19.277942
 31
0.0
  0
LINE
  8
FF
  5
1287
 10
-3.250634
 20
-23.924652
 30
0.0
 11
-3.571324
 21
-25.436652
 31
0.0
  0
ARC
  8
FF
  5
1288
 10
4.922197
 20
-28.656246
 30
0.0
 40
12.715116
 50
144.533818
 51
158.153358
  0
LINE
  8
FF
  5
128A
 10
12.57732
 20
-28.502652
 30
0.0
 11
11.150156
 21
-28.502652
 31
0.0
  0
LINE
  8
FF
  5
128B
 10
13.29132
 20
-25.436652
 30
0.0
 11
13.29132
 21
-23.99341
 31
0.0
  0
TEXT
  8
FF
  5
128F
 10
104.29132
 20
-36.902652
 30
0.0
 40
14.0
  1
SC-N7
  0
LINE
  8
FF
  5
1291
 10
341.325223
 20
-78.902652
 30
0.0
 11
607.325223
 21
-78.902652
 31
0.0
  0
LINE
  8
FF
  5
1292
 10
341.325223
 20
-64.902652
 30
0.0
 11
607.325223
 21
-64.902652
 31
0.0
  0
LINE
  8
FF
  5
1293
 10
341.325223
 20
-50.902652
 30
0.0
 11
607.325223
 21
-50.902652
 31
0.0
  0
LINE
  8
FF
  5
1294
 10
341.325223
 20
-36.902652
 30
0.0
 11
607.325223
 21
-36.902652
 31
0.0
  0
LINE
  8
FF
  5
1297
 10
341.325223
 20
-22.902652
 30
0.0
 11
607.325223
 21
-22.902652
 31
0.0
  0
TEXT
  8
FF
  6
CONTINUOUS
  5
129A
 10
348.141511
 20
-61.03324
 30
0.0
 40
7.0
  1
変更
  0
TEXT
  8
FF
  6
CONTINUOUS
  5
129B
 10
348.141511
 20
-47.808491
 30
0.0
 40
7.0
  1
作成
  0
LINE
  8
FF
  5
129E
 10
341.325223
 20
-22.902652
 30
0.0
 11
341.325223
 21
-78.902652
 31
0.0
  0
LINE
  8
FF
  5
129F
 10
425.325223
 20
-22.902652
 30
0.0
 11
425.325223
 21
-78.902652
 31
0.0
  0
LINE
  8
FF
  5
12A0
 10
369.325223
 20
-22.902652
 30
0.0
 11
369.325223
 21
-78.902652
 31
0.0
  0
TEXT
  8
FF
  6
CONTINUOUS
  5
12A2
 10
377.802294
 20
-47.808491
 30
0.0
 40
7.0
  1
2004-3
  0
TEXT
  8
FF
  6
CONTINUOUS
  5
12A3
 10
388.827225
 20
-33.596052
 30
0.0
 40
7.0
  1
日付
  0
LINE
  8
FF
  5
12A8
 10
495.325223
 20
-22.902652
 30
0.0
 11
495.325223
 21
-78.902652
 31
0.0
  0
TEXT
  8
FF
  6
CONTINUOUS
  5
12AA
 10
449.437499
 20
-33.596052
 30
0.0
 40
7.0
  1
ﾌｧｲﾙ名
  0
TEXT
  8
FF
  6
CONTINUOUS
  5
12AB
 10
430.101303
 20
-47.808491
 30
0.0
 40
7.0
  1
SC-N7
  0
TEXT
  8
FF
  6
CONTINUOUS
  5
12AC
 10
519.606007
 20
-33.596052
 30
0.0
 40
7.0
  1
図面番号
  0
LINE
  8
FF
  5
12AD
 10
607.325223
 20
-22.902652
 30
0.0
 11
607.325223
 21
-78.902652
 31
0.0
  0
LINE
  8
FF
  5
12AE
 10
579.325223
 20
-22.902652
 30
0.0
 11
579.325223
 21
-78.902652
 31
0.0
  0
TEXT
  8
FF
  6
CONTINUOUS
  5
12B0
 10
586.63036
 20
-33.596052
 30
0.0
 40
7.0
  1
変更
  0
TEXT
  8
FF
  5
141C
 10
104.29132
 20
-54.787063
 30
0.0
 40
14.0
  1
SC-N7(H2)
  0
TEXT
  8
FF
  6
CONTINUOUS
  5
141D
 10
377.802294
 20
-61.808491
 30
0.0
 40
7.0
  1
2005-12
  0
TEXT
  8
FF
  6
CONTINUOUS
  5
141E
 10
430.101303
 20
-61.808491
 30
0.0
 40
7.0
  1
SC-N7
  0
TEXT
  8
FF
  5
1424
 10
104.29132
 20
-73.154622
 30
0.0
 40
14.0
  1
SC-N7H
  0
ENDSEC
  0
EOF
