  0
SECTION
  2
HEADER
  9
$ACADVER
  1
AC1009
  9
$INSBASE
 10
0.0
 20
0.0
 30
0.0
  9
$EXTMIN
 10
-158.441078
 20
-329.680968
 30
0.0
  9
$EXTMAX
 10
155.499322
 20
187.391229
 30
0.0
  9
$LIMMIN
 10
-188.809633
 20
-335.477362
  9
$LIMMAX
 10
179.309087
 20
198.6806
  9
$ORTHOMODE
 70
     1
  9
$REGENMODE
 70
     1
  9
$FILLMODE
 70
     1
  9
$QTEXTMODE
 70
     0
  9
$MIRRTEXT
 70
     1
  9
$DRAGMODE
 70
     2
  9
$LTSCALE
 40
1.0
  9
$OSMODE
 70
     1
  9
$ATTMODE
 70
     1
  9
$TEXTSIZE
 40
3.2
  9
$TRACEWID
 40
0.05
  9
$TEXTSTYLE
  7
STANDARD
  9
$CLAYER
  8
FF
  9
$CELTYPE
  6
CONTINUOUS
  9
$CECOLOR
 62
   256
  9
$DIMSCALE
 40
1.0
  9
$DIMASZ
 40
3.0
  9
$DIMEXO
 40
1.0
  9
$DIMDLI
 40
0.38
  9
$DIMRND
 40
0.0
  9
$DIMDLE
 40
0.0
  9
$DIMEXE
 40
1.0
  9
$DIMTP
 40
0.0
  9
$DIMTM
 40
0.0
  9
$DIMTXT
 40
3.0
  9
$DIMCEN
 40
0.09
  9
$DIMTSZ
 40
0.0
  9
$DIMTOL
 70
     0
  9
$DIMLIM
 70
     0
  9
$DIMTIH
 70
     0
  9
$DIMTOH
 70
     0
  9
$DIMSE1
 70
     0
  9
$DIMSE2
 70
     0
  9
$DIMTAD
 70
     1
  9
$DIMZIN
 70
     0
  9
$DIMBLK
  1

  9
$DIMASO
 70
     1
  9
$DIMSHO
 70
     1
  9
$DIMPOST
  1

  9
$DIMAPOST
  1

  9
$DIMALT
 70
     0
  9
$DIMALTD
 70
     2
  9
$DIMALTF
 40
25.4
  9
$DIMLFAC
 40
1.0
  9
$DIMTOFL
 70
     1
  9
$DIMTVP
 40
0.0
  9
$DIMTIX
 70
     0
  9
$DIMSOXD
 70
     0
  9
$DIMSAH
 70
     1
  9
$DIMBLK1
  1
_OPEN
  9
$DIMBLK2
  1
_OPEN
  9
$DIMSTYLE
  2
FSTD2
  9
$DIMCLRD
 70
     0
  9
$DIMCLRE
 70
     0
  9
$DIMCLRT
 70
     0
  9
$DIMTFAC
 40
1.0
  9
$DIMGAP
 40
1.0
  9
$LUNITS
 70
     2
  9
$LUPREC
 70
     4
  9
$SKETCHINC
 40
0.1
  9
$FILLETRAD
 40
0.0
  9
$AUNITS
 70
     0
  9
$AUPREC
 70
     0
  9
$MENU
  1
acad
  9
$ELEVATION
 40
0.0
  9
$PELEVATION
 40
0.0
  9
$THICKNESS
 40
0.0
  9
$LIMCHECK
 70
     0
  9
$BLIPMODE
 70
     1
  9
$CHAMFERA
 40
0.0
  9
$CHAMFERB
 40
0.0
  9
$SKPOLY
 70
     0
  9
$TDCREATE
 40
2451262.773245578
  9
$TDUPDATE
 40
2453725.688744652
  9
$TDINDWG
 40
0.0368808102
  9
$TDUSRTIMER
 40
0.0368808102
  9
$USRTIMER
 70
     1
  9
$ANGBASE
 50
0.0
  9
$ANGDIR
 70
     0
  9
$PDMODE
 70
     0
  9
$PDSIZE
 40
0.0
  9
$PLINEWID
 40
0.0
  9
$COORDS
 70
     1
  9
$SPLFRAME
 70
     0
  9
$SPLINETYPE
 70
     6
  9
$SPLINESEGS
 70
     8
  9
$ATTDIA
 70
     0
  9
$ATTREQ
 70
     1
  9
$HANDLING
 70
     1
  9
$HANDSEED
  5
AF4
  9
$SURFTAB1
 70
     6
  9
$SURFTAB2
 70
     6
  9
$SURFTYPE
 70
     6
  9
$SURFU
 70
     6
  9
$SURFV
 70
     6
  9
$UCSNAME
  2

  9
$UCSORG
 10
0.0
 20
0.0
 30
0.0
  9
$UCSXDIR
 10
1.0
 20
0.0
 30
0.0
  9
$UCSYDIR
 10
0.0
 20
1.0
 30
0.0
  9
$PUCSNAME
  2

  9
$PUCSORG
 10
0.0
 20
0.0
 30
0.0
  9
$PUCSXDIR
 10
1.0
 20
0.0
 30
0.0
  9
$PUCSYDIR
 10
0.0
 20
1.0
 30
0.0
  9
$USERI1
 70
     0
  9
$USERI2
 70
     0
  9
$USERI3
 70
     0
  9
$USERI4
 70
     0
  9
$USERI5
 70
     0
  9
$USERR1
 40
0.0
  9
$USERR2
 40
0.0
  9
$USERR3
 40
0.0
  9
$USERR4
 40
0.0
  9
$USERR5
 40
0.0
  9
$WORLDVIEW
 70
     1
  9
$SHADEDGE
 70
     3
  9
$SHADEDIF
 70
    70
  9
$TILEMODE
 70
     1
  9
$MAXACTVP
 70
    16
  9
$PINSBASE
 10
0.0
 20
0.0
 30
0.0
  9
$PLIMCHECK
 70
     0
  9
$PEXTMIN
 10
1.000000E+20
 20
1.000000E+20
 30
1.000000E+20
  9
$PEXTMAX
 10
-1.000000E+20
 20
-1.000000E+20
 30
-1.000000E+20
  9
$PLIMMIN
 10
0.0
 20
0.0
  9
$PLIMMAX
 10
12.0
 20
9.0
  9
$UNITMODE
 70
     0
  9
$VISRETAIN
 70
     0
  9
$PLINEGEN
 70
     0
  9
$PSLTSCALE
 70
     1
  9
$TREEDEPTH
 70
  3020
  9
$DWGCODEPAGE
  3
dos932
  0
ENDSEC
  0
SECTION
  2
TABLES
  0
TABLE
  2
VPORT
 70
     2
  0
VPORT
  2
*ACTIVE
 70
     0
 10
0.0
 20
0.0
 11
1.0
 21
1.0
 12
270.762098
 22
-23.945939
 13
0.0
 23
0.0
 14
1.0
 24
1.0
 15
10.0
 25
10.0
 16
0.0
 26
0.0
 36
1.0
 17
0.0
 27
0.0
 37
0.0
 40
623.062847
 41
1.475202
 42
50.0
 43
0.0
 44
0.0
 50
0.0
 51
0.0
 71
     0
 72
   100
 73
     1
 74
     1
 75
     0
 76
     0
 77
     0
 78
     0
  0
ENDTAB
  0
TABLE
  2
LTYPE
 70
     3
  0
LTYPE
  2
CONTINUOUS
 70
    64
  3
Solid-line
 72
    65
 73
     0
 40
0.0
  0
LTYPE
  2
HIDDEN
 70
    64
  3
HIDDEN
 72
    65
 73
     2
 40
2.60869
 49
1.95652
 49
-0.652173
  0
LTYPE
  2
CENTER
 70
    64
  3
CENTER
 72
    65
 73
     4
 40
10.8696
 49
6.52173
 49
-1.08696
 49
2.17391
 49
-1.08696
  0
ENDTAB
  0
TABLE
  2
LAYER
 70
    17
  0
LAYER
  2
0
 70
    64
 62
     7
  6
CONTINUOUS
  0
LAYER
  2
0A
 70
    64
 62
     7
  6
CONTINUOUS
  0
LAYER
  2
0B
 70
    64
 62
     6
  6
CONTINUOUS
  0
LAYER
  2
0C
 70
    64
 62
     3
  6
CONTINUOUS
  0
LAYER
  2
0D
 70
    64
 62
     2
  6
CONTINUOUS
  0
LAYER
  2
10
 70
    64
 62
     6
  6
CENTER
  0
LAYER
  2
14
 70
    64
 62
     7
  6
CONTINUOUS
  0
LAYER
  2
15
 70
    64
 62
     6
  6
CONTINUOUS
  0
LAYER
  2
16
 70
    64
 62
     3
  6
CONTINUOUS
  0
LAYER
  2
17
 70
    64
 62
     2
  6
CONTINUOUS
  0
LAYER
  2
1A
 70
    64
 62
     6
  6
CENTER
  0
LAYER
  2
32
 70
    64
 62
     7
  6
CONTINUOUS
  0
LAYER
  2
33
 70
    64
 62
     6
  6
CONTINUOUS
  0
LAYER
  2
34
 70
    64
 62
     3
  6
CONTINUOUS
  0
LAYER
  2
38
 70
    64
 62
     6
  6
CENTER
  0
LAYER
  2
FF
 70
    64
 62
     4
  6
CONTINUOUS
  0
LAYER
  2
DEFPOINTS
 70
    64
 62
     7
  6
CONTINUOUS
  0
ENDTAB
  0
TABLE
  2
STYLE
 70
     1
  0
STYLE
  2
STANDARD
 70
    64
 40
0.0
 41
1.0
 50
0.0
 71
     0
 42
0.2
  3
TXT
  4
BIGFONT
  0
ENDTAB
  0
TABLE
  2
VIEW
 70
     0
  0
ENDTAB
  0
TABLE
  2
UCS
 70
     0
  0
ENDTAB
  0
TABLE
  2
APPID
 70
     1
  0
APPID
  2
ACAD
 70
    64
  0
ENDTAB
  0
TABLE
  2
DIMSTYLE
 70
     2
  0
DIMSTYLE
  2
FSTD1
 70
    64
  3

  4

  5

  6
_OPEN
  7
_OPEN
 40
1.0
 41
3.0
 42
1.0
 43
0.38
 44
1.0
 45
0.0
 46
0.0
 47
0.0
 48
0.0
140
3.0
141
0.09
142
0.0
143
25.4
144
1.0
145
0.0
146
1.0
147
1.0
 71
     0
 72
     0
 73
     0
 74
     0
 75
     0
 76
     0
 77
     1
 78
     0
170
     0
171
     2
172
     1
173
     1
174
     0
175
     0
176
     0
177
     0
178
     0
  0
DIMSTYLE
  2
FSTD2
 70
    64
  3

  4

  5

  6
_OPEN
  7
_OPEN
 40
1.0
 41
3.0
 42
1.0
 43
0.38
 44
1.0
 45
0.0
 46
0.0
 47
0.0
 48
0.0
140
3.0
141
0.09
142
0.0
143
25.4
144
1.0
145
0.0
146
1.0
147
1.0
 71
     0
 72
     0
 73
     0
 74
     0
 75
     0
 76
     0
 77
     1
 78
     0
170
     0
171
     2
172
     1
173
     1
174
     0
175
     0
176
     0
177
     0
178
     0
  0
ENDTAB
  0
ENDSEC
  0
SECTION
  2
BLOCKS
  0
BLOCK
  8
0
  5
2F4
  2
_OPEN
 70
    64
 10
0.0
 20
0.0
 30
0.0
  3
_OPEN
  0
LINE
  8
0
  6
BYBLOCK
 62
     0
  5
2F5
 10
-1.0
 20
0.166667
 30
0.0
 11
0.0
 21
0.0
 31
0.0
  0
LINE
  8
0
  6
BYBLOCK
 62
     0
  5
2F6
 10
0.0
 20
0.0
 30
0.0
 11
-1.0
 21
-0.166667
 31
0.0
  0
LINE
  8
0
  6
BYBLOCK
 62
     0
  5
2F7
 10
0.0
 20
0.0
 30
0.0
 11
-1.0
 21
0.0
 31
0.0
  0
ENDBLK
  8
0
  5
2F8
  0
BLOCK
  8
0
  5
9F3
  2
*D1
 70
    65
 10
0.0
 20
0.0
 30
0.0
  3
*D1
  0
LINE
  8
0
  6
BYBLOCK
 62
     0
  5
9F4
 10
-155.524478
 20
92.086334
 30
0.0
 11
-155.524478
 21
184.391229
 31
0.0
  0
LINE
  8
0
  6
BYBLOCK
 62
     0
  5
9F5
 10
-35.524478
 20
91.952934
 30
0.0
 11
-35.524478
 21
184.391229
 31
0.0
  0
LINE
  8
0
  6
BYBLOCK
 62
     0
  5
9F6
 10
-152.524478
 20
183.391229
 30
0.0
 11
-38.524478
 21
183.391229
 31
0.0
  0
INSERT
  8
0
  6
BYBLOCK
 62
     0
  5
9F7
  2
_OPEN
 10
-155.524478
 20
183.391229
 30
0.0
 41
3.0
 42
3.0
 50
180.0
 43
3.0
  0
INSERT
  8
0
  6
BYBLOCK
 62
     0
  5
9F8
  2
_OPEN
 10
-35.524478
 20
183.391229
 30
0.0
 41
3.0
 42
3.0
 43
3.0
  0
TEXT
  8
0
  6
BYBLOCK
 62
     0
  5
9F9
 10
-98.524478
 20
184.391229
 30
0.0
 40
3.0
  1
117
  0
POINT
  8
DEFPOINTS
  6
BYBLOCK
 62
     0
  5
9FA
 10
-155.524478
 20
91.086334
 30
0.0
  0
POINT
  8
DEFPOINTS
  6
BYBLOCK
 62
     0
  5
9FB
 10
-35.524478
 20
90.952934
 30
0.0
  0
POINT
  8
DEFPOINTS
  6
BYBLOCK
 62
     0
  5
9FC
 10
-35.524478
 20
183.391229
 30
0.0
  0
ENDBLK
  8
0
  5
9FD
  0
BLOCK
  8
0
  5
9FE
  2
*D2
 70
    65
 10
0.0
 20
0.0
 30
0.0
  3
*D2
  0
LINE
  8
0
  6
BYBLOCK
 62
     0
  5
9FF
 10
-145.524478
 20
114.086334
 30
0.0
 11
-145.524478
 21
170.732734
 31
0.0
  0
LINE
  8
0
  6
BYBLOCK
 62
     0
  5
A00
 10
-35.524478
 20
91.952934
 30
0.0
 11
-35.524478
 21
170.732734
 31
0.0
  0
LINE
  8
0
  6
BYBLOCK
 62
     0
  5
A01
 10
-142.524478
 20
169.732734
 30
0.0
 11
-38.524478
 21
169.732734
 31
0.0
  0
INSERT
  8
0
  6
BYBLOCK
 62
     0
  5
A02
  2
_OPEN
 10
-145.524478
 20
169.732734
 30
0.0
 41
3.0
 42
3.0
 50
180.0
 43
3.0
  0
INSERT
  8
0
  6
BYBLOCK
 62
     0
  5
A03
  2
_OPEN
 10
-35.524478
 20
169.732734
 30
0.0
 41
3.0
 42
3.0
 43
3.0
  0
TEXT
  8
0
  6
BYBLOCK
 62
     0
  5
A04
 10
-93.774478
 20
170.732734
 30
0.0
 40
3.0
  1
107
  0
POINT
  8
DEFPOINTS
  6
BYBLOCK
 62
     0
  5
A05
 10
-145.524478
 20
113.086334
 30
0.0
  0
POINT
  8
DEFPOINTS
  6
BYBLOCK
 62
     0
  5
A06
 10
-35.524478
 20
90.952934
 30
0.0
  0
POINT
  8
DEFPOINTS
  6
BYBLOCK
 62
     0
  5
A07
 10
-35.524478
 20
169.732734
 30
0.0
  0
ENDBLK
  8
0
  5
A08
  0
BLOCK
  8
0
  5
A09
  2
*D3
 70
    65
 10
0.0
 20
0.0
 30
0.0
  3
*D3
  0
LINE
  8
0
  6
BYBLOCK
 62
     0
  5
A0A
 10
-145.524478
 20
114.086334
 30
0.0
 11
-145.524478
 21
158.198734
 31
0.0
  0
LINE
  8
0
  6
BYBLOCK
 62
     0
  5
A0B
 10
-54.524478
 20
104.286334
 30
0.0
 11
-54.524478
 21
158.198734
 31
0.0
  0
LINE
  8
0
  6
BYBLOCK
 62
     0
  5
A0C
 10
-142.524478
 20
157.198734
 30
0.0
 11
-57.524478
 21
157.198734
 31
0.0
  0
INSERT
  8
0
  6
BYBLOCK
 62
     0
  5
A0D
  2
_OPEN
 10
-145.524478
 20
157.198734
 30
0.0
 41
3.0
 42
3.0
 50
180.0
 43
3.0
  0
INSERT
  8
0
  6
BYBLOCK
 62
     0
  5
A0E
  2
_OPEN
 10
-54.524478
 20
157.198734
 30
0.0
 41
3.0
 42
3.0
 43
3.0
  0
TEXT
  8
0
  6
BYBLOCK
 62
     0
  5
A0F
 10
-102.524478
 20
158.198734
 30
0.0
 40
3.0
  1
88
  0
POINT
  8
DEFPOINTS
  6
BYBLOCK
 62
     0
  5
A10
 10
-145.524478
 20
113.086334
 30
0.0
  0
POINT
  8
DEFPOINTS
  6
BYBLOCK
 62
     0
  5
A11
 10
-54.524478
 20
103.286334
 30
0.0
  0
POINT
  8
DEFPOINTS
  6
BYBLOCK
 62
     0
  5
A12
 10
-54.524478
 20
157.198734
 30
0.0
  0
ENDBLK
  8
0
  5
A13
  0
BLOCK
  8
0
  5
92B
  2
*D4
 70
    65
 10
0.0
 20
0.0
 30
0.0
  3
*D4
  0
LINE
  8
0
  6
BYBLOCK
 62
     0
  5
92C
 10
-35.524478
 20
91.952934
 30
0.0
 11
-35.524478
 21
170.80936
 31
0.0
  0
LINE
  8
0
  6
BYBLOCK
 62
     0
  5
92D
 10
-7.524558
 20
82.086334
 30
0.0
 11
-7.524558
 21
170.80936
 31
0.0
  0
LINE
  8
0
  6
BYBLOCK
 62
     0
  5
92E
 10
-32.524478
 20
169.80936
 30
0.0
 11
-10.524558
 21
169.80936
 31
0.0
  0
INSERT
  8
0
  6
BYBLOCK
 62
     0
  5
92F
  2
_OPEN
 10
-35.524478
 20
169.80936
 30
0.0
 41
3.0
 42
3.0
 50
180.0
 43
3.0
  0
INSERT
  8
0
  6
BYBLOCK
 62
     0
  5
930
  2
_OPEN
 10
-7.524558
 20
169.80936
 30
0.0
 41
3.0
 42
3.0
 43
3.0
  0
TEXT
  8
0
  6
BYBLOCK
 62
     0
  5
931
 10
-24.024518
 20
170.80936
 30
0.0
 40
3.0
  1
28
  0
POINT
  8
DEFPOINTS
  6
BYBLOCK
 62
     0
  5
932
 10
-35.524478
 20
90.952934
 30
0.0
  0
POINT
  8
DEFPOINTS
  6
BYBLOCK
 62
     0
  5
933
 10
-7.524558
 20
81.086334
 30
0.0
  0
POINT
  8
DEFPOINTS
  6
BYBLOCK
 62
     0
  5
934
 10
-7.524558
 20
169.80936
 30
0.0
  0
ENDBLK
  8
0
  5
935
  0
BLOCK
  8
0
  5
941
  2
*D5
 70
    65
 10
0.0
 20
0.0
 30
0.0
  3
*D5
  0
LINE
  8
0
  6
BYBLOCK
 62
     0
  5
942
 10
72.975522
 20
109.286334
 30
0.0
 11
72.975522
 21
149.652734
 31
0.0
  0
LINE
  8
0
  6
BYBLOCK
 62
     0
  5
943
 10
115.975522
 20
110.704334
 30
0.0
 11
115.975522
 21
149.652734
 31
0.0
  0
LINE
  8
0
  6
BYBLOCK
 62
     0
  5
944
 10
75.975522
 20
148.652734
 30
0.0
 11
112.975522
 21
148.652734
 31
0.0
  0
INSERT
  8
0
  6
BYBLOCK
 62
     0
  5
945
  2
_OPEN
 10
72.975522
 20
148.652734
 30
0.0
 41
3.0
 42
3.0
 50
180.0
 43
3.0
  0
INSERT
  8
0
  6
BYBLOCK
 62
     0
  5
946
  2
_OPEN
 10
115.975522
 20
148.652734
 30
0.0
 41
3.0
 42
3.0
 43
3.0
  0
TEXT
  8
0
  6
BYBLOCK
 62
     0
  5
947
 10
91.975522
 20
149.652734
 30
0.0
 40
3.0
  1
43
  0
POINT
  8
DEFPOINTS
  6
BYBLOCK
 62
     0
  5
948
 10
72.975522
 20
108.286334
 30
0.0
  0
POINT
  8
DEFPOINTS
  6
BYBLOCK
 62
     0
  5
949
 10
115.975522
 20
109.704334
 30
0.0
  0
POINT
  8
DEFPOINTS
  6
BYBLOCK
 62
     0
  5
94A
 10
115.975522
 20
148.652734
 30
0.0
  0
ENDBLK
  8
0
  5
94B
  0
BLOCK
  8
0
  5
94C
  2
*D6
 70
    65
 10
0.0
 20
0.0
 30
0.0
  3
*D6
  0
LINE
  8
0
  6
BYBLOCK
 62
     0
  5
94D
 10
99.125522
 20
123.086334
 30
0.0
 11
126.843322
 21
123.086334
 31
0.0
  0
LINE
  8
0
  6
BYBLOCK
 62
     0
  5
94E
 10
115.609522
 20
100.086334
 30
0.0
 11
126.843322
 21
100.086334
 31
0.0
  0
LINE
  8
0
  6
BYBLOCK
 62
     0
  5
94F
 10
125.843322
 20
120.086334
 30
0.0
 11
125.843322
 21
103.086334
 31
0.0
  0
INSERT
  8
0
  6
BYBLOCK
 62
     0
  5
950
  2
_OPEN
 10
125.843322
 20
123.086334
 30
0.0
 41
3.0
 42
3.0
 50
90.0
 43
3.0
  0
INSERT
  8
0
  6
BYBLOCK
 62
     0
  5
951
  2
_OPEN
 10
125.843322
 20
100.086334
 30
0.0
 41
3.0
 42
3.0
 50
270.0
 43
3.0
  0
TEXT
  8
0
  6
BYBLOCK
 62
     0
  5
952
 10
124.843322
 20
109.086334
 30
0.0
 40
3.0
  1
23
 50
90.0
  0
POINT
  8
DEFPOINTS
  6
BYBLOCK
 62
     0
  5
953
 10
98.125522
 20
123.086334
 30
0.0
  0
POINT
  8
DEFPOINTS
  6
BYBLOCK
 62
     0
  5
954
 10
114.609522
 20
100.086334
 30
0.0
  0
POINT
  8
DEFPOINTS
  6
BYBLOCK
 62
     0
  5
955
 10
125.843322
 20
100.086334
 30
0.0
  0
ENDBLK
  8
0
  5
956
  0
BLOCK
  8
0
  5
962
  2
*D7
 70
    65
 10
0.0
 20
0.0
 30
0.0
  3
*D7
  0
LINE
  8
0
  6
BYBLOCK
 62
     0
  5
963
 10
116.609522
 20
100.086334
 30
0.0
 11
126.843322
 21
100.086334
 31
0.0
  0
LINE
  8
0
  6
BYBLOCK
 62
     0
  5
964
 10
115.609522
 20
57.086334
 30
0.0
 11
126.843322
 21
57.086334
 31
0.0
  0
LINE
  8
0
  6
BYBLOCK
 62
     0
  5
965
 10
125.843322
 20
97.086334
 30
0.0
 11
125.843322
 21
60.086334
 31
0.0
  0
INSERT
  8
0
  6
BYBLOCK
 62
     0
  5
966
  2
_OPEN
 10
125.843322
 20
100.086334
 30
0.0
 41
3.0
 42
3.0
 50
90.0
 43
3.0
  0
INSERT
  8
0
  6
BYBLOCK
 62
     0
  5
967
  2
_OPEN
 10
125.843322
 20
57.086334
 30
0.0
 41
3.0
 42
3.0
 50
270.0
 43
3.0
  0
TEXT
  8
0
  6
BYBLOCK
 62
     0
  5
968
 10
124.843322
 20
76.086334
 30
0.0
 40
3.0
  1
43
 50
90.0
  0
POINT
  8
DEFPOINTS
  6
BYBLOCK
 62
     0
  5
969
 10
115.609522
 20
100.086334
 30
0.0
  0
POINT
  8
DEFPOINTS
  6
BYBLOCK
 62
     0
  5
96A
 10
114.609522
 20
57.086334
 30
0.0
  0
POINT
  8
DEFPOINTS
  6
BYBLOCK
 62
     0
  5
96B
 10
125.843322
 20
57.086334
 30
0.0
  0
ENDBLK
  8
0
  5
96C
  0
BLOCK
  8
0
  5
A14
  2
*D8
 70
    65
 10
0.0
 20
0.0
 30
0.0
  3
*D8
  0
LINE
  8
0
  6
BYBLOCK
 62
     0
  5
A15
 10
100.125522
 20
123.086334
 30
0.0
 11
143.039322
 21
123.086334
 31
0.0
  0
LINE
  8
0
  6
BYBLOCK
 62
     0
  5
A16
 10
102.975322
 20
43.086334
 30
0.0
 11
143.039322
 21
43.086334
 31
0.0
  0
LINE
  8
0
  6
BYBLOCK
 62
     0
  5
A17
 10
142.039322
 20
120.086334
 30
0.0
 11
142.039322
 21
46.086334
 31
0.0
  0
INSERT
  8
0
  6
BYBLOCK
 62
     0
  5
A18
  2
_OPEN
 10
142.039322
 20
123.086334
 30
0.0
 41
3.0
 42
3.0
 50
90.0
 43
3.0
  0
INSERT
  8
0
  6
BYBLOCK
 62
     0
  5
A19
  2
_OPEN
 10
142.039322
 20
43.086334
 30
0.0
 41
3.0
 42
3.0
 50
270.0
 43
3.0
  0
TEXT
  8
0
  6
BYBLOCK
 62
     0
  5
A1A
 10
141.039322
 20
81.086334
 30
0.0
 40
3.0
  1
81
 50
90.0
  0
POINT
  8
DEFPOINTS
  6
BYBLOCK
 62
     0
  5
A1B
 10
99.125522
 20
123.086334
 30
0.0
  0
POINT
  8
DEFPOINTS
  6
BYBLOCK
 62
     0
  5
A1C
 10
101.975322
 20
43.086334
 30
0.0
  0
POINT
  8
DEFPOINTS
  6
BYBLOCK
 62
     0
  5
A1D
 10
142.039322
 20
43.086334
 30
0.0
  0
ENDBLK
  8
0
  5
A1E
  0
BLOCK
  8
0
  5
96D
  2
*D9
 70
    65
 10
0.0
 20
0.0
 30
0.0
  3
*D9
  0
LINE
  8
0
  6
BYBLOCK
 62
     0
  5
96E
 10
89.475522
 20
52.107134
 30
0.0
 11
89.475522
 21
20.634134
 31
0.0
  0
LINE
  8
0
  6
BYBLOCK
 62
     0
  5
96F
 10
99.475522
 20
52.107134
 30
0.0
 11
99.475522
 21
20.634134
 31
0.0
  0
LINE
  8
0
  6
BYBLOCK
 62
     0
  5
970
 10
92.475522
 20
21.634134
 30
0.0
 11
96.475522
 21
21.634134
 31
0.0
  0
INSERT
  8
0
  6
BYBLOCK
 62
     0
  5
971
  2
_OPEN
 10
89.475522
 20
21.634134
 30
0.0
 41
3.0
 42
3.0
 50
180.0
 43
3.0
  0
INSERT
  8
0
  6
BYBLOCK
 62
     0
  5
972
  2
_OPEN
 10
99.475522
 20
21.634134
 30
0.0
 41
3.0
 42
3.0
 43
3.0
  0
TEXT
  8
0
  6
BYBLOCK
 62
     0
  5
973
 10
92.725522
 20
22.634134
 30
0.0
 40
3.0
  1
10
  0
POINT
  8
DEFPOINTS
  6
BYBLOCK
 62
     0
  5
974
 10
89.475522
 20
53.107134
 30
0.0
  0
POINT
  8
DEFPOINTS
  6
BYBLOCK
 62
     0
  5
975
 10
99.475522
 20
53.107134
 30
0.0
  0
POINT
  8
DEFPOINTS
  6
BYBLOCK
 62
     0
  5
976
 10
99.475522
 20
21.634134
 30
0.0
  0
ENDBLK
  8
0
  5
977
  0
BLOCK
  8
0
  5
9B1
  2
*D10
 70
    65
 10
0.0
 20
0.0
 30
0.0
  3
*D10
  0
LINE
  8
0
  6
BYBLOCK
 62
     0
  5
9B2
 10
76.975522
 20
-155.919666
 30
0.0
 11
76.975522
 21
-181.491666
 31
0.0
  0
LINE
  8
0
  6
BYBLOCK
 62
     0
  5
9B3
 10
111.975522
 20
-95.900666
 30
0.0
 11
111.975522
 21
-181.491666
 31
0.0
  0
LINE
  8
0
  6
BYBLOCK
 62
     0
  5
9B4
 10
79.975522
 20
-180.491666
 30
0.0
 11
108.975522
 21
-180.491666
 31
0.0
  0
INSERT
  8
0
  6
BYBLOCK
 62
     0
  5
9B5
  2
_OPEN
 10
76.975522
 20
-180.491666
 30
0.0
 41
3.0
 42
3.0
 50
180.0
 43
3.0
  0
INSERT
  8
0
  6
BYBLOCK
 62
     0
  5
9B6
  2
_OPEN
 10
111.975522
 20
-180.491666
 30
0.0
 41
3.0
 42
3.0
 43
3.0
  0
TEXT
  8
0
  6
BYBLOCK
 62
     0
  5
9B7
 10
91.975522
 20
-179.491666
 30
0.0
 40
3.0
  1
35
  0
POINT
  8
DEFPOINTS
  6
BYBLOCK
 62
     0
  5
9B8
 10
76.975522
 20
-154.919666
 30
0.0
  0
POINT
  8
DEFPOINTS
  6
BYBLOCK
 62
     0
  5
9B9
 10
111.975522
 20
-94.900666
 30
0.0
  0
POINT
  8
DEFPOINTS
  6
BYBLOCK
 62
     0
  5
9BA
 10
111.975522
 20
-180.491666
 30
0.0
  0
ENDBLK
  8
0
  5
9BB
  0
BLOCK
  8
0
  5
9A6
  2
*D11
 70
    65
 10
0.0
 20
0.0
 30
0.0
  3
*D11
  0
LINE
  8
0
  6
BYBLOCK
 62
     0
  5
9A7
 10
81.170322
 20
-151.413666
 30
0.0
 11
133.587522
 21
-151.413666
 31
0.0
  0
LINE
  8
0
  6
BYBLOCK
 62
     0
  5
9A8
 10
116.213522
 20
-91.413666
 30
0.0
 11
133.587522
 21
-91.413666
 31
0.0
  0
LINE
  8
0
  6
BYBLOCK
 62
     0
  5
9A9
 10
132.587522
 20
-148.413666
 30
0.0
 11
132.587522
 21
-94.413666
 31
0.0
  0
INSERT
  8
0
  6
BYBLOCK
 62
     0
  5
9AA
  2
_OPEN
 10
132.587522
 20
-151.413666
 30
0.0
 41
3.0
 42
3.0
 50
270.0
 43
3.0
  0
INSERT
  8
0
  6
BYBLOCK
 62
     0
  5
9AB
  2
_OPEN
 10
132.587522
 20
-91.413666
 30
0.0
 41
3.0
 42
3.0
 50
90.0
 43
3.0
  0
TEXT
  8
0
  6
BYBLOCK
 62
     0
  5
9AC
 10
131.587522
 20
-123.663666
 30
0.0
 40
3.0
  1
60
 50
90.0
  0
POINT
  8
DEFPOINTS
  6
BYBLOCK
 62
     0
  5
9AD
 10
80.170322
 20
-151.413666
 30
0.0
  0
POINT
  8
DEFPOINTS
  6
BYBLOCK
 62
     0
  5
9AE
 10
115.213522
 20
-91.413666
 30
0.0
  0
POINT
  8
DEFPOINTS
  6
BYBLOCK
 62
     0
  5
9AF
 10
132.587522
 20
-91.413666
 30
0.0
  0
ENDBLK
  8
0
  5
9B0
  0
BLOCK
  8
0
  5
990
  2
*D12
 70
    65
 10
0.0
 20
0.0
 30
0.0
  3
*D12
  0
LINE
  8
0
  6
BYBLOCK
 62
     0
  5
991
 10
79.475522
 20
-92.249666
 30
0.0
 11
79.475522
 21
-57.749666
 31
0.0
  0
LINE
  8
0
  6
BYBLOCK
 62
     0
  5
992
 10
109.475522
 20
-140.787666
 30
0.0
 11
109.475522
 21
-57.749666
 31
0.0
  0
LINE
  8
0
  6
BYBLOCK
 62
     0
  5
993
 10
82.475522
 20
-58.749666
 30
0.0
 11
106.475522
 21
-58.749666
 31
0.0
  0
INSERT
  8
0
  6
BYBLOCK
 62
     0
  5
994
  2
_OPEN
 10
79.475522
 20
-58.749666
 30
0.0
 41
3.0
 42
3.0
 50
180.0
 43
3.0
  0
INSERT
  8
0
  6
BYBLOCK
 62
     0
  5
995
  2
_OPEN
 10
109.475522
 20
-58.749666
 30
0.0
 41
3.0
 42
3.0
 43
3.0
  0
TEXT
  8
0
  6
BYBLOCK
 62
     0
  5
996
 10
92.225522
 20
-57.749666
 30
0.0
 40
3.0
  1
30
  0
POINT
  8
DEFPOINTS
  6
BYBLOCK
 62
     0
  5
997
 10
79.475522
 20
-93.249666
 30
0.0
  0
POINT
  8
DEFPOINTS
  6
BYBLOCK
 62
     0
  5
998
 10
109.475522
 20
-141.787666
 30
0.0
  0
POINT
  8
DEFPOINTS
  6
BYBLOCK
 62
     0
  5
999
 10
109.475522
 20
-58.749666
 30
0.0
  0
ENDBLK
  8
0
  5
99A
  0
BLOCK
  8
0
  5
985
  2
*D13
 70
    65
 10
0.0
 20
0.0
 30
0.0
  3
*D13
  0
LINE
  8
0
  6
BYBLOCK
 62
     0
  5
986
 10
77.475522
 20
-91.157666
 30
0.0
 11
77.475522
 21
-40.168666
 31
0.0
  0
LINE
  8
0
  6
BYBLOCK
 62
     0
  5
987
 10
111.475522
 20
-142.029666
 30
0.0
 11
111.475522
 21
-40.168666
 31
0.0
  0
LINE
  8
0
  6
BYBLOCK
 62
     0
  5
988
 10
80.475522
 20
-41.168666
 30
0.0
 11
108.475522
 21
-41.168666
 31
0.0
  0
INSERT
  8
0
  6
BYBLOCK
 62
     0
  5
989
  2
_OPEN
 10
77.475522
 20
-41.168666
 30
0.0
 41
3.0
 42
3.0
 50
180.0
 43
3.0
  0
INSERT
  8
0
  6
BYBLOCK
 62
     0
  5
98A
  2
_OPEN
 10
111.475522
 20
-41.168666
 30
0.0
 41
3.0
 42
3.0
 43
3.0
  0
TEXT
  8
0
  6
BYBLOCK
 62
     0
  5
98B
 10
91.975522
 20
-40.168666
 30
0.0
 40
3.0
  1
34
  0
POINT
  8
DEFPOINTS
  6
BYBLOCK
 62
     0
  5
98C
 10
77.475522
 20
-92.157666
 30
0.0
  0
POINT
  8
DEFPOINTS
  6
BYBLOCK
 62
     0
  5
98D
 10
111.475522
 20
-143.029666
 30
0.0
  0
POINT
  8
DEFPOINTS
  6
BYBLOCK
 62
     0
  5
98E
 10
111.475522
 20
-41.168666
 30
0.0
  0
ENDBLK
  8
0
  5
98F
  0
BLOCK
  8
0
  5
9BC
  2
*D14
 70
    65
 10
0.0
 20
0.0
 30
0.0
  3
*D14
  0
LINE
  8
0
  6
BYBLOCK
 62
     0
  5
9BD
 10
105.135522
 20
-145.413666
 30
0.0
 11
59.588322
 21
-145.413666
 31
0.0
  0
LINE
  8
0
  6
BYBLOCK
 62
     0
  5
9BE
 10
74.288322
 20
-97.413666
 30
0.0
 11
59.588322
 21
-97.413666
 31
0.0
  0
LINE
  8
0
  6
BYBLOCK
 62
     0
  5
9BF
 10
60.588322
 20
-142.413666
 30
0.0
 11
60.588322
 21
-100.413666
 31
0.0
  0
INSERT
  8
0
  6
BYBLOCK
 62
     0
  5
9C0
  2
_OPEN
 10
60.588322
 20
-145.413666
 30
0.0
 41
3.0
 42
3.0
 50
270.0
 43
3.0
  0
INSERT
  8
0
  6
BYBLOCK
 62
     0
  5
9C1
  2
_OPEN
 10
60.588322
 20
-97.413666
 30
0.0
 41
3.0
 42
3.0
 50
90.0
 43
3.0
  0
TEXT
  8
0
  6
BYBLOCK
 62
     0
  5
9C2
 10
59.588322
 20
-123.913666
 30
0.0
 40
3.0
  1
48
 50
90.0
  0
POINT
  8
DEFPOINTS
  6
BYBLOCK
 62
     0
  5
9C3
 10
106.135522
 20
-145.413666
 30
0.0
  0
POINT
  8
DEFPOINTS
  6
BYBLOCK
 62
     0
  5
9C4
 10
75.288322
 20
-97.413666
 30
0.0
  0
POINT
  8
DEFPOINTS
  6
BYBLOCK
 62
     0
  5
9C5
 10
60.588322
 20
-97.413666
 30
0.0
  0
ENDBLK
  8
0
  5
9C6
  0
BLOCK
  8
0
  5
9C7
  2
*D15
 70
    65
 10
0.0
 20
0.0
 30
0.0
  3
*D15
  0
LINE
  8
0
  6
BYBLOCK
 62
     0
  5
9C8
 10
106.377522
 20
-147.413666
 30
0.0
 11
40.880522
 21
-147.413666
 31
0.0
  0
LINE
  8
0
  6
BYBLOCK
 62
     0
  5
9C9
 10
73.234522
 20
-95.413666
 30
0.0
 11
40.880522
 21
-95.413666
 31
0.0
  0
LINE
  8
0
  6
BYBLOCK
 62
     0
  5
9CA
 10
41.880522
 20
-144.413666
 30
0.0
 11
41.880522
 21
-98.413666
 31
0.0
  0
INSERT
  8
0
  6
BYBLOCK
 62
     0
  5
9CB
  2
_OPEN
 10
41.880522
 20
-147.413666
 30
0.0
 41
3.0
 42
3.0
 50
270.0
 43
3.0
  0
INSERT
  8
0
  6
BYBLOCK
 62
     0
  5
9CC
  2
_OPEN
 10
41.880522
 20
-95.413666
 30
0.0
 41
3.0
 42
3.0
 50
90.0
 43
3.0
  0
TEXT
  8
0
  6
BYBLOCK
 62
     0
  5
9CD
 10
40.880522
 20
-123.913666
 30
0.0
 40
3.0
  1
52
 50
90.0
  0
POINT
  8
DEFPOINTS
  6
BYBLOCK
 62
     0
  5
9CE
 10
107.377522
 20
-147.413666
 30
0.0
  0
POINT
  8
DEFPOINTS
  6
BYBLOCK
 62
     0
  5
9CF
 10
74.234522
 20
-95.413666
 30
0.0
  0
POINT
  8
DEFPOINTS
  6
BYBLOCK
 62
     0
  5
9D0
 10
41.880522
 20
-95.413666
 30
0.0
  0
ENDBLK
  8
0
  5
9D1
  0
BLOCK
  8
0
  5
936
  2
*D16
 70
    65
 10
0.0
 20
0.0
 30
0.0
  3
*D16
  0
LINE
  8
0
  6
BYBLOCK
 62
     0
  5
937
 10
-145.524478
 20
114.086334
 30
0.0
 11
-145.524478
 21
130.490334
 31
0.0
  0
LINE
  8
0
  6
BYBLOCK
 62
     0
  5
938
 10
-137.024478
 20
114.086334
 30
0.0
 11
-137.024478
 21
130.490334
 31
0.0
  0
LINE
  8
0
  6
BYBLOCK
 62
     0
  5
939
 10
-142.524478
 20
129.490334
 30
0.0
 11
-140.024478
 21
129.490334
 31
0.0
  0
INSERT
  8
0
  6
BYBLOCK
 62
     0
  5
93A
  2
_OPEN
 10
-145.524478
 20
129.490334
 30
0.0
 41
3.0
 42
3.0
 50
180.0
 43
3.0
  0
INSERT
  8
0
  6
BYBLOCK
 62
     0
  5
93B
  2
_OPEN
 10
-137.024478
 20
129.490334
 30
0.0
 41
3.0
 42
3.0
 43
3.0
  0
TEXT
  8
0
  6
BYBLOCK
 62
     0
  5
93C
 10
-144.274478
 20
130.490334
 30
0.0
 40
3.0
  1
8.5
  0
POINT
  8
DEFPOINTS
  6
BYBLOCK
 62
     0
  5
93D
 10
-145.524478
 20
113.086334
 30
0.0
  0
POINT
  8
DEFPOINTS
  6
BYBLOCK
 62
     0
  5
93E
 10
-137.024478
 20
113.086334
 30
0.0
  0
POINT
  8
DEFPOINTS
  6
BYBLOCK
 62
     0
  5
93F
 10
-137.024478
 20
129.490334
 30
0.0
  0
ENDBLK
  8
0
  5
940
  0
BLOCK
  8
0
  5
99B
  2
*D17
 70
    65
 10
0.0
 20
0.0
 30
0.0
  3
*D17
  0
LINE
  8
0
  6
BYBLOCK
 62
     0
  5
99C
 10
99.125522
 20
-76.913686
 30
0.0
 11
133.587522
 21
-76.913686
 31
0.0
  0
LINE
  8
0
  6
BYBLOCK
 62
     0
  5
99D
 10
116.213522
 20
-91.413666
 30
0.0
 11
133.587522
 21
-91.413666
 31
0.0
  0
LINE
  8
0
  6
BYBLOCK
 62
     0
  5
99E
 10
132.587522
 20
-79.913686
 30
0.0
 11
132.587522
 21
-88.413666
 31
0.0
  0
INSERT
  8
0
  6
BYBLOCK
 62
     0
  5
99F
  2
_OPEN
 10
132.587522
 20
-76.913686
 30
0.0
 41
3.0
 42
3.0
 50
90.0
 43
3.0
  0
INSERT
  8
0
  6
BYBLOCK
 62
     0
  5
9A0
  2
_OPEN
 10
132.587522
 20
-91.413666
 30
0.0
 41
3.0
 42
3.0
 50
270.0
 43
3.0
  0
TEXT
  8
0
  6
BYBLOCK
 62
     0
  5
9A1
 10
131.587522
 20
-88.163676
 30
0.0
 40
3.0
  1
14.5
 50
90.0
  0
POINT
  8
DEFPOINTS
  6
BYBLOCK
 62
     0
  5
9A2
 10
98.125522
 20
-76.913686
 30
0.0
  0
POINT
  8
DEFPOINTS
  6
BYBLOCK
 62
     0
  5
9A3
 10
115.213522
 20
-91.413666
 30
0.0
  0
POINT
  8
DEFPOINTS
  6
BYBLOCK
 62
     0
  5
9A4
 10
132.587522
 20
-91.413666
 30
0.0
  0
ENDBLK
  8
0
  5
9A5
  0
BLOCK
  8
0
  5
9DD
  2
*D18
 70
    65
 10
0.0
 20
0.0
 30
0.0
  3
*D18
  0
LINE
  8
0
  6
BYBLOCK
 62
     0
  5
9DE
 10
89.825522
 20
-76.913686
 30
0.0
 11
59.588322
 21
-76.913686
 31
0.0
  0
LINE
  8
0
  6
BYBLOCK
 62
     0
  5
9DF
 10
73.288322
 20
-97.413666
 30
0.0
 11
59.588322
 21
-97.413666
 31
0.0
  0
LINE
  8
0
  6
BYBLOCK
 62
     0
  5
9E0
 10
60.588322
 20
-79.913686
 30
0.0
 11
60.588322
 21
-94.413666
 31
0.0
  0
INSERT
  8
0
  6
BYBLOCK
 62
     0
  5
9E1
  2
_OPEN
 10
60.588322
 20
-76.913686
 30
0.0
 41
3.0
 42
3.0
 50
90.0
 43
3.0
  0
INSERT
  8
0
  6
BYBLOCK
 62
     0
  5
9E2
  2
_OPEN
 10
60.588322
 20
-97.413666
 30
0.0
 41
3.0
 42
3.0
 50
270.0
 43
3.0
  0
TEXT
  8
0
  6
BYBLOCK
 62
     0
  5
9E3
 10
59.588322
 20
-91.413676
 30
0.0
 40
3.0
  1
20.5
 50
90.0
  0
POINT
  8
DEFPOINTS
  6
BYBLOCK
 62
     0
  5
9E4
 10
90.825522
 20
-76.913686
 30
0.0
  0
POINT
  8
DEFPOINTS
  6
BYBLOCK
 62
     0
  5
9E5
 10
74.288322
 20
-97.413666
 30
0.0
  0
POINT
  8
DEFPOINTS
  6
BYBLOCK
 62
     0
  5
9E6
 10
60.588322
 20
-97.413666
 30
0.0
  0
ENDBLK
  8
0
  5
9E7
  0
BLOCK
  8
0
  5
9D2
  2
*D19
 70
    65
 10
0.0
 20
0.0
 30
0.0
  3
*D19
  0
LINE
  8
0
  6
BYBLOCK
 62
     0
  5
9D3
 10
88.825522
 20
-76.913686
 30
0.0
 11
40.880522
 21
-76.913686
 31
0.0
  0
LINE
  8
0
  6
BYBLOCK
 62
     0
  5
9D4
 10
72.234522
 20
-95.413666
 30
0.0
 11
40.880522
 21
-95.413666
 31
0.0
  0
LINE
  8
0
  6
BYBLOCK
 62
     0
  5
9D5
 10
41.880522
 20
-79.913686
 30
0.0
 11
41.880522
 21
-92.413666
 31
0.0
  0
INSERT
  8
0
  6
BYBLOCK
 62
     0
  5
9D6
  2
_OPEN
 10
41.880522
 20
-76.913686
 30
0.0
 41
3.0
 42
3.0
 50
90.0
 43
3.0
  0
INSERT
  8
0
  6
BYBLOCK
 62
     0
  5
9D7
  2
_OPEN
 10
41.880522
 20
-95.413666
 30
0.0
 41
3.0
 42
3.0
 50
270.0
 43
3.0
  0
TEXT
  8
0
  6
BYBLOCK
 62
     0
  5
9D8
 10
40.880522
 20
-90.163676
 30
0.0
 40
3.0
  1
18.5
 50
90.0
  0
POINT
  8
DEFPOINTS
  6
BYBLOCK
 62
     0
  5
9D9
 10
89.825522
 20
-76.913686
 30
0.0
  0
POINT
  8
DEFPOINTS
  6
BYBLOCK
 62
     0
  5
9DA
 10
73.234522
 20
-95.413666
 30
0.0
  0
POINT
  8
DEFPOINTS
  6
BYBLOCK
 62
     0
  5
9DB
 10
41.880522
 20
-95.413666
 30
0.0
  0
ENDBLK
  8
0
  5
9DC
  0
BLOCK
  8
0
  5
A33
  2
*D20
 70
    65
 10
0.0
 20
0.0
 30
0.0
  3
*D20
  0
LINE
  8
0
  6
BYBLOCK
 62
     0
  5
A34
 10
83.325522
 20
44.286334
 30
0.0
 11
83.325522
 21
32.787444
 31
0.0
  0
LINE
  8
0
  6
BYBLOCK
 62
     0
  5
A35
 10
75.625522
 20
47.886334
 30
0.0
 11
75.625522
 21
32.787444
 31
0.0
  0
LINE
  8
0
  6
BYBLOCK
 62
     0
  5
A36
 10
86.325522
 20
33.787444
 30
0.0
 11
89.325522
 21
33.787444
 31
0.0
  0
LINE
  8
0
  6
BYBLOCK
 62
     0
  5
A37
 10
72.625522
 20
33.787444
 30
0.0
 11
61.625522
 21
33.787444
 31
0.0
  0
LINE
  8
0
  6
BYBLOCK
 62
     0
  5
A38
 10
83.325522
 20
33.787444
 30
0.0
 11
75.625522
 21
33.787444
 31
0.0
  0
INSERT
  8
0
  6
BYBLOCK
 62
     0
  5
A39
  2
_OPEN
 10
83.325522
 20
33.787444
 30
0.0
 41
3.0
 42
3.0
 50
180.0
 43
3.0
  0
INSERT
  8
0
  6
BYBLOCK
 62
     0
  5
A3A
  2
_OPEN
 10
75.625522
 20
33.787444
 30
0.0
 41
3.0
 42
3.0
 43
3.0
  0
TEXT
  8
0
  6
BYBLOCK
 62
     0
  5
A3B
 10
62.625522
 20
34.787444
 30
0.0
 40
3.0
  1
7.7
  0
POINT
  8
DEFPOINTS
  6
BYBLOCK
 62
     0
  5
A3C
 10
83.325522
 20
45.286334
 30
0.0
  0
POINT
  8
DEFPOINTS
  6
BYBLOCK
 62
     0
  5
A3D
 10
75.625522
 20
48.886334
 30
0.0
  0
POINT
  8
DEFPOINTS
  6
BYBLOCK
 62
     0
  5
A3E
 10
75.625522
 20
33.787444
 30
0.0
  0
ENDBLK
  8
0
  5
A3F
  0
ENDSEC
  0
SECTION
  2
ENTITIES
  0
LINE
  8
0A
  6
CONTINUOUS
 62
     7
  5
3B
 10
94.475522
 20
81.086334
 30
0.0
 11
94.475522
 21
76.086334
 31
0.0
  0
LINE
  8
0A
  6
CONTINUOUS
 62
     7
  5
3C
 10
91.975522
 20
78.586334
 30
0.0
 11
96.975522
 21
78.586334
 31
0.0
  0
LINE
  8
0B
  6
CONTINUOUS
 62
     6
  5
3D
 10
92.875522
 20
112.686334
 30
0.0
 11
92.875522
 21
123.086334
 31
0.0
  0
LINE
  8
0B
  6
CONTINUOUS
 62
     6
  5
3E
 10
72.975522
 20
108.286334
 30
0.0
 11
74.775522
 21
108.286334
 31
0.0
  0
LINE
  8
0B
  6
CONTINUOUS
 62
     6
  5
3F
 10
83.125522
 20
121.186334
 30
0.0
 11
90.825522
 21
121.186334
 31
0.0
  0
LINE
  8
0B
  6
CONTINUOUS
 62
     6
  5
40
 10
96.075522
 20
112.686334
 30
0.0
 11
96.075522
 21
123.086334
 31
0.0
  0
LINE
  8
0B
  6
CONTINUOUS
 62
     6
  5
41
 10
115.975522
 20
48.886334
 30
0.0
 11
114.175522
 21
48.886334
 31
0.0
  0
LINE
  8
0B
  6
CONTINUOUS
 62
     6
  5
42
 10
106.975522
 20
47.986334
 30
0.0
 11
111.475522
 21
47.986334
 31
0.0
  0
LINE
  8
0B
  6
CONTINUOUS
 62
     6
  5
43
 10
83.125522
 20
122.186334
 30
0.0
 11
83.125522
 21
121.186334
 31
0.0
  0
LINE
  8
0B
  6
CONTINUOUS
 62
     6
  5
44
 10
90.825522
 20
123.086334
 30
0.0
 11
90.825522
 21
121.186334
 31
0.0
  0
LINE
  8
0B
  6
CONTINUOUS
 62
     6
  5
45
 10
105.825522
 20
121.186334
 30
0.0
 11
98.125522
 21
121.186334
 31
0.0
  0
LINE
  8
0B
  6
CONTINUOUS
 62
     6
  5
46
 10
105.825522
 20
122.186334
 30
0.0
 11
105.825522
 21
121.186334
 31
0.0
  0
LINE
  8
0B
  6
CONTINUOUS
 62
     6
  5
47
 10
98.125522
 20
123.086334
 30
0.0
 11
98.125522
 21
121.186334
 31
0.0
  0
LINE
  8
0B
  6
CONTINUOUS
 62
     6
  5
48
 10
108.425522
 20
122.186334
 30
0.0
 11
105.825522
 21
122.186334
 31
0.0
  0
LINE
  8
0B
  6
CONTINUOUS
 62
     6
  5
49
 10
80.525522
 20
122.186334
 30
0.0
 11
83.125522
 21
122.186334
 31
0.0
  0
LINE
  8
0B
  6
CONTINUOUS
 62
     6
  5
4A
 10
96.075522
 20
112.686334
 30
0.0
 11
92.875522
 21
112.686334
 31
0.0
  0
LINE
  8
0B
  6
CONTINUOUS
 62
     6
  5
4B
 10
80.525522
 20
109.186334
 30
0.0
 11
77.475522
 21
109.186334
 31
0.0
  0
LINE
  8
0B
  6
CONTINUOUS
 62
     6
  5
4C
 10
80.525522
 20
109.186334
 30
0.0
 11
80.525522
 21
122.186334
 31
0.0
  0
LINE
  8
0B
  6
CONTINUOUS
 62
     6
  5
4D
 10
108.425522
 20
111.351734
 30
0.0
 11
108.425522
 21
122.186334
 31
0.0
  0
LINE
  8
0B
  6
CONTINUOUS
 62
     6
  5
4E
 10
83.325522
 20
45.286334
 30
0.0
 11
83.325522
 21
48.536334
 31
0.0
  0
LINE
  8
0B
  6
CONTINUOUS
 62
     6
  5
4F
 10
106.975522
 20
43.886334
 30
0.0
 11
106.975522
 21
47.986334
 31
0.0
  0
LINE
  8
0B
  6
CONTINUOUS
 62
     6
  5
50
 10
81.475522
 20
48.536334
 30
0.0
 11
83.325522
 21
48.536334
 31
0.0
  0
LINE
  8
0B
  6
CONTINUOUS
 62
     6
  5
51
 10
85.975522
 20
45.286334
 30
0.0
 11
85.975522
 21
43.886334
 31
0.0
  0
LINE
  8
0B
  6
CONTINUOUS
 62
     6
  5
52
 10
101.975322
 20
43.886334
 30
0.0
 11
101.975322
 21
43.086334
 31
0.0
  0
LINE
  8
0B
  6
CONTINUOUS
 62
     6
  5
53
 10
85.975522
 20
43.886334
 30
0.0
 11
86.975522
 21
43.886334
 31
0.0
  0
LINE
  8
0B
  6
CONTINUOUS
 62
     6
  5
54
 10
86.975522
 20
43.886334
 30
0.0
 11
86.975522
 21
43.086334
 31
0.0
  0
LINE
  8
0B
  6
CONTINUOUS
 62
     6
  5
55
 10
85.975522
 20
45.286334
 30
0.0
 11
83.325522
 21
45.286334
 31
0.0
  0
LINE
  8
0B
  6
CONTINUOUS
 62
     6
  5
56
 10
101.975322
 20
43.886334
 30
0.0
 11
106.975522
 21
43.886334
 31
0.0
  0
LINE
  8
0B
  6
CONTINUOUS
 62
     6
  5
57
 10
72.975522
 20
108.286334
 30
0.0
 11
72.975522
 21
47.468334
 31
0.0
  0
LINE
  8
0B
  6
CONTINUOUS
 62
     6
  5
58
 10
115.975522
 20
48.886334
 30
0.0
 11
115.975522
 21
109.704334
 31
0.0
  0
LINE
  8
0B
  6
CONTINUOUS
 62
     6
  5
59
 10
86.975522
 20
43.086334
 30
0.0
 11
101.975322
 21
43.086334
 31
0.0
  0
LINE
  8
0B
  6
CONTINUOUS
 62
     6
  5
5A
 10
90.825522
 20
123.086334
 30
0.0
 11
92.875522
 21
123.086334
 31
0.0
  0
LINE
  8
0B
  6
CONTINUOUS
 62
     6
  5
5B
 10
98.125522
 20
123.086334
 30
0.0
 11
96.075522
 21
123.086334
 31
0.0
  0
ARC
  8
0B
  6
CONTINUOUS
 62
     6
  5
5C
 10
77.475522
 20
104.686334
 30
0.0
 40
4.5
 50
90.0002
 51
126.87
  0
ARC
  8
0B
  6
CONTINUOUS
 62
     6
  5
5D
 10
111.475522
 20
52.486334
 30
0.0
 40
4.5
 50
270.0
 51
306.87
  0
ARC
  8
0B
  6
CONTINUOUS
 62
     6
  5
5E
 10
111.975522
 20
108.586334
 30
0.0
 40
4.5
 50
48.1896
 51
142.082
  0
ARC
  8
0B
  6
CONTINUOUS
 62
     6
  5
5F
 10
76.975522
 20
48.586334
 30
0.0
 40
4.5
 50
228.19
 51
359.363
  0
ARC
  8
0B
  6
CONTINUOUS
 62
     6
  5
60
 10
75.975522
 20
47.468334
 30
0.0
 40
3.0
 50
180.0
 51
228.19
  0
ARC
  8
0B
  6
CONTINUOUS
 62
     6
  5
61
 10
112.975522
 20
109.704334
 30
0.0
 40
3.0
 50
0.0
 51
48.1897
  0
LINE
  8
0C
  6
CONTINUOUS
 62
     3
  5
62
 10
85.625522
 20
109.186334
 30
0.0
 11
93.325522
 21
109.186334
 31
0.0
  0
LINE
  8
0C
  6
CONTINUOUS
 62
     3
  5
63
 10
84.475522
 20
91.086334
 30
0.0
 11
84.475522
 21
66.086334
 31
0.0
  0
LINE
  8
0C
  6
CONTINUOUS
 62
     3
  5
64
 10
89.475522
 20
91.086334
 30
0.0
 11
89.475522
 21
83.286334
 31
0.0
  0
LINE
  8
0C
  6
CONTINUOUS
 62
     3
  5
65
 10
92.225522
 20
83.286334
 30
0.0
 11
92.225522
 21
73.886334
 31
0.0
  0
LINE
  8
0C
  6
CONTINUOUS
 62
     3
  5
66
 10
87.725522
 20
73.886334
 30
0.0
 11
87.725522
 21
83.286334
 31
0.0
  0
LINE
  8
0C
  6
CONTINUOUS
 62
     3
  5
67
 10
75.625522
 20
108.286334
 30
0.0
 11
75.625522
 21
96.586334
 31
0.0
  0
LINE
  8
0C
  6
CONTINUOUS
 62
     3
  5
68
 10
85.625522
 20
110.286334
 30
0.0
 11
85.625522
 21
96.586334
 31
0.0
  0
LINE
  8
0C
  6
CONTINUOUS
 62
     3
  5
69
 10
83.325522
 20
110.286334
 30
0.0
 11
83.325522
 21
96.586334
 31
0.0
  0
LINE
  8
0C
  6
CONTINUOUS
 62
     3
  5
6A
 10
85.625522
 20
110.286334
 30
0.0
 11
83.325522
 21
110.286334
 31
0.0
  0
LINE
  8
0C
  6
CONTINUOUS
 62
     3
  5
6B
 10
95.625522
 20
110.286334
 30
0.0
 11
93.325522
 21
110.286334
 31
0.0
  0
LINE
  8
0C
  6
CONTINUOUS
 62
     3
  5
6C
 10
108.425522
 20
112.686334
 30
0.0
 11
96.075522
 21
112.686334
 31
0.0
  0
LINE
  8
0C
  6
CONTINUOUS
 62
     3
  5
6D
 10
83.325522
 20
109.186334
 30
0.0
 11
80.525522
 21
109.186334
 31
0.0
  0
LINE
  8
0C
  6
CONTINUOUS
 62
     3
  5
6E
 10
75.625522
 20
104.786334
 30
0.0
 11
83.325522
 21
104.786334
 31
0.0
  0
LINE
  8
0C
  6
CONTINUOUS
 62
     3
  5
6F
 10
85.625522
 20
104.786334
 30
0.0
 11
93.325522
 21
104.786334
 31
0.0
  0
LINE
  8
0C
  6
CONTINUOUS
 62
     3
  5
70
 10
104.475522
 20
83.286334
 30
0.0
 11
84.475522
 21
83.286334
 31
0.0
  0
LINE
  8
0C
  6
CONTINUOUS
 62
     3
  5
71
 10
103.325522
 20
109.186334
 30
0.0
 11
95.625522
 21
109.186334
 31
0.0
  0
LINE
  8
0C
  6
CONTINUOUS
 62
     3
  5
72
 10
104.475522
 20
91.086334
 30
0.0
 11
104.475522
 21
66.086334
 31
0.0
  0
LINE
  8
0C
  6
CONTINUOUS
 62
     3
  5
73
 10
99.475522
 20
91.086334
 30
0.0
 11
99.475522
 21
83.286334
 31
0.0
  0
LINE
  8
0C
  6
CONTINUOUS
 62
     3
  5
74
 10
95.625522
 20
110.286334
 30
0.0
 11
95.625522
 21
96.586334
 31
0.0
  0
LINE
  8
0C
  6
CONTINUOUS
 62
     3
  5
75
 10
103.325522
 20
110.286334
 30
0.0
 11
103.325522
 21
96.586334
 31
0.0
  0
LINE
  8
0C
  6
CONTINUOUS
 62
     3
  5
76
 10
103.325522
 20
110.286334
 30
0.0
 11
105.625322
 21
110.286334
 31
0.0
  0
LINE
  8
0C
  6
CONTINUOUS
 62
     3
  5
77
 10
105.625322
 20
109.186334
 30
0.0
 11
108.425522
 21
109.186334
 31
0.0
  0
LINE
  8
0C
  6
CONTINUOUS
 62
     3
  5
78
 10
113.325522
 20
108.286334
 30
0.0
 11
115.975522
 21
108.286334
 31
0.0
  0
LINE
  8
0C
  6
CONTINUOUS
 62
     3
  5
79
 10
113.325522
 20
104.786334
 30
0.0
 11
105.625322
 21
104.786334
 31
0.0
  0
LINE
  8
0C
  6
CONTINUOUS
 62
     3
  5
7A
 10
103.325522
 20
104.786334
 30
0.0
 11
95.625522
 21
104.786334
 31
0.0
  0
LINE
  8
0C
  6
CONTINUOUS
 62
     3
  5
7B
 10
93.325522
 20
60.586334
 30
0.0
 11
93.325522
 21
46.886334
 31
0.0
  0
LINE
  8
0C
  6
CONTINUOUS
 62
     3
  5
7C
 10
85.625522
 20
60.586334
 30
0.0
 11
85.625522
 21
46.886334
 31
0.0
  0
LINE
  8
0C
  6
CONTINUOUS
 62
     3
  5
7D
 10
75.625522
 20
48.886334
 30
0.0
 11
72.975522
 21
48.886334
 31
0.0
  0
LINE
  8
0C
  6
CONTINUOUS
 62
     3
  5
7E
 10
75.625522
 20
52.386334
 30
0.0
 11
83.325522
 21
52.386334
 31
0.0
  0
LINE
  8
0C
  6
CONTINUOUS
 62
     3
  5
7F
 10
85.625522
 20
52.386334
 30
0.0
 11
93.325522
 21
52.386334
 31
0.0
  0
LINE
  8
0C
  6
CONTINUOUS
 62
     3
  5
80
 10
103.325522
 20
52.386334
 30
0.0
 11
95.625522
 21
52.386334
 31
0.0
  0
LINE
  8
0C
  6
CONTINUOUS
 62
     3
  5
81
 10
113.325522
 20
52.386334
 30
0.0
 11
105.625322
 21
52.386334
 31
0.0
  0
LINE
  8
0C
  6
CONTINUOUS
 62
     3
  5
82
 10
103.325522
 20
46.886334
 30
0.0
 11
103.325522
 21
60.586334
 31
0.0
  0
LINE
  8
0C
  6
CONTINUOUS
 62
     3
  5
83
 10
95.625522
 20
46.886334
 30
0.0
 11
95.625522
 21
60.586334
 31
0.0
  0
LINE
  8
0C
  6
CONTINUOUS
 62
     3
  5
84
 10
113.325522
 20
48.886334
 30
0.0
 11
113.325522
 21
60.586334
 31
0.0
  0
LINE
  8
0C
  6
CONTINUOUS
 62
     3
  5
85
 10
84.475522
 20
66.086334
 30
0.0
 11
104.475522
 21
66.086334
 31
0.0
  0
LINE
  8
0C
  6
CONTINUOUS
 62
     3
  5
86
 10
80.525522
 20
104.786334
 30
0.0
 11
80.525522
 21
109.186334
 31
0.0
  0
LINE
  8
0C
  6
CONTINUOUS
 62
     3
  5
87
 10
108.425522
 20
104.786334
 30
0.0
 11
108.425522
 21
111.351734
 31
0.0
  0
LINE
  8
0C
  6
CONTINUOUS
 62
     3
  5
88
 10
104.475522
 20
91.086334
 30
0.0
 11
84.475522
 21
91.086334
 31
0.0
  0
LINE
  8
0C
  6
CONTINUOUS
 62
     3
  5
89
 10
93.325522
 20
110.286334
 30
0.0
 11
93.325522
 21
96.586334
 31
0.0
  0
LINE
  8
0C
  6
CONTINUOUS
 62
     3
  5
8A
 10
104.475522
 20
73.886334
 30
0.0
 11
84.475522
 21
73.886334
 31
0.0
  0
LINE
  8
0C
  6
CONTINUOUS
 62
     3
  5
8B
 10
101.225522
 20
73.886334
 30
0.0
 11
101.225522
 21
83.286334
 31
0.0
  0
LINE
  8
0C
  6
CONTINUOUS
 62
     3
  5
8C
 10
96.725322
 20
83.286334
 30
0.0
 11
96.725322
 21
73.886334
 31
0.0
  0
LINE
  8
0C
  6
CONTINUOUS
 62
     3
  5
8D
 10
115.975522
 20
60.586334
 30
0.0
 11
72.975522
 21
60.586334
 31
0.0
  0
LINE
  8
0C
  6
CONTINUOUS
 62
     3
  5
8E
 10
105.625322
 20
96.586334
 30
0.0
 11
105.625322
 21
110.286334
 31
0.0
  0
LINE
  8
0C
  6
CONTINUOUS
 62
     3
  5
8F
 10
105.625322
 20
60.586334
 30
0.0
 11
105.625322
 21
46.886334
 31
0.0
  0
LINE
  8
0C
  6
CONTINUOUS
 62
     3
  5
90
 10
113.325522
 20
108.286334
 30
0.0
 11
113.325522
 21
96.586334
 31
0.0
  0
LINE
  8
0C
  6
CONTINUOUS
 62
     3
  5
91
 10
115.975522
 20
96.586334
 30
0.0
 11
72.975522
 21
96.586334
 31
0.0
  0
LINE
  8
0C
  6
CONTINUOUS
 62
     3
  5
92
 10
74.775522
 20
108.286334
 30
0.0
 11
75.625522
 21
108.286334
 31
0.0
  0
LINE
  8
0C
  6
CONTINUOUS
 62
     3
  5
93
 10
92.875522
 20
112.686334
 30
0.0
 11
80.525522
 21
112.686334
 31
0.0
  0
LINE
  8
0C
  6
CONTINUOUS
 62
     3
  5
94
 10
98.125522
 20
121.186334
 30
0.0
 11
98.125522
 21
112.686334
 31
0.0
  0
LINE
  8
0C
  6
CONTINUOUS
 62
     3
  5
95
 10
105.825522
 20
121.186334
 30
0.0
 11
105.825522
 21
112.686334
 31
0.0
  0
LINE
  8
0C
  6
CONTINUOUS
 62
     3
  5
96
 10
90.825522
 20
121.186334
 30
0.0
 11
90.825522
 21
112.686334
 31
0.0
  0
LINE
  8
0C
  6
CONTINUOUS
 62
     3
  5
97
 10
83.125522
 20
121.186334
 30
0.0
 11
83.125522
 21
112.686334
 31
0.0
  0
LINE
  8
0C
  6
CONTINUOUS
 62
     3
  5
98
 10
83.325522
 20
46.886334
 30
0.0
 11
104.825522
 21
46.886334
 31
0.0
  0
LINE
  8
0C
  6
CONTINUOUS
 62
     3
  5
99
 10
114.175522
 20
48.886334
 30
0.0
 11
113.325522
 21
48.886334
 31
0.0
  0
LINE
  8
0C
  6
CONTINUOUS
 62
     3
  5
9A
 10
104.825522
 20
46.886334
 30
0.0
 11
105.625322
 21
46.886334
 31
0.0
  0
LINE
  8
0C
  6
CONTINUOUS
 62
     3
  5
9B
 10
75.625522
 20
48.886334
 30
0.0
 11
75.625522
 21
60.586334
 31
0.0
  0
LINE
  8
0C
  6
CONTINUOUS
 62
     3
  5
9C
 10
83.325522
 20
48.536334
 30
0.0
 11
83.325522
 21
60.586334
 31
0.0
  0
ARC
  8
0C
  6
CONTINUOUS
 62
     3
  5
9D
 10
76.975522
 20
48.586334
 30
0.0
 40
2.25
 50
233.13
 51
126.87
  0
ARC
  8
0C
  6
CONTINUOUS
 62
     3
  5
9E
 10
76.975522
 20
48.586334
 30
0.0
 40
2.25
 50
172.338
 51
233.13
  0
ARC
  8
0C
  6
CONTINUOUS
 62
     3
  5
9F
 10
77.475522
 20
104.586334
 30
0.0
 40
2.25002
 50
5.09957
 51
145.308
  0
ARC
  8
0C
  6
CONTINUOUS
 62
     3
  5
A0
 10
111.975522
 20
108.586334
 30
0.0
 40
2.25
 50
352.338
 51
306.87
  0
ARC
  8
0C
  6
CONTINUOUS
 62
     3
  5
A1
 10
111.475522
 20
52.586334
 30
0.0
 40
2.25002
 50
185.1
 51
325.308
  0
LINE
  8
0D
  6
CONTINUOUS
 62
     2
  5
A2
 10
81.596522
 20
97.964934
 30
0.0
 11
77.354522
 21
102.207534
 31
0.0
  0
LINE
  8
0D
  6
CONTINUOUS
 62
     2
  5
A3
 10
78.238522
 20
98.848934
 30
0.0
 11
80.712522
 21
101.323734
 31
0.0
  0
LINE
  8
0D
  6
CONTINUOUS
 62
     2
  5
A4
 10
88.239522
 20
98.848934
 30
0.0
 11
90.713322
 21
101.323734
 31
0.0
  0
LINE
  8
0D
  6
CONTINUOUS
 62
     2
  5
A5
 10
91.597522
 20
97.964934
 30
0.0
 11
87.355522
 21
102.207534
 31
0.0
  0
LINE
  8
0D
  6
CONTINUOUS
 62
     2
  5
A6
 10
98.239522
 20
98.848934
 30
0.0
 11
100.713522
 21
101.323734
 31
0.0
  0
LINE
  8
0D
  6
CONTINUOUS
 62
     2
  5
A7
 10
101.597522
 20
97.964934
 30
0.0
 11
97.355522
 21
102.207534
 31
0.0
  0
LINE
  8
0D
  6
CONTINUOUS
 62
     2
  5
A8
 10
85.739522
 20
115.848934
 30
0.0
 11
88.213522
 21
118.323734
 31
0.0
  0
LINE
  8
0D
  6
CONTINUOUS
 62
     2
  5
A9
 10
89.097522
 20
114.965134
 30
0.0
 11
84.855522
 21
119.207734
 31
0.0
  0
LINE
  8
0D
  6
CONTINUOUS
 62
     2
  5
AA
 10
100.739322
 20
115.848934
 30
0.0
 11
103.213522
 21
118.323734
 31
0.0
  0
LINE
  8
0D
  6
CONTINUOUS
 62
     2
  5
AB
 10
104.097322
 20
114.965134
 30
0.0
 11
99.855322
 21
119.207734
 31
0.0
  0
LINE
  8
0D
  6
CONTINUOUS
 62
     2
  5
AC
 10
78.238522
 20
55.848934
 30
0.0
 11
80.712522
 21
58.323734
 31
0.0
  0
LINE
  8
0D
  6
CONTINUOUS
 62
     2
  5
AD
 10
81.596522
 20
54.965134
 30
0.0
 11
77.354522
 21
59.207734
 31
0.0
  0
LINE
  8
0D
  6
CONTINUOUS
 62
     2
  5
AE
 10
88.239522
 20
55.848934
 30
0.0
 11
90.713322
 21
58.323734
 31
0.0
  0
LINE
  8
0D
  6
CONTINUOUS
 62
     2
  5
AF
 10
91.597522
 20
54.965134
 30
0.0
 11
87.355522
 21
59.207734
 31
0.0
  0
LINE
  8
0D
  6
CONTINUOUS
 62
     2
  5
B0
 10
98.239522
 20
55.848934
 30
0.0
 11
100.713522
 21
58.323734
 31
0.0
  0
LINE
  8
0D
  6
CONTINUOUS
 62
     2
  5
B1
 10
101.597522
 20
54.965134
 30
0.0
 11
97.355522
 21
59.207734
 31
0.0
  0
LINE
  8
0D
  6
CONTINUOUS
 62
     2
  5
B2
 10
108.239322
 20
55.848934
 30
0.0
 11
110.713322
 21
58.323734
 31
0.0
  0
LINE
  8
0D
  6
CONTINUOUS
 62
     2
  5
B3
 10
111.597322
 20
97.964934
 30
0.0
 11
107.355522
 21
102.207534
 31
0.0
  0
LINE
  8
0D
  6
CONTINUOUS
 62
     2
  5
B4
 10
108.239322
 20
98.848934
 30
0.0
 11
110.713322
 21
101.323734
 31
0.0
  0
LINE
  8
0D
  6
CONTINUOUS
 62
     2
  5
B5
 10
111.597322
 20
54.965134
 30
0.0
 11
107.355522
 21
59.207734
 31
0.0
  0
CIRCLE
  8
0D
  6
CONTINUOUS
 62
     2
  5
B6
 10
89.475522
 20
100.086334
 30
0.0
 40
3.0
  0
CIRCLE
  8
0D
  6
CONTINUOUS
 62
     2
  5
B7
 10
79.475522
 20
100.086334
 30
0.0
 40
3.0
  0
CIRCLE
  8
0D
  6
CONTINUOUS
 62
     2
  5
B8
 10
99.475522
 20
100.086334
 30
0.0
 40
3.0
  0
CIRCLE
  8
0D
  6
CONTINUOUS
 62
     2
  5
B9
 10
109.475522
 20
100.086334
 30
0.0
 40
3.0
  0
CIRCLE
  8
0D
  6
CONTINUOUS
 62
     2
  5
BA
 10
79.475522
 20
57.086334
 30
0.0
 40
3.0
  0
CIRCLE
  8
0D
  6
CONTINUOUS
 62
     2
  5
BB
 10
89.475522
 20
57.086334
 30
0.0
 40
3.0
  0
CIRCLE
  8
0D
  6
CONTINUOUS
 62
     2
  5
BC
 10
99.475522
 20
57.086334
 30
0.0
 40
3.0
  0
CIRCLE
  8
0D
  6
CONTINUOUS
 62
     2
  5
BD
 10
109.475522
 20
57.086334
 30
0.0
 40
3.0
  0
CIRCLE
  8
0D
  6
CONTINUOUS
 62
     2
  5
BE
 10
86.975522
 20
117.086334
 30
0.0
 40
3.0
  0
CIRCLE
  8
0D
  6
CONTINUOUS
 62
     2
  5
BF
 10
101.975322
 20
117.086334
 30
0.0
 40
3.0
  0
LINE
  8
10
  6
CENTER
 62
     6
  5
C0
 10
79.475522
 20
104.212734
 30
0.0
 11
79.475522
 21
95.902734
 31
0.0
  0
LINE
  8
10
  6
CENTER
 62
     6
  5
C1
 10
109.475522
 20
52.886334
 30
0.0
 11
109.475522
 21
61.343334
 31
0.0
  0
LINE
  8
10
  6
CENTER
 62
     6
  5
C2
 10
97.255322
 20
117.086334
 30
0.0
 11
106.741522
 21
117.086334
 31
0.0
  0
LINE
  8
10
  6
CENTER
 62
     6
  5
C3
 10
101.975322
 20
112.981534
 30
0.0
 11
101.975322
 21
120.997134
 31
0.0
  0
LINE
  8
10
  6
CENTER
 62
     6
  5
C4
 10
99.475522
 20
104.065534
 30
0.0
 11
99.475522
 21
95.976334
 31
0.0
  0
LINE
  8
10
  6
CENTER
 62
     6
  5
C5
 10
91.739522
 20
117.086334
 30
0.0
 11
82.326522
 21
117.086334
 31
0.0
  0
LINE
  8
10
  6
CENTER
 62
     6
  5
C6
 10
86.975522
 20
112.981534
 30
0.0
 11
86.975522
 21
120.997134
 31
0.0
  0
LINE
  8
10
  6
CENTER
 62
     6
  5
C7
 10
89.475522
 20
104.065534
 30
0.0
 11
89.475522
 21
95.902734
 31
0.0
  0
LINE
  8
10
  6
CENTER
 62
     6
  5
C8
 10
109.475522
 20
104.286334
 30
0.0
 11
109.475522
 21
95.829134
 31
0.0
  0
LINE
  8
10
  6
CENTER
 62
     6
  5
C9
 10
79.475522
 20
52.959934
 30
0.0
 11
79.475522
 21
61.269934
 31
0.0
  0
LINE
  8
10
  6
CENTER
 62
     6
  5
CA
 10
89.475522
 20
53.107134
 30
0.0
 11
89.475522
 21
61.269934
 31
0.0
  0
LINE
  8
10
  6
CENTER
 62
     6
  5
CB
 10
99.475522
 20
53.107134
 30
0.0
 11
99.475522
 21
61.196334
 31
0.0
  0
LINE
  8
10
  6
CENTER
 62
     6
  5
CC
 10
70.194522
 20
78.586334
 30
0.0
 11
118.677522
 21
78.586334
 31
0.0
  0
LINE
  8
10
  6
CENTER
 62
     6
  5
CD
 10
94.475522
 20
125.085534
 30
0.0
 11
94.475522
 21
40.451934
 31
0.0
  0
LINE
  8
10
  6
CENTER
 62
     6
  5
CE
 10
74.604522
 20
100.086334
 30
0.0
 11
114.609522
 21
100.086334
 31
0.0
  0
LINE
  8
10
  6
CENTER
 62
     6
  5
CF
 10
74.604522
 20
57.086334
 30
0.0
 11
114.609522
 21
57.086334
 31
0.0
  0
LINE
  8
14
  6
CONTINUOUS
 62
     7
  5
D0
 10
-145.524478
 20
81.086334
 30
0.0
 11
-145.524478
 21
76.086334
 31
0.0
  0
LINE
  8
14
  6
CONTINUOUS
 62
     7
  5
D1
 10
-148.024478
 20
78.586334
 30
0.0
 11
-143.024678
 21
78.586334
 31
0.0
  0
LINE
  8
15
  6
CONTINUOUS
 62
     6
  5
D2
 10
-44.806478
 20
109.286334
 30
0.0
 11
-43.074478
 21
106.286334
 31
0.0
  0
LINE
  8
15
  6
CONTINUOUS
 62
     6
  5
D3
 10
-44.806478
 20
47.886334
 30
0.0
 11
-43.074478
 21
50.886334
 31
0.0
  0
LINE
  8
15
  6
CONTINUOUS
 62
     6
  5
D4
 10
-140.524478
 20
96.286334
 30
0.0
 11
-141.524478
 21
96.286334
 31
0.0
  0
LINE
  8
15
  6
CONTINUOUS
 62
     6
  5
D5
 10
-87.024478
 20
120.986334
 30
0.0
 11
-87.024478
 21
109.186334
 31
0.0
  0
LINE
  8
15
  6
CONTINUOUS
 62
     6
  5
D6
 10
-81.824478
 20
123.086334
 30
0.0
 11
-81.824478
 21
120.986334
 31
0.0
  0
LINE
  8
15
  6
CONTINUOUS
 62
     6
  5
D7
 10
-87.024478
 20
120.986334
 30
0.0
 11
-81.824478
 21
120.986334
 31
0.0
  0
LINE
  8
15
  6
CONTINUOUS
 62
     6
  5
D8
 10
-64.774478
 20
112.686334
 30
0.0
 11
-62.374478
 21
110.286334
 31
0.0
  0
LINE
  8
15
  6
CONTINUOUS
 62
     6
  5
D9
 10
-43.074478
 20
96.586334
 30
0.0
 11
-42.617878
 21
96.586334
 31
0.0
  0
LINE
  8
15
  6
CONTINUOUS
 62
     6
  5
DA
 10
-42.617878
 20
60.586334
 30
0.0
 11
-43.074478
 21
60.586334
 31
0.0
  0
LINE
  8
15
  6
CONTINUOUS
 62
     6
  5
DB
 10
-41.174478
 20
63.086334
 30
0.0
 11
-41.174478
 21
66.086334
 31
0.0
  0
LINE
  8
15
  6
CONTINUOUS
 62
     6
  5
DC
 10
-41.174478
 20
94.086334
 30
0.0
 11
-42.617878
 21
96.586334
 31
0.0
  0
LINE
  8
15
  6
CONTINUOUS
 62
     6
  5
DD
 10
-41.174478
 20
63.086334
 30
0.0
 11
-42.617878
 21
60.586334
 31
0.0
  0
LINE
  8
15
  6
CONTINUOUS
 62
     6
  5
DE
 10
-64.774478
 20
123.086334
 30
0.0
 11
-64.774478
 21
112.686334
 31
0.0
  0
LINE
  8
15
  6
CONTINUOUS
 62
     6
  5
DF
 10
-140.756078
 20
60.886334
 30
0.0
 11
-140.724678
 21
60.886334
 31
0.0
  0
LINE
  8
15
  6
CONTINUOUS
 62
     6
  5
E0
 10
-145.224678
 20
93.786334
 30
0.0
 11
-143.975078
 21
93.786334
 31
0.0
  0
LINE
  8
15
  6
CONTINUOUS
 62
     6
  5
E1
 10
-141.524478
 20
95.086334
 30
0.0
 11
-142.275078
 21
93.786334
 31
0.0
  0
LINE
  8
15
  6
CONTINUOUS
 62
     6
  5
E2
 10
-145.524478
 20
93.786334
 30
0.0
 11
-142.275078
 21
93.786334
 31
0.0
  0
LINE
  8
15
  6
CONTINUOUS
 62
     6
  5
E3
 10
-43.074478
 20
106.286334
 30
0.0
 11
-43.074478
 21
96.586334
 31
0.0
  0
LINE
  8
15
  6
CONTINUOUS
 62
     6
  5
E4
 10
-62.374478
 20
110.286334
 30
0.0
 11
-46.538478
 21
110.286334
 31
0.0
  0
LINE
  8
15
  6
CONTINUOUS
 62
     6
  5
E5
 10
-41.174478
 20
66.086334
 30
0.0
 11
-35.524478
 21
66.086334
 31
0.0
  0
LINE
  8
15
  6
CONTINUOUS
 62
     6
  5
E6
 10
-87.024478
 20
109.186334
 30
0.0
 11
-137.024478
 21
109.186334
 31
0.0
  0
LINE
  8
15
  6
CONTINUOUS
 62
     6
  5
E7
 10
-142.524678
 20
62.586334
 30
0.0
 11
-141.524478
 21
62.586334
 31
0.0
  0
LINE
  8
15
  6
CONTINUOUS
 62
     6
  5
E8
 10
-145.524478
 20
113.086334
 30
0.0
 11
-137.024478
 21
113.086334
 31
0.0
  0
LINE
  8
15
  6
CONTINUOUS
 62
     6
  5
E9
 10
-81.824478
 20
123.086334
 30
0.0
 11
-64.774478
 21
123.086334
 31
0.0
  0
LINE
  8
15
  6
CONTINUOUS
 62
     6
  5
EA
 10
-35.524478
 20
66.086334
 30
0.0
 11
-35.524478
 21
91.086334
 31
0.0
  0
LINE
  8
15
  6
CONTINUOUS
 62
     6
  5
EB
 10
-145.524478
 20
43.086334
 30
0.0
 11
-145.524478
 21
60.886334
 31
0.0
  0
LINE
  8
15
  6
CONTINUOUS
 62
     6
  5
EC
 10
-141.524478
 20
95.086334
 30
0.0
 11
-141.524478
 21
96.286334
 31
0.0
  0
LINE
  8
15
  6
CONTINUOUS
 62
     6
  5
ED
 10
-140.524478
 20
60.886334
 30
0.0
 11
-140.524478
 21
96.286334
 31
0.0
  0
LINE
  8
15
  6
CONTINUOUS
 62
     6
  5
EE
 10
-141.524478
 20
60.886334
 30
0.0
 11
-141.524478
 21
62.586334
 31
0.0
  0
LINE
  8
15
  6
CONTINUOUS
 62
     6
  5
EF
 10
-142.524678
 20
62.586334
 30
0.0
 11
-145.524478
 21
60.886334
 31
0.0
  0
LINE
  8
15
  6
CONTINUOUS
 62
     6
  5
F0
 10
-141.524478
 20
60.886334
 30
0.0
 11
-140.524478
 21
60.886334
 31
0.0
  0
LINE
  8
15
  6
CONTINUOUS
 62
     6
  5
F1
 10
-43.074478
 20
59.795334
 30
0.0
 11
-43.074478
 21
50.886334
 31
0.0
  0
LINE
  8
15
  6
CONTINUOUS
 62
     6
  5
F2
 10
-43.074478
 20
60.586334
 30
0.0
 11
-43.074478
 21
59.795334
 31
0.0
  0
LINE
  8
15
  6
CONTINUOUS
 62
     6
  5
F3
 10
-41.174478
 20
91.086334
 30
0.0
 11
-41.174478
 21
94.086334
 31
0.0
  0
LINE
  8
15
  6
CONTINUOUS
 62
     6
  5
F4
 10
-85.574478
 20
48.536334
 30
0.0
 11
-85.574478
 21
43.886334
 31
0.0
  0
LINE
  8
15
  6
CONTINUOUS
 62
     6
  5
F5
 10
-137.024478
 20
48.536334
 30
0.0
 11
-85.574478
 21
48.536334
 31
0.0
  0
LINE
  8
15
  6
CONTINUOUS
 62
     6
  5
F6
 10
-85.574478
 20
43.886334
 30
0.0
 11
-68.074478
 21
43.886334
 31
0.0
  0
LINE
  8
15
  6
CONTINUOUS
 62
     6
  5
F7
 10
-68.074478
 20
45.286334
 30
0.0
 11
-68.074478
 21
43.886334
 31
0.0
  0
LINE
  8
15
  6
CONTINUOUS
 62
     6
  5
F8
 10
-137.024478
 20
43.086334
 30
0.0
 11
-145.524478
 21
43.086334
 31
0.0
  0
LINE
  8
15
  6
CONTINUOUS
 62
     6
  5
F9
 10
-137.024478
 20
43.086334
 30
0.0
 11
-137.024478
 21
48.536334
 31
0.0
  0
LINE
  8
15
  6
CONTINUOUS
 62
     6
  5
FA
 10
-68.074478
 20
45.286334
 30
0.0
 11
-67.274478
 21
45.286334
 31
0.0
  0
LINE
  8
15
  6
CONTINUOUS
 62
     6
  5
FB
 10
-66.474478
 20
46.886334
 30
0.0
 11
-46.538478
 21
46.886334
 31
0.0
  0
LINE
  8
15
  6
CONTINUOUS
 62
     6
  5
FC
 10
-137.024478
 20
113.086334
 30
0.0
 11
-137.024478
 21
109.186334
 31
0.0
  0
LINE
  8
15
  6
CONTINUOUS
 62
     6
  5
FD
 10
-145.524478
 20
113.086334
 30
0.0
 11
-145.524478
 21
93.786334
 31
0.0
  0
LINE
  8
15
  6
CONTINUOUS
 62
     6
  5
FE
 10
-35.524478
 20
91.086334
 30
0.0
 11
-41.174478
 21
91.086334
 31
0.0
  0
LINE
  8
15
  6
CONTINUOUS
 62
     6
  5
FF
 10
-66.474478
 20
46.086334
 30
0.0
 11
-66.474478
 21
46.886334
 31
0.0
  0
LINE
  8
15
  6
CONTINUOUS
 62
     6
  5
100
 10
-113.024478
 20
48.536334
 30
0.0
 11
-113.024478
 21
43.936334
 31
0.0
  0
LINE
  8
15
  6
CONTINUOUS
 62
     6
  5
101
 10
-107.024478
 20
43.936334
 30
0.0
 11
-107.024478
 21
48.536334
 31
0.0
  0
LINE
  8
15
  6
CONTINUOUS
 62
     6
  5
102
 10
-113.024478
 20
43.936334
 30
0.0
 11
-107.024478
 21
43.936334
 31
0.0
  0
ARC
  8
15
  6
CONTINUOUS
 62
     6
  5
103
 10
-46.538478
 20
108.286334
 30
0.0
 40
1.999998
 50
30.0
 51
90.0002
  0
ARC
  8
15
  6
CONTINUOUS
 62
     6
  5
104
 10
-46.538478
 20
48.886334
 30
0.0
 40
2.0
 50
270.0
 51
330.0
  0
ARC
  8
15
  6
CONTINUOUS
 62
     6
  5
105
 10
-67.274478
 20
46.086334
 30
0.0
 40
0.800004
 50
270.0
 51
0.079776
  0
LINE
  8
16
  6
CONTINUOUS
 62
     3
  5
106
 10
-137.024478
 20
97.586334
 30
0.0
 11
-81.524478
 21
97.586334
 31
0.0
  0
LINE
  8
16
  6
CONTINUOUS
 62
     3
  5
107
 10
-137.024478
 20
59.586334
 30
0.0
 11
-81.524478
 21
59.586334
 31
0.0
  0
LINE
  8
16
  6
CONTINUOUS
 62
     3
  5
108
 10
-60.774478
 20
76.086334
 30
0.0
 11
-60.774478
 21
81.086334
 31
0.0
  0
LINE
  8
16
  6
CONTINUOUS
 62
     3
  5
109
 10
-65.274478
 20
54.586334
 30
0.0
 11
-65.274478
 21
51.386334
 31
0.0
  0
LINE
  8
16
  6
CONTINUOUS
 62
     3
  5
10A
 10
-65.274478
 20
105.786334
 30
0.0
 11
-65.274478
 21
102.586334
 31
0.0
  0
LINE
  8
16
  6
CONTINUOUS
 62
     3
  5
10B
 10
-41.174478
 20
73.886334
 30
0.0
 11
-35.524478
 21
73.886334
 31
0.0
  0
LINE
  8
16
  6
CONTINUOUS
 62
     3
  5
10C
 10
-75.574478
 20
76.086334
 30
0.0
 11
-60.774478
 21
76.086334
 31
0.0
  0
LINE
  8
16
  6
CONTINUOUS
 62
     3
  5
10D
 10
-81.524478
 20
102.586334
 30
0.0
 11
-65.274478
 21
102.586334
 31
0.0
  0
LINE
  8
16
  6
CONTINUOUS
 62
     3
  5
10E
 10
-81.524478
 20
54.586334
 30
0.0
 11
-65.274478
 21
54.586334
 31
0.0
  0
LINE
  8
16
  6
CONTINUOUS
 62
     3
  5
10F
 10
-81.524478
 20
97.586334
 30
0.0
 11
-81.524478
 21
102.586334
 31
0.0
  0
LINE
  8
16
  6
CONTINUOUS
 62
     3
  5
110
 10
-84.074478
 20
91.936334
 30
0.0
 11
-140.524478
 21
91.936334
 31
0.0
  0
LINE
  8
16
  6
CONTINUOUS
 62
     3
  5
111
 10
-84.074478
 20
91.936334
 30
0.0
 11
-84.074478
 21
94.436334
 31
0.0
  0
LINE
  8
16
  6
CONTINUOUS
 62
     3
  5
112
 10
-84.074478
 20
94.436334
 30
0.0
 11
-140.524478
 21
94.436334
 31
0.0
  0
LINE
  8
16
  6
CONTINUOUS
 62
     3
  5
113
 10
-84.074478
 20
62.736334
 30
0.0
 11
-140.524478
 21
62.736334
 31
0.0
  0
LINE
  8
16
  6
CONTINUOUS
 62
     3
  5
114
 10
-84.074478
 20
65.236334
 30
0.0
 11
-140.524478
 21
65.236334
 31
0.0
  0
LINE
  8
16
  6
CONTINUOUS
 62
     3
  5
115
 10
-84.074478
 20
65.236334
 30
0.0
 11
-84.074478
 21
62.736334
 31
0.0
  0
LINE
  8
16
  6
CONTINUOUS
 62
     3
  5
116
 10
-75.574478
 20
81.086334
 30
0.0
 11
-60.774478
 21
81.086334
 31
0.0
  0
LINE
  8
16
  6
CONTINUOUS
 62
     3
  5
117
 10
-81.524478
 20
59.586334
 30
0.0
 11
-81.524478
 21
54.586334
 31
0.0
  0
LINE
  8
16
  6
CONTINUOUS
 62
     3
  5
118
 10
-80.074478
 20
91.511334
 30
0.0
 11
-78.074478
 21
91.511334
 31
0.0
  0
LINE
  8
16
  6
CONTINUOUS
 62
     3
  5
119
 10
-80.074478
 20
95.511334
 30
0.0
 11
-78.074478
 21
95.511334
 31
0.0
  0
LINE
  8
16
  6
CONTINUOUS
 62
     3
  5
11A
 10
-80.074478
 20
65.661334
 30
0.0
 11
-78.074478
 21
65.661334
 31
0.0
  0
LINE
  8
16
  6
CONTINUOUS
 62
     3
  5
11B
 10
-80.074478
 20
61.661334
 30
0.0
 11
-78.074478
 21
61.661334
 31
0.0
  0
LINE
  8
16
  6
CONTINUOUS
 62
     3
  5
11C
 10
-41.174478
 20
83.286334
 30
0.0
 11
-35.524478
 21
83.286334
 31
0.0
  0
LINE
  8
16
  6
CONTINUOUS
 62
     3
  5
11D
 10
-44.229078
 20
108.286334
 30
0.0
 11
-62.774478
 21
108.286334
 31
0.0
  0
LINE
  8
16
  6
CONTINUOUS
 62
     3
  5
11E
 10
-44.229078
 20
48.886334
 30
0.0
 11
-62.774478
 21
48.886334
 31
0.0
  0
LINE
  8
16
  6
CONTINUOUS
 62
     3
  5
11F
 10
-41.174478
 20
66.086334
 30
0.0
 11
-41.174478
 21
91.086334
 31
0.0
  0
LINE
  8
16
  6
CONTINUOUS
 62
     3
  5
120
 10
-137.024478
 20
48.536334
 30
0.0
 11
-137.024478
 21
59.586334
 31
0.0
  0
LINE
  8
16
  6
CONTINUOUS
 62
     3
  5
121
 10
-137.024478
 20
109.186334
 30
0.0
 11
-137.024478
 21
97.586334
 31
0.0
  0
LINE
  8
16
  6
CONTINUOUS
 62
     3
  5
122
 10
-78.074478
 20
95.511334
 30
0.0
 11
-78.074478
 21
91.511334
 31
0.0
  0
LINE
  8
16
  6
CONTINUOUS
 62
     3
  5
123
 10
-75.574478
 20
76.086334
 30
0.0
 11
-75.574478
 21
81.086334
 31
0.0
  0
LINE
  8
16
  6
CONTINUOUS
 62
     3
  5
124
 10
-78.074478
 20
61.661334
 30
0.0
 11
-78.074478
 21
65.661334
 31
0.0
  0
ARC
  8
16
  6
CONTINUOUS
 62
     3
  5
125
 10
-80.074478
 20
93.511334
 30
0.0
 40
2.0
 50
90.0002
 51
270.0
  0
ARC
  8
16
  6
CONTINUOUS
 62
     3
  5
126
 10
-80.074478
 20
63.661334
 30
0.0
 40
2.0
 50
90.0002
 51
270.0
  0
ARC
  8
16
  6
CONTINUOUS
 62
     3
  5
127
 10
-62.774478
 20
105.786334
 30
0.0
 40
2.5
 50
90.0002
 51
180.0
  0
ARC
  8
16
  6
CONTINUOUS
 62
     3
  5
128
 10
-62.774478
 20
51.386334
 30
0.0
 40
2.5
 50
180.0
 51
270.0
  0
LINE
  8
17
  6
HIDDEN
 62
     2
  5
129
 10
-54.524478
 20
103.286334
 30
0.0
 11
-54.524478
 21
95.232534
 31
0.0
  0
LINE
  8
17
  6
HIDDEN
 62
     2
  5
12A
 10
-55.524478
 20
103.286334
 30
0.0
 11
-55.524478
 21
95.160734
 31
0.0
  0
LINE
  8
17
  6
HIDDEN
 62
     2
  5
12B
 10
-58.524478
 20
103.786334
 30
0.0
 11
-56.024478
 21
103.786334
 31
0.0
  0
LINE
  8
17
  6
HIDDEN
 62
     2
  5
12C
 10
-58.524478
 20
104.786334
 30
0.0
 11
-56.024478
 21
104.786334
 31
0.0
  0
LINE
  8
17
  6
HIDDEN
 62
     2
  5
12D
 10
-58.524478
 20
104.786334
 30
0.0
 11
-58.524478
 21
103.786334
 31
0.0
  0
LINE
  8
17
  6
HIDDEN
 62
     2
  5
12E
 10
-155.524478
 20
66.086334
 30
0.0
 11
-141.524478
 21
66.086334
 31
0.0
  0
LINE
  8
17
  6
HIDDEN
 62
     2
  5
12F
 10
-154.524478
 20
67.086334
 30
0.0
 11
-140.524478
 21
67.086334
 31
0.0
  0
LINE
  8
17
  6
HIDDEN
 62
     2
  5
130
 10
-141.524478
 20
61.086334
 30
0.0
 11
-140.524478
 21
61.086334
 31
0.0
  0
LINE
  8
17
  6
HIDDEN
 62
     2
  5
131
 10
-141.524478
 20
61.086334
 30
0.0
 11
-141.524478
 21
66.086334
 31
0.0
  0
LINE
  8
17
  6
HIDDEN
 62
     2
  5
132
 10
-140.524478
 20
61.086334
 30
0.0
 11
-140.524478
 21
67.086334
 31
0.0
  0
LINE
  8
17
  6
HIDDEN
 62
     2
  5
133
 10
-140.524478
 20
96.086334
 30
0.0
 11
-140.524478
 21
90.086334
 31
0.0
  0
LINE
  8
17
  6
HIDDEN
 62
     2
  5
134
 10
-155.524478
 20
91.086334
 30
0.0
 11
-141.524478
 21
91.086334
 31
0.0
  0
LINE
  8
17
  6
HIDDEN
 62
     2
  5
135
 10
-141.524478
 20
96.086334
 30
0.0
 11
-141.524478
 21
91.086334
 31
0.0
  0
LINE
  8
17
  6
HIDDEN
 62
     2
  5
136
 10
-154.524478
 20
90.086334
 30
0.0
 11
-140.524478
 21
90.086334
 31
0.0
  0
LINE
  8
17
  6
HIDDEN
 62
     2
  5
137
 10
-141.524478
 20
96.086334
 30
0.0
 11
-140.524478
 21
96.086334
 31
0.0
  0
LINE
  8
17
  6
HIDDEN
 62
     2
  5
138
 10
-11.224568
 20
81.086334
 30
0.0
 11
-7.524558
 21
81.086334
 31
0.0
  0
LINE
  8
17
  6
HIDDEN
 62
     2
  5
139
 10
-7.524558
 20
76.086334
 30
0.0
 11
-7.524558
 21
81.086334
 31
0.0
  0
LINE
  8
17
  6
HIDDEN
 62
     2
  5
13A
 10
-11.224568
 20
76.086334
 30
0.0
 11
-7.524558
 21
76.086334
 31
0.0
  0
LINE
  8
17
  6
HIDDEN
 62
     2
  5
13B
 10
-40.524478
 20
60.836334
 30
0.0
 11
-32.524478
 21
60.836334
 31
0.0
  0
LINE
  8
17
  6
HIDDEN
 62
     2
  5
13C
 10
-12.82457
 20
58.836334
 30
0.0
 11
-12.82457
 21
69.086334
 31
0.0
  0
LINE
  8
17
  6
HIDDEN
 62
     2
  5
13D
 10
-29.060358
 20
54.836334
 30
0.0
 11
-16.288558
 21
54.836334
 31
0.0
  0
LINE
  8
17
  6
HIDDEN
 62
     2
  5
13E
 10
-12.82457
 20
69.086334
 30
0.0
 11
-11.224568
 21
69.086334
 31
0.0
  0
LINE
  8
17
  6
HIDDEN
 62
     2
  5
13F
 10
-32.524478
 20
58.836334
 30
0.0
 11
-30.792358
 21
55.836334
 31
0.0
  0
LINE
  8
17
  6
HIDDEN
 62
     2
  5
140
 10
-12.82457
 20
58.836334
 30
0.0
 11
-14.556558
 21
55.836334
 31
0.0
  0
LINE
  8
17
  6
HIDDEN
 62
     2
  5
141
 10
-32.524478
 20
98.336334
 30
0.0
 11
-30.792358
 21
101.336334
 31
0.0
  0
LINE
  8
17
  6
HIDDEN
 62
     2
  5
142
 10
-12.824566
 20
98.336334
 30
0.0
 11
-14.556558
 21
101.336334
 31
0.0
  0
LINE
  8
17
  6
HIDDEN
 62
     2
  5
143
 10
-32.524478
 20
98.336334
 30
0.0
 11
-32.524478
 21
96.336334
 31
0.0
  0
LINE
  8
17
  6
HIDDEN
 62
     2
  5
144
 10
-12.82457
 20
98.336334
 30
0.0
 11
-12.82457
 21
88.086334
 31
0.0
  0
LINE
  8
17
  6
HIDDEN
 62
     2
  5
145
 10
-12.82457
 20
88.086334
 30
0.0
 11
-11.224568
 21
88.086334
 31
0.0
  0
LINE
  8
17
  6
HIDDEN
 62
     2
  5
146
 10
-29.060358
 20
102.336334
 30
0.0
 11
-16.288558
 21
102.336334
 31
0.0
  0
LINE
  8
17
  6
HIDDEN
 62
     2
  5
147
 10
-11.224568
 20
88.086334
 30
0.0
 11
-11.224568
 21
81.086334
 31
0.0
  0
LINE
  8
17
  6
HIDDEN
 62
     2
  5
148
 10
-11.224568
 20
76.086334
 30
0.0
 11
-11.224568
 21
69.086334
 31
0.0
  0
LINE
  8
17
  6
HIDDEN
 62
     2
  5
149
 10
-40.524478
 20
96.336334
 30
0.0
 11
-32.524478
 21
96.336334
 31
0.0
  0
LINE
  8
17
  6
HIDDEN
 62
     2
  5
14A
 10
-32.524478
 20
58.836334
 30
0.0
 11
-32.524478
 21
60.836334
 31
0.0
  0
ARC
  8
17
  6
HIDDEN
 62
     2
  5
14B
 10
-56.024478
 20
103.286334
 30
0.0
 40
1.5
 50
0.0
 51
90.0002
  0
ARC
  8
17
  6
HIDDEN
 62
     2
  5
14C
 10
-56.024478
 20
103.286334
 30
0.0
 40
0.5
 50
0.0
 51
90.0002
  0
ARC
  8
17
  6
HIDDEN
 62
     2
  5
14D
 10
-16.288558
 20
56.836334
 30
0.0
 40
2.00004
 50
270.0
 51
330.001
  0
ARC
  8
17
  6
HIDDEN
 62
     2
  5
14E
 10
-29.060358
 20
56.836334
 30
0.0
 40
2.0
 50
210.0
 51
270.0
  0
ARC
  8
17
  6
HIDDEN
 62
     2
  5
14F
 10
-16.288558
 20
100.336334
 30
0.0
 40
2.00004
 50
29.9993
 51
90.0002
  0
ARC
  8
17
  6
HIDDEN
 62
     2
  5
150
 10
-29.060358
 20
100.336334
 30
0.0
 40
2.0
 50
90.0002
 51
150.0
  0
LINE
  8
1A
  6
HIDDEN
 62
     2
  5
151
 10
-155.524478
 20
91.086334
 30
0.0
 11
-155.524478
 21
66.086334
 31
0.0
  0
LINE
  8
1A
  6
HIDDEN
 62
     2
  5
152
 10
-154.524478
 20
90.086334
 30
0.0
 11
-154.524478
 21
67.086334
 31
0.0
  0
LINE
  8
1A
  6
CENTER
 62
     6
  5
153
 10
-58.994278
 20
100.086334
 30
0.0
 11
-51.315478
 21
100.086334
 31
0.0
  0
LINE
  8
1A
  6
CENTER
 62
     6
  5
154
 10
-158.441078
 20
78.586334
 30
0.0
 11
-5.133558
 21
78.586334
 31
0.0
  0
LINE
  8
32
  6
CONTINUOUS
 62
     7
  5
155
 10
94.475522
 20
-118.913666
 30
0.0
 11
94.475522
 21
-123.913666
 31
0.0
  0
LINE
  8
32
  6
CONTINUOUS
 62
     7
  5
156
 10
91.975522
 20
-121.413666
 30
0.0
 11
96.975522
 21
-121.413666
 31
0.0
  0
CIRCLE
  8
33
  6
CONTINUOUS
 62
     6
  5
157
 10
77.475522
 20
-95.413666
 30
0.0
 40
2.25
  0
CIRCLE
  8
33
  6
CONTINUOUS
 62
     6
  5
158
 10
111.475522
 20
-147.413666
 30
0.0
 40
2.25
  0
CIRCLE
  8
33
  6
CONTINUOUS
 62
     6
  5
159
 10
79.475522
 20
-97.413666
 30
0.0
 40
2.25
  0
CIRCLE
  8
33
  6
CONTINUOUS
 62
     6
  5
15A
 10
109.475522
 20
-145.413666
 30
0.0
 40
2.25
  0
CIRCLE
  8
33
  6
CONTINUOUS
 62
     6
  5
15B
 10
111.975522
 20
-91.413666
 30
0.0
 40
2.25
  0
CIRCLE
  8
33
  6
CONTINUOUS
 62
     6
  5
15C
 10
76.975522
 20
-151.413666
 30
0.0
 40
2.25
  0
LINE
  8
34
  6
CONTINUOUS
 62
     3
  5
15D
 10
90.825522
 20
-76.913686
 30
0.0
 11
90.825522
 21
-77.813686
 31
0.0
  0
LINE
  8
34
  6
CONTINUOUS
 62
     3
  5
15E
 10
72.975522
 20
-156.913666
 30
0.0
 11
77.975522
 21
-156.913666
 31
0.0
  0
LINE
  8
34
  6
CONTINUOUS
 62
     3
  5
15F
 10
108.425522
 20
-86.913686
 30
0.0
 11
108.425522
 21
-77.813686
 31
0.0
  0
LINE
  8
34
  6
CONTINUOUS
 62
     3
  5
160
 10
80.525522
 20
-90.813666
 30
0.0
 11
80.525522
 21
-77.813686
 31
0.0
  0
LINE
  8
34
  6
CONTINUOUS
 62
     3
  5
161
 10
80.525522
 20
-90.813666
 30
0.0
 11
72.975522
 21
-90.813666
 31
0.0
  0
LINE
  8
34
  6
CONTINUOUS
 62
     3
  5
162
 10
80.525522
 20
-77.813686
 30
0.0
 11
90.825522
 21
-77.813686
 31
0.0
  0
LINE
  8
34
  6
CONTINUOUS
 62
     3
  5
163
 10
108.425522
 20
-77.813686
 30
0.0
 11
98.125522
 21
-77.813686
 31
0.0
  0
LINE
  8
34
  6
CONTINUOUS
 62
     3
  5
164
 10
98.125522
 20
-76.913686
 30
0.0
 11
98.125522
 21
-77.813686
 31
0.0
  0
LINE
  8
34
  6
CONTINUOUS
 62
     3
  5
165
 10
106.975522
 20
-152.013666
 30
0.0
 11
115.975522
 21
-152.013666
 31
0.0
  0
LINE
  8
34
  6
CONTINUOUS
 62
     3
  5
166
 10
115.975522
 20
-86.913686
 30
0.0
 11
108.425522
 21
-86.913686
 31
0.0
  0
LINE
  8
34
  6
CONTINUOUS
 62
     3
  5
167
 10
90.825522
 20
-76.913686
 30
0.0
 11
97.955522
 21
-76.913686
 31
0.0
  0
LINE
  8
34
  6
CONTINUOUS
 62
     3
  5
168
 10
115.975522
 20
-86.913686
 30
0.0
 11
115.975522
 21
-91.913666
 31
0.0
  0
LINE
  8
34
  6
CONTINUOUS
 62
     3
  5
169
 10
72.975522
 20
-90.813666
 30
0.0
 11
72.975522
 21
-95.813666
 31
0.0
  0
LINE
  8
34
  6
CONTINUOUS
 62
     3
  5
16A
 10
115.975522
 20
-152.013666
 30
0.0
 11
115.975522
 21
-147.013666
 31
0.0
  0
LINE
  8
34
  6
CONTINUOUS
 62
     3
  5
16B
 10
72.975522
 20
-156.913666
 30
0.0
 11
72.975522
 21
-151.113666
 31
0.0
  0
LINE
  8
34
  6
CONTINUOUS
 62
     3
  5
16C
 10
106.975522
 20
-156.913666
 30
0.0
 11
106.975522
 21
-152.013666
 31
0.0
  0
LINE
  8
34
  6
CONTINUOUS
 62
     3
  5
16D
 10
101.975322
 20
-156.913666
 30
0.0
 11
106.975522
 21
-156.913666
 31
0.0
  0
LINE
  8
38
  6
CENTER
 62
     6
  5
16E
 10
77.475522
 20
-92.157666
 30
0.0
 11
77.475522
 21
-99.798666
 31
0.0
  0
LINE
  8
38
  6
CENTER
 62
     6
  5
16F
 10
111.475522
 20
-150.669666
 30
0.0
 11
111.475522
 21
-143.029666
 31
0.0
  0
LINE
  8
38
  6
CENTER
 62
     6
  5
170
 10
79.475522
 20
-93.249666
 30
0.0
 11
79.475522
 21
-101.040666
 31
0.0
  0
LINE
  8
38
  6
CENTER
 62
     6
  5
171
 10
109.475522
 20
-149.577666
 30
0.0
 11
109.475522
 21
-141.787666
 31
0.0
  0
LINE
  8
38
  6
CENTER
 62
     6
  5
172
 10
76.975522
 20
-154.919666
 30
0.0
 11
76.975522
 21
-147.927666
 31
0.0
  0
LINE
  8
38
  6
CENTER
 62
     6
  5
173
 10
111.975522
 20
-87.908686
 30
0.0
 11
111.975522
 21
-94.900666
 31
0.0
  0
LINE
  8
38
  6
CENTER
 62
     6
  5
174
 10
74.234522
 20
-95.413666
 30
0.0
 11
81.574522
 21
-95.413666
 31
0.0
  0
LINE
  8
38
  6
CENTER
 62
     6
  5
175
 10
114.717522
 20
-147.413666
 30
0.0
 11
107.377522
 21
-147.413666
 31
0.0
  0
LINE
  8
38
  6
CENTER
 62
     6
  5
176
 10
75.288322
 20
-97.413666
 30
0.0
 11
82.816522
 21
-97.413666
 31
0.0
  0
LINE
  8
38
  6
CENTER
 62
     6
  5
177
 10
113.663322
 20
-145.413666
 30
0.0
 11
106.135522
 21
-145.413666
 31
0.0
  0
LINE
  8
38
  6
CENTER
 62
     6
  5
178
 10
80.170322
 20
-151.413666
 30
0.0
 11
73.738522
 21
-151.413666
 31
0.0
  0
LINE
  8
38
  6
CENTER
 62
     6
  5
179
 10
94.475522
 20
-74.914666
 30
0.0
 11
94.475522
 21
-159.547666
 31
0.0
  0
LINE
  8
38
  6
CENTER
 62
     6
  5
17A
 10
69.974522
 20
-121.413666
 30
0.0
 11
118.735322
 21
-121.413666
 31
0.0
  0
LINE
  8
38
  6
CENTER
 62
     6
  5
17B
 10
108.781522
 20
-91.413666
 30
0.0
 11
115.213522
 21
-91.413666
 31
0.0
  0
LINE
  8
FF
  6
CONTINUOUS
 62
     4
  5
1A9
 10
-35.524478
 20
169.732734
 30
0.0
 11
-75.524478
 21
169.732734
 31
0.0
  0
LINE
  8
FF
  6
CONTINUOUS
 62
     4
  5
1BC
 10
132.587522
 20
-91.413666
 30
0.0
 11
132.587522
 21
-84.163686
 31
0.0
  0
LINE
  8
FF
  6
CONTINUOUS
 62
     4
  5
1BD
 10
79.475522
 20
100.086334
 30
0.0
 11
63.343522
 21
120.250734
 31
0.0
  0
LINE
  8
FF
  6
CONTINUOUS
 62
     4
  5
1BE
 10
89.475522
 20
100.086334
 30
0.0
 11
63.343522
 21
120.250734
 31
0.0
  0
LINE
  8
FF
  6
CONTINUOUS
 62
     4
  5
1BF
 10
99.475522
 20
100.086334
 30
0.0
 11
63.343522
 21
120.250734
 31
0.0
  0
LINE
  8
FF
  6
CONTINUOUS
 62
     4
  5
1C1
 10
112.341122
 20
-148.659866
 30
0.0
 11
118.715322
 21
-161.758066
 31
0.0
  0
POLYLINE
  8
FF
 62
     4
  5
1CA
 66
     1
 10
0.0
 20
0.0
 30
0.0
  0
VERTEX
  8
FF
 62
     4
  5
AD7
 10
-54.524478
 20
103.152934
 30
0.0
  0
VERTEX
  8
FF
 62
     4
  5
AD8
 10
-54.524478
 20
104.952934
 30
0.0
  0
VERTEX
  8
FF
 62
     4
  5
AD9
 10
-54.524478
 20
159.636734
 30
0.0
  0
SEQEND
  8
FF
 62
     4
  5
ADA
  0
POLYLINE
  8
FF
 62
     4
  5
21A
 66
     1
 10
0.0
 20
0.0
 30
0.0
  0
VERTEX
  8
FF
 62
     4
  5
ADB
 10
-35.524478
 20
90.952934
 30
0.0
  0
VERTEX
  8
FF
 62
     4
  5
ADC
 10
-35.524478
 20
92.752934
 30
0.0
  0
VERTEX
  8
FF
 62
     4
  5
ADD
 10
-35.524478
 20
185.920734
 30
0.0
  0
SEQEND
  8
FF
 62
     4
  5
ADE
  0
POLYLINE
  8
FF
 62
     4
  5
224
 66
     1
 10
0.0
 20
0.0
 30
0.0
  0
VERTEX
  8
FF
 62
     4
  5
ADF
 10
-35.524478
 20
90.952934
 30
0.0
  0
VERTEX
  8
FF
 62
     4
  5
AE0
 10
-35.524478
 20
92.752934
 30
0.0
  0
VERTEX
  8
FF
 62
     4
  5
AE1
 10
-35.524478
 20
172.168734
 30
0.0
  0
SEQEND
  8
FF
 62
     4
  5
AE2
  0
POLYLINE
  8
FF
 62
     4
  5
229
 66
     1
 10
0.0
 20
0.0
 30
0.0
  0
VERTEX
  8
FF
 62
     4
  5
AE3
 10
-35.524478
 20
90.952934
 30
0.0
  0
VERTEX
  8
FF
 62
     4
  5
AE4
 10
-35.524478
 20
92.752934
 30
0.0
  0
VERTEX
  8
FF
 62
     4
  5
AE5
 10
-35.524478
 20
172.168734
 30
0.0
  0
SEQEND
  8
FF
 62
     4
  5
AE6
  0
TEXT
  8
FF
  6
CONTINUOUS
 62
     4
  5
2A2
 10
119.665522
 20
-163.437666
 30
0.0
 40
3.0
  1
2-M4
 41
1.21
  0
TEXT
  8
FF
  6
CONTINUOUS
 62
     4
  5
2A3
 10
49.084122
 20
119.754534
 30
0.0
 40
3.0
  1
M3.5
 41
1.09542
  0
LINE
  8
FF
  6
CONTINUOUS
 62
     4
  5
2C8
 10
-35.524478
 20
183.482734
 30
0.0
 11
-38.524478
 21
183.482734
 31
0.0
  0
LINE
  8
FF
  6
CONTINUOUS
 62
     4
  5
2CC
 10
-35.524478
 20
169.732734
 30
0.0
 11
-38.524478
 21
169.732734
 31
0.0
  0
DIMENSION
  8
FF
  6
CONTINUOUS
  5
306
  2
*D1
 10
-35.524478
 20
183.391229
 30
0.0
 11
-95.524478
 21
185.891229
 31
0.0
  1
117
 13
-155.524478
 23
91.086334
 33
0.0
 14
-35.524478
 24
90.952934
 34
0.0
  3
FSTD1
  0
DIMENSION
  8
FF
  6
CONTINUOUS
  5
31E
  2
*D2
 10
-35.524478
 20
169.732734
 30
0.0
 11
-90.524478
 21
172.232734
 31
0.0
  1
107
 13
-145.524478
 23
113.086334
 33
0.0
 14
-35.524478
 24
90.952934
 34
0.0
  3
FSTD1
  0
DIMENSION
  8
FF
  6
CONTINUOUS
  5
32B
  2
*D3
 10
-54.524478
 20
157.198734
 30
0.0
 11
-100.024478
 21
159.698734
 31
0.0
  1
88
 13
-145.524478
 23
113.086334
 33
0.0
 14
-54.524478
 24
103.286334
 34
0.0
  3
FSTD1
  0
DIMENSION
  8
FF
  6
CONTINUOUS
  5
33A
  2
*D16
 10
-137.024478
 20
129.490334
 30
0.0
 11
-141.274478
 21
131.990334
 31
0.0
  1
8.5
 13
-145.524478
 23
113.086334
 33
0.0
 14
-137.024478
 24
113.086334
 34
0.0
  3
FSTD2
  0
DIMENSION
  8
FF
  6
CONTINUOUS
  5
354
  2
*D4
 10
-7.524558
 20
169.80936
 30
0.0
 11
-21.524518
 21
172.30936
 31
0.0
  1
28
 13
-35.524478
 23
90.952934
 33
0.0
 14
-7.524558
 24
81.086334
 34
0.0
  3
FSTD1
  0
DIMENSION
  8
FF
  6
CONTINUOUS
  5
36F
  2
*D5
 10
115.975522
 20
148.652734
 30
0.0
 11
94.475522
 21
151.152734
 31
0.0
  1
43
 13
72.975522
 23
108.286334
 33
0.0
 14
115.975522
 24
109.704334
 34
0.0
  3
FSTD1
  0
DIMENSION
  8
FF
  6
CONTINUOUS
  5
37C
  2
*D6
 10
125.843322
 20
100.086334
 30
0.0
 11
123.343322
 21
111.586334
 31
0.0
  1
23
 13
98.125522
 23
123.086334
 33
0.0
 14
114.609522
 24
100.086334
 34
0.0
 50
90.0
  3
FSTD1
  0
DIMENSION
  8
FF
  6
CONTINUOUS
  5
389
  2
*D7
 10
125.843322
 20
57.086334
 30
0.0
 11
123.343322
 21
78.586334
 31
0.0
  1
43
 13
115.609522
 23
100.086334
 33
0.0
 14
114.609522
 24
57.086334
 34
0.0
 50
90.0
  3
FSTD1
  0
DIMENSION
  8
FF
  6
CONTINUOUS
  5
396
  2
*D8
 10
142.039322
 20
43.086334
 30
0.0
 11
139.539322
 21
83.086334
 31
0.0
  1
81
 13
99.125522
 23
123.086334
 33
0.0
 14
101.975322
 24
43.086334
 34
0.0
 50
90.0
  3
FSTD1
  0
DIMENSION
  8
FF
  6
CONTINUOUS
  5
3B4
  2
*D9
 10
99.475522
 20
21.634134
 30
0.0
 11
94.475522
 21
24.134134
 31
0.0
  1
10
 13
89.475522
 23
53.107134
 33
0.0
 14
99.475522
 24
53.107134
 34
0.0
  3
FSTD1
  0
DIMENSION
  8
FF
  6
CONTINUOUS
  5
3CE
  2
*D10
 10
111.975522
 20
-180.491666
 30
0.0
 11
94.475522
 21
-177.991666
 31
0.0
  1
35
 13
76.975522
 23
-154.919666
 33
0.0
 14
111.975522
 24
-94.900666
 34
0.0
  3
FSTD1
  0
DIMENSION
  8
FF
  6
CONTINUOUS
  5
3DB
  2
*D11
 10
132.587522
 20
-91.413666
 30
0.0
 11
130.087522
 21
-121.413666
 31
0.0
  1
60
 13
80.170322
 23
-151.413666
 33
0.0
 14
115.213522
 24
-91.413666
 34
0.0
 50
90.0
  3
FSTD1
  0
DIMENSION
  8
FF
  6
CONTINUOUS
  5
3F5
  2
*D17
 10
132.587522
 20
-91.413666
 30
0.0
 11
130.087522
 21
-84.163676
 31
0.0
  1
14.5
 13
98.125522
 23
-76.913686
 33
0.0
 14
115.213522
 24
-91.413666
 34
0.0
 50
90.0
  3
FSTD2
  0
DIMENSION
  8
FF
  6
CONTINUOUS
  5
40F
  2
*D12
 10
109.475522
 20
-58.749666
 30
0.0
 11
94.475522
 21
-56.249666
 31
0.0
  1
30
 13
79.475522
 23
-93.249666
 33
0.0
 14
109.475522
 24
-141.787666
 34
0.0
  3
FSTD1
  0
DIMENSION
  8
FF
  6
CONTINUOUS
  5
41C
  2
*D13
 10
111.475522
 20
-41.168666
 30
0.0
 11
94.475522
 21
-38.668666
 31
0.0
  1
34
 13
77.475522
 23
-92.157666
 33
0.0
 14
111.475522
 24
-143.029666
 34
0.0
  3
FSTD1
  0
DIMENSION
  8
FF
  6
CONTINUOUS
  5
429
  2
*D14
 10
60.588322
 20
-97.413666
 30
0.0
 11
58.088322
 21
-121.413666
 31
0.0
  1
48
 13
106.135522
 23
-145.413666
 33
0.0
 14
75.288322
 24
-97.413666
 34
0.0
 50
90.0
  3
FSTD1
  0
DIMENSION
  8
FF
  6
CONTINUOUS
  5
436
  2
*D15
 10
41.880522
 20
-95.413666
 30
0.0
 11
39.380522
 21
-121.413666
 31
0.0
  1
52
 13
107.377522
 23
-147.413666
 33
0.0
 14
74.234522
 24
-95.413666
 34
0.0
 50
90.0
  3
FSTD1
  0
DIMENSION
  8
FF
  6
CONTINUOUS
  5
443
  2
*D18
 10
60.588322
 20
-97.413666
 30
0.0
 11
58.088322
 21
-87.163676
 31
0.0
  1
20.5
 13
90.825522
 23
-76.913686
 33
0.0
 14
74.288322
 24
-97.413666
 34
0.0
 50
90.0
  3
FSTD2
  0
DIMENSION
  8
FF
  6
CONTINUOUS
  5
450
  2
*D19
 10
41.880522
 20
-95.413666
 30
0.0
 11
39.380522
 21
-86.163676
 31
0.0
  1
18.5
 13
89.825522
 23
-76.913686
 33
0.0
 14
73.234522
 24
-95.413666
 34
0.0
 50
90.0
  3
FSTD2
  0
DIMENSION
  8
FF
  6
CONTINUOUS
  5
A32
  2
*D20
 10
75.625522
 20
33.787444
 30
0.0
 11
65.625522
 21
36.287444
 31
0.0
  1
7.7
 13
83.325522
 23
45.286334
 33
0.0
 14
75.625522
 24
48.886334
 34
0.0
  3
FSTD2
  0
TEXT
  8
FF
  5
A9B
 10
-137.335261
 20
-314.680968
 30
0.0
 40
5.0
  1
Magnetic Contactor Type
  0
ARC
  8
FF
  5
A9C
 10
-155.453611
 20
-308.493468
 30
0.0
 40
1.3125
 50
90.0
 51
168.003101
  0
LINE
  8
FF
  5
A9D
 10
-158.110261
 20
-314.680968
 30
0.0
 11
-155.848359
 21
-314.680968
 31
0.0
  0
LINE
  8
FF
  5
A9E
 10
-158.110261
 20
-314.680968
 30
0.0
 11
-156.737445
 21
-308.220653
 31
0.0
  0
LINE
  8
FF
  5
A9F
 10
-150.741511
 20
-307.180968
 30
0.0
 11
-150.989011
 21
-308.386428
 31
0.0
  0
ARC
  8
FF
  5
AA0
 10
-147.913757
 20
-311.221171
 30
0.0
 40
4.182458
 50
98.442625
 51
137.3304
1001
ACAD
1000
ASC_BOUNDS
1002
{
1070
    19
1002
}
  0
POLYLINE
  8
FF
  5
AA1
 66
     1
 10
0.0
 20
0.0
 30
0.0
 70
   128
  0
VERTEX
  8
FF
  5
AE7
 10
-148.126516
 20
-307.528519
 30
0.0
  0
VERTEX
  8
FF
  5
AE8
 10
-148.771985
 20
-307.62148
 30
0.0
  0
VERTEX
  8
FF
  5
AE9
 10
-149.405799
 20
-307.846799
 30
0.0
  0
VERTEX
  8
FF
  5
AEA
 10
-150.007452
 20
-308.197188
 30
0.0
  0
VERTEX
  8
FF
  5
AEB
 10
-150.557478
 20
-308.66131
 30
0.0
  0
VERTEX
  8
FF
  5
AEC
 10
-151.03808
 20
-309.224147
 30
0.0
  0
VERTEX
  8
FF
  5
AED
 10
-151.433709
 20
-309.86749
 30
0.0
  0
VERTEX
  8
FF
  5
AEE
 10
-151.731564
 20
-310.570523
 30
0.0
  0
SEQEND
  8
FF
  5
AEF
  0
ARC
  8
FF
  5
AA2
 10
-147.955416
 20
-310.152202
 30
0.0
 40
3.121224
 50
1.499529
 51
100.57959
1001
ACAD
1000
ASC_BOUNDS
1002
{
1070
    19
1002
}
  0
ARC
  8
FF
  5
AA3
 10
-147.967538
 20
-310.183394
 30
0.0
 40
2.659631
 50
2.961866
 51
93.426847
  0
LINE
  8
FF
  5
AA4
 10
-150.743102
 20
-310.045968
 30
0.0
 11
-145.311461
 21
-310.045968
 31
0.0
  0
LINE
  8
FF
  5
AA5
 10
-150.857634
 20
-310.585968
 30
0.0
 11
-144.835261
 21
-310.585968
 31
0.0
  0
ARC
  8
FF
  5
AA6
 10
-149.10216
 20
-311.538687
 30
0.0
 40
2.816331
 50
186.002385
 51
276.412304
1001
ACAD
1000
ASC_BOUNDS
1002
{
1070
    19
1002
}
  0
ARC
  8
FF
  5
AA7
 10
-149.23084
 20
-311.680981
 30
0.0
 40
3.15
 50
182.729155
 51
279.960292
1001
ACAD
1000
ASC_BOUNDS
1002
{
1070
    19
1002
}
  0
LINE
  8
FF
  5
AA8
 10
-155.848359
 20
-314.680968
 30
0.0
 11
-155.242734
 21
-311.830968
 31
0.0
  0
LINE
  8
FF
  5
AA9
 10
-155.242734
 20
-311.830968
 30
0.0
 11
-152.377268
 21
-311.830968
 31
0.0
  0
LINE
  8
FF
  5
AAA
 10
-154.863422
 20
-310.045968
 30
0.0
 11
-152.039218
 21
-310.045968
 31
0.0
  0
LINE
  8
FF
  5
AAB
 10
-154.358923
 20
-309.100968
 30
0.0
 11
-151.52278
 21
-309.100968
 31
0.0
  0
ARC
  8
FF
  5
AAC
 10
-154.358923
 20
-309.475968
 30
0.0
 40
0.375
 50
90.0
 51
168.003101
  0
LINE
  8
FF
  5
AAD
 10
-154.863422
 20
-310.045968
 30
0.0
 11
-154.725733
 21
-309.398021
 31
0.0
  0
LINE
  8
FF
  5
AAE
 10
-150.743102
 20
-310.045968
 30
0.0
 11
-150.857634
 21
-310.585968
 31
0.0
  0
ARC
  8
FF
  5
AAF
 10
-147.824234
 20
-311.735823
 30
0.0
 40
4.541113
 50
144.533818
 51
158.153358
  0
POLYLINE
  8
FF
  5
AB0
 66
     1
 10
0.0
 20
0.0
 30
0.0
 70
   128
  0
VERTEX
  8
FF
  5
AF0
 10
-151.731564
 20
-310.570523
 30
0.0
  0
VERTEX
  8
FF
  5
AF1
 10
-151.872801
 20
-311.213021
 30
0.0
  0
VERTEX
  8
FF
  5
AF2
 10
-151.90305
 20
-311.840474
 30
0.0
  0
SEQEND
  8
FF
  5
AF3
  0
ARC
  8
FF
  5
AB1
 10
-149.406821
 20
-310.313156
 30
0.0
 40
4.52809
 50
279.159834
 51
342.417868
1001
ACAD
1000
ASC_BOUNDS
1002
{
1070
    19
1002
}
  0
ARC
  8
FF
  5
AB2
 10
-149.538838
 20
-310.195178
 30
0.0
 40
4.209787
 50
280.279158
 51
339.332945
1001
ACAD
1000
ASC_BOUNDS
1002
{
1070
    19
1002
}
  0
LINE
  8
FF
  5
AB3
 10
-145.090261
 20
-311.680968
 30
0.0
 11
-145.599963
 21
-311.680968
 31
0.0
  0
LINE
  8
FF
  5
AB4
 10
-144.835261
 20
-310.585968
 30
0.0
 11
-144.835261
 21
-310.070524
 31
0.0
  0
LINE
  8
FF
  5
AB5
 10
-155.453611
 20
-307.180968
 30
0.0
 11
-150.741511
 21
-307.180968
 31
0.0
  0
TEXT
  8
FF
  5
AB7
 10
-23.760491
 20
-323.680968
 30
0.0
 40
5.0
  1
SC-03/G , SC-03H/G
  0
TEXT
  8
FF
  5
AB8
 10
-23.760491
 20
-314.680968
 30
0.0
 40
5.0
  1
SC-0/G , SC-0H/G
  0
TEXT
  8
FF
  6
CONTINUOUS
  5
AB9
 10
92.205065
 20
-323.49851
 30
0.0
 40
2.5
  1
SC-03G
  0
LINE
  8
FF
  5
ABA
 10
60.499322
 20
-329.680968
 30
0.0
 11
155.499322
 21
-329.680968
 31
0.0
  0
LINE
  8
FF
  5
ABB
 10
60.499322
 20
-324.680968
 30
0.0
 11
155.499322
 21
-324.680968
 31
0.0
  0
LINE
  8
FF
  5
ABC
 10
60.499322
 20
-319.680968
 30
0.0
 11
155.499322
 21
-319.680968
 31
0.0
  0
LINE
  8
FF
  5
ABD
 10
60.499322
 20
-314.680968
 30
0.0
 11
155.499322
 21
-314.680968
 31
0.0
  0
TEXT
  8
FF
  6
CONTINUOUS
  5
ABE
 10
99.110849
 20
-313.500039
 30
0.0
 40
2.5
  1
ﾌｧｲﾙ名
  0
LINE
  8
FF
  5
ABF
 10
60.499322
 20
-309.680968
 30
0.0
 11
155.499322
 21
-309.680968
 31
0.0
  0
TEXT
  8
FF
  6
CONTINUOUS
  5
AC1
 10
73.526848
 20
-323.49851
 30
0.0
 40
2.5
  1
2005-12
  0
LINE
  8
FF
  5
AC3
 10
70.499322
 20
-309.680968
 30
0.0
 11
70.499322
 21
-329.680968
 31
0.0
  0
TEXT
  8
FF
  6
CONTINUOUS
  5
AC4
 10
62.933711
 20
-318.57591
 30
0.0
 40
2.5
  1
作成
  0
LINE
  8
FF
  5
AC5
 10
60.499322
 20
-309.680968
 30
0.0
 11
60.499322
 21
-329.680968
 31
0.0
  0
TEXT
  8
FF
  6
CONTINUOUS
  5
AC6
 10
62.933711
 20
-323.299035
 30
0.0
 40
2.5
  1
変更
  0
LINE
  8
FF
  5
AC7
 10
90.499322
 20
-309.680968
 30
0.0
 11
90.499322
 21
-329.680968
 31
0.0
  0
TEXT
  8
FF
  6
CONTINUOUS
  5
AC8
 10
77.464323
 20
-313.500039
 30
0.0
 40
2.5
  1
日付
  0
TEXT
  8
FF
  6
CONTINUOUS
  5
ACB
 10
124.171031
 20
-313.500039
 30
0.0
 40
2.5
  1
図面番号
  0
LINE
  8
FF
  5
ACC
 10
115.499322
 20
-309.680968
 30
0.0
 11
115.499322
 21
-329.680968
 31
0.0
  0
LINE
  8
FF
  5
ACD
 10
155.499322
 20
-309.680968
 30
0.0
 11
155.499322
 21
-329.680968
 31
0.0
  0
LINE
  8
FF
  5
ACE
 10
145.499322
 20
-309.680968
 30
0.0
 11
145.499322
 21
-329.680968
 31
0.0
  0
TEXT
  8
FF
  6
CONTINUOUS
  5
AD1
 10
148.1083
 20
-313.500039
 30
0.0
 40
2.5
  1
変更
  0
ENDSEC
  0
EOF
