  0
SECTION
  2
HEADER
  9
$ACADVER
  1
AC1009
  9
$INSBASE
 10
0.0
 20
0.0
 30
0.0
  9
$EXTMIN
 10
-141.412777
 20
-267.611997
 30
0.0
  9
$EXTMAX
 10
181.050439
 20
234.429555
 30
0.0
  9
$LIMMIN
 10
-191.945816
 20
-279.256558
  9
$LIMMAX
 10
203.258825
 20
249.722025
  9
$ORTHOMODE
 70
     1
  9
$REGENMODE
 70
     1
  9
$FILLMODE
 70
     1
  9
$QTEXTMODE
 70
     0
  9
$MIRRTEXT
 70
     1
  9
$DRAGMODE
 70
     2
  9
$LTSCALE
 40
1.0
  9
$OSMODE
 70
     1
  9
$ATTMODE
 70
     1
  9
$TEXTSIZE
 40
3.2
  9
$TRACEWID
 40
0.05
  9
$TEXTSTYLE
  7
STANDARD
  9
$CLAYER
  8
FF
  9
$CELTYPE
  6
CONTINUOUS
  9
$CECOLOR
 62
   256
  9
$DIMSCALE
 40
1.0
  9
$DIMASZ
 40
3.0
  9
$DIMEXO
 40
1.0
  9
$DIMDLI
 40
0.38
  9
$DIMRND
 40
0.0
  9
$DIMDLE
 40
0.0
  9
$DIMEXE
 40
1.0
  9
$DIMTP
 40
0.0
  9
$DIMTM
 40
0.0
  9
$DIMTXT
 40
3.0
  9
$DIMCEN
 40
0.09
  9
$DIMTSZ
 40
0.0
  9
$DIMTOL
 70
     0
  9
$DIMLIM
 70
     0
  9
$DIMTIH
 70
     0
  9
$DIMTOH
 70
     0
  9
$DIMSE1
 70
     0
  9
$DIMSE2
 70
     0
  9
$DIMTAD
 70
     1
  9
$DIMZIN
 70
     0
  9
$DIMBLK
  1

  9
$DIMASO
 70
     1
  9
$DIMSHO
 70
     1
  9
$DIMPOST
  1

  9
$DIMAPOST
  1

  9
$DIMALT
 70
     0
  9
$DIMALTD
 70
     2
  9
$DIMALTF
 40
25.4
  9
$DIMLFAC
 40
1.0
  9
$DIMTOFL
 70
     1
  9
$DIMTVP
 40
0.0
  9
$DIMTIX
 70
     0
  9
$DIMSOXD
 70
     0
  9
$DIMSAH
 70
     1
  9
$DIMBLK1
  1
_OPEN
  9
$DIMBLK2
  1
_OPEN
  9
$DIMSTYLE
  2
FSTD2
  9
$DIMCLRD
 70
     0
  9
$DIMCLRE
 70
     0
  9
$DIMCLRT
 70
     0
  9
$DIMTFAC
 40
1.0
  9
$DIMGAP
 40
1.0
  9
$LUNITS
 70
     2
  9
$LUPREC
 70
     4
  9
$SKETCHINC
 40
0.1
  9
$FILLETRAD
 40
0.0
  9
$AUNITS
 70
     0
  9
$AUPREC
 70
     0
  9
$MENU
  1
acad
  9
$ELEVATION
 40
0.0
  9
$PELEVATION
 40
0.0
  9
$THICKNESS
 40
0.0
  9
$LIMCHECK
 70
     0
  9
$BLIPMODE
 70
     1
  9
$CHAMFERA
 40
0.0
  9
$CHAMFERB
 40
0.0
  9
$SKPOLY
 70
     0
  9
$TDCREATE
 40
2451262.774364549
  9
$TDUPDATE
 40
2453728.505875417
  9
$TDINDWG
 40
0.0235283102
  9
$TDUSRTIMER
 40
0.0235283102
  9
$USRTIMER
 70
     1
  9
$ANGBASE
 50
0.0
  9
$ANGDIR
 70
     0
  9
$PDMODE
 70
     0
  9
$PDSIZE
 40
0.0
  9
$PLINEWID
 40
0.0
  9
$COORDS
 70
     1
  9
$SPLFRAME
 70
     0
  9
$SPLINETYPE
 70
     6
  9
$SPLINESEGS
 70
     8
  9
$ATTDIA
 70
     0
  9
$ATTREQ
 70
     1
  9
$HANDLING
 70
     1
  9
$HANDSEED
  5
AA7
  9
$SURFTAB1
 70
     6
  9
$SURFTAB2
 70
     6
  9
$SURFTYPE
 70
     6
  9
$SURFU
 70
     6
  9
$SURFV
 70
     6
  9
$UCSNAME
  2

  9
$UCSORG
 10
0.0
 20
0.0
 30
0.0
  9
$UCSXDIR
 10
1.0
 20
0.0
 30
0.0
  9
$UCSYDIR
 10
0.0
 20
1.0
 30
0.0
  9
$PUCSNAME
  2

  9
$PUCSORG
 10
0.0
 20
0.0
 30
0.0
  9
$PUCSXDIR
 10
1.0
 20
0.0
 30
0.0
  9
$PUCSYDIR
 10
0.0
 20
1.0
 30
0.0
  9
$USERI1
 70
     0
  9
$USERI2
 70
     0
  9
$USERI3
 70
     0
  9
$USERI4
 70
     0
  9
$USERI5
 70
     0
  9
$USERR1
 40
0.0
  9
$USERR2
 40
0.0
  9
$USERR3
 40
0.0
  9
$USERR4
 40
0.0
  9
$USERR5
 40
0.0
  9
$WORLDVIEW
 70
     1
  9
$SHADEDGE
 70
     3
  9
$SHADEDIF
 70
    70
  9
$TILEMODE
 70
     1
  9
$MAXACTVP
 70
    16
  9
$PINSBASE
 10
0.0
 20
0.0
 30
0.0
  9
$PLIMCHECK
 70
     0
  9
$PEXTMIN
 10
1.000000E+20
 20
1.000000E+20
 30
1.000000E+20
  9
$PEXTMAX
 10
-1.000000E+20
 20
-1.000000E+20
 30
-1.000000E+20
  9
$PLIMMIN
 10
0.0
 20
0.0
  9
$PLIMMAX
 10
12.0
 20
9.0
  9
$UNITMODE
 70
     0
  9
$VISRETAIN
 70
     0
  9
$PLINEGEN
 70
     0
  9
$PSLTSCALE
 70
     1
  9
$TREEDEPTH
 70
  3020
  9
$DWGCODEPAGE
  3
dos932
  0
ENDSEC
  0
SECTION
  2
TABLES
  0
TABLE
  2
VPORT
 70
     2
  0
VPORT
  2
*ACTIVE
 70
     0
 10
0.0
 20
0.0
 11
1.0
 21
1.0
 12
263.169749
 22
29.254149
 13
0.0
 23
0.0
 14
1.0
 24
1.0
 15
10.0
 25
10.0
 16
0.0
 26
0.0
 36
1.0
 17
0.0
 27
0.0
 37
0.0
 40
617.021415
 41
1.475202
 42
50.0
 43
0.0
 44
0.0
 50
0.0
 51
0.0
 71
     0
 72
   100
 73
     1
 74
     1
 75
     0
 76
     0
 77
     0
 78
     0
  0
ENDTAB
  0
TABLE
  2
LTYPE
 70
     3
  0
LTYPE
  2
CONTINUOUS
 70
    64
  3
Solid-line
 72
    65
 73
     0
 40
0.0
  0
LTYPE
  2
HIDDEN
 70
    64
  3
HIDDEN
 72
    65
 73
     2
 40
2.54729
 49
1.91047
 49
-0.636824
  0
LTYPE
  2
CENTER
 70
    64
  3
CENTER
 72
    65
 73
     4
 40
10.6137
 49
6.36824
 49
-1.06137
 49
2.12275
 49
-1.06137
  0
ENDTAB
  0
TABLE
  2
LAYER
 70
    17
  0
LAYER
  2
0
 70
    64
 62
     7
  6
CONTINUOUS
  0
LAYER
  2
0A
 70
    64
 62
     7
  6
CONTINUOUS
  0
LAYER
  2
0B
 70
    64
 62
     6
  6
CONTINUOUS
  0
LAYER
  2
0C
 70
    64
 62
     3
  6
CONTINUOUS
  0
LAYER
  2
0D
 70
    64
 62
     2
  6
CONTINUOUS
  0
LAYER
  2
10
 70
    64
 62
     6
  6
CENTER
  0
LAYER
  2
14
 70
    64
 62
     7
  6
CONTINUOUS
  0
LAYER
  2
15
 70
    64
 62
     6
  6
CONTINUOUS
  0
LAYER
  2
16
 70
    64
 62
     3
  6
CONTINUOUS
  0
LAYER
  2
17
 70
    64
 62
     2
  6
CONTINUOUS
  0
LAYER
  2
1A
 70
    64
 62
     6
  6
CENTER
  0
LAYER
  2
32
 70
    64
 62
     7
  6
CONTINUOUS
  0
LAYER
  2
33
 70
    64
 62
     6
  6
CONTINUOUS
  0
LAYER
  2
34
 70
    64
 62
     3
  6
CONTINUOUS
  0
LAYER
  2
38
 70
    64
 62
     6
  6
CENTER
  0
LAYER
  2
FF
 70
    64
 62
     4
  6
CONTINUOUS
  0
LAYER
  2
DEFPOINTS
 70
    64
 62
     7
  6
CONTINUOUS
  0
ENDTAB
  0
TABLE
  2
STYLE
 70
     1
  0
STYLE
  2
STANDARD
 70
    64
 40
0.0
 41
1.0
 50
0.0
 71
     0
 42
0.2
  3
TXT
  4
BIGFONT
  0
ENDTAB
  0
TABLE
  2
VIEW
 70
     0
  0
ENDTAB
  0
TABLE
  2
UCS
 70
     0
  0
ENDTAB
  0
TABLE
  2
APPID
 70
     1
  0
APPID
  2
ACAD
 70
    64
  0
ENDTAB
  0
TABLE
  2
DIMSTYLE
 70
     2
  0
DIMSTYLE
  2
FSTD1
 70
    64
  3

  4

  5

  6
_OPEN
  7
_OPEN
 40
1.0
 41
3.0
 42
1.0
 43
0.38
 44
1.0
 45
0.0
 46
0.0
 47
0.0
 48
0.0
140
3.0
141
0.09
142
0.0
143
25.4
144
1.0
145
0.0
146
1.0
147
1.0
 71
     0
 72
     0
 73
     0
 74
     0
 75
     0
 76
     0
 77
     1
 78
     0
170
     0
171
     2
172
     1
173
     1
174
     0
175
     0
176
     0
177
     0
178
     0
  0
DIMSTYLE
  2
FSTD2
 70
    64
  3

  4

  5

  6
_OPEN
  7
_OPEN
 40
1.0
 41
3.0
 42
1.0
 43
0.38
 44
1.0
 45
0.0
 46
0.0
 47
0.0
 48
0.0
140
3.0
141
0.09
142
0.0
143
25.4
144
1.0
145
0.0
146
1.0
147
1.0
 71
     0
 72
     0
 73
     0
 74
     0
 75
     0
 76
     0
 77
     1
 78
     0
170
     0
171
     2
172
     1
173
     1
174
     0
175
     0
176
     0
177
     0
178
     0
  0
ENDTAB
  0
ENDSEC
  0
SECTION
  2
BLOCKS
  0
BLOCK
  8
0
  5
2D1
  2
_OPEN
 70
    64
 10
0.0
 20
0.0
 30
0.0
  3
_OPEN
  0
LINE
  8
0
  6
BYBLOCK
 62
     0
  5
2D2
 10
-1.0
 20
0.166667
 30
0.0
 11
0.0
 21
0.0
 31
0.0
  0
LINE
  8
0
  6
BYBLOCK
 62
     0
  5
2D3
 10
0.0
 20
0.0
 30
0.0
 11
-1.0
 21
-0.166667
 31
0.0
  0
LINE
  8
0
  6
BYBLOCK
 62
     0
  5
2D4
 10
0.0
 20
0.0
 30
0.0
 11
-1.0
 21
0.0
 31
0.0
  0
ENDBLK
  8
0
  5
2D5
  0
BLOCK
  8
0
  5
9E6
  2
*D1
 70
    65
 10
0.0
 20
0.0
 30
0.0
  3
*D1
  0
LINE
  8
0
  6
BYBLOCK
 62
     0
  5
9E7
 10
-138.655377
 20
147.615955
 30
0.0
 11
-138.655377
 21
231.429555
 31
0.0
  0
LINE
  8
0
  6
BYBLOCK
 62
     0
  5
9E8
 10
-18.655357
 20
147.615955
 30
0.0
 11
-18.655357
 21
231.429555
 31
0.0
  0
LINE
  8
0
  6
BYBLOCK
 62
     0
  5
9E9
 10
-135.655377
 20
230.429555
 30
0.0
 11
-21.655357
 21
230.429555
 31
0.0
  0
INSERT
  8
0
  6
BYBLOCK
 62
     0
  5
9EA
  2
_OPEN
 10
-138.655377
 20
230.429555
 30
0.0
 41
3.0
 42
3.0
 50
180.0
 43
3.0
  0
INSERT
  8
0
  6
BYBLOCK
 62
     0
  5
9EB
  2
_OPEN
 10
-18.655357
 20
230.429555
 30
0.0
 41
3.0
 42
3.0
 43
3.0
  0
TEXT
  8
0
  6
BYBLOCK
 62
     0
  5
9EC
 10
-81.655367
 20
231.429555
 30
0.0
 40
3.0
  1
117
  0
POINT
  8
DEFPOINTS
  6
BYBLOCK
 62
     0
  5
9ED
 10
-138.655377
 20
146.615955
 30
0.0
  0
POINT
  8
DEFPOINTS
  6
BYBLOCK
 62
     0
  5
9EE
 10
-18.655357
 20
146.615955
 30
0.0
  0
POINT
  8
DEFPOINTS
  6
BYBLOCK
 62
     0
  5
9EF
 10
-18.655357
 20
230.429555
 30
0.0
  0
ENDBLK
  8
0
  5
9F0
  0
BLOCK
  8
0
  5
9F1
  2
*D2
 70
    65
 10
0.0
 20
0.0
 30
0.0
  3
*D2
  0
LINE
  8
0
  6
BYBLOCK
 62
     0
  5
9F2
 10
-128.655377
 20
169.615755
 30
0.0
 11
-128.655377
 21
219.861555
 31
0.0
  0
LINE
  8
0
  6
BYBLOCK
 62
     0
  5
9F3
 10
-18.655357
 20
147.615955
 30
0.0
 11
-18.655357
 21
219.861555
 31
0.0
  0
LINE
  8
0
  6
BYBLOCK
 62
     0
  5
9F4
 10
-125.655377
 20
218.861555
 30
0.0
 11
-21.655357
 21
218.861555
 31
0.0
  0
INSERT
  8
0
  6
BYBLOCK
 62
     0
  5
9F5
  2
_OPEN
 10
-128.655377
 20
218.861555
 30
0.0
 41
3.0
 42
3.0
 50
180.0
 43
3.0
  0
INSERT
  8
0
  6
BYBLOCK
 62
     0
  5
9F6
  2
_OPEN
 10
-18.655357
 20
218.861555
 30
0.0
 41
3.0
 42
3.0
 43
3.0
  0
TEXT
  8
0
  6
BYBLOCK
 62
     0
  5
9F7
 10
-76.905367
 20
219.861555
 30
0.0
 40
3.0
  1
107
  0
POINT
  8
DEFPOINTS
  6
BYBLOCK
 62
     0
  5
9F8
 10
-128.655377
 20
168.615755
 30
0.0
  0
POINT
  8
DEFPOINTS
  6
BYBLOCK
 62
     0
  5
9F9
 10
-18.655357
 20
146.615955
 30
0.0
  0
POINT
  8
DEFPOINTS
  6
BYBLOCK
 62
     0
  5
9FA
 10
-18.655357
 20
218.861555
 30
0.0
  0
ENDBLK
  8
0
  5
9FB
  0
BLOCK
  8
0
  5
9FC
  2
*D3
 70
    65
 10
0.0
 20
0.0
 30
0.0
  3
*D3
  0
LINE
  8
0
  6
BYBLOCK
 62
     0
  5
9FD
 10
-128.655377
 20
169.615755
 30
0.0
 11
-128.655377
 21
209.795555
 31
0.0
  0
LINE
  8
0
  6
BYBLOCK
 62
     0
  5
9FE
 10
-37.655377
 20
159.815955
 30
0.0
 11
-37.655377
 21
209.795555
 31
0.0
  0
LINE
  8
0
  6
BYBLOCK
 62
     0
  5
9FF
 10
-125.655377
 20
208.795555
 30
0.0
 11
-40.655377
 21
208.795555
 31
0.0
  0
INSERT
  8
0
  6
BYBLOCK
 62
     0
  5
A00
  2
_OPEN
 10
-128.655377
 20
208.795555
 30
0.0
 41
3.0
 42
3.0
 50
180.0
 43
3.0
  0
INSERT
  8
0
  6
BYBLOCK
 62
     0
  5
A01
  2
_OPEN
 10
-37.655377
 20
208.795555
 30
0.0
 41
3.0
 42
3.0
 43
3.0
  0
TEXT
  8
0
  6
BYBLOCK
 62
     0
  5
A02
 10
-85.655377
 20
209.795555
 30
0.0
 40
3.0
  1
88
  0
POINT
  8
DEFPOINTS
  6
BYBLOCK
 62
     0
  5
A03
 10
-128.655377
 20
168.615755
 30
0.0
  0
POINT
  8
DEFPOINTS
  6
BYBLOCK
 62
     0
  5
A04
 10
-37.655377
 20
158.815955
 30
0.0
  0
POINT
  8
DEFPOINTS
  6
BYBLOCK
 62
     0
  5
A05
 10
-37.655377
 20
208.795555
 30
0.0
  0
ENDBLK
  8
0
  5
A06
  0
BLOCK
  8
0
  5
93F
  2
*D4
 70
    65
 10
0.0
 20
0.0
 30
0.0
  3
*D4
  0
LINE
  8
0
  6
BYBLOCK
 62
     0
  5
940
 10
-18.655357
 20
147.615955
 30
0.0
 11
-18.655357
 21
219.861555
 31
0.0
  0
LINE
  8
0
  6
BYBLOCK
 62
     0
  5
941
 10
9.344643
 20
137.615755
 30
0.0
 11
9.344643
 21
219.861555
 31
0.0
  0
LINE
  8
0
  6
BYBLOCK
 62
     0
  5
942
 10
-15.655357
 20
218.861555
 30
0.0
 11
6.344643
 21
218.861555
 31
0.0
  0
INSERT
  8
0
  6
BYBLOCK
 62
     0
  5
943
  2
_OPEN
 10
-18.655357
 20
218.861555
 30
0.0
 41
3.0
 42
3.0
 50
180.0
 43
3.0
  0
INSERT
  8
0
  6
BYBLOCK
 62
     0
  5
944
  2
_OPEN
 10
9.344643
 20
218.861555
 30
0.0
 41
3.0
 42
3.0
 43
3.0
  0
TEXT
  8
0
  6
BYBLOCK
 62
     0
  5
945
 10
-7.155357
 20
219.861555
 30
0.0
 40
3.0
  1
28
  0
POINT
  8
DEFPOINTS
  6
BYBLOCK
 62
     0
  5
946
 10
-18.655357
 20
146.615955
 30
0.0
  0
POINT
  8
DEFPOINTS
  6
BYBLOCK
 62
     0
  5
947
 10
9.344643
 20
136.615755
 30
0.0
  0
POINT
  8
DEFPOINTS
  6
BYBLOCK
 62
     0
  5
948
 10
9.344643
 20
218.861555
 30
0.0
  0
ENDBLK
  8
0
  5
949
  0
BLOCK
  8
0
  5
94A
  2
*D5
 70
    65
 10
0.0
 20
0.0
 30
0.0
  3
*D5
  0
LINE
  8
0
  6
BYBLOCK
 62
     0
  5
94B
 10
84.844623
 20
164.815755
 30
0.0
 11
84.844623
 21
231.429555
 31
0.0
  0
LINE
  8
0
  6
BYBLOCK
 62
     0
  5
94C
 10
137.844623
 20
164.815755
 30
0.0
 11
137.844623
 21
231.429555
 31
0.0
  0
LINE
  8
0
  6
BYBLOCK
 62
     0
  5
94D
 10
87.844623
 20
230.429555
 30
0.0
 11
134.844623
 21
230.429555
 31
0.0
  0
INSERT
  8
0
  6
BYBLOCK
 62
     0
  5
94E
  2
_OPEN
 10
84.844623
 20
230.429555
 30
0.0
 41
3.0
 42
3.0
 50
180.0
 43
3.0
  0
INSERT
  8
0
  6
BYBLOCK
 62
     0
  5
94F
  2
_OPEN
 10
137.844623
 20
230.429555
 30
0.0
 41
3.0
 42
3.0
 43
3.0
  0
TEXT
  8
0
  6
BYBLOCK
 62
     0
  5
950
 10
108.844623
 20
231.429555
 30
0.0
 40
3.0
  1
53
  0
POINT
  8
DEFPOINTS
  6
BYBLOCK
 62
     0
  5
951
 10
84.844623
 20
163.815755
 30
0.0
  0
POINT
  8
DEFPOINTS
  6
BYBLOCK
 62
     0
  5
952
 10
137.844623
 20
163.815755
 30
0.0
  0
POINT
  8
DEFPOINTS
  6
BYBLOCK
 62
     0
  5
953
 10
137.844623
 20
230.429555
 30
0.0
  0
ENDBLK
  8
0
  5
954
  0
BLOCK
  8
0
  5
A07
  2
*D6
 70
    65
 10
0.0
 20
0.0
 30
0.0
  3
*D6
  0
LINE
  8
0
  6
BYBLOCK
 62
     0
  5
A08
 10
115.994623
 20
178.615755
 30
0.0
 11
163.000623
 21
178.615755
 31
0.0
  0
LINE
  8
0
  6
BYBLOCK
 62
     0
  5
A09
 10
119.844623
 20
98.615755
 30
0.0
 11
163.000623
 21
98.615755
 31
0.0
  0
LINE
  8
0
  6
BYBLOCK
 62
     0
  5
A0A
 10
162.000623
 20
175.615755
 30
0.0
 11
162.000623
 21
101.615755
 31
0.0
  0
INSERT
  8
0
  6
BYBLOCK
 62
     0
  5
A0B
  2
_OPEN
 10
162.000623
 20
178.615755
 30
0.0
 41
3.0
 42
3.0
 50
90.0
 43
3.0
  0
INSERT
  8
0
  6
BYBLOCK
 62
     0
  5
A0C
  2
_OPEN
 10
162.000623
 20
98.615755
 30
0.0
 41
3.0
 42
3.0
 50
270.0
 43
3.0
  0
TEXT
  8
0
  6
BYBLOCK
 62
     0
  5
A0D
 10
161.000623
 20
136.615755
 30
0.0
 40
3.0
  1
81
 50
90.0
  0
POINT
  8
DEFPOINTS
  6
BYBLOCK
 62
     0
  5
A0E
 10
114.994623
 20
178.615755
 30
0.0
  0
POINT
  8
DEFPOINTS
  6
BYBLOCK
 62
     0
  5
A0F
 10
118.844623
 20
98.615755
 30
0.0
  0
POINT
  8
DEFPOINTS
  6
BYBLOCK
 62
     0
  5
A10
 10
162.000623
 20
98.615755
 30
0.0
  0
ENDBLK
  8
0
  5
A11
  0
BLOCK
  8
0
  5
955
  2
*D7
 70
    65
 10
0.0
 20
0.0
 30
0.0
  3
*D7
  0
LINE
  8
0
  6
BYBLOCK
 62
     0
  5
956
 10
116.994623
 20
178.615755
 30
0.0
 11
151.644623
 21
178.615755
 31
0.0
  0
LINE
  8
0
  6
BYBLOCK
 62
     0
  5
957
 10
137.220623
 20
155.615755
 30
0.0
 11
151.644623
 21
155.615755
 31
0.0
  0
LINE
  8
0
  6
BYBLOCK
 62
     0
  5
958
 10
150.644623
 20
175.615755
 30
0.0
 11
150.644623
 21
158.615755
 31
0.0
  0
INSERT
  8
0
  6
BYBLOCK
 62
     0
  5
959
  2
_OPEN
 10
150.644623
 20
178.615755
 30
0.0
 41
3.0
 42
3.0
 50
90.0
 43
3.0
  0
INSERT
  8
0
  6
BYBLOCK
 62
     0
  5
95A
  2
_OPEN
 10
150.644623
 20
155.615755
 30
0.0
 41
3.0
 42
3.0
 50
270.0
 43
3.0
  0
TEXT
  8
0
  6
BYBLOCK
 62
     0
  5
95B
 10
149.644623
 20
164.615755
 30
0.0
 40
3.0
  1
23
 50
90.0
  0
POINT
  8
DEFPOINTS
  6
BYBLOCK
 62
     0
  5
95C
 10
115.994623
 20
178.615755
 30
0.0
  0
POINT
  8
DEFPOINTS
  6
BYBLOCK
 62
     0
  5
95D
 10
136.220623
 20
155.615755
 30
0.0
  0
POINT
  8
DEFPOINTS
  6
BYBLOCK
 62
     0
  5
95E
 10
150.644623
 20
155.615755
 30
0.0
  0
ENDBLK
  8
0
  5
95F
  0
BLOCK
  8
0
  5
976
  2
*D8
 70
    65
 10
0.0
 20
0.0
 30
0.0
  3
*D8
  0
LINE
  8
0
  6
BYBLOCK
 62
     0
  5
977
 10
138.220623
 20
155.615755
 30
0.0
 11
151.644623
 21
155.615755
 31
0.0
  0
LINE
  8
0
  6
BYBLOCK
 62
     0
  5
978
 10
137.220623
 20
112.615755
 30
0.0
 11
151.644623
 21
112.615755
 31
0.0
  0
LINE
  8
0
  6
BYBLOCK
 62
     0
  5
979
 10
150.644623
 20
152.615755
 30
0.0
 11
150.644623
 21
115.615755
 31
0.0
  0
INSERT
  8
0
  6
BYBLOCK
 62
     0
  5
97A
  2
_OPEN
 10
150.644623
 20
155.615755
 30
0.0
 41
3.0
 42
3.0
 50
90.0
 43
3.0
  0
INSERT
  8
0
  6
BYBLOCK
 62
     0
  5
97B
  2
_OPEN
 10
150.644623
 20
112.615755
 30
0.0
 41
3.0
 42
3.0
 50
270.0
 43
3.0
  0
TEXT
  8
0
  6
BYBLOCK
 62
     0
  5
97C
 10
149.644623
 20
131.615755
 30
0.0
 40
3.0
  1
43
 50
90.0
  0
POINT
  8
DEFPOINTS
  6
BYBLOCK
 62
     0
  5
97D
 10
137.220623
 20
155.615755
 30
0.0
  0
POINT
  8
DEFPOINTS
  6
BYBLOCK
 62
     0
  5
97E
 10
136.220623
 20
112.615755
 30
0.0
  0
POINT
  8
DEFPOINTS
  6
BYBLOCK
 62
     0
  5
97F
 10
150.644623
 20
112.615755
 30
0.0
  0
ENDBLK
  8
0
  5
980
  0
BLOCK
  8
0
  5
981
  2
*D9
 70
    65
 10
0.0
 20
0.0
 30
0.0
  3
*D9
  0
LINE
  8
0
  6
BYBLOCK
 62
     0
  5
982
 10
111.344623
 20
94.592955
 30
0.0
 11
111.344623
 21
81.347555
 31
0.0
  0
LINE
  8
0
  6
BYBLOCK
 62
     0
  5
983
 10
121.344623
 20
107.636755
 30
0.0
 11
121.344623
 21
81.347555
 31
0.0
  0
LINE
  8
0
  6
BYBLOCK
 62
     0
  5
984
 10
114.344623
 20
82.347555
 30
0.0
 11
118.344623
 21
82.347555
 31
0.0
  0
INSERT
  8
0
  6
BYBLOCK
 62
     0
  5
985
  2
_OPEN
 10
111.344623
 20
82.347555
 30
0.0
 41
3.0
 42
3.0
 50
180.0
 43
3.0
  0
INSERT
  8
0
  6
BYBLOCK
 62
     0
  5
986
  2
_OPEN
 10
121.344623
 20
82.347555
 30
0.0
 41
3.0
 42
3.0
 43
3.0
  0
TEXT
  8
0
  6
BYBLOCK
 62
     0
  5
987
 10
114.594623
 20
83.347555
 30
0.0
 40
3.0
  1
10
  0
POINT
  8
DEFPOINTS
  6
BYBLOCK
 62
     0
  5
988
 10
111.344623
 20
95.592955
 30
0.0
  0
POINT
  8
DEFPOINTS
  6
BYBLOCK
 62
     0
  5
989
 10
121.344623
 20
108.636755
 30
0.0
  0
POINT
  8
DEFPOINTS
  6
BYBLOCK
 62
     0
  5
98A
 10
121.344623
 20
82.347555
 30
0.0
  0
ENDBLK
  8
0
  5
98B
  0
BLOCK
  8
0
  5
999
  2
*D10
 70
    65
 10
0.0
 20
0.0
 30
0.0
  3
*D10
  0
LINE
  8
0
  6
BYBLOCK
 62
     0
  5
99A
 10
94.344623
 20
-35.282245
 30
0.0
 11
94.344623
 21
-2.560145
 31
0.0
  0
LINE
  8
0
  6
BYBLOCK
 62
     0
  5
99B
 10
128.344623
 20
-87.164245
 30
0.0
 11
128.344623
 21
-2.560145
 31
0.0
  0
LINE
  8
0
  6
BYBLOCK
 62
     0
  5
99C
 10
97.344623
 20
-3.560145
 30
0.0
 11
125.344623
 21
-3.560145
 31
0.0
  0
INSERT
  8
0
  6
BYBLOCK
 62
     0
  5
99D
  2
_OPEN
 10
94.344623
 20
-3.560145
 30
0.0
 41
3.0
 42
3.0
 50
180.0
 43
3.0
  0
INSERT
  8
0
  6
BYBLOCK
 62
     0
  5
99E
  2
_OPEN
 10
128.344623
 20
-3.560145
 30
0.0
 41
3.0
 42
3.0
 43
3.0
  0
TEXT
  8
0
  6
BYBLOCK
 62
     0
  5
99F
 10
108.844623
 20
-2.560145
 30
0.0
 40
3.0
  1
34
  0
POINT
  8
DEFPOINTS
  6
BYBLOCK
 62
     0
  5
9A0
 10
94.344623
 20
-36.282245
 30
0.0
  0
POINT
  8
DEFPOINTS
  6
BYBLOCK
 62
     0
  5
9A1
 10
128.344623
 20
-88.164245
 30
0.0
  0
POINT
  8
DEFPOINTS
  6
BYBLOCK
 62
     0
  5
9A2
 10
128.344623
 20
-3.560145
 30
0.0
  0
ENDBLK
  8
0
  5
9A3
  0
BLOCK
  8
0
  5
9AF
  2
*D11
 70
    65
 10
0.0
 20
0.0
 30
0.0
  3
*D11
  0
LINE
  8
0
  6
BYBLOCK
 62
     0
  5
9B0
 10
134.200623
 20
-35.884245
 30
0.0
 11
155.516623
 21
-35.884245
 31
0.0
  0
LINE
  8
0
  6
BYBLOCK
 62
     0
  5
9B1
 10
98.234623
 20
-95.884245
 30
0.0
 11
155.516623
 21
-95.884245
 31
0.0
  0
LINE
  8
0
  6
BYBLOCK
 62
     0
  5
9B2
 10
154.516623
 20
-38.884245
 30
0.0
 11
154.516623
 21
-92.884245
 31
0.0
  0
INSERT
  8
0
  6
BYBLOCK
 62
     0
  5
9B3
  2
_OPEN
 10
154.516623
 20
-35.884245
 30
0.0
 41
3.0
 42
3.0
 50
90.0
 43
3.0
  0
INSERT
  8
0
  6
BYBLOCK
 62
     0
  5
9B4
  2
_OPEN
 10
154.516623
 20
-95.884245
 30
0.0
 41
3.0
 42
3.0
 50
270.0
 43
3.0
  0
TEXT
  8
0
  6
BYBLOCK
 62
     0
  5
9B5
 10
153.516623
 20
-68.134245
 30
0.0
 40
3.0
  1
60
 50
90.0
  0
POINT
  8
DEFPOINTS
  6
BYBLOCK
 62
     0
  5
9B6
 10
133.200623
 20
-35.884245
 30
0.0
  0
POINT
  8
DEFPOINTS
  6
BYBLOCK
 62
     0
  5
9B7
 10
97.234623
 20
-95.884245
 30
0.0
  0
POINT
  8
DEFPOINTS
  6
BYBLOCK
 62
     0
  5
9B8
 10
154.516623
 20
-95.884245
 30
0.0
  0
ENDBLK
  8
0
  5
9B9
  0
BLOCK
  8
0
  5
9C5
  2
*D12
 70
    65
 10
0.0
 20
0.0
 30
0.0
  3
*D12
  0
LINE
  8
0
  6
BYBLOCK
 62
     0
  5
9C6
 10
88.912623
 20
-39.884245
 30
0.0
 11
74.816623
 21
-39.884245
 31
0.0
  0
LINE
  8
0
  6
BYBLOCK
 62
     0
  5
9C7
 10
123.464623
 20
-91.884245
 30
0.0
 11
74.816623
 21
-91.884245
 31
0.0
  0
LINE
  8
0
  6
BYBLOCK
 62
     0
  5
9C8
 10
75.816623
 20
-42.884245
 30
0.0
 11
75.816623
 21
-88.884245
 31
0.0
  0
INSERT
  8
0
  6
BYBLOCK
 62
     0
  5
9C9
  2
_OPEN
 10
75.816623
 20
-39.884245
 30
0.0
 41
3.0
 42
3.0
 50
90.0
 43
3.0
  0
INSERT
  8
0
  6
BYBLOCK
 62
     0
  5
9CA
  2
_OPEN
 10
75.816623
 20
-91.884245
 30
0.0
 41
3.0
 42
3.0
 50
270.0
 43
3.0
  0
TEXT
  8
0
  6
BYBLOCK
 62
     0
  5
9CB
 10
74.816623
 20
-68.384245
 30
0.0
 40
3.0
  1
52
 50
90.0
  0
POINT
  8
DEFPOINTS
  6
BYBLOCK
 62
     0
  5
9CC
 10
89.912623
 20
-39.884245
 30
0.0
  0
POINT
  8
DEFPOINTS
  6
BYBLOCK
 62
     0
  5
9CD
 10
124.464623
 20
-91.884245
 30
0.0
  0
POINT
  8
DEFPOINTS
  6
BYBLOCK
 62
     0
  5
9CE
 10
75.816623
 20
-91.884245
 30
0.0
  0
ENDBLK
  8
0
  5
9CF
  0
BLOCK
  8
0
  5
9BA
  2
*D13
 70
    65
 10
0.0
 20
0.0
 30
0.0
  3
*D13
  0
LINE
  8
0
  6
BYBLOCK
 62
     0
  5
9BB
 10
93.844623
 20
-100.302245
 30
0.0
 11
93.844623
 21
-126.438245
 31
0.0
  0
LINE
  8
0
  6
BYBLOCK
 62
     0
  5
9BC
 10
128.844623
 20
-40.686245
 30
0.0
 11
128.844623
 21
-126.438245
 31
0.0
  0
LINE
  8
0
  6
BYBLOCK
 62
     0
  5
9BD
 10
96.844623
 20
-125.438245
 30
0.0
 11
125.844623
 21
-125.438245
 31
0.0
  0
INSERT
  8
0
  6
BYBLOCK
 62
     0
  5
9BE
  2
_OPEN
 10
93.844623
 20
-125.438245
 30
0.0
 41
3.0
 42
3.0
 50
180.0
 43
3.0
  0
INSERT
  8
0
  6
BYBLOCK
 62
     0
  5
9BF
  2
_OPEN
 10
128.844623
 20
-125.438245
 30
0.0
 41
3.0
 42
3.0
 43
3.0
  0
TEXT
  8
0
  6
BYBLOCK
 62
     0
  5
9C0
 10
108.844623
 20
-124.438245
 30
0.0
 40
3.0
  1
35
  0
POINT
  8
DEFPOINTS
  6
BYBLOCK
 62
     0
  5
9C1
 10
93.844623
 20
-99.302245
 30
0.0
  0
POINT
  8
DEFPOINTS
  6
BYBLOCK
 62
     0
  5
9C2
 10
128.844623
 20
-39.686245
 30
0.0
  0
POINT
  8
DEFPOINTS
  6
BYBLOCK
 62
     0
  5
9C3
 10
128.844623
 20
-125.438245
 30
0.0
  0
ENDBLK
  8
0
  5
9C4
  0
BLOCK
  8
0
  5
934
  2
*D14
 70
    65
 10
0.0
 20
0.0
 30
0.0
  3
*D14
  0
LINE
  8
0
  6
BYBLOCK
 62
     0
  5
935
 10
-128.655377
 20
170.615755
 30
0.0
 11
-128.655377
 21
195.487555
 31
0.0
  0
LINE
  8
0
  6
BYBLOCK
 62
     0
  5
936
 10
-120.155377
 20
169.615755
 30
0.0
 11
-120.155377
 21
195.487555
 31
0.0
  0
LINE
  8
0
  6
BYBLOCK
 62
     0
  5
937
 10
-125.655377
 20
194.487555
 30
0.0
 11
-123.155377
 21
194.487555
 31
0.0
  0
INSERT
  8
0
  6
BYBLOCK
 62
     0
  5
938
  2
_OPEN
 10
-128.655377
 20
194.487555
 30
0.0
 41
3.0
 42
3.0
 50
180.0
 43
3.0
  0
INSERT
  8
0
  6
BYBLOCK
 62
     0
  5
939
  2
_OPEN
 10
-120.155377
 20
194.487555
 30
0.0
 41
3.0
 42
3.0
 43
3.0
  0
TEXT
  8
0
  6
BYBLOCK
 62
     0
  5
93A
 10
-127.405377
 20
195.487555
 30
0.0
 40
3.0
  1
8.5
  0
POINT
  8
DEFPOINTS
  6
BYBLOCK
 62
     0
  5
93B
 10
-128.655377
 20
169.615755
 30
0.0
  0
POINT
  8
DEFPOINTS
  6
BYBLOCK
 62
     0
  5
93C
 10
-120.155377
 20
168.615755
 30
0.0
  0
POINT
  8
DEFPOINTS
  6
BYBLOCK
 62
     0
  5
93D
 10
-120.155377
 20
194.487555
 30
0.0
  0
ENDBLK
  8
0
  5
93E
  0
BLOCK
  8
0
  5
9A4
  2
*D15
 70
    65
 10
0.0
 20
0.0
 30
0.0
  3
*D15
  0
LINE
  8
0
  6
BYBLOCK
 62
     0
  5
9A5
 10
115.994623
 20
-21.384165
 30
0.0
 11
155.516623
 21
-21.384165
 31
0.0
  0
LINE
  8
0
  6
BYBLOCK
 62
     0
  5
9A6
 10
133.200623
 20
-35.884245
 30
0.0
 11
155.516623
 21
-35.884245
 31
0.0
  0
LINE
  8
0
  6
BYBLOCK
 62
     0
  5
9A7
 10
154.516623
 20
-24.384165
 30
0.0
 11
154.516623
 21
-32.884245
 31
0.0
  0
INSERT
  8
0
  6
BYBLOCK
 62
     0
  5
9A8
  2
_OPEN
 10
154.516623
 20
-21.384165
 30
0.0
 41
3.0
 42
3.0
 50
90.0
 43
3.0
  0
INSERT
  8
0
  6
BYBLOCK
 62
     0
  5
9A9
  2
_OPEN
 10
154.516623
 20
-35.884245
 30
0.0
 41
3.0
 42
3.0
 50
270.0
 43
3.0
  0
TEXT
  8
0
  6
BYBLOCK
 62
     0
  5
9AA
 10
153.516623
 20
-32.634205
 30
0.0
 40
3.0
  1
14.5
 50
90.0
  0
POINT
  8
DEFPOINTS
  6
BYBLOCK
 62
     0
  5
9AB
 10
114.994623
 20
-21.384165
 30
0.0
  0
POINT
  8
DEFPOINTS
  6
BYBLOCK
 62
     0
  5
9AC
 10
132.200623
 20
-35.884245
 30
0.0
  0
POINT
  8
DEFPOINTS
  6
BYBLOCK
 62
     0
  5
9AD
 10
154.516623
 20
-35.884245
 30
0.0
  0
ENDBLK
  8
0
  5
9AE
  0
BLOCK
  8
0
  5
9D0
  2
*D16
 70
    65
 10
0.0
 20
0.0
 30
0.0
  3
*D16
  0
LINE
  8
0
  6
BYBLOCK
 62
     0
  5
9D1
 10
106.694623
 20
-21.384165
 30
0.0
 11
74.816623
 21
-21.384165
 31
0.0
  0
LINE
  8
0
  6
BYBLOCK
 62
     0
  5
9D2
 10
89.912623
 20
-39.884245
 30
0.0
 11
74.816623
 21
-39.884245
 31
0.0
  0
LINE
  8
0
  6
BYBLOCK
 62
     0
  5
9D3
 10
75.816623
 20
-24.384165
 30
0.0
 11
75.816623
 21
-36.884245
 31
0.0
  0
INSERT
  8
0
  6
BYBLOCK
 62
     0
  5
9D4
  2
_OPEN
 10
75.816623
 20
-21.384165
 30
0.0
 41
3.0
 42
3.0
 50
90.0
 43
3.0
  0
INSERT
  8
0
  6
BYBLOCK
 62
     0
  5
9D5
  2
_OPEN
 10
75.816623
 20
-39.884245
 30
0.0
 41
3.0
 42
3.0
 50
270.0
 43
3.0
  0
TEXT
  8
0
  6
BYBLOCK
 62
     0
  5
9D6
 10
74.816623
 20
-34.634205
 30
0.0
 40
3.0
  1
18.5
 50
90.0
  0
POINT
  8
DEFPOINTS
  6
BYBLOCK
 62
     0
  5
9D7
 10
107.694623
 20
-21.384165
 30
0.0
  0
POINT
  8
DEFPOINTS
  6
BYBLOCK
 62
     0
  5
9D8
 10
90.912623
 20
-39.884245
 30
0.0
  0
POINT
  8
DEFPOINTS
  6
BYBLOCK
 62
     0
  5
9D9
 10
75.816623
 20
-39.884245
 30
0.0
  0
ENDBLK
  8
0
  5
9DA
  0
BLOCK
  8
0
  5
98C
  2
*D17
 70
    65
 10
0.0
 20
0.0
 30
0.0
  3
*D17
  0
LINE
  8
0
  6
BYBLOCK
 62
     0
  5
98D
 10
105.194623
 20
101.415755
 30
0.0
 11
105.194623
 21
86.397556
 31
0.0
  0
LINE
  8
0
  6
BYBLOCK
 62
     0
  5
98E
 10
97.494623
 20
101.415755
 30
0.0
 11
97.494623
 21
86.397556
 31
0.0
  0
LINE
  8
0
  6
BYBLOCK
 62
     0
  5
98F
 10
108.194623
 20
87.397556
 30
0.0
 11
111.194623
 21
87.397556
 31
0.0
  0
LINE
  8
0
  6
BYBLOCK
 62
     0
  5
990
 10
94.494623
 20
87.397556
 30
0.0
 11
83.494623
 21
87.397556
 31
0.0
  0
LINE
  8
0
  6
BYBLOCK
 62
     0
  5
991
 10
105.194623
 20
87.397556
 30
0.0
 11
97.494623
 21
87.397556
 31
0.0
  0
INSERT
  8
0
  6
BYBLOCK
 62
     0
  5
992
  2
_OPEN
 10
105.194623
 20
87.397556
 30
0.0
 41
3.0
 42
3.0
 50
180.0
 43
3.0
  0
INSERT
  8
0
  6
BYBLOCK
 62
     0
  5
993
  2
_OPEN
 10
97.494623
 20
87.397556
 30
0.0
 41
3.0
 42
3.0
 43
3.0
  0
TEXT
  8
0
  6
BYBLOCK
 62
     0
  5
994
 10
84.494623
 20
88.397556
 30
0.0
 40
3.0
  1
7.7
  0
POINT
  8
DEFPOINTS
  6
BYBLOCK
 62
     0
  5
995
 10
105.194623
 20
102.415755
 30
0.0
  0
POINT
  8
DEFPOINTS
  6
BYBLOCK
 62
     0
  5
996
 10
97.494623
 20
102.415755
 30
0.0
  0
POINT
  8
DEFPOINTS
  6
BYBLOCK
 62
     0
  5
997
 10
97.494623
 20
87.397556
 30
0.0
  0
ENDBLK
  8
0
  5
998
  0
ENDSEC
  0
SECTION
  2
ENTITIES
  0
LINE
  8
0A
  6
CONTINUOUS
 62
     7
  5
3B
 10
111.344623
 20
136.615755
 30
0.0
 11
111.344623
 21
131.615755
 31
0.0
  0
LINE
  8
0A
  6
CONTINUOUS
 62
     7
  5
3C
 10
108.844623
 20
134.115955
 30
0.0
 11
113.844623
 21
134.115955
 31
0.0
  0
LINE
  8
0B
  6
CONTINUOUS
 62
     6
  5
3D
 10
132.844623
 20
165.233955
 30
0.0
 11
132.844623
 21
160.315955
 31
0.0
  0
LINE
  8
0B
  6
CONTINUOUS
 62
     6
  5
3E
 10
84.844623
 20
104.415755
 30
0.0
 11
87.494623
 21
104.415755
 31
0.0
  0
LINE
  8
0B
  6
CONTINUOUS
 62
     6
  5
3F
 10
87.494623
 20
160.315955
 30
0.0
 11
89.849623
 21
160.315955
 31
0.0
  0
LINE
  8
0B
  6
CONTINUOUS
 62
     6
  5
40
 10
109.744623
 20
168.215755
 30
0.0
 11
109.744623
 21
178.615755
 31
0.0
  0
LINE
  8
0B
  6
CONTINUOUS
 62
     6
  5
41
 10
99.994623
 20
176.715755
 30
0.0
 11
107.694623
 21
176.715755
 31
0.0
  0
LINE
  8
0B
  6
CONTINUOUS
 62
     6
  5
42
 10
112.944623
 20
168.215755
 30
0.0
 11
112.944623
 21
178.615755
 31
0.0
  0
LINE
  8
0B
  6
CONTINUOUS
 62
     6
  5
43
 10
135.194623
 20
163.815755
 30
0.0
 11
137.844623
 21
163.815755
 31
0.0
  0
LINE
  8
0B
  6
CONTINUOUS
 62
     6
  5
44
 10
135.194623
 20
160.315955
 30
0.0
 11
132.844623
 21
160.315955
 31
0.0
  0
LINE
  8
0B
  6
CONTINUOUS
 62
     6
  5
45
 10
135.194623
 20
107.915955
 30
0.0
 11
132.840623
 21
107.915955
 31
0.0
  0
LINE
  8
0B
  6
CONTINUOUS
 62
     6
  5
46
 10
137.844623
 20
104.415755
 30
0.0
 11
135.194623
 21
104.415755
 31
0.0
  0
LINE
  8
0B
  6
CONTINUOUS
 62
     6
  5
47
 10
135.194623
 20
104.415755
 30
0.0
 11
135.194623
 21
107.915955
 31
0.0
  0
LINE
  8
0B
  6
CONTINUOUS
 62
     6
  5
48
 10
99.994623
 20
177.715955
 30
0.0
 11
99.994623
 21
176.715755
 31
0.0
  0
LINE
  8
0B
  6
CONTINUOUS
 62
     6
  5
49
 10
107.694623
 20
178.615755
 30
0.0
 11
107.694623
 21
176.715755
 31
0.0
  0
LINE
  8
0B
  6
CONTINUOUS
 62
     6
  5
4A
 10
122.694623
 20
176.715755
 30
0.0
 11
114.994623
 21
176.715755
 31
0.0
  0
LINE
  8
0B
  6
CONTINUOUS
 62
     6
  5
4B
 10
125.294623
 20
177.715955
 30
0.0
 11
122.694623
 21
177.715955
 31
0.0
  0
LINE
  8
0B
  6
CONTINUOUS
 62
     6
  5
4C
 10
107.694623
 20
178.615755
 30
0.0
 11
109.744623
 21
178.615755
 31
0.0
  0
LINE
  8
0B
  6
CONTINUOUS
 62
     6
  5
4D
 10
97.394623
 20
177.715955
 30
0.0
 11
99.994623
 21
177.715955
 31
0.0
  0
LINE
  8
0B
  6
CONTINUOUS
 62
     6
  5
4E
 10
135.194623
 20
163.815755
 30
0.0
 11
135.194623
 21
160.315955
 31
0.0
  0
LINE
  8
0B
  6
CONTINUOUS
 62
     6
  5
4F
 10
97.394623
 20
165.815755
 30
0.0
 11
97.394623
 21
177.715955
 31
0.0
  0
LINE
  8
0B
  6
CONTINUOUS
 62
     6
  5
50
 10
87.494623
 20
163.815755
 30
0.0
 11
87.494623
 21
160.315955
 31
0.0
  0
LINE
  8
0B
  6
CONTINUOUS
 62
     6
  5
51
 10
95.194623
 20
165.815755
 30
0.0
 11
95.194623
 21
164.534755
 31
0.0
  0
LINE
  8
0B
  6
CONTINUOUS
 62
     6
  5
52
 10
87.494623
 20
104.415755
 30
0.0
 11
87.494623
 21
107.915955
 31
0.0
  0
LINE
  8
0B
  6
CONTINUOUS
 62
     6
  5
53
 10
87.494623
 20
107.915955
 30
0.0
 11
89.844623
 21
107.915955
 31
0.0
  0
LINE
  8
0B
  6
CONTINUOUS
 62
     6
  5
54
 10
122.694623
 20
177.715955
 30
0.0
 11
122.694623
 21
176.715755
 31
0.0
  0
LINE
  8
0B
  6
CONTINUOUS
 62
     6
  5
55
 10
114.994623
 20
178.615755
 30
0.0
 11
114.994623
 21
176.715755
 31
0.0
  0
LINE
  8
0B
  6
CONTINUOUS
 62
     6
  5
56
 10
84.844623
 20
163.815755
 30
0.0
 11
87.494623
 21
163.815755
 31
0.0
  0
LINE
  8
0B
  6
CONTINUOUS
 62
     6
  5
57
 10
97.394623
 20
165.815755
 30
0.0
 11
95.194623
 21
165.815755
 31
0.0
  0
LINE
  8
0B
  6
CONTINUOUS
 62
     6
  5
58
 10
112.944623
 20
168.215755
 30
0.0
 11
109.744623
 21
168.215755
 31
0.0
  0
LINE
  8
0B
  6
CONTINUOUS
 62
     6
  5
59
 10
125.294623
 20
166.881355
 30
0.0
 11
125.294623
 21
177.715955
 31
0.0
  0
LINE
  8
0B
  6
CONTINUOUS
 62
     6
  5
5A
 10
89.844623
 20
102.997755
 30
0.0
 11
89.844623
 21
107.915955
 31
0.0
  0
LINE
  8
0B
  6
CONTINUOUS
 62
     6
  5
5B
 10
128.844623
 20
99.415955
 30
0.0
 11
128.844623
 21
103.643555
 31
0.0
  0
LINE
  8
0B
  6
CONTINUOUS
 62
     6
  5
5C
 10
102.844623
 20
100.815755
 30
0.0
 11
102.844623
 21
99.415955
 31
0.0
  0
LINE
  8
0B
  6
CONTINUOUS
 62
     6
  5
5D
 10
118.844623
 20
99.415955
 30
0.0
 11
118.844623
 21
98.615755
 31
0.0
  0
LINE
  8
0B
  6
CONTINUOUS
 62
     6
  5
5E
 10
103.844623
 20
98.615755
 30
0.0
 11
103.844623
 21
99.415955
 31
0.0
  0
LINE
  8
0B
  6
CONTINUOUS
 62
     6
  5
5F
 10
102.844623
 20
99.415955
 30
0.0
 11
103.844623
 21
99.415955
 31
0.0
  0
LINE
  8
0B
  6
CONTINUOUS
 62
     6
  5
60
 10
102.844623
 20
100.815755
 30
0.0
 11
100.994623
 21
100.815755
 31
0.0
  0
LINE
  8
0B
  6
CONTINUOUS
 62
     6
  5
61
 10
118.844623
 20
99.415955
 30
0.0
 11
128.844623
 21
99.415955
 31
0.0
  0
LINE
  8
0B
  6
CONTINUOUS
 62
     6
  5
62
 10
84.844623
 20
104.415755
 30
0.0
 11
84.844623
 21
163.815755
 31
0.0
  0
LINE
  8
0B
  6
CONTINUOUS
 62
     6
  5
63
 10
137.844623
 20
163.815755
 30
0.0
 11
137.844623
 21
104.415755
 31
0.0
  0
LINE
  8
0B
  6
CONTINUOUS
 62
     6
  5
64
 10
103.844623
 20
98.615755
 30
0.0
 11
118.844623
 21
98.615755
 31
0.0
  0
LINE
  8
0B
  6
CONTINUOUS
 62
     6
  5
65
 10
114.994623
 20
178.615755
 30
0.0
 11
112.944623
 21
178.615755
 31
0.0
  0
LINE
  8
0B
  6
CONTINUOUS
 62
     6
  5
66
 10
100.194623
 20
102.415755
 30
0.0
 11
98.011623
 21
102.415755
 31
0.0
  0
ARC
  8
0B
  6
CONTINUOUS
 62
     6
  5
67
 10
94.344623
 20
160.115955
 30
0.0
 40
4.5
 50
79.1117
 51
177.452
  0
ARC
  8
0B
  6
CONTINUOUS
 62
     6
  5
68
 10
128.844623
 20
164.115955
 30
0.0
 40
4.5
 50
48.1896
 51
142.082
  0
ARC
  8
0B
  6
CONTINUOUS
 62
     6
  5
69
 10
128.344623
 20
108.115755
 30
0.0
 40
4.5
 50
276.379
 51
357.453
  0
ARC
  8
0B
  6
CONTINUOUS
 62
     6
  5
6A
 10
129.844623
 20
165.233955
 30
0.0
 40
3.0
 50
0.0
 51
48.1897
  0
ARC
  8
0B
  6
CONTINUOUS
 62
     6
  5
6B
 10
93.844623
 20
104.115755
 30
0.0
 40
4.5
 50
228.19
 51
337.804
  0
ARC
  8
0B
  6
CONTINUOUS
 62
     6
  5
6C
 10
92.844623
 20
102.997755
 30
0.0
 40
3.0
 50
180.0
 51
228.19
  0
ARC
  8
0B
  6
CONTINUOUS
 62
     6
  5
6D
 10
100.994623
 20
101.615955
 30
0.0
 40
0.800004
 50
180.0
 51
270.0
  0
LINE
  8
0C
  6
CONTINUOUS
 62
     3
  5
6E
 10
107.494623
 20
164.715955
 30
0.0
 11
115.194623
 21
164.715955
 31
0.0
  0
LINE
  8
0C
  6
CONTINUOUS
 62
     3
  5
6F
 10
137.844623
 20
152.115955
 30
0.0
 11
84.844623
 21
152.115955
 31
0.0
  0
LINE
  8
0C
  6
CONTINUOUS
 62
     3
  5
70
 10
106.344623
 20
146.615955
 30
0.0
 11
106.344623
 21
121.615755
 31
0.0
  0
LINE
  8
0C
  6
CONTINUOUS
 62
     3
  5
71
 10
111.344623
 20
146.615955
 30
0.0
 11
111.344623
 21
138.815955
 31
0.0
  0
LINE
  8
0C
  6
CONTINUOUS
 62
     3
  5
72
 10
114.094623
 20
138.815955
 30
0.0
 11
114.094623
 21
129.415755
 31
0.0
  0
LINE
  8
0C
  6
CONTINUOUS
 62
     3
  5
73
 10
109.594623
 20
129.415755
 30
0.0
 11
109.594623
 21
138.815955
 31
0.0
  0
LINE
  8
0C
  6
CONTINUOUS
 62
     3
  5
74
 10
97.494623
 20
165.815755
 30
0.0
 11
97.494623
 21
152.115955
 31
0.0
  0
LINE
  8
0C
  6
CONTINUOUS
 62
     3
  5
75
 10
107.494623
 20
165.815755
 30
0.0
 11
107.494623
 21
152.115955
 31
0.0
  0
LINE
  8
0C
  6
CONTINUOUS
 62
     3
  5
76
 10
105.194623
 20
165.815755
 30
0.0
 11
105.194623
 21
152.115955
 31
0.0
  0
LINE
  8
0C
  6
CONTINUOUS
 62
     3
  5
77
 10
107.494623
 20
165.815755
 30
0.0
 11
105.194623
 21
165.815755
 31
0.0
  0
LINE
  8
0C
  6
CONTINUOUS
 62
     3
  5
78
 10
117.494623
 20
165.815755
 30
0.0
 11
115.194623
 21
165.815755
 31
0.0
  0
LINE
  8
0C
  6
CONTINUOUS
 62
     3
  5
79
 10
125.294623
 20
168.215755
 30
0.0
 11
112.944623
 21
168.215755
 31
0.0
  0
LINE
  8
0C
  6
CONTINUOUS
 62
     3
  5
7A
 10
105.194623
 20
164.715955
 30
0.0
 11
97.494623
 21
164.715955
 31
0.0
  0
LINE
  8
0C
  6
CONTINUOUS
 62
     3
  5
7B
 10
97.494623
 20
160.315955
 30
0.0
 11
105.194623
 21
160.315955
 31
0.0
  0
LINE
  8
0C
  6
CONTINUOUS
 62
     3
  5
7C
 10
107.494623
 20
160.315955
 30
0.0
 11
115.194623
 21
160.315955
 31
0.0
  0
LINE
  8
0C
  6
CONTINUOUS
 62
     3
  5
7D
 10
126.344623
 20
138.815955
 30
0.0
 11
106.344623
 21
138.815955
 31
0.0
  0
LINE
  8
0C
  6
CONTINUOUS
 62
     3
  5
7E
 10
125.194623
 20
164.715955
 30
0.0
 11
117.494623
 21
164.715955
 31
0.0
  0
LINE
  8
0C
  6
CONTINUOUS
 62
     3
  5
7F
 10
126.344623
 20
146.615955
 30
0.0
 11
126.344623
 21
121.615755
 31
0.0
  0
LINE
  8
0C
  6
CONTINUOUS
 62
     3
  5
80
 10
121.344623
 20
146.615955
 30
0.0
 11
121.344623
 21
138.815955
 31
0.0
  0
LINE
  8
0C
  6
CONTINUOUS
 62
     3
  5
81
 10
117.494623
 20
165.815755
 30
0.0
 11
117.494623
 21
152.115955
 31
0.0
  0
LINE
  8
0C
  6
CONTINUOUS
 62
     3
  5
82
 10
125.194623
 20
165.815755
 30
0.0
 11
125.194623
 21
152.115955
 31
0.0
  0
LINE
  8
0C
  6
CONTINUOUS
 62
     3
  5
83
 10
125.194623
 20
165.815755
 30
0.0
 11
127.494623
 21
165.815755
 31
0.0
  0
LINE
  8
0C
  6
CONTINUOUS
 62
     3
  5
84
 10
125.194623
 20
160.315955
 30
0.0
 11
117.494623
 21
160.315955
 31
0.0
  0
LINE
  8
0C
  6
CONTINUOUS
 62
     3
  5
85
 10
115.194623
 20
116.115755
 30
0.0
 11
115.194623
 21
102.415755
 31
0.0
  0
LINE
  8
0C
  6
CONTINUOUS
 62
     3
  5
86
 10
107.494623
 20
116.115755
 30
0.0
 11
107.494623
 21
102.415755
 31
0.0
  0
LINE
  8
0C
  6
CONTINUOUS
 62
     3
  5
87
 10
97.494623
 20
107.915955
 30
0.0
 11
105.194623
 21
107.915955
 31
0.0
  0
LINE
  8
0C
  6
CONTINUOUS
 62
     3
  5
88
 10
107.494623
 20
107.915955
 30
0.0
 11
115.194623
 21
107.915955
 31
0.0
  0
LINE
  8
0C
  6
CONTINUOUS
 62
     3
  5
89
 10
125.194623
 20
107.915955
 30
0.0
 11
117.494623
 21
107.915955
 31
0.0
  0
LINE
  8
0C
  6
CONTINUOUS
 62
     3
  5
8A
 10
125.194623
 20
102.415755
 30
0.0
 11
125.194623
 21
116.115755
 31
0.0
  0
LINE
  8
0C
  6
CONTINUOUS
 62
     3
  5
8B
 10
117.494623
 20
102.415755
 30
0.0
 11
117.494623
 21
116.115755
 31
0.0
  0
LINE
  8
0C
  6
CONTINUOUS
 62
     3
  5
8C
 10
106.344623
 20
121.615755
 30
0.0
 11
126.344623
 21
121.615755
 31
0.0
  0
LINE
  8
0C
  6
CONTINUOUS
 62
     3
  5
8D
 10
126.344623
 20
146.615955
 30
0.0
 11
106.344623
 21
146.615955
 31
0.0
  0
LINE
  8
0C
  6
CONTINUOUS
 62
     3
  5
8E
 10
115.194623
 20
165.815755
 30
0.0
 11
115.194623
 21
152.115955
 31
0.0
  0
LINE
  8
0C
  6
CONTINUOUS
 62
     3
  5
8F
 10
126.344623
 20
129.415755
 30
0.0
 11
106.344623
 21
129.415755
 31
0.0
  0
LINE
  8
0C
  6
CONTINUOUS
 62
     3
  5
90
 10
123.094623
 20
129.415755
 30
0.0
 11
123.094623
 21
138.815955
 31
0.0
  0
LINE
  8
0C
  6
CONTINUOUS
 62
     3
  5
91
 10
118.594623
 20
138.815955
 30
0.0
 11
118.594623
 21
129.415755
 31
0.0
  0
LINE
  8
0C
  6
CONTINUOUS
 62
     3
  5
92
 10
84.844623
 20
116.115755
 30
0.0
 11
137.844623
 21
116.115755
 31
0.0
  0
LINE
  8
0C
  6
CONTINUOUS
 62
     3
  5
93
 10
127.494623
 20
152.115955
 30
0.0
 11
127.494623
 21
165.815755
 31
0.0
  0
LINE
  8
0C
  6
CONTINUOUS
 62
     3
  5
94
 10
127.494623
 20
116.115755
 30
0.0
 11
127.494623
 21
102.415755
 31
0.0
  0
LINE
  8
0C
  6
CONTINUOUS
 62
     3
  5
95
 10
125.294623
 20
165.815755
 30
0.0
 11
125.294623
 21
166.881355
 31
0.0
  0
LINE
  8
0C
  6
CONTINUOUS
 62
     3
  5
96
 10
95.194623
 20
102.415755
 30
0.0
 11
95.194623
 21
116.115755
 31
0.0
  0
LINE
  8
0C
  6
CONTINUOUS
 62
     3
  5
97
 10
97.494623
 20
165.815755
 30
0.0
 11
97.394623
 21
165.815755
 31
0.0
  0
LINE
  8
0C
  6
CONTINUOUS
 62
     3
  5
98
 10
127.494623
 20
102.415755
 30
0.0
 11
100.194623
 21
102.415755
 31
0.0
  0
LINE
  8
0C
  6
CONTINUOUS
 62
     3
  5
99
 10
97.494623
 20
116.115755
 30
0.0
 11
97.494623
 21
102.415755
 31
0.0
  0
LINE
  8
0C
  6
CONTINUOUS
 62
     3
  5
9A
 10
105.194623
 20
102.415755
 30
0.0
 11
105.194623
 21
116.115755
 31
0.0
  0
LINE
  8
0C
  6
CONTINUOUS
 62
     3
  5
9B
 10
87.494623
 20
107.915955
 30
0.0
 11
87.494623
 21
116.115755
 31
0.0
  0
LINE
  8
0C
  6
CONTINUOUS
 62
     3
  5
9C
 10
89.844623
 20
107.915955
 30
0.0
 11
95.194623
 21
107.915955
 31
0.0
  0
LINE
  8
0C
  6
CONTINUOUS
 62
     3
  5
9D
 10
98.011623
 20
102.415755
 30
0.0
 11
95.194623
 21
102.415755
 31
0.0
  0
LINE
  8
0C
  6
CONTINUOUS
 62
     3
  5
9E
 10
132.840623
 20
107.915955
 30
0.0
 11
127.494623
 21
107.915955
 31
0.0
  0
LINE
  8
0C
  6
CONTINUOUS
 62
     3
  5
9F
 10
135.194623
 20
107.915955
 30
0.0
 11
135.194623
 21
116.115755
 31
0.0
  0
LINE
  8
0C
  6
CONTINUOUS
 62
     3
  5
A0
 10
135.194623
 20
160.315955
 30
0.0
 11
135.194623
 21
152.115955
 31
0.0
  0
LINE
  8
0C
  6
CONTINUOUS
 62
     3
  5
A1
 10
132.844623
 20
160.315955
 30
0.0
 11
127.494623
 21
160.315955
 31
0.0
  0
LINE
  8
0C
  6
CONTINUOUS
 62
     3
  5
A2
 10
114.994623
 20
176.715755
 30
0.0
 11
114.994623
 21
168.215755
 31
0.0
  0
LINE
  8
0C
  6
CONTINUOUS
 62
     3
  5
A3
 10
122.694623
 20
176.715755
 30
0.0
 11
122.694623
 21
168.215755
 31
0.0
  0
LINE
  8
0C
  6
CONTINUOUS
 62
     3
  5
A4
 10
109.744623
 20
168.215755
 30
0.0
 11
97.394623
 21
168.215755
 31
0.0
  0
LINE
  8
0C
  6
CONTINUOUS
 62
     3
  5
A5
 10
107.694623
 20
176.715755
 30
0.0
 11
107.694623
 21
168.215755
 31
0.0
  0
LINE
  8
0C
  6
CONTINUOUS
 62
     3
  5
A6
 10
99.994623
 20
176.715755
 30
0.0
 11
99.994623
 21
168.215755
 31
0.0
  0
LINE
  8
0C
  6
CONTINUOUS
 62
     3
  5
A7
 10
95.194623
 20
164.534755
 30
0.0
 11
95.194623
 21
152.115955
 31
0.0
  0
LINE
  8
0C
  6
CONTINUOUS
 62
     3
  5
A8
 10
89.848623
 20
160.315955
 30
0.0
 11
95.194623
 21
160.315955
 31
0.0
  0
LINE
  8
0C
  6
CONTINUOUS
 62
     3
  5
A9
 10
87.494623
 20
160.315955
 30
0.0
 11
87.494623
 21
152.115955
 31
0.0
  0
ARC
  8
0C
  6
CONTINUOUS
 62
     3
  5
AA
 10
93.844623
 20
104.115755
 30
0.0
 40
2.25
 50
53.1299
 51
306.87
  0
ARC
  8
0C
  6
CONTINUOUS
 62
     3
  5
AB
 10
93.844623
 20
104.115755
 30
0.0
 40
2.25
 50
306.87
 51
310.925
  0
ARC
  8
0C
  6
CONTINUOUS
 62
     3
  5
AC
 10
128.844623
 20
164.115955
 30
0.0
 40
2.25002
 50
126.87
 51
130.925
  0
ARC
  8
0C
  6
CONTINUOUS
 62
     3
  5
AD
 10
128.844623
 20
164.115955
 30
0.0
 40
2.25002
 50
233.13
 51
126.87
  0
ARC
  8
0C
  6
CONTINUOUS
 62
     3
  5
AE
 10
128.344623
 20
108.115755
 30
0.0
 40
2.25
 50
247.804
 51
354.9
  0
ARC
  8
0C
  6
CONTINUOUS
 62
     3
  5
AF
 10
94.344623
 20
160.115955
 30
0.0
 40
2.25
 50
67.8038
 51
174.901
  0
LINE
  8
0D
  6
CONTINUOUS
 62
     2
  5
B0
 10
103.466623
 20
153.494555
 30
0.0
 11
99.223623
 21
157.736955
 31
0.0
  0
LINE
  8
0D
  6
CONTINUOUS
 62
     2
  5
B1
 10
100.107623
 20
154.378555
 30
0.0
 11
102.582623
 21
156.853155
 31
0.0
  0
LINE
  8
0D
  6
CONTINUOUS
 62
     2
  5
B2
 10
110.108623
 20
154.378555
 30
0.0
 11
112.582623
 21
156.853155
 31
0.0
  0
LINE
  8
0D
  6
CONTINUOUS
 62
     2
  5
B3
 10
113.466623
 20
153.494555
 30
0.0
 11
109.224623
 21
157.736955
 31
0.0
  0
LINE
  8
0D
  6
CONTINUOUS
 62
     2
  5
B4
 10
120.108623
 20
154.378555
 30
0.0
 11
122.582623
 21
156.853155
 31
0.0
  0
LINE
  8
0D
  6
CONTINUOUS
 62
     2
  5
B5
 10
123.466623
 20
153.494555
 30
0.0
 11
119.224623
 21
157.736955
 31
0.0
  0
LINE
  8
0D
  6
CONTINUOUS
 62
     2
  5
B6
 10
130.108623
 20
154.378555
 30
0.0
 11
132.582623
 21
156.853155
 31
0.0
  0
LINE
  8
0D
  6
CONTINUOUS
 62
     2
  5
B7
 10
133.466623
 20
153.494555
 30
0.0
 11
129.224623
 21
157.736955
 31
0.0
  0
LINE
  8
0D
  6
CONTINUOUS
 62
     2
  5
B8
 10
102.608623
 20
171.378555
 30
0.0
 11
105.082623
 21
173.853355
 31
0.0
  0
LINE
  8
0D
  6
CONTINUOUS
 62
     2
  5
B9
 10
105.966623
 20
170.494755
 30
0.0
 11
101.724623
 21
174.737355
 31
0.0
  0
LINE
  8
0D
  6
CONTINUOUS
 62
     2
  5
BA
 10
117.608623
 20
171.378555
 30
0.0
 11
120.082623
 21
173.853355
 31
0.0
  0
LINE
  8
0D
  6
CONTINUOUS
 62
     2
  5
BB
 10
120.966623
 20
170.494755
 30
0.0
 11
116.724623
 21
174.737355
 31
0.0
  0
LINE
  8
0D
  6
CONTINUOUS
 62
     2
  5
BC
 10
100.107623
 20
111.378355
 30
0.0
 11
102.582623
 21
113.853355
 31
0.0
  0
LINE
  8
0D
  6
CONTINUOUS
 62
     2
  5
BD
 10
103.466623
 20
110.494555
 30
0.0
 11
99.223623
 21
114.737155
 31
0.0
  0
LINE
  8
0D
  6
CONTINUOUS
 62
     2
  5
BE
 10
110.108623
 20
111.378355
 30
0.0
 11
112.582623
 21
113.853355
 31
0.0
  0
LINE
  8
0D
  6
CONTINUOUS
 62
     2
  5
BF
 10
113.466623
 20
110.494555
 30
0.0
 11
109.224623
 21
114.737155
 31
0.0
  0
LINE
  8
0D
  6
CONTINUOUS
 62
     2
  5
C0
 10
120.108623
 20
111.378355
 30
0.0
 11
122.582623
 21
113.853355
 31
0.0
  0
LINE
  8
0D
  6
CONTINUOUS
 62
     2
  5
C1
 10
123.466623
 20
110.494555
 30
0.0
 11
119.224623
 21
114.737155
 31
0.0
  0
LINE
  8
0D
  6
CONTINUOUS
 62
     2
  5
C2
 10
130.108623
 20
111.378355
 30
0.0
 11
132.582623
 21
113.853355
 31
0.0
  0
LINE
  8
0D
  6
CONTINUOUS
 62
     2
  5
C3
 10
133.466623
 20
110.494555
 30
0.0
 11
129.224623
 21
114.737155
 31
0.0
  0
LINE
  8
0D
  6
CONTINUOUS
 62
     2
  5
C4
 10
93.465623
 20
153.494555
 30
0.0
 11
89.223623
 21
157.736955
 31
0.0
  0
LINE
  8
0D
  6
CONTINUOUS
 62
     2
  5
C5
 10
90.107623
 20
154.378555
 30
0.0
 11
92.581623
 21
156.853155
 31
0.0
  0
LINE
  8
0D
  6
CONTINUOUS
 62
     2
  5
C6
 10
90.107623
 20
111.378355
 30
0.0
 11
92.581623
 21
113.853355
 31
0.0
  0
LINE
  8
0D
  6
CONTINUOUS
 62
     2
  5
C7
 10
93.465623
 20
110.494555
 30
0.0
 11
89.223623
 21
114.737155
 31
0.0
  0
CIRCLE
  8
0D
  6
CONTINUOUS
 62
     2
  5
C8
 10
111.344623
 20
155.615755
 30
0.0
 40
3.0
  0
CIRCLE
  8
0D
  6
CONTINUOUS
 62
     2
  5
C9
 10
101.344623
 20
155.615755
 30
0.0
 40
3.0
  0
CIRCLE
  8
0D
  6
CONTINUOUS
 62
     2
  5
CA
 10
121.344623
 20
155.615755
 30
0.0
 40
3.0
  0
CIRCLE
  8
0D
  6
CONTINUOUS
 62
     2
  5
CB
 10
101.344623
 20
112.615755
 30
0.0
 40
3.0
  0
CIRCLE
  8
0D
  6
CONTINUOUS
 62
     2
  5
CC
 10
111.344623
 20
112.615755
 30
0.0
 40
3.0
  0
CIRCLE
  8
0D
  6
CONTINUOUS
 62
     2
  5
CD
 10
121.344623
 20
112.615755
 30
0.0
 40
3.0
  0
CIRCLE
  8
0D
  6
CONTINUOUS
 62
     2
  5
CE
 10
103.844623
 20
172.615955
 30
0.0
 40
3.0
  0
CIRCLE
  8
0D
  6
CONTINUOUS
 62
     2
  5
CF
 10
118.844623
 20
172.615955
 30
0.0
 40
3.0
  0
CIRCLE
  8
0D
  6
CONTINUOUS
 62
     2
  5
D0
 10
91.344623
 20
155.615755
 30
0.0
 40
3.0
  0
CIRCLE
  8
0D
  6
CONTINUOUS
 62
     2
  5
D1
 10
91.344623
 20
112.615755
 30
0.0
 40
3.0
  0
CIRCLE
  8
0D
  6
CONTINUOUS
 62
     2
  5
D2
 10
131.344623
 20
155.615755
 30
0.0
 40
3.0
  0
CIRCLE
  8
0D
  6
CONTINUOUS
 62
     2
  5
D3
 10
131.344623
 20
112.615755
 30
0.0
 40
3.0
  0
LINE
  8
10
  6
CENTER
 62
     6
  5
D4
 10
101.344623
 20
108.489355
 30
0.0
 11
101.344623
 21
116.799555
 31
0.0
  0
LINE
  8
10
  6
CENTER
 62
     6
  5
D5
 10
131.344623
 20
108.415755
 30
0.0
 11
131.344623
 21
116.872955
 31
0.0
  0
LINE
  8
10
  6
CENTER
 62
     6
  5
D6
 10
114.124623
 20
172.615955
 30
0.0
 11
123.610623
 21
172.615955
 31
0.0
  0
LINE
  8
10
  6
CENTER
 62
     6
  5
D7
 10
121.344623
 20
159.594955
 30
0.0
 11
121.344623
 21
151.505755
 31
0.0
  0
LINE
  8
10
  6
CENTER
 62
     6
  5
D8
 10
131.344623
 20
159.815955
 30
0.0
 11
131.344623
 21
151.358755
 31
0.0
  0
LINE
  8
10
  6
CENTER
 62
     6
  5
D9
 10
91.344623
 20
108.489355
 30
0.0
 11
91.344623
 21
116.799555
 31
0.0
  0
LINE
  8
10
  6
CENTER
 62
     6
  5
DA
 10
103.844623
 20
168.511155
 30
0.0
 11
103.844623
 21
176.526555
 31
0.0
  0
LINE
  8
10
  6
CENTER
 62
     6
  5
DB
 10
118.844623
 20
168.511155
 30
0.0
 11
118.844623
 21
176.526555
 31
0.0
  0
LINE
  8
10
  6
CENTER
 62
     6
  5
DC
 10
108.608623
 20
172.615955
 30
0.0
 11
99.195623
 21
172.615955
 31
0.0
  0
LINE
  8
10
  6
CENTER
 62
     6
  5
DD
 10
91.344623
 20
159.742155
 30
0.0
 11
91.344623
 21
151.432155
 31
0.0
  0
LINE
  8
10
  6
CENTER
 62
     6
  5
DE
 10
101.344623
 20
159.742155
 30
0.0
 11
101.344623
 21
151.432155
 31
0.0
  0
LINE
  8
10
  6
CENTER
 62
     6
  5
DF
 10
81.870623
 20
134.115955
 30
0.0
 11
140.814623
 21
134.115955
 31
0.0
  0
LINE
  8
10
  6
CENTER
 62
     6
  5
E0
 10
86.278623
 20
112.615755
 30
0.0
 11
136.220623
 21
112.615755
 31
0.0
  0
LINE
  8
10
  6
CENTER
 62
     6
  5
E1
 10
86.349623
 20
155.615755
 30
0.0
 11
136.220623
 21
155.615755
 31
0.0
  0
LINE
  8
10
  6
CENTER
 62
     6
  5
E2
 10
111.344623
 20
180.640755
 30
0.0
 11
111.344623
 21
95.592955
 31
0.0
  0
LINE
  8
10
  6
CENTER
 62
     6
  5
E3
 10
121.344623
 20
108.636755
 30
0.0
 11
121.344623
 21
116.725755
 31
0.0
  0
LINE
  8
14
  6
CONTINUOUS
 62
     7
  5
E4
 10
-128.655377
 20
136.615755
 30
0.0
 11
-128.655377
 21
131.615755
 31
0.0
  0
LINE
  8
14
  6
CONTINUOUS
 62
     7
  5
E5
 10
-131.155377
 20
134.115955
 30
0.0
 11
-126.155377
 21
134.115955
 31
0.0
  0
LINE
  8
15
  6
CONTINUOUS
 62
     6
  5
E6
 10
-27.937377
 20
164.815955
 30
0.0
 11
-26.205357
 21
161.815955
 31
0.0
  0
LINE
  8
15
  6
CONTINUOUS
 62
     6
  5
E7
 10
-27.937377
 20
103.415755
 30
0.0
 11
-26.205357
 21
106.415755
 31
0.0
  0
LINE
  8
15
  6
CONTINUOUS
 62
     6
  5
E8
 10
-123.655377
 20
151.815955
 30
0.0
 11
-124.655377
 21
151.815955
 31
0.0
  0
LINE
  8
15
  6
CONTINUOUS
 62
     6
  5
E9
 10
-70.155377
 20
176.515755
 30
0.0
 11
-70.155377
 21
164.715955
 31
0.0
  0
LINE
  8
15
  6
CONTINUOUS
 62
     6
  5
EA
 10
-64.955377
 20
178.615755
 30
0.0
 11
-64.955377
 21
176.515755
 31
0.0
  0
LINE
  8
15
  6
CONTINUOUS
 62
     6
  5
EB
 10
-70.155377
 20
176.515755
 30
0.0
 11
-64.955377
 21
176.515755
 31
0.0
  0
LINE
  8
15
  6
CONTINUOUS
 62
     6
  5
EC
 10
-47.905377
 20
168.215755
 30
0.0
 11
-45.505377
 21
165.815755
 31
0.0
  0
LINE
  8
15
  6
CONTINUOUS
 62
     6
  5
ED
 10
-26.205357
 20
152.115955
 30
0.0
 11
-25.748757
 21
152.115955
 31
0.0
  0
LINE
  8
15
  6
CONTINUOUS
 62
     6
  5
EE
 10
-25.748757
 20
116.115755
 30
0.0
 11
-26.205357
 21
116.115755
 31
0.0
  0
LINE
  8
15
  6
CONTINUOUS
 62
     6
  5
EF
 10
-24.305357
 20
118.615755
 30
0.0
 11
-24.305357
 21
121.615755
 31
0.0
  0
LINE
  8
15
  6
CONTINUOUS
 62
     6
  5
F0
 10
-24.305357
 20
149.615955
 30
0.0
 11
-25.748757
 21
152.115955
 31
0.0
  0
LINE
  8
15
  6
CONTINUOUS
 62
     6
  5
F1
 10
-24.305357
 20
118.615755
 30
0.0
 11
-25.748757
 21
116.115755
 31
0.0
  0
LINE
  8
15
  6
CONTINUOUS
 62
     6
  5
F2
 10
-47.905377
 20
178.615755
 30
0.0
 11
-47.905377
 21
168.215755
 31
0.0
  0
LINE
  8
15
  6
CONTINUOUS
 62
     6
  5
F3
 10
-124.655377
 20
150.615755
 30
0.0
 11
-125.405977
 21
149.315955
 31
0.0
  0
LINE
  8
15
  6
CONTINUOUS
 62
     6
  5
F4
 10
-128.655377
 20
149.315955
 30
0.0
 11
-125.405977
 21
149.315955
 31
0.0
  0
LINE
  8
15
  6
CONTINUOUS
 62
     6
  5
F5
 10
-26.205357
 20
161.815955
 30
0.0
 11
-26.205357
 21
152.115955
 31
0.0
  0
LINE
  8
15
  6
CONTINUOUS
 62
     6
  5
F6
 10
-45.505377
 20
165.815755
 30
0.0
 11
-29.669377
 21
165.815755
 31
0.0
  0
LINE
  8
15
  6
CONTINUOUS
 62
     6
  5
F7
 10
-24.305357
 20
121.615755
 30
0.0
 11
-18.655357
 21
121.615755
 31
0.0
  0
LINE
  8
15
  6
CONTINUOUS
 62
     6
  5
F8
 10
-70.155377
 20
164.715955
 30
0.0
 11
-120.155377
 21
164.715955
 31
0.0
  0
LINE
  8
15
  6
CONTINUOUS
 62
     6
  5
F9
 10
-125.655377
 20
118.115955
 30
0.0
 11
-124.655377
 21
118.115955
 31
0.0
  0
LINE
  8
15
  6
CONTINUOUS
 62
     6
  5
FA
 10
-128.655377
 20
168.615755
 30
0.0
 11
-120.155377
 21
168.615755
 31
0.0
  0
LINE
  8
15
  6
CONTINUOUS
 62
     6
  5
FB
 10
-64.955377
 20
178.615755
 30
0.0
 11
-47.905377
 21
178.615755
 31
0.0
  0
LINE
  8
15
  6
CONTINUOUS
 62
     6
  5
FC
 10
-124.655377
 20
150.615755
 30
0.0
 11
-124.655377
 21
151.815955
 31
0.0
  0
LINE
  8
15
  6
CONTINUOUS
 62
     6
  5
FD
 10
-123.655377
 20
116.415755
 30
0.0
 11
-123.655377
 21
151.815955
 31
0.0
  0
LINE
  8
15
  6
CONTINUOUS
 62
     6
  5
FE
 10
-124.655377
 20
116.415755
 30
0.0
 11
-124.655377
 21
118.115955
 31
0.0
  0
LINE
  8
15
  6
CONTINUOUS
 62
     6
  5
FF
 10
-125.655377
 20
118.115955
 30
0.0
 11
-128.655377
 21
116.415755
 31
0.0
  0
LINE
  8
15
  6
CONTINUOUS
 62
     6
  5
100
 10
-128.655377
 20
98.615755
 30
0.0
 11
-128.655377
 21
116.415755
 31
0.0
  0
LINE
  8
15
  6
CONTINUOUS
 62
     6
  5
101
 10
-124.655377
 20
116.415755
 30
0.0
 11
-123.655377
 21
116.415755
 31
0.0
  0
LINE
  8
15
  6
CONTINUOUS
 62
     6
  5
102
 10
-24.305357
 20
146.615955
 30
0.0
 11
-24.305357
 21
149.615955
 31
0.0
  0
LINE
  8
15
  6
CONTINUOUS
 62
     6
  5
103
 10
-26.205357
 20
116.115755
 30
0.0
 11
-26.205357
 21
106.415755
 31
0.0
  0
LINE
  8
15
  6
CONTINUOUS
 62
     6
  5
104
 10
-68.705377
 20
104.065955
 30
0.0
 11
-68.705377
 21
99.415955
 31
0.0
  0
LINE
  8
15
  6
CONTINUOUS
 62
     6
  5
105
 10
-120.155377
 20
104.065955
 30
0.0
 11
-68.705377
 21
104.065955
 31
0.0
  0
LINE
  8
15
  6
CONTINUOUS
 62
     6
  5
106
 10
-68.705377
 20
99.415955
 30
0.0
 11
-51.205377
 21
99.415955
 31
0.0
  0
LINE
  8
15
  6
CONTINUOUS
 62
     6
  5
107
 10
-51.205377
 20
100.815755
 30
0.0
 11
-51.205377
 21
99.415955
 31
0.0
  0
LINE
  8
15
  6
CONTINUOUS
 62
     6
  5
108
 10
-120.155377
 20
98.615755
 30
0.0
 11
-120.155377
 21
104.065955
 31
0.0
  0
LINE
  8
15
  6
CONTINUOUS
 62
     6
  5
109
 10
-120.155377
 20
98.615755
 30
0.0
 11
-128.655377
 21
98.615755
 31
0.0
  0
LINE
  8
15
  6
CONTINUOUS
 62
     6
  5
10A
 10
-51.205377
 20
100.815755
 30
0.0
 11
-50.405377
 21
100.815755
 31
0.0
  0
LINE
  8
15
  6
CONTINUOUS
 62
     6
  5
10B
 10
-49.605377
 20
102.415755
 30
0.0
 11
-29.669377
 21
102.415755
 31
0.0
  0
LINE
  8
15
  6
CONTINUOUS
 62
     6
  5
10C
 10
-120.155377
 20
168.615755
 30
0.0
 11
-120.155377
 21
164.715955
 31
0.0
  0
LINE
  8
15
  6
CONTINUOUS
 62
     6
  5
10D
 10
-18.655357
 20
146.615955
 30
0.0
 11
-24.305357
 21
146.615955
 31
0.0
  0
LINE
  8
15
  6
CONTINUOUS
 62
     6
  5
10E
 10
-128.655377
 20
168.615755
 30
0.0
 11
-128.655377
 21
149.315955
 31
0.0
  0
LINE
  8
15
  6
CONTINUOUS
 62
     6
  5
10F
 10
-18.655357
 20
121.615755
 30
0.0
 11
-18.655357
 21
146.615955
 31
0.0
  0
LINE
  8
15
  6
CONTINUOUS
 62
     6
  5
110
 10
-120.155377
 20
104.065955
 30
0.0
 11
-110.155377
 21
104.065955
 31
0.0
  0
LINE
  8
15
  6
CONTINUOUS
 62
     6
  5
111
 10
-94.155377
 20
104.065955
 30
0.0
 11
-94.155377
 21
99.465755
 31
0.0
  0
LINE
  8
15
  6
CONTINUOUS
 62
     6
  5
112
 10
-94.155377
 20
99.465755
 30
0.0
 11
-88.155377
 21
99.465755
 31
0.0
  0
LINE
  8
15
  6
CONTINUOUS
 62
     6
  5
113
 10
-88.155377
 20
99.465755
 30
0.0
 11
-88.155377
 21
104.065955
 31
0.0
  0
ARC
  8
15
  6
CONTINUOUS
 62
     6
  5
114
 10
-29.669377
 20
163.815755
 30
0.0
 40
2.0
 50
30.0
 51
90.0002
  0
ARC
  8
15
  6
CONTINUOUS
 62
     6
  5
115
 10
-29.669377
 20
104.415755
 30
0.0
 40
2.0
 50
270.0
 51
330.0
  0
ARC
  8
15
  6
CONTINUOUS
 62
     6
  5
116
 10
-50.405377
 20
101.615955
 30
0.0
 40
0.800004
 50
270.0
 51
0.079776
  0
LINE
  8
16
  6
CONTINUOUS
 62
     3
  5
117
 10
-120.155377
 20
153.115755
 30
0.0
 11
-64.655377
 21
153.115755
 31
0.0
  0
LINE
  8
16
  6
CONTINUOUS
 62
     3
  5
118
 10
-120.155377
 20
115.115955
 30
0.0
 11
-64.655377
 21
115.115955
 31
0.0
  0
LINE
  8
16
  6
CONTINUOUS
 62
     3
  5
119
 10
-43.905377
 20
131.615755
 30
0.0
 11
-43.905377
 21
136.615755
 31
0.0
  0
LINE
  8
16
  6
CONTINUOUS
 62
     3
  5
11A
 10
-48.405377
 20
110.115955
 30
0.0
 11
-48.405377
 21
106.915955
 31
0.0
  0
LINE
  8
16
  6
CONTINUOUS
 62
     3
  5
11B
 10
-48.405377
 20
161.315955
 30
0.0
 11
-48.405377
 21
158.115755
 31
0.0
  0
LINE
  8
16
  6
CONTINUOUS
 62
     3
  5
11C
 10
-24.305357
 20
129.415755
 30
0.0
 11
-18.655357
 21
129.415755
 31
0.0
  0
LINE
  8
16
  6
CONTINUOUS
 62
     3
  5
11D
 10
-58.705377
 20
131.615755
 30
0.0
 11
-58.705377
 21
136.615755
 31
0.0
  0
LINE
  8
16
  6
CONTINUOUS
 62
     3
  5
11E
 10
-61.205377
 20
151.040755
 30
0.0
 11
-61.205377
 21
147.040755
 31
0.0
  0
LINE
  8
16
  6
CONTINUOUS
 62
     3
  5
11F
 10
-58.705377
 20
131.615755
 30
0.0
 11
-43.905377
 21
131.615755
 31
0.0
  0
LINE
  8
16
  6
CONTINUOUS
 62
     3
  5
120
 10
-64.655377
 20
158.115755
 30
0.0
 11
-48.405377
 21
158.115755
 31
0.0
  0
LINE
  8
16
  6
CONTINUOUS
 62
     3
  5
121
 10
-64.655377
 20
110.115955
 30
0.0
 11
-48.405377
 21
110.115955
 31
0.0
  0
LINE
  8
16
  6
CONTINUOUS
 62
     3
  5
122
 10
-67.205377
 20
147.465755
 30
0.0
 11
-123.655377
 21
147.465755
 31
0.0
  0
LINE
  8
16
  6
CONTINUOUS
 62
     3
  5
123
 10
-67.205377
 20
147.465755
 30
0.0
 11
-67.205377
 21
149.965755
 31
0.0
  0
LINE
  8
16
  6
CONTINUOUS
 62
     3
  5
124
 10
-67.205377
 20
149.965755
 30
0.0
 11
-123.655377
 21
149.965755
 31
0.0
  0
LINE
  8
16
  6
CONTINUOUS
 62
     3
  5
125
 10
-67.205377
 20
118.265955
 30
0.0
 11
-123.655377
 21
118.265955
 31
0.0
  0
LINE
  8
16
  6
CONTINUOUS
 62
     3
  5
126
 10
-67.205377
 20
120.765755
 30
0.0
 11
-123.655377
 21
120.765755
 31
0.0
  0
LINE
  8
16
  6
CONTINUOUS
 62
     3
  5
127
 10
-67.205377
 20
120.765755
 30
0.0
 11
-67.205377
 21
118.265955
 31
0.0
  0
LINE
  8
16
  6
CONTINUOUS
 62
     3
  5
128
 10
-58.705377
 20
136.615755
 30
0.0
 11
-43.905377
 21
136.615755
 31
0.0
  0
LINE
  8
16
  6
CONTINUOUS
 62
     3
  5
129
 10
-64.655377
 20
115.115955
 30
0.0
 11
-64.655377
 21
110.115955
 31
0.0
  0
LINE
  8
16
  6
CONTINUOUS
 62
     3
  5
12A
 10
-63.205377
 20
147.040755
 30
0.0
 11
-61.205377
 21
147.040755
 31
0.0
  0
LINE
  8
16
  6
CONTINUOUS
 62
     3
  5
12B
 10
-63.205377
 20
151.040755
 30
0.0
 11
-61.205377
 21
151.040755
 31
0.0
  0
LINE
  8
16
  6
CONTINUOUS
 62
     3
  5
12C
 10
-63.205377
 20
121.190755
 30
0.0
 11
-61.205377
 21
121.190755
 31
0.0
  0
LINE
  8
16
  6
CONTINUOUS
 62
     3
  5
12D
 10
-63.205377
 20
117.190955
 30
0.0
 11
-61.205377
 21
117.190955
 31
0.0
  0
LINE
  8
16
  6
CONTINUOUS
 62
     3
  5
12E
 10
-61.205377
 20
117.190955
 30
0.0
 11
-61.205377
 21
121.190755
 31
0.0
  0
LINE
  8
16
  6
CONTINUOUS
 62
     3
  5
12F
 10
-24.305357
 20
138.815955
 30
0.0
 11
-18.655357
 21
138.815955
 31
0.0
  0
LINE
  8
16
  6
CONTINUOUS
 62
     3
  5
130
 10
-27.359977
 20
163.815755
 30
0.0
 11
-45.905377
 21
163.815755
 31
0.0
  0
LINE
  8
16
  6
CONTINUOUS
 62
     3
  5
131
 10
-45.905377
 20
104.415755
 30
0.0
 11
-27.359977
 21
104.415755
 31
0.0
  0
LINE
  8
16
  6
CONTINUOUS
 62
     3
  5
132
 10
-120.155377
 20
164.715955
 30
0.0
 11
-120.155377
 21
153.115755
 31
0.0
  0
LINE
  8
16
  6
CONTINUOUS
 62
     3
  5
133
 10
-24.305357
 20
121.615755
 30
0.0
 11
-24.305357
 21
146.615955
 31
0.0
  0
LINE
  8
16
  6
CONTINUOUS
 62
     3
  5
134
 10
-120.155377
 20
104.065955
 30
0.0
 11
-120.155377
 21
115.115955
 31
0.0
  0
LINE
  8
16
  6
CONTINUOUS
 62
     3
  5
135
 10
-64.655377
 20
158.115755
 30
0.0
 11
-64.655377
 21
153.115755
 31
0.0
  0
ARC
  8
16
  6
CONTINUOUS
 62
     3
  5
136
 10
-63.205377
 20
149.040755
 30
0.0
 40
2.0
 50
90.0002
 51
270.0
  0
ARC
  8
16
  6
CONTINUOUS
 62
     3
  5
137
 10
-63.205377
 20
119.190755
 30
0.0
 40
1.999992
 50
90.0002
 51
270.0
  0
ARC
  8
16
  6
CONTINUOUS
 62
     3
  5
138
 10
-45.905377
 20
161.315955
 30
0.0
 40
2.5
 50
90.0002
 51
180.0
  0
ARC
  8
16
  6
CONTINUOUS
 62
     3
  5
139
 10
-45.905377
 20
106.915955
 30
0.0
 40
2.5
 50
180.0
 51
270.0
  0
LINE
  8
17
  6
HIDDEN
 62
     2
  5
13A
 10
-41.655377
 20
159.315955
 30
0.0
 11
-39.155377
 21
159.315955
 31
0.0
  0
LINE
  8
17
  6
HIDDEN
 62
     2
  5
13B
 10
-41.655377
 20
160.315955
 30
0.0
 11
-39.155377
 21
160.315955
 31
0.0
  0
LINE
  8
17
  6
HIDDEN
 62
     2
  5
13C
 10
-41.655377
 20
160.315955
 30
0.0
 11
-41.655377
 21
159.315955
 31
0.0
  0
LINE
  8
17
  6
HIDDEN
 62
     2
  5
13D
 10
-38.655377
 20
158.815955
 30
0.0
 11
-38.655377
 21
150.690355
 31
0.0
  0
LINE
  8
17
  6
HIDDEN
 62
     2
  5
13E
 10
-37.655377
 20
158.815955
 30
0.0
 11
-37.655377
 21
150.762155
 31
0.0
  0
LINE
  8
17
  6
HIDDEN
 62
     2
  5
13F
 10
-138.655377
 20
121.615755
 30
0.0
 11
-124.655377
 21
121.615755
 31
0.0
  0
LINE
  8
17
  6
HIDDEN
 62
     2
  5
140
 10
-137.655377
 20
122.615955
 30
0.0
 11
-123.655377
 21
122.615955
 31
0.0
  0
LINE
  8
17
  6
HIDDEN
 62
     2
  5
141
 10
-124.655377
 20
116.615755
 30
0.0
 11
-123.655377
 21
116.615755
 31
0.0
  0
LINE
  8
17
  6
HIDDEN
 62
     2
  5
142
 10
-124.655377
 20
116.615755
 30
0.0
 11
-124.655377
 21
121.615755
 31
0.0
  0
LINE
  8
17
  6
HIDDEN
 62
     2
  5
143
 10
-123.655377
 20
116.615755
 30
0.0
 11
-123.655377
 21
122.615955
 31
0.0
  0
LINE
  8
17
  6
HIDDEN
 62
     2
  5
144
 10
-123.655377
 20
151.615955
 30
0.0
 11
-123.655377
 21
145.615955
 31
0.0
  0
LINE
  8
17
  6
HIDDEN
 62
     2
  5
145
 10
-138.655377
 20
146.615955
 30
0.0
 11
-124.655377
 21
146.615955
 31
0.0
  0
LINE
  8
17
  6
HIDDEN
 62
     2
  5
146
 10
-124.655377
 20
151.615955
 30
0.0
 11
-124.655377
 21
146.615955
 31
0.0
  0
LINE
  8
17
  6
HIDDEN
 62
     2
  5
147
 10
-137.655377
 20
145.615955
 30
0.0
 11
-123.655377
 21
145.615955
 31
0.0
  0
LINE
  8
17
  6
HIDDEN
 62
     2
  5
148
 10
-124.655377
 20
151.615955
 30
0.0
 11
-123.655377
 21
151.615955
 31
0.0
  0
LINE
  8
17
  6
HIDDEN
 62
     2
  5
149
 10
9.344643
 20
131.615755
 30
0.0
 11
9.344643
 21
136.615755
 31
0.0
  0
LINE
  8
17
  6
HIDDEN
 62
     2
  5
14A
 10
5.644643
 20
131.615755
 30
0.0
 11
9.344643
 21
131.615755
 31
0.0
  0
LINE
  8
17
  6
HIDDEN
 62
     2
  5
14B
 10
-23.655357
 20
116.365755
 30
0.0
 11
-15.655357
 21
116.365755
 31
0.0
  0
LINE
  8
17
  6
HIDDEN
 62
     2
  5
14C
 10
4.044643
 20
114.365955
 30
0.0
 11
4.044643
 21
124.615955
 31
0.0
  0
LINE
  8
17
  6
HIDDEN
 62
     2
  5
14D
 10
-12.191157
 20
110.365755
 30
0.0
 11
0.580643
 21
110.365755
 31
0.0
  0
LINE
  8
17
  6
HIDDEN
 62
     2
  5
14E
 10
4.044643
 20
124.615955
 30
0.0
 11
5.644643
 21
124.615955
 31
0.0
  0
LINE
  8
17
  6
HIDDEN
 62
     2
  5
14F
 10
-15.655357
 20
114.365955
 30
0.0
 11
-13.923157
 21
111.365755
 31
0.0
  0
LINE
  8
17
  6
HIDDEN
 62
     2
  5
150
 10
4.044643
 20
114.365955
 30
0.0
 11
2.312643
 21
111.365755
 31
0.0
  0
LINE
  8
17
  6
HIDDEN
 62
     2
  5
151
 10
5.644643
 20
136.615755
 30
0.0
 11
9.344643
 21
136.615755
 31
0.0
  0
LINE
  8
17
  6
HIDDEN
 62
     2
  5
152
 10
-15.655357
 20
153.865955
 30
0.0
 11
-13.923157
 21
156.865955
 31
0.0
  0
LINE
  8
17
  6
HIDDEN
 62
     2
  5
153
 10
4.044643
 20
153.865955
 30
0.0
 11
2.312643
 21
156.865955
 31
0.0
  0
LINE
  8
17
  6
HIDDEN
 62
     2
  5
154
 10
-23.655357
 20
151.865955
 30
0.0
 11
-15.655357
 21
151.865955
 31
0.0
  0
LINE
  8
17
  6
HIDDEN
 62
     2
  5
155
 10
4.044643
 20
153.865955
 30
0.0
 11
4.044643
 21
143.615955
 31
0.0
  0
LINE
  8
17
  6
HIDDEN
 62
     2
  5
156
 10
4.044643
 20
143.615955
 30
0.0
 11
5.644643
 21
143.615955
 31
0.0
  0
LINE
  8
17
  6
HIDDEN
 62
     2
  5
157
 10
-12.191157
 20
157.865755
 30
0.0
 11
0.580643
 21
157.865755
 31
0.0
  0
LINE
  8
17
  6
HIDDEN
 62
     2
  5
158
 10
5.644643
 20
143.615955
 30
0.0
 11
5.644643
 21
136.615755
 31
0.0
  0
LINE
  8
17
  6
HIDDEN
 62
     2
  5
159
 10
5.644643
 20
131.615755
 30
0.0
 11
5.644643
 21
124.615955
 31
0.0
  0
LINE
  8
17
  6
HIDDEN
 62
     2
  5
15A
 10
-15.655357
 20
114.365955
 30
0.0
 11
-15.655357
 21
116.365755
 31
0.0
  0
LINE
  8
17
  6
HIDDEN
 62
     2
  5
15B
 10
-15.655357
 20
153.865955
 30
0.0
 11
-15.655357
 21
151.865955
 31
0.0
  0
ARC
  8
17
  6
HIDDEN
 62
     2
  5
15C
 10
-39.155377
 20
158.815955
 30
0.0
 40
0.5
 50
0.0
 51
90.0002
  0
ARC
  8
17
  6
HIDDEN
 62
     2
  5
15D
 10
-39.155377
 20
158.815955
 30
0.0
 40
1.5
 50
0.0
 51
90.0002
  0
ARC
  8
17
  6
HIDDEN
 62
     2
  5
15E
 10
0.580643
 20
112.365955
 30
0.0
 40
2.00004
 50
270.0
 51
330.001
  0
ARC
  8
17
  6
HIDDEN
 62
     2
  5
15F
 10
-12.191157
 20
112.365955
 30
0.0
 40
2.0
 50
210.0
 51
270.0
  0
ARC
  8
17
  6
HIDDEN
 62
     2
  5
160
 10
0.580643
 20
155.865755
 30
0.0
 40
2.00004
 50
29.9993
 51
90.0002
  0
ARC
  8
17
  6
HIDDEN
 62
     2
  5
161
 10
-12.191157
 20
155.865755
 30
0.0
 40
2.0
 50
90.0002
 51
150.0
  0
LINE
  8
1A
  6
HIDDEN
 62
     2
  5
162
 10
-138.655377
 20
146.615955
 30
0.0
 11
-138.655377
 21
121.615755
 31
0.0
  0
LINE
  8
1A
  6
HIDDEN
 62
     2
  5
163
 10
-137.655377
 20
145.615955
 30
0.0
 11
-137.655377
 21
122.615955
 31
0.0
  0
LINE
  8
1A
  6
CENTER
 62
     6
  5
164
 10
-41.831177
 20
155.615755
 30
0.0
 11
-35.096577
 21
155.615755
 31
0.0
  0
LINE
  8
1A
  6
CENTER
 62
     6
  5
165
 10
-141.412777
 20
134.115955
 30
0.0
 11
12.088643
 21
134.115955
 31
0.0
  0
LINE
  8
32
  6
CONTINUOUS
 62
     7
  5
166
 10
111.344623
 20
-63.384245
 30
0.0
 11
111.344623
 21
-68.384245
 31
0.0
  0
LINE
  8
32
  6
CONTINUOUS
 62
     7
  5
167
 10
108.844623
 20
-65.884245
 30
0.0
 11
113.844623
 21
-65.884245
 31
0.0
  0
CIRCLE
  8
33
  6
CONTINUOUS
 62
     6
  5
168
 10
128.844623
 20
-35.884245
 30
0.0
 40
2.25
  0
CIRCLE
  8
33
  6
CONTINUOUS
 62
     6
  5
169
 10
93.844623
 20
-95.884245
 30
0.0
 40
2.25
  0
CIRCLE
  8
33
  6
CONTINUOUS
 62
     6
  5
16A
 10
128.344623
 20
-91.884245
 30
0.0
 40
2.25
  0
CIRCLE
  8
33
  6
CONTINUOUS
 62
     6
  5
16B
 10
94.344623
 20
-39.884245
 30
0.0
 40
2.25
  0
LINE
  8
34
  6
CONTINUOUS
 62
     3
  5
16C
 10
114.994623
 20
-21.384165
 30
0.0
 11
114.994623
 21
-22.284145
 31
0.0
  0
LINE
  8
34
  6
CONTINUOUS
 62
     3
  5
16D
 10
107.694623
 20
-21.384165
 30
0.0
 11
114.994623
 21
-21.384165
 31
0.0
  0
LINE
  8
34
  6
CONTINUOUS
 62
     3
  5
16E
 10
84.844623
 20
-101.384245
 30
0.0
 11
89.844623
 21
-101.384245
 31
0.0
  0
LINE
  8
34
  6
CONTINUOUS
 62
     3
  5
16F
 10
128.844623
 20
-101.384245
 30
0.0
 11
128.844623
 21
-96.356245
 31
0.0
  0
LINE
  8
34
  6
CONTINUOUS
 62
     3
  5
170
 10
125.294623
 20
-31.384245
 30
0.0
 11
125.294623
 21
-22.284145
 31
0.0
  0
LINE
  8
34
  6
CONTINUOUS
 62
     3
  5
171
 10
97.394623
 20
-34.184245
 30
0.0
 11
84.844623
 21
-34.184245
 31
0.0
  0
LINE
  8
34
  6
CONTINUOUS
 62
     3
  5
172
 10
97.394623
 20
-34.184245
 30
0.0
 11
97.394623
 21
-22.284145
 31
0.0
  0
LINE
  8
34
  6
CONTINUOUS
 62
     3
  5
173
 10
97.394623
 20
-22.284145
 30
0.0
 11
107.694623
 21
-22.284145
 31
0.0
  0
LINE
  8
34
  6
CONTINUOUS
 62
     3
  5
174
 10
125.294623
 20
-22.284145
 30
0.0
 11
114.994623
 21
-22.284145
 31
0.0
  0
LINE
  8
34
  6
CONTINUOUS
 62
     3
  5
175
 10
107.694623
 20
-21.384165
 30
0.0
 11
107.694623
 21
-22.284145
 31
0.0
  0
LINE
  8
34
  6
CONTINUOUS
 62
     3
  5
176
 10
128.844623
 20
-96.356245
 30
0.0
 11
137.844623
 21
-96.356245
 31
0.0
  0
LINE
  8
34
  6
CONTINUOUS
 62
     3
  5
177
 10
137.844623
 20
-31.384245
 30
0.0
 11
125.294623
 21
-31.384245
 31
0.0
  0
LINE
  8
34
  6
CONTINUOUS
 62
     3
  5
178
 10
137.844623
 20
-96.356245
 30
0.0
 11
137.844623
 21
-91.356245
 31
0.0
  0
LINE
  8
34
  6
CONTINUOUS
 62
     3
  5
179
 10
84.844623
 20
-101.384245
 30
0.0
 11
84.844623
 21
-96.384245
 31
0.0
  0
LINE
  8
34
  6
CONTINUOUS
 62
     3
  5
17A
 10
137.844623
 20
-31.384245
 30
0.0
 11
137.844623
 21
-36.384245
 31
0.0
  0
LINE
  8
34
  6
CONTINUOUS
 62
     3
  5
17B
 10
84.844623
 20
-34.184245
 30
0.0
 11
84.844623
 21
-39.184245
 31
0.0
  0
LINE
  8
34
  6
CONTINUOUS
 62
     3
  5
17C
 10
123.844623
 20
-101.384245
 30
0.0
 11
128.844623
 21
-101.384245
 31
0.0
  0
LINE
  8
38
  6
CENTER
 62
     6
  5
17D
 10
94.344623
 20
-36.282245
 30
0.0
 11
94.344623
 21
-43.812245
 31
0.0
  0
LINE
  8
38
  6
CENTER
 62
     6
  5
17E
 10
128.344623
 20
-88.164245
 30
0.0
 11
128.344623
 21
-95.692245
 31
0.0
  0
LINE
  8
38
  6
CENTER
 62
     6
  5
17F
 10
93.844623
 20
-91.980245
 30
0.0
 11
93.844623
 21
-99.302245
 31
0.0
  0
LINE
  8
38
  6
CENTER
 62
     6
  5
180
 10
128.844623
 20
-39.686245
 30
0.0
 11
128.844623
 21
-32.260245
 31
0.0
  0
LINE
  8
38
  6
CENTER
 62
     6
  5
181
 10
132.200623
 20
-35.884245
 30
0.0
 11
125.186623
 21
-35.884245
 31
0.0
  0
LINE
  8
38
  6
CENTER
 62
     6
  5
182
 10
97.234623
 20
-95.884245
 30
0.0
 11
90.633623
 21
-95.884245
 31
0.0
  0
LINE
  8
38
  6
CENTER
 62
     6
  5
183
 10
90.912623
 20
-39.884245
 30
0.0
 11
97.666623
 21
-39.884245
 31
0.0
  0
LINE
  8
38
  6
CENTER
 62
     6
  5
184
 10
124.464623
 20
-91.884245
 30
0.0
 11
131.994623
 21
-91.884245
 31
0.0
  0
LINE
  8
38
  6
CENTER
 62
     6
  5
185
 10
81.480623
 20
-65.884245
 30
0.0
 11
140.424623
 21
-65.884245
 31
0.0
  0
LINE
  8
38
  6
CENTER
 62
     6
  5
186
 10
111.344623
 20
-19.359165
 30
0.0
 11
111.344623
 21
-104.408245
 31
0.0
  0
LINE
  8
FF
  6
CONTINUOUS
 62
     4
  5
1C3
 10
101.344623
 20
155.615755
 30
0.0
 11
77.161623
 21
195.533555
 31
0.0
  0
LINE
  8
FF
  6
CONTINUOUS
 62
     4
  5
1C4
 10
111.344623
 20
155.615755
 30
0.0
 11
77.161623
 21
195.533555
 31
0.0
  0
LINE
  8
FF
  6
CONTINUOUS
 62
     4
  5
1C5
 10
121.344623
 20
155.615755
 30
0.0
 11
77.161623
 21
195.533555
 31
0.0
  0
LINE
  8
FF
  6
CONTINUOUS
 62
     4
  5
1C8
 10
140.876223
 20
-106.275245
 30
0.0
 11
129.969823
 21
-93.677245
 31
0.0
  0
TEXT
  8
FF
  6
CONTINUOUS
 62
     4
  5
287
 10
141.674623
 20
-107.870245
 30
0.0
 40
3.0
  1
2-M4
 41
1.21
  0
TEXT
  8
FF
  6
CONTINUOUS
 62
     4
  5
289
 10
64.611223
 20
196.525555
 30
0.0
 40
3.0
  1
M3.5
 41
1.09542
  0
DIMENSION
  8
FF
  6
CONTINUOUS
  5
2E5
  2
*D1
 10
-18.655357
 20
230.429555
 30
0.0
 11
-78.655367
 21
232.929555
 31
0.0
  1
117
 13
-138.655377
 23
146.615955
 33
0.0
 14
-18.655357
 24
146.615955
 34
0.0
  3
FSTD1
  0
DIMENSION
  8
FF
  6
CONTINUOUS
  5
2FD
  2
*D2
 10
-18.655357
 20
218.861555
 30
0.0
 11
-73.655367
 21
221.361555
 31
0.0
  1
107
 13
-128.655377
 23
168.615755
 33
0.0
 14
-18.655357
 24
146.615955
 34
0.0
  3
FSTD1
  0
DIMENSION
  8
FF
  6
CONTINUOUS
  5
30A
  2
*D3
 10
-37.655377
 20
208.795555
 30
0.0
 11
-83.155377
 21
211.295555
 31
0.0
  1
88
 13
-128.655377
 23
168.615755
 33
0.0
 14
-37.655377
 24
158.815955
 34
0.0
  3
FSTD1
  0
DIMENSION
  8
FF
  6
CONTINUOUS
  5
319
  2
*D14
 10
-120.155377
 20
194.487555
 30
0.0
 11
-124.405377
 21
196.987555
 31
0.0
  1
8.5
 13
-128.655377
 23
169.615755
 33
0.0
 14
-120.155377
 24
168.615755
 34
0.0
  3
FSTD2
  0
DIMENSION
  8
FF
  6
CONTINUOUS
  5
326
  2
*D4
 10
9.344643
 20
218.861555
 30
0.0
 11
-4.655357
 21
221.361555
 31
0.0
  1
28
 13
-18.655357
 23
146.615955
 33
0.0
 14
9.344643
 24
136.615755
 34
0.0
  3
FSTD1
  0
DIMENSION
  8
FF
  6
CONTINUOUS
  5
333
  2
*D5
 10
137.844623
 20
230.429555
 30
0.0
 11
111.344623
 21
232.929555
 31
0.0
  1
53
 13
84.844623
 23
163.815755
 33
0.0
 14
137.844623
 24
163.815755
 34
0.0
  3
FSTD1
  0
DIMENSION
  8
FF
  6
CONTINUOUS
  5
340
  2
*D6
 10
162.000623
 20
98.615755
 30
0.0
 11
159.500623
 21
138.615755
 31
0.0
  1
81
 13
114.994623
 23
178.615755
 33
0.0
 14
118.844623
 24
98.615755
 34
0.0
 50
90.0
  3
FSTD1
  0
DIMENSION
  8
FF
  6
CONTINUOUS
  5
34D
  2
*D7
 10
150.644623
 20
155.615755
 30
0.0
 11
148.144623
 21
167.115755
 31
0.0
  1
23
 13
115.994623
 23
178.615755
 33
0.0
 14
136.220623
 24
155.615755
 34
0.0
 50
90.0
  3
FSTD1
  0
DIMENSION
  8
FF
  6
CONTINUOUS
  5
367
  2
*D8
 10
150.644623
 20
112.615755
 30
0.0
 11
148.144623
 21
134.115755
 31
0.0
  1
43
 13
137.220623
 23
155.615755
 33
0.0
 14
136.220623
 24
112.615755
 34
0.0
 50
90.0
  3
FSTD1
  0
DIMENSION
  8
FF
  6
CONTINUOUS
  5
385
  2
*D9
 10
121.344623
 20
82.347555
 30
0.0
 11
116.344623
 21
84.847555
 31
0.0
  1
10
 13
111.344623
 23
95.592955
 33
0.0
 14
121.344623
 24
108.636755
 34
0.0
  3
FSTD1
  0
DIMENSION
  8
FF
  6
CONTINUOUS
  5
39F
  2
*D10
 10
128.344623
 20
-3.560145
 30
0.0
 11
111.344623
 21
-1.060145
 31
0.0
  1
34
 13
94.344623
 23
-36.282245
 33
0.0
 14
128.344623
 24
-88.164245
 34
0.0
  3
FSTD1
  0
DIMENSION
  8
FF
  6
CONTINUOUS
  5
3AC
  2
*D15
 10
154.516623
 20
-35.884245
 30
0.0
 11
152.016623
 21
-28.634205
 31
0.0
  1
14.5
 13
114.994623
 23
-21.384165
 33
0.0
 14
132.200623
 24
-35.884245
 34
0.0
 50
90.0
  3
FSTD2
  0
DIMENSION
  8
FF
  6
CONTINUOUS
  5
3B9
  2
*D11
 10
154.516623
 20
-95.884245
 30
0.0
 11
152.016623
 21
-65.884245
 31
0.0
  1
60
 13
133.200623
 23
-35.884245
 33
0.0
 14
97.234623
 24
-95.884245
 34
0.0
 50
90.0
  3
FSTD1
  0
DIMENSION
  8
FF
  6
CONTINUOUS
  5
3C6
  2
*D16
 10
75.816623
 20
-39.884245
 30
0.0
 11
73.316623
 21
-30.634205
 31
0.0
  1
18.5
 13
107.694623
 23
-21.384165
 33
0.0
 14
90.912623
 24
-39.884245
 34
0.0
 50
90.0
  3
FSTD2
  0
DIMENSION
  8
FF
  6
CONTINUOUS
  5
3D3
  2
*D12
 10
75.816623
 20
-91.884245
 30
0.0
 11
73.316623
 21
-65.884245
 31
0.0
  1
52
 13
89.912623
 23
-39.884245
 33
0.0
 14
124.464623
 24
-91.884245
 34
0.0
 50
90.0
  3
FSTD1
  0
DIMENSION
  8
FF
  6
CONTINUOUS
  5
3E0
  2
*D13
 10
128.844623
 20
-125.438245
 30
0.0
 11
111.344623
 21
-122.938245
 31
0.0
  1
35
 13
93.844623
 23
-99.302245
 33
0.0
 14
128.844623
 24
-39.686245
 34
0.0
  3
FSTD1
  0
DIMENSION
  8
FF
  6
CONTINUOUS
  5
78C
  2
*D17
 10
97.494623
 20
87.397556
 30
0.0
 11
87.494623
 21
89.897556
 31
0.0
  1
7.7
 13
105.194623
 23
102.415755
 33
0.0
 14
97.494623
 24
102.415755
 34
0.0
  3
FSTD2
  0
TEXT
  8
FF
  5
A59
 10
-118.907795
 20
-252.611997
 30
0.0
 40
5.0
  1
Magnetic Contactor Type
  0
ARC
  8
FF
  5
A5A
 10
-137.026145
 20
-246.424497
 30
0.0
 40
1.3125
 50
90.0
 51
168.003101
  0
LINE
  8
FF
  5
A5B
 10
-139.682795
 20
-252.611997
 30
0.0
 11
-137.420893
 21
-252.611997
 31
0.0
  0
LINE
  8
FF
  5
A5C
 10
-139.682795
 20
-252.611997
 30
0.0
 11
-138.309978
 21
-246.151682
 31
0.0
  0
LINE
  8
FF
  5
A5D
 10
-132.314045
 20
-245.111997
 30
0.0
 11
-132.561545
 21
-246.317457
 31
0.0
  0
ARC
  8
FF
  5
A5E
 10
-129.486291
 20
-249.1522
 30
0.0
 40
4.182458
 50
98.442625
 51
137.3304
1001
ACAD
1000
ASC_BOUNDS
1002
{
1070
    19
1002
}
  0
POLYLINE
  8
FF
  5
A5F
 66
     1
 10
0.0
 20
0.0
 30
0.0
 70
   128
  0
VERTEX
  8
FF
  5
A9A
 10
-129.699049
 20
-245.459548
 30
0.0
  0
VERTEX
  8
FF
  5
A9B
 10
-130.344519
 20
-245.552509
 30
0.0
  0
VERTEX
  8
FF
  5
A9C
 10
-130.978333
 20
-245.777828
 30
0.0
  0
VERTEX
  8
FF
  5
A9D
 10
-131.579986
 20
-246.128217
 30
0.0
  0
VERTEX
  8
FF
  5
A9E
 10
-132.130012
 20
-246.592339
 30
0.0
  0
VERTEX
  8
FF
  5
A9F
 10
-132.610614
 20
-247.155176
 30
0.0
  0
VERTEX
  8
FF
  5
AA0
 10
-133.006243
 20
-247.798519
 30
0.0
  0
VERTEX
  8
FF
  5
AA1
 10
-133.304098
 20
-248.501552
 30
0.0
  0
SEQEND
  8
FF
  5
AA2
  0
ARC
  8
FF
  5
A60
 10
-129.52795
 20
-248.083231
 30
0.0
 40
3.121224
 50
1.499529
 51
100.57959
1001
ACAD
1000
ASC_BOUNDS
1002
{
1070
    19
1002
}
  0
ARC
  8
FF
  5
A61
 10
-129.540072
 20
-248.114423
 30
0.0
 40
2.659631
 50
2.961866
 51
93.426847
  0
LINE
  8
FF
  5
A62
 10
-132.315636
 20
-247.976997
 30
0.0
 11
-126.883995
 21
-247.976997
 31
0.0
  0
LINE
  8
FF
  5
A63
 10
-132.430168
 20
-248.516997
 30
0.0
 11
-126.407795
 21
-248.516997
 31
0.0
  0
ARC
  8
FF
  5
A64
 10
-130.674694
 20
-249.469716
 30
0.0
 40
2.816331
 50
186.002385
 51
276.412304
1001
ACAD
1000
ASC_BOUNDS
1002
{
1070
    19
1002
}
  0
ARC
  8
FF
  5
A65
 10
-130.803374
 20
-249.61201
 30
0.0
 40
3.15
 50
182.729155
 51
279.960292
1001
ACAD
1000
ASC_BOUNDS
1002
{
1070
    19
1002
}
  0
LINE
  8
FF
  5
A66
 10
-137.420893
 20
-252.611997
 30
0.0
 11
-136.815268
 21
-249.761997
 31
0.0
  0
LINE
  8
FF
  5
A67
 10
-136.815268
 20
-249.761997
 30
0.0
 11
-133.949801
 21
-249.761997
 31
0.0
  0
LINE
  8
FF
  5
A68
 10
-136.435956
 20
-247.976997
 30
0.0
 11
-133.611752
 21
-247.976997
 31
0.0
  0
LINE
  8
FF
  5
A69
 10
-135.931457
 20
-247.031997
 30
0.0
 11
-133.095314
 21
-247.031997
 31
0.0
  0
ARC
  8
FF
  5
A6A
 10
-135.931457
 20
-247.406997
 30
0.0
 40
0.375
 50
90.0
 51
168.003101
  0
LINE
  8
FF
  5
A6B
 10
-136.435956
 20
-247.976997
 30
0.0
 11
-136.298267
 21
-247.32905
 31
0.0
  0
LINE
  8
FF
  5
A6C
 10
-132.315636
 20
-247.976997
 30
0.0
 11
-132.430168
 21
-248.516997
 31
0.0
  0
ARC
  8
FF
  5
A6D
 10
-129.396768
 20
-249.666852
 30
0.0
 40
4.541113
 50
144.533818
 51
158.153358
  0
POLYLINE
  8
FF
  5
A6E
 66
     1
 10
0.0
 20
0.0
 30
0.0
 70
   128
  0
VERTEX
  8
FF
  5
AA3
 10
-133.304098
 20
-248.501552
 30
0.0
  0
VERTEX
  8
FF
  5
AA4
 10
-133.445335
 20
-249.14405
 30
0.0
  0
VERTEX
  8
FF
  5
AA5
 10
-133.475584
 20
-249.771503
 30
0.0
  0
SEQEND
  8
FF
  5
AA6
  0
ARC
  8
FF
  5
A6F
 10
-130.979355
 20
-248.244185
 30
0.0
 40
4.52809
 50
279.159834
 51
342.417868
1001
ACAD
1000
ASC_BOUNDS
1002
{
1070
    19
1002
}
  0
ARC
  8
FF
  5
A70
 10
-131.111372
 20
-248.126207
 30
0.0
 40
4.209787
 50
280.279158
 51
339.332945
1001
ACAD
1000
ASC_BOUNDS
1002
{
1070
    19
1002
}
  0
LINE
  8
FF
  5
A71
 10
-126.662795
 20
-249.611997
 30
0.0
 11
-127.172497
 21
-249.611997
 31
0.0
  0
LINE
  8
FF
  5
A72
 10
-126.407795
 20
-248.516997
 30
0.0
 11
-126.407795
 21
-248.001553
 31
0.0
  0
LINE
  8
FF
  5
A73
 10
-137.026145
 20
-245.111997
 30
0.0
 11
-132.314045
 21
-245.111997
 31
0.0
  0
TEXT
  8
FF
  5
A76
 10
-1.126255
 20
-252.611997
 30
0.0
 40
5.0
  1
SC-05/G , SC-05H/G
  0
TEXT
  8
FF
  6
CONTINUOUS
  5
A77
 10
117.756182
 20
-261.429539
 30
0.0
 40
2.5
  1
SC-05G
  0
LINE
  8
FF
  5
A78
 10
86.050439
 20
-267.611997
 30
0.0
 11
181.050439
 21
-267.611997
 31
0.0
  0
LINE
  8
FF
  5
A79
 10
86.050439
 20
-262.611997
 30
0.0
 11
181.050439
 21
-262.611997
 31
0.0
  0
LINE
  8
FF
  5
A7A
 10
86.050439
 20
-257.611997
 30
0.0
 11
181.050439
 21
-257.611997
 31
0.0
  0
LINE
  8
FF
  5
A7B
 10
86.050439
 20
-252.611997
 30
0.0
 11
181.050439
 21
-252.611997
 31
0.0
  0
TEXT
  8
FF
  6
CONTINUOUS
  5
A7C
 10
124.661966
 20
-251.431068
 30
0.0
 40
2.5
  1
ﾌｧｲﾙ名
  0
LINE
  8
FF
  5
A7D
 10
86.050439
 20
-247.611997
 30
0.0
 11
181.050439
 21
-247.611997
 31
0.0
  0
TEXT
  8
FF
  6
CONTINUOUS
  5
A7F
 10
99.077965
 20
-261.429539
 30
0.0
 40
2.5
  1
2005-12
  0
LINE
  8
FF
  5
A81
 10
96.050439
 20
-247.611997
 30
0.0
 11
96.050439
 21
-267.611997
 31
0.0
  0
TEXT
  8
FF
  6
CONTINUOUS
  5
A82
 10
88.484828
 20
-256.506939
 30
0.0
 40
2.5
  1
作成
  0
LINE
  8
FF
  5
A83
 10
86.050439
 20
-247.611997
 30
0.0
 11
86.050439
 21
-267.611997
 31
0.0
  0
TEXT
  8
FF
  6
CONTINUOUS
  5
A84
 10
88.484828
 20
-261.230064
 30
0.0
 40
2.5
  1
変更
  0
LINE
  8
FF
  5
A85
 10
116.050439
 20
-247.611997
 30
0.0
 11
116.050439
 21
-267.611997
 31
0.0
  0
TEXT
  8
FF
  6
CONTINUOUS
  5
A86
 10
103.01544
 20
-251.431068
 30
0.0
 40
2.5
  1
日付
  0
TEXT
  8
FF
  6
CONTINUOUS
  5
A89
 10
149.722148
 20
-251.431068
 30
0.0
 40
2.5
  1
図面番号
  0
LINE
  8
FF
  5
A8A
 10
141.050439
 20
-247.611997
 30
0.0
 11
141.050439
 21
-267.611997
 31
0.0
  0
LINE
  8
FF
  5
A8B
 10
181.050439
 20
-247.611997
 30
0.0
 11
181.050439
 21
-267.611997
 31
0.0
  0
LINE
  8
FF
  5
A8C
 10
171.050439
 20
-247.611997
 30
0.0
 11
171.050439
 21
-267.611997
 31
0.0
  0
TEXT
  8
FF
  6
CONTINUOUS
  5
A8F
 10
173.659417
 20
-251.431068
 30
0.0
 40
2.5
  1
変更
  0
ENDSEC
  0
EOF
