  0
SECTION
  2
HEADER
  9
$ACADVER
  1
AC1009
  9
$INSBASE
 10
0.0
 20
0.0
 30
0.0
  9
$EXTMIN
 10
87.465416
 20
137.44759
 30
0.0
  9
$EXTMAX
 10
644.069953
 20
470.240336
 30
0.0
  9
$LIMMIN
 10
0.0
 20
0.0
  9
$LIMMAX
 10
210.0
 20
297.0
  9
$ORTHOMODE
 70
     1
  9
$REGENMODE
 70
     1
  9
$FILLMODE
 70
     1
  9
$QTEXTMODE
 70
     0
  9
$MIRRTEXT
 70
     1
  9
$DRAGMODE
 70
     2
  9
$LTSCALE
 40
1.0
  9
$OSMODE
 70
   545
  9
$ATTMODE
 70
     1
  9
$TEXTSIZE
 40
3.0
  9
$TRACEWID
 40
0.05
  9
$TEXTSTYLE
  7
STANDARD
  9
$CLAYER
  8
F02_DIM
  9
$CELTYPE
  6
BYLAYER
  9
$CECOLOR
 62
   256
  9
$DIMSCALE
 40
1.0
  9
$DIMASZ
 40
2.5
  9
$DIMEXO
 40
1.0
  9
$DIMDLI
 40
3.75
  9
$DIMRND
 40
0.0
  9
$DIMDLE
 40
0.0
  9
$DIMEXE
 40
1.0
  9
$DIMTP
 40
0.0
  9
$DIMTM
 40
0.0
  9
$DIMTXT
 40
4.0
  9
$DIMCEN
 40
0.1
  9
$DIMTSZ
 40
0.0
  9
$DIMTOL
 70
     0
  9
$DIMLIM
 70
     0
  9
$DIMTIH
 70
     0
  9
$DIMTOH
 70
     0
  9
$DIMSE1
 70
     0
  9
$DIMSE2
 70
     0
  9
$DIMTAD
 70
     1
  9
$DIMZIN
 70
     8
  9
$DIMBLK
  1

  9
$DIMASO
 70
     1
  9
$DIMSHO
 70
     1
  9
$DIMPOST
  1

  9
$DIMAPOST
  1

  9
$DIMALT
 70
     0
  9
$DIMALTD
 70
     4
  9
$DIMALTF
 40
0.03937
  9
$DIMLFAC
 40
1.0
  9
$DIMTOFL
 70
     1
  9
$DIMTVP
 40
0.0
  9
$DIMTIX
 70
     0
  9
$DIMSOXD
 70
     0
  9
$DIMSAH
 70
     1
  9
$DIMBLK1
  1
_OPEN30
  9
$DIMBLK2
  1
_OPEN30
  9
$DIMSTYLE
  2
FSTD1
  9
$DIMCLRD
 70
   256
  9
$DIMCLRE
 70
   256
  9
$DIMCLRT
 70
   256
  9
$DIMTFAC
 40
1.0
  9
$DIMGAP
 40
1.0
  9
$LUNITS
 70
     2
  9
$LUPREC
 70
     4
  9
$SKETCHINC
 40
0.1
  9
$FILLETRAD
 40
2.0
  9
$AUNITS
 70
     0
  9
$AUPREC
 70
     0
  9
$MENU
  1
acad
  9
$ELEVATION
 40
0.0
  9
$PELEVATION
 40
0.0
  9
$THICKNESS
 40
0.0
  9
$LIMCHECK
 70
     0
  9
$BLIPMODE
 70
     1
  9
$CHAMFERA
 40
0.0
  9
$CHAMFERB
 40
0.0
  9
$SKPOLY
 70
     0
  9
$TDCREATE
 40
2454825.587233796
  9
$TDUPDATE
 40
2454851.695095115
  9
$TDINDWG
 40
0.2069981481
  9
$TDUSRTIMER
 40
0.2069981481
  9
$USRTIMER
 70
     1
  9
$ANGBASE
 50
0.0
  9
$ANGDIR
 70
     0
  9
$PDMODE
 70
     0
  9
$PDSIZE
 40
0.0
  9
$PLINEWID
 40
0.0
  9
$COORDS
 70
     1
  9
$SPLFRAME
 70
     0
  9
$SPLINETYPE
 70
     6
  9
$SPLINESEGS
 70
     8
  9
$ATTDIA
 70
     0
  9
$ATTREQ
 70
     1
  9
$HANDLING
 70
     1
  9
$HANDSEED
  5
2660
  9
$SURFTAB1
 70
     6
  9
$SURFTAB2
 70
     6
  9
$SURFTYPE
 70
     6
  9
$SURFU
 70
     6
  9
$SURFV
 70
     6
  9
$UCSNAME
  2

  9
$UCSORG
 10
0.0
 20
0.0
 30
0.0
  9
$UCSXDIR
 10
1.0
 20
0.0
 30
0.0
  9
$UCSYDIR
 10
0.0
 20
1.0
 30
0.0
  9
$PUCSNAME
  2

  9
$PUCSORG
 10
0.0
 20
0.0
 30
0.0
  9
$PUCSXDIR
 10
1.0
 20
0.0
 30
0.0
  9
$PUCSYDIR
 10
0.0
 20
1.0
 30
0.0
  9
$USERI1
 70
     0
  9
$USERI2
 70
     0
  9
$USERI3
 70
     0
  9
$USERI4
 70
     0
  9
$USERI5
 70
     0
  9
$USERR1
 40
0.0
  9
$USERR2
 40
0.0
  9
$USERR3
 40
0.0
  9
$USERR4
 40
0.0
  9
$USERR5
 40
0.0
  9
$WORLDVIEW
 70
     1
  9
$SHADEDGE
 70
     3
  9
$SHADEDIF
 70
    70
  9
$TILEMODE
 70
     1
  9
$MAXACTVP
 70
    16
  9
$PINSBASE
 10
0.0
 20
0.0
 30
0.0
  9
$PLIMCHECK
 70
     0
  9
$PEXTMIN
 10
1.000000E+20
 20
1.000000E+20
 30
1.000000E+20
  9
$PEXTMAX
 10
-1.000000E+20
 20
-1.000000E+20
 30
-1.000000E+20
  9
$PLIMMIN
 10
0.0
 20
0.0
  9
$PLIMMAX
 10
12.0
 20
9.0
  9
$UNITMODE
 70
     0
  9
$VISRETAIN
 70
     0
  9
$PLINEGEN
 70
     1
  9
$PSLTSCALE
 70
     0
  9
$TREEDEPTH
 70
  3020
  9
$DWGCODEPAGE
  3
dos932
  0
ENDSEC
  0
SECTION
  2
TABLES
  0
TABLE
  2
VPORT
 70
     2
  0
VPORT
  2
*ACTIVE
 70
     0
 10
0.0
 20
0.0
 11
1.0
 21
1.0
 12
365.768366
 22
332.86792
 13
0.0
 23
0.0
 14
1.0
 24
1.0
 15
0.0
 25
0.0
 16
0.0
 26
0.0
 36
1.0
 17
0.0
 27
0.0
 37
0.0
 40
393.918378
 41
1.475202
 42
50.0
 43
0.0
 44
0.0
 50
0.0
 51
0.0
 71
     0
 72
   100
 73
     1
 74
     1
 75
     0
 76
     0
 77
     0
 78
     0
  0
ENDTAB
  0
TABLE
  2
LTYPE
 70
     4
  0
LTYPE
  2
CONTINUOUS
 70
    64
  3
Solid line
 72
    65
 73
     0
 40
0.0
  0
LTYPE
  2
CENTER
 70
    64
  3
Center ____ _ ____ _ ____ _ ____ _ ____ _ ____
 72
    65
 73
     4
 40
50.8
 49
31.75
 49
-6.35
 49
6.35
 49
-6.35
  0
LTYPE
  2
PHANTOM
 70
    64
  3
Phantom ______  __  __  ______  __  __  ______
 72
    65
 73
     6
 40
63.5
 49
31.75
 49
-6.35
 49
6.35
 49
-6.35
 49
6.35
 49
-6.35
  0
LTYPE
  2
DASHED
 70
    64
  3
Dashed __ __ __ __ __ __ __ __ __ __ __ __ __ _
 72
    65
 73
     2
 40
19.05
 49
12.7
 49
-6.35
  0
ENDTAB
  0
TABLE
  2
LAYER
 70
    10
  0
LAYER
  2
0
 70
    64
 62
     7
  6
CONTINUOUS
  0
LAYER
  2
DEFPOINTS
 70
    64
 62
     7
  6
CONTINUOUS
  0
LAYER
  2
F05_PRO
 70
    64
 62
     4
  6
CONTINUOUS
  0
LAYER
  2
F01_OUT
 70
    64
 62
     6
  6
CONTINUOUS
  0
LAYER
  2
F02_DIM
 70
    64
 62
     4
  6
CONTINUOUS
  0
LAYER
  2
F03_CNT
 70
    64
 62
     1
  6
CENTER
  0
LAYER
  2
F04_HID
 70
    64
 62
     3
  6
DASHED
  0
LAYER
  2
F06_CUT
 70
    64
 62
     6
  6
CONTINUOUS
  0
LAYER
  2
F07_COO
 70
    64
 62
     3
  6
PHANTOM
  0
LAYER
  2
F08_IMG
 70
    64
 62
     2
  6
PHANTOM
  0
ENDTAB
  0
TABLE
  2
STYLE
 70
     3
  0
STYLE
  2
MX_NOTE_STANDARD
 70
     0
 40
0.0
 41
1.0
 50
0.0
 71
     0
 42
10.0
  3
txt.shx
  4
extfont.shx
  0
STYLE
  2
STANDARD
 70
    64
 40
0.0
 41
1.0
 50
0.0
 71
     0
 42
3.0
  3
txt.shx
  4
bigfont.shx
  0
STYLE
  2
FSTD1
 70
    64
 40
0.0
 41
1.0
 50
0.0
 71
     0
 42
4.1656
  3
txt.shx
  4
extfont.shx
  0
ENDTAB
  0
TABLE
  2
VIEW
 70
     0
  0
ENDTAB
  0
TABLE
  2
UCS
 70
     0
  0
ENDTAB
  0
TABLE
  2
APPID
 70
     2
  0
APPID
  2
ACAD
 70
    64
  0
ENDTAB
  0
TABLE
  2
DIMSTYLE
 70
     4
  0
DIMSTYLE
  2
MXDIMSTYLE
 70
     0
  3

  4

  5

  6
_OPEN30
  7
_OPEN30
 40
1.0
 41
2.5
 42
0.5
 43
3.75
 44
1.0
 45
0.0
 46
0.0
 47
0.0
 48
0.0
140
4.1656
141
2.5
142
0.0
143
0.03937
144
1.0
145
0.0
146
1.0
147
1.0
 71
     0
 72
     0
 73
     0
 74
     0
 75
     0
 76
     0
 77
     1
 78
     8
170
     0
171
     4
172
     1
173
     1
174
     0
175
     0
176
     0
177
     0
178
     0
  0
DIMSTYLE
  2
FSTD1
 70
    64
  3

  4

  5

  6
_OPEN30
  7
_OPEN30
 40
1.0
 41
2.5
 42
1.0
 43
3.75
 44
1.0
 45
0.0
 46
0.0
 47
0.0
 48
0.0
140
4.0
141
0.1
142
0.0
143
0.03937
144
1.0
145
0.0
146
1.0
147
1.0
 71
     0
 72
     0
 73
     0
 74
     0
 75
     0
 76
     0
 77
     1
 78
     8
170
     0
171
     4
172
     1
173
     1
174
     0
175
     0
176
   256
177
   256
178
   256
  0
DIMSTYLE
  2
STANDARD
 70
     0
  3

  4

  5

  6

  7

 40
1.0
 41
0.18
 42
0.0625
 43
0.38
 44
0.18
 45
0.0
 46
0.0
 47
0.0
 48
0.0
140
0.18
141
0.09
142
0.0
143
25.4
144
1.0
145
0.0
146
1.0
147
0.09
 71
     0
 72
     0
 73
     1
 74
     1
 75
     0
 76
     0
 77
     0
 78
     0
170
     0
171
     2
172
     0
173
     0
174
     0
175
     0
176
     0
177
     0
178
     0
  0
DIMSTYLE
  2
FSTD2
 70
    64
  3

  4

  5

  6
_OPEN30
  7
_OPEN30
 40
1.0
 41
2.5
 42
1.0
 43
3.75
 44
1.0
 45
0.0
 46
0.0
 47
0.0
 48
0.0
140
4.0
141
0.1
142
0.0
143
0.03937
144
1.0
145
0.0
146
1.0
147
1.0
 71
     0
 72
     0
 73
     0
 74
     0
 75
     0
 76
     0
 77
     1
 78
     8
170
     0
171
     4
172
     1
173
     1
174
     0
175
     0
176
   256
177
   256
178
   256
  0
ENDTAB
  0
ENDSEC
  0
SECTION
  2
BLOCKS
  0
BLOCK
  8
0
  5
11F
  2
_OPEN30
 70
    66
 10
0.0
 20
0.0
 30
0.0
  3
_OPEN30
  0
LINE
  8
0
  6
BYBLOCK
 62
     0
  5
120
 10
-1.0
 20
0.267949
 30
0.0
 11
0.0
 21
0.0
 31
0.0
  0
LINE
  8
0
  6
BYBLOCK
 62
     0
  5
121
 10
0.0
 20
0.0
 30
0.0
 11
-1.0
 21
-0.267949
 31
0.0
  0
LINE
  8
0
  6
BYBLOCK
 62
     0
  5
122
 10
0.0
 20
0.0
 30
0.0
 11
-1.0
 21
0.0
 31
0.0
  0
ENDBLK
  8
0
  5
123
  0
BLOCK
  8
0
  5
1DAA
  2
*D1
 70
    65
 10
0.0
 20
0.0
 30
0.0
  3
*D1
  0
LINE
  8
0
  6
BYBLOCK
  5
1DAB
 10
140.072405
 20
348.865321
 30
0.0
 11
140.072405
 21
324.24408
 31
0.0
  0
LINE
  8
0
  6
BYBLOCK
  5
1DAC
 10
165.072375
 20
348.865321
 30
0.0
 11
165.072375
 21
324.24408
 31
0.0
  0
LINE
  8
0
  6
BYBLOCK
  5
1DAD
 10
142.572405
 20
325.24408
 30
0.0
 11
162.572375
 21
325.24408
 31
0.0
  0
INSERT
  8
0
  6
BYBLOCK
  5
1DAE
  2
_OPEN30
 10
140.072405
 20
325.24408
 30
0.0
 41
2.5
 42
2.5
 50
180.0
 43
2.5
  0
INSERT
  8
0
  6
BYBLOCK
  5
1DAF
  2
_OPEN30
 10
165.072375
 20
325.24408
 30
0.0
 41
2.5
 42
2.5
 43
2.5
  0
TEXT
  8
0
  6
BYBLOCK
  5
1DB0
 10
149.239057
 20
326.24408
 30
0.0
 40
4.0
  1
25
  7
STANDARD
  0
POINT
  8
DEFPOINTS
  6
BYBLOCK
 62
     0
  5
1DB1
 10
140.072405
 20
349.865321
 30
0.0
  0
POINT
  8
DEFPOINTS
  6
BYBLOCK
 62
     0
  5
1DB2
 10
165.072375
 20
349.865321
 30
0.0
  0
POINT
  8
DEFPOINTS
  6
BYBLOCK
 62
     0
  5
1DB3
 10
165.072375
 20
325.24408
 30
0.0
  0
ENDBLK
  8
0
  5
1DB4
  0
BLOCK
  8
0
  5
1DB5
  2
*D2
 70
    65
 10
0.0
 20
0.0
 30
0.0
  3
*D2
  0
LINE
  8
0
  6
BYBLOCK
  5
1DB6
 10
128.572344
 20
372.293857
 30
0.0
 11
128.572344
 21
314.609438
 31
0.0
  0
LINE
  8
0
  6
BYBLOCK
  5
1DB7
 10
176.07233
 20
372.940304
 30
0.0
 11
176.07233
 21
314.609438
 31
0.0
  0
LINE
  8
0
  6
BYBLOCK
  5
1DB8
 10
131.072344
 20
315.609438
 30
0.0
 11
173.57233
 21
315.609438
 31
0.0
  0
INSERT
  8
0
  6
BYBLOCK
  5
1DB9
  2
_OPEN30
 10
128.572344
 20
315.609438
 30
0.0
 41
2.5
 42
2.5
 50
180.0
 43
2.5
  0
INSERT
  8
0
  6
BYBLOCK
  5
1DBA
  2
_OPEN30
 10
176.07233
 20
315.609438
 30
0.0
 41
2.5
 42
2.5
 43
2.5
  0
TEXT
  8
0
  6
BYBLOCK
  5
1DBB
 10
146.322337
 20
316.609438
 30
0.0
 40
4.0
  1
47.5
  7
STANDARD
  0
POINT
  8
DEFPOINTS
  6
BYBLOCK
 62
     0
  5
1DBC
 10
128.572344
 20
373.293857
 30
0.0
  0
POINT
  8
DEFPOINTS
  6
BYBLOCK
 62
     0
  5
1DBD
 10
176.07233
 20
373.940304
 30
0.0
  0
POINT
  8
DEFPOINTS
  6
BYBLOCK
 62
     0
  5
1DBE
 10
176.07233
 20
315.609438
 30
0.0
  0
ENDBLK
  8
0
  5
1DBF
  0
BLOCK
  8
0
  5
1DC0
  2
*D3
 70
    65
 10
0.0
 20
0.0
 30
0.0
  3
*D3
  0
LINE
  8
0
  6
BYBLOCK
  5
1DC1
 10
127.57233
 20
350.690334
 30
0.0
 11
127.57233
 21
305.640248
 31
0.0
  0
LINE
  8
0
  6
BYBLOCK
  5
1DC2
 10
177.57233
 20
350.690334
 30
0.0
 11
177.57233
 21
305.640248
 31
0.0
  0
LINE
  8
0
  6
BYBLOCK
  5
1DC3
 10
130.07233
 20
306.640248
 30
0.0
 11
175.07233
 21
306.640248
 31
0.0
  0
INSERT
  8
0
  6
BYBLOCK
  5
1DC4
  2
_OPEN30
 10
127.57233
 20
306.640248
 30
0.0
 41
2.5
 42
2.5
 50
180.0
 43
2.5
  0
INSERT
  8
0
  6
BYBLOCK
  5
1DC5
  2
_OPEN30
 10
177.57233
 20
306.640248
 30
0.0
 41
2.5
 42
2.5
 43
2.5
  0
TEXT
  8
0
  6
BYBLOCK
  5
1DC6
 10
149.57233
 20
307.640248
 30
0.0
 40
4.0
  1
50
  7
STANDARD
  0
POINT
  8
DEFPOINTS
  6
BYBLOCK
 62
     0
  5
1DC7
 10
127.57233
 20
351.690334
 30
0.0
  0
POINT
  8
DEFPOINTS
  6
BYBLOCK
 62
     0
  5
1DC8
 10
177.57233
 20
351.690334
 30
0.0
  0
POINT
  8
DEFPOINTS
  6
BYBLOCK
 62
     0
  5
1DC9
 10
177.57233
 20
306.640248
 30
0.0
  0
ENDBLK
  8
0
  5
1DCA
  0
BLOCK
  8
0
  5
8B2
  2
*D4
 70
    65
 10
0.0
 20
0.0
 30
0.0
  3
*D4
  0
LINE
  8
0
  6
BYBLOCK
  5
8B3
 10
133.811258
 20
422.940305
 30
0.0
 11
118.076581
 21
422.940305
 31
0.0
  0
LINE
  8
0
  6
BYBLOCK
  5
8B4
 10
133.811258
 20
372.940304
 30
0.0
 11
118.076581
 21
372.940304
 31
0.0
  0
LINE
  8
0
  6
BYBLOCK
  5
8B5
 10
119.076581
 20
420.440305
 30
0.0
 11
119.076581
 21
375.440304
 31
0.0
  0
INSERT
  8
0
  6
BYBLOCK
  5
8B6
  2
_OPEN30
 10
119.076581
 20
422.940305
 30
0.0
 41
2.5
 42
2.5
 50
90.0
 43
2.5
  0
INSERT
  8
0
  6
BYBLOCK
  5
8B7
  2
_OPEN30
 10
119.076581
 20
372.940304
 30
0.0
 41
2.5
 42
2.5
 50
270.0
 43
2.5
  0
TEXT
  8
0
  6
BYBLOCK
  5
8B8
 10
118.076581
 20
394.940305
 30
0.0
 40
4.0
  1
50
 50
90.0
  7
STANDARD
  0
POINT
  8
DEFPOINTS
  6
BYBLOCK
 62
     0
  5
8B9
 10
134.811258
 20
422.940305
 30
0.0
  0
POINT
  8
DEFPOINTS
  6
BYBLOCK
 62
     0
  5
8BA
 10
134.811258
 20
372.940304
 30
0.0
  0
POINT
  8
DEFPOINTS
  6
BYBLOCK
 62
     0
  5
8BB
 10
119.076581
 20
372.940304
 30
0.0
  0
ENDBLK
  8
0
  5
8BC
  0
BLOCK
  8
0
  5
8DB
  2
*D5
 70
    65
 10
0.0
 20
0.0
 30
0.0
  3
*D5
  0
LINE
  8
0
  6
BYBLOCK
  5
8DC
 10
153.557751
 20
439.940335
 30
0.0
 11
108.028439
 21
439.940335
 31
0.0
  0
LINE
  8
0
  6
BYBLOCK
  5
8DD
 10
153.557751
 20
355.940335
 30
0.0
 11
108.028439
 21
355.940335
 31
0.0
  0
LINE
  8
0
  6
BYBLOCK
  5
8DE
 10
109.028439
 20
437.440335
 30
0.0
 11
109.028439
 21
358.440335
 31
0.0
  0
INSERT
  8
0
  6
BYBLOCK
  5
8DF
  2
_OPEN30
 10
109.028439
 20
439.940335
 30
0.0
 41
2.5
 42
2.5
 50
90.0
 43
2.5
  0
INSERT
  8
0
  6
BYBLOCK
  5
8E0
  2
_OPEN30
 10
109.028439
 20
355.940335
 30
0.0
 41
2.5
 42
2.5
 50
270.0
 43
2.5
  0
TEXT
  8
0
  6
BYBLOCK
  5
8E1
 10
108.028439
 20
394.607002
 30
0.0
 40
4.0
  1
84
 50
90.0
  7
STANDARD
  0
POINT
  8
DEFPOINTS
  6
BYBLOCK
 62
     0
  5
8E2
 10
154.557751
 20
439.940335
 30
0.0
  0
POINT
  8
DEFPOINTS
  6
BYBLOCK
 62
     0
  5
8E3
 10
154.557751
 20
355.940335
 30
0.0
  0
POINT
  8
DEFPOINTS
  6
BYBLOCK
 62
     0
  5
8E4
 10
109.028439
 20
355.940335
 30
0.0
  0
ENDBLK
  8
0
  5
8E5
  0
BLOCK
  8
0
  5
913
  2
*D6
 70
    65
 10
0.0
 20
0.0
 30
0.0
  3
*D7
  0
LINE
  8
0
  6
BYBLOCK
  5
914
 10
189.67691
 20
397.940335
 30
0.0
 11
204.416064
 21
397.940335
 31
0.0
  0
LINE
  8
0
  6
BYBLOCK
  5
915
 10
178.032749
 20
437.940335
 30
0.0
 11
204.416064
 21
437.940335
 31
0.0
  0
LINE
  8
0
  6
BYBLOCK
  5
916
 10
203.416064
 20
400.440335
 30
0.0
 11
203.416064
 21
435.440335
 31
0.0
  0
INSERT
  8
0
  6
BYBLOCK
  5
917
  2
_OPEN30
 10
203.416064
 20
397.940335
 30
0.0
 41
2.5
 42
2.5
 50
270.0
 43
2.5
  0
INSERT
  8
0
  6
BYBLOCK
  5
918
  2
_OPEN30
 10
203.416064
 20
437.940335
 30
0.0
 41
2.5
 42
2.5
 50
90.0
 43
2.5
  0
TEXT
  8
0
  6
BYBLOCK
  5
919
 10
202.416064
 20
414.940335
 30
0.0
 40
4.0
  1
40
 50
90.0
  7
STANDARD
  0
POINT
  8
DEFPOINTS
  6
BYBLOCK
 62
     0
  5
91A
 10
188.67691
 20
397.940335
 30
0.0
  0
POINT
  8
DEFPOINTS
  6
BYBLOCK
 62
     0
  5
91B
 10
177.032749
 20
437.940335
 30
0.0
  0
POINT
  8
DEFPOINTS
  6
BYBLOCK
 62
     0
  5
91C
 10
203.416064
 20
437.940335
 30
0.0
  0
ENDBLK
  8
0
  5
91D
  0
BLOCK
  8
0
  5
920
  2
*D7
 70
    65
 10
0.0
 20
0.0
 30
0.0
  3
*D8
  0
LINE
  8
0
  6
BYBLOCK
  5
921
 10
188.67691
 20
397.940335
 30
0.0
 11
204.416064
 21
397.940335
 31
0.0
  0
LINE
  8
0
  6
BYBLOCK
  5
922
 10
178.032749
 20
355.940334
 30
0.0
 11
204.416064
 21
355.940334
 31
0.0
  0
LINE
  8
0
  6
BYBLOCK
  5
923
 10
203.416064
 20
395.440335
 30
0.0
 11
203.416064
 21
358.440334
 31
0.0
  0
INSERT
  8
0
  6
BYBLOCK
  5
924
  2
_OPEN30
 10
203.416064
 20
397.940335
 30
0.0
 41
2.5
 42
2.5
 50
90.0
 43
2.5
  0
INSERT
  8
0
  6
BYBLOCK
  5
925
  2
_OPEN30
 10
203.416064
 20
355.940334
 30
0.0
 41
2.5
 42
2.5
 50
270.0
 43
2.5
  0
TEXT
  8
0
  6
BYBLOCK
  5
926
 10
202.416064
 20
373.607001
 30
0.0
 40
4.0
  1
42
 50
90.0
  7
STANDARD
  0
POINT
  8
DEFPOINTS
  6
BYBLOCK
 62
     0
  5
927
 10
187.67691
 20
397.940335
 30
0.0
  0
POINT
  8
DEFPOINTS
  6
BYBLOCK
 62
     0
  5
928
 10
177.032749
 20
355.940334
 30
0.0
  0
POINT
  8
DEFPOINTS
  6
BYBLOCK
 62
     0
  5
929
 10
203.416064
 20
355.940334
 30
0.0
  0
ENDBLK
  8
0
  5
92A
  0
BLOCK
  8
0
  5
931
  2
*D8
 70
    65
 10
0.0
 20
0.0
 30
0.0
  3
*D9
  0
LINE
  8
0
  6
BYBLOCK
  5
932
 10
178.032749
 20
437.940335
 30
0.0
 11
204.416064
 21
437.940335
 31
0.0
  0
LINE
  8
0
  6
BYBLOCK
  5
933
 10
182.65763
 20
447.940335
 30
0.0
 11
204.416064
 21
447.940335
 31
0.0
  0
LINE
  8
0
  6
BYBLOCK
  5
934
 10
203.416064
 20
440.440335
 30
0.0
 11
203.416064
 21
445.440335
 31
0.0
  0
INSERT
  8
0
  6
BYBLOCK
  5
935
  2
_OPEN30
 10
203.416064
 20
437.940335
 30
0.0
 41
2.5
 42
2.5
 50
270.0
 43
2.5
  0
INSERT
  8
0
  6
BYBLOCK
  5
936
  2
_OPEN30
 10
203.416064
 20
447.940335
 30
0.0
 41
2.5
 42
2.5
 50
90.0
 43
2.5
  0
TEXT
  8
0
  6
BYBLOCK
  5
937
 10
202.416064
 20
440.607002
 30
0.0
 40
4.0
  1
10
 50
90.0
  7
STANDARD
  0
POINT
  8
DEFPOINTS
  6
BYBLOCK
 62
     0
  5
938
 10
177.032749
 20
437.940335
 30
0.0
  0
POINT
  8
DEFPOINTS
  6
BYBLOCK
 62
     0
  5
939
 10
181.65763
 20
447.940335
 30
0.0
  0
POINT
  8
DEFPOINTS
  6
BYBLOCK
 62
     0
  5
93A
 10
203.416064
 20
447.940335
 30
0.0
  0
ENDBLK
  8
0
  5
93B
  0
BLOCK
  8
0
  5
94F
  2
*D9
 70
    65
 10
0.0
 20
0.0
 30
0.0
  3
*D10
  0
LINE
  8
0
  6
BYBLOCK
  5
950
 10
178.032749
 20
355.940334
 30
0.0
 11
204.416064
 21
355.940334
 31
0.0
  0
LINE
  8
0
  6
BYBLOCK
  5
951
 10
182.65763
 20
347.940333
 30
0.0
 11
204.416064
 21
347.940333
 31
0.0
  0
LINE
  8
0
  6
BYBLOCK
  5
952
 10
203.416064
 20
353.440334
 30
0.0
 11
203.416064
 21
350.440333
 31
0.0
  0
INSERT
  8
0
  6
BYBLOCK
  5
953
  2
_OPEN30
 10
203.416064
 20
355.940334
 30
0.0
 41
2.5
 42
2.5
 50
90.0
 43
2.5
  0
INSERT
  8
0
  6
BYBLOCK
  5
954
  2
_OPEN30
 10
203.416064
 20
347.940333
 30
0.0
 41
2.5
 42
2.5
 50
270.0
 43
2.5
  0
TEXT
  8
0
  6
BYBLOCK
  5
955
 10
202.416064
 20
350.607
 30
0.0
 40
4.0
  1
8
 50
90.0
  7
STANDARD
  0
POINT
  8
DEFPOINTS
  6
BYBLOCK
 62
     0
  5
956
 10
177.032749
 20
355.940334
 30
0.0
  0
POINT
  8
DEFPOINTS
  6
BYBLOCK
 62
     0
  5
957
 10
181.65763
 20
347.940333
 30
0.0
  0
POINT
  8
DEFPOINTS
  6
BYBLOCK
 62
     0
  5
958
 10
203.416064
 20
347.940333
 30
0.0
  0
ENDBLK
  8
0
  5
959
  0
BLOCK
  8
0
  5
9A8
  2
*D10
 70
    65
 10
0.0
 20
0.0
 30
0.0
  3
*D11
  0
LINE
  8
0
  6
BYBLOCK
  5
9A9
 10
441.165682
 20
439.940335
 30
0.0
 11
483.507623
 21
439.940335
 31
0.0
  0
LINE
  8
0
  6
BYBLOCK
  5
9AA
 10
441.165682
 20
355.940335
 30
0.0
 11
483.507623
 21
355.940335
 31
0.0
  0
LINE
  8
0
  6
BYBLOCK
  5
9AB
 10
482.507623
 20
437.440335
 30
0.0
 11
482.507623
 21
358.440335
 31
0.0
  0
INSERT
  8
0
  6
BYBLOCK
  5
9AC
  2
_OPEN30
 10
482.507623
 20
439.940335
 30
0.0
 41
2.5
 42
2.5
 50
90.0
 43
2.5
  0
INSERT
  8
0
  6
BYBLOCK
  5
9AD
  2
_OPEN30
 10
482.507623
 20
355.940335
 30
0.0
 41
2.5
 42
2.5
 50
270.0
 43
2.5
  0
TEXT
  8
0
  6
BYBLOCK
  5
9AE
 10
481.507623
 20
394.607002
 30
0.0
 40
4.0
  1
84
 50
90.0
  7
STANDARD
  0
POINT
  8
DEFPOINTS
  6
BYBLOCK
 62
     0
  5
9AF
 10
440.165682
 20
439.940335
 30
0.0
  0
POINT
  8
DEFPOINTS
  6
BYBLOCK
 62
     0
  5
9B0
 10
440.165682
 20
355.940335
 30
0.0
  0
POINT
  8
DEFPOINTS
  6
BYBLOCK
 62
     0
  5
9B1
 10
482.507623
 20
355.940335
 30
0.0
  0
ENDBLK
  8
0
  5
9B2
  0
BLOCK
  8
0
  5
1DD8
  2
*D11
 70
    65
 10
0.0
 20
0.0
 30
0.0
  3
*D12
  0
LINE
  8
0
  6
BYBLOCK
  5
1DD9
 10
353.829119
 20
353.877765
 30
0.0
 11
353.829119
 21
314.609438
 31
0.0
  0
LINE
  8
0
  6
BYBLOCK
  5
1DDA
 10
293.829119
 20
359.440335
 30
0.0
 11
293.829119
 21
314.609438
 31
0.0
  0
LINE
  8
0
  6
BYBLOCK
  5
1DDB
 10
351.329119
 20
315.609438
 30
0.0
 11
296.329119
 21
315.609438
 31
0.0
  0
INSERT
  8
0
  6
BYBLOCK
  5
1DDC
  2
_OPEN30
 10
353.829119
 20
315.609438
 30
0.0
 41
2.5
 42
2.5
 43
2.5
  0
INSERT
  8
0
  6
BYBLOCK
  5
1DDD
  2
_OPEN30
 10
293.829119
 20
315.609438
 30
0.0
 41
2.5
 42
2.5
 50
180.0
 43
2.5
  0
TEXT
  8
0
  6
BYBLOCK
  5
1DDE
 10
320.829119
 20
316.609438
 30
0.0
 40
4.0
  1
60
  7
STANDARD
  0
POINT
  8
DEFPOINTS
  6
BYBLOCK
 62
     0
  5
1DDF
 10
353.829119
 20
354.877765
 30
0.0
  0
POINT
  8
DEFPOINTS
  6
BYBLOCK
 62
     0
  5
1DE0
 10
293.829119
 20
360.440335
 30
0.0
  0
POINT
  8
DEFPOINTS
  6
BYBLOCK
 62
     0
  5
1DE1
 10
293.829119
 20
315.609438
 30
0.0
  0
ENDBLK
  8
0
  5
1DE2
  0
BLOCK
  8
0
  5
1DEE
  2
*D12
 70
    65
 10
0.0
 20
0.0
 30
0.0
  3
*D13
  0
LINE
  8
0
  6
BYBLOCK
  5
1DEF
 10
293.829119
 20
359.440335
 30
0.0
 11
293.829119
 21
314.609438
 31
0.0
  0
LINE
  8
0
  6
BYBLOCK
  5
1DF0
 10
285.829119
 20
371.940335
 30
0.0
 11
285.829119
 21
314.609438
 31
0.0
  0
LINE
  8
0
  6
BYBLOCK
  5
1DF1
 10
291.329119
 20
315.609438
 30
0.0
 11
288.329119
 21
315.609438
 31
0.0
  0
INSERT
  8
0
  6
BYBLOCK
  5
1DF2
  2
_OPEN30
 10
293.829119
 20
315.609438
 30
0.0
 41
2.5
 42
2.5
 43
2.5
  0
INSERT
  8
0
  6
BYBLOCK
  5
1DF3
  2
_OPEN30
 10
285.829119
 20
315.609438
 30
0.0
 41
2.5
 42
2.5
 50
180.0
 43
2.5
  0
TEXT
  8
0
  6
BYBLOCK
  5
1DF4
 10
288.495786
 20
316.609438
 30
0.0
 40
4.0
  1
8
  7
STANDARD
  0
POINT
  8
DEFPOINTS
  6
BYBLOCK
 62
     0
  5
1DF5
 10
293.829119
 20
360.440335
 30
0.0
  0
POINT
  8
DEFPOINTS
  6
BYBLOCK
 62
     0
  5
1DF6
 10
285.829119
 20
372.940335
 30
0.0
  0
POINT
  8
DEFPOINTS
  6
BYBLOCK
 62
     0
  5
1DF7
 10
285.829119
 20
315.609438
 30
0.0
  0
ENDBLK
  8
0
  5
1DF8
  0
BLOCK
  8
0
  5
1DF9
  2
*D13
 70
    65
 10
0.0
 20
0.0
 30
0.0
  3
*D14
  0
LINE
  8
0
  6
BYBLOCK
  5
1DFA
 10
285.829119
 20
371.940335
 30
0.0
 11
285.829119
 21
314.609438
 31
0.0
  0
LINE
  8
0
  6
BYBLOCK
  5
1DFB
 10
281.829119
 20
372.940335
 30
0.0
 11
281.829119
 21
314.609438
 31
0.0
  0
LINE
  8
0
  6
BYBLOCK
  5
1DFC
 10
288.329119
 20
315.609438
 30
0.0
 11
290.829119
 21
315.609438
 31
0.0
  0
LINE
  8
0
  6
BYBLOCK
  5
1DFD
 10
279.329119
 20
315.609438
 30
0.0
 11
272.162453
 21
315.609438
 31
0.0
  0
LINE
  8
0
  6
BYBLOCK
  5
1DFE
 10
285.829119
 20
315.609438
 30
0.0
 11
281.829119
 21
315.609438
 31
0.0
  0
INSERT
  8
0
  6
BYBLOCK
  5
1DFF
  2
_OPEN30
 10
285.829119
 20
315.609438
 30
0.0
 41
2.5
 42
2.5
 50
180.0
 43
2.5
  0
INSERT
  8
0
  6
BYBLOCK
  5
1E00
  2
_OPEN30
 10
281.829119
 20
315.609438
 30
0.0
 41
2.5
 42
2.5
 43
2.5
  0
TEXT
  8
0
  6
BYBLOCK
  5
1E01
 10
273.162453
 20
316.609438
 30
0.0
 40
4.0
  1
4
  7
STANDARD
  0
POINT
  8
DEFPOINTS
  6
BYBLOCK
 62
     0
  5
1E02
 10
285.829119
 20
372.940335
 30
0.0
  0
POINT
  8
DEFPOINTS
  6
BYBLOCK
 62
     0
  5
1E03
 10
281.829119
 20
373.940335
 30
0.0
  0
POINT
  8
DEFPOINTS
  6
BYBLOCK
 62
     0
  5
1E04
 10
281.829119
 20
315.609438
 30
0.0
  0
ENDBLK
  8
0
  5
1E05
  0
BLOCK
  8
0
  5
1DCD
  2
*D14
 70
    65
 10
0.0
 20
0.0
 30
0.0
  3
*D15
  0
LINE
  8
0
  6
BYBLOCK
  5
1DCE
 10
353.829119
 20
353.877765
 30
0.0
 11
353.829119
 21
305.640248
 31
0.0
  0
LINE
  8
0
  6
BYBLOCK
  5
1DCF
 10
269.829119
 20
406.440335
 30
0.0
 11
269.829119
 21
305.640248
 31
0.0
  0
LINE
  8
0
  6
BYBLOCK
  5
1DD0
 10
351.329119
 20
306.640248
 30
0.0
 11
272.329119
 21
306.640248
 31
0.0
  0
INSERT
  8
0
  6
BYBLOCK
  5
1DD1
  2
_OPEN30
 10
353.829119
 20
306.640248
 30
0.0
 41
2.5
 42
2.5
 43
2.5
  0
INSERT
  8
0
  6
BYBLOCK
  5
1DD2
  2
_OPEN30
 10
269.829119
 20
306.640248
 30
0.0
 41
2.5
 42
2.5
 50
180.0
 43
2.5
  0
TEXT
  8
0
  6
BYBLOCK
  5
1DD3
 10
308.495786
 20
307.640248
 30
0.0
 40
4.0
  1
84
  7
STANDARD
  0
POINT
  8
DEFPOINTS
  6
BYBLOCK
 62
     0
  5
1DD4
 10
353.829119
 20
354.877765
 30
0.0
  0
POINT
  8
DEFPOINTS
  6
BYBLOCK
 62
     0
  5
1DD5
 10
269.829119
 20
407.440335
 30
0.0
  0
POINT
  8
DEFPOINTS
  6
BYBLOCK
 62
     0
  5
1DD6
 10
269.829119
 20
306.640248
 30
0.0
  0
ENDBLK
  8
0
  5
1DD7
  0
BLOCK
  8
0
  5
A6F
  2
*D15
 70
    65
 10
0.0
 20
0.0
 30
0.0
  3
*D16
  0
LINE
  8
0
  6
BYBLOCK
  5
A70
 10
362.126446
 20
437.490335
 30
0.0
 11
378.576531
 21
437.490335
 31
0.0
  0
LINE
  8
0
  6
BYBLOCK
  5
A71
 10
362.126446
 20
442.390335
 30
0.0
 11
378.576531
 21
442.390335
 31
0.0
  0
LINE
  8
0
  6
BYBLOCK
  5
A72
 10
377.576531
 20
434.990335
 30
0.0
 11
377.576531
 21
432.490335
 31
0.0
  0
LINE
  8
0
  6
BYBLOCK
  5
A73
 10
377.576531
 20
444.890335
 30
0.0
 11
377.576531
 21
461.390335
 31
0.0
  0
LINE
  8
0
  6
BYBLOCK
  5
A74
 10
377.576531
 20
437.490335
 30
0.0
 11
377.576531
 21
442.390335
 31
0.0
  0
INSERT
  8
0
  6
BYBLOCK
  5
A75
  2
_OPEN30
 10
377.576531
 20
437.490335
 30
0.0
 41
2.5
 42
2.5
 50
90.0
 43
2.5
  0
INSERT
  8
0
  6
BYBLOCK
  5
A76
  2
_OPEN30
 10
377.576531
 20
442.390335
 30
0.0
 41
2.5
 42
2.5
 50
270.0
 43
2.5
  0
TEXT
  8
0
  6
BYBLOCK
  5
A77
 10
376.576531
 20
448.390335
 30
0.0
 40
4.0
  1
%%c4.9
 50
90.0
  7
STANDARD
  0
POINT
  8
DEFPOINTS
  6
BYBLOCK
 62
     0
  5
A78
 10
361.126446
 20
437.490335
 30
0.0
  0
POINT
  8
DEFPOINTS
  6
BYBLOCK
 62
     0
  5
A79
 10
361.126446
 20
442.390335
 30
0.0
  0
POINT
  8
DEFPOINTS
  6
BYBLOCK
 62
     0
  5
A7A
 10
377.576531
 20
442.390335
 30
0.0
  0
ENDBLK
  8
0
  5
A7B
  0
BLOCK
  8
0
  5
A8A
  2
*D16
 70
    65
 10
0.0
 20
0.0
 30
0.0
  3
*D17
  0
LINE
  8
0
  6
BYBLOCK
  5
A8B
 10
309.126446
 20
436.040335
 30
0.0
 11
288.17799
 21
436.040335
 31
0.0
  0
LINE
  8
0
  6
BYBLOCK
  5
A8C
 10
309.126446
 20
443.840335
 30
0.0
 11
288.17799
 21
443.840335
 31
0.0
  0
LINE
  8
0
  6
BYBLOCK
  5
A8D
 10
289.17799
 20
438.540335
 30
0.0
 11
289.17799
 21
441.340335
 31
0.0
  0
LINE
  8
0
  6
BYBLOCK
  5
A8E
 10
289.17799
 20
443.840335
 30
0.0
 11
289.17799
 21
460.340335
 31
0.0
  0
INSERT
  8
0
  6
BYBLOCK
  5
A8F
  2
_OPEN30
 10
289.17799
 20
436.040335
 30
0.0
 41
2.5
 42
2.5
 50
270.0
 43
2.5
  0
INSERT
  8
0
  6
BYBLOCK
  5
A90
  2
_OPEN30
 10
289.17799
 20
443.840335
 30
0.0
 41
2.5
 42
2.5
 50
90.0
 43
2.5
  0
TEXT
  8
0
  6
BYBLOCK
  5
A91
 10
288.17799
 20
447.340335
 30
0.0
 40
4.0
  1
%%c7.8
 50
90.0
  7
STANDARD
  0
POINT
  8
DEFPOINTS
  6
BYBLOCK
 62
     0
  5
A92
 10
310.126446
 20
436.040335
 30
0.0
  0
POINT
  8
DEFPOINTS
  6
BYBLOCK
 62
     0
  5
A93
 10
310.126446
 20
443.840335
 30
0.0
  0
POINT
  8
DEFPOINTS
  6
BYBLOCK
 62
     0
  5
A94
 10
289.17799
 20
443.840335
 30
0.0
  0
ENDBLK
  8
0
  5
A95
  0
BLOCK
  8
0
  5
AC0
  2
*D17
 70
    65
 10
0.0
 20
0.0
 30
0.0
  3
*D18
  0
LINE
  8
0
  6
BYBLOCK
  5
AC1
 10
361.126446
 20
436.490335
 30
0.0
 11
361.126446
 21
427.418218
 31
0.0
  0
LINE
  8
0
  6
BYBLOCK
  5
AC2
 10
318.126446
 20
435.040335
 30
0.0
 11
318.126446
 21
427.418218
 31
0.0
  0
LINE
  8
0
  6
BYBLOCK
  5
AC3
 10
358.626446
 20
428.418218
 30
0.0
 11
320.626446
 21
428.418218
 31
0.0
  0
INSERT
  8
0
  6
BYBLOCK
  5
AC4
  2
_OPEN30
 10
361.126446
 20
428.418218
 30
0.0
 41
2.5
 42
2.5
 43
2.5
  0
INSERT
  8
0
  6
BYBLOCK
  5
AC5
  2
_OPEN30
 10
318.126446
 20
428.418218
 30
0.0
 41
2.5
 42
2.5
 50
180.0
 43
2.5
  0
TEXT
  8
0
  6
BYBLOCK
  5
AC6
 10
336.293112
 20
429.418218
 30
0.0
 40
4.0
  1
43
  7
STANDARD
  0
POINT
  8
DEFPOINTS
  6
BYBLOCK
 62
     0
  5
AC7
 10
361.126446
 20
437.490335
 30
0.0
  0
POINT
  8
DEFPOINTS
  6
BYBLOCK
 62
     0
  5
AC8
 10
318.126446
 20
436.040335
 30
0.0
  0
POINT
  8
DEFPOINTS
  6
BYBLOCK
 62
     0
  5
AC9
 10
318.126446
 20
428.418218
 30
0.0
  0
ENDBLK
  8
0
  5
ACA
  0
BLOCK
  8
0
  5
BD4
  2
*D18
 70
    65
 10
0.0
 20
0.0
 30
0.0
  3
*D19
  0
LINE
  8
0
  6
BYBLOCK
  5
BD5
 10
586.701803
 20
423.940335
 30
0.0
 11
611.502926
 21
423.940335
 31
0.0
  0
LINE
  8
0
  6
BYBLOCK
  5
BD6
 10
586.701803
 20
371.940335
 30
0.0
 11
611.502926
 21
371.940335
 31
0.0
  0
LINE
  8
0
  6
BYBLOCK
  5
BD7
 10
610.502926
 20
421.440335
 30
0.0
 11
610.502926
 21
374.440335
 31
0.0
  0
INSERT
  8
0
  6
BYBLOCK
  5
BD8
  2
_OPEN30
 10
610.502926
 20
423.940335
 30
0.0
 41
2.5
 42
2.5
 50
90.0
 43
2.5
  0
INSERT
  8
0
  6
BYBLOCK
  5
BD9
  2
_OPEN30
 10
610.502926
 20
371.940335
 30
0.0
 41
2.5
 42
2.5
 50
270.0
 43
2.5
  0
TEXT
  8
0
  6
BYBLOCK
  5
BDA
 10
609.502926
 20
389.273668
 30
0.0
 40
4.0
  1
Min.52
 50
90.0
  7
STANDARD
  0
POINT
  8
DEFPOINTS
  6
BYBLOCK
 62
     0
  5
BDB
 10
585.701803
 20
423.940335
 30
0.0
  0
POINT
  8
DEFPOINTS
  6
BYBLOCK
 62
     0
  5
BDC
 10
585.701803
 20
371.940335
 30
0.0
  0
POINT
  8
DEFPOINTS
  6
BYBLOCK
 62
     0
  5
BDD
 10
610.502926
 20
371.940335
 30
0.0
  0
ENDBLK
  8
0
  5
BDE
  0
BLOCK
  8
0
  5
BDF
  2
*D19
 70
    65
 10
0.0
 20
0.0
 30
0.0
  3
*D20
  0
LINE
  8
0
  6
BYBLOCK
  5
BE0
 10
537.701803
 20
372.940335
 30
0.0
 11
537.701803
 21
333.872139
 31
0.0
  0
LINE
  8
0
  6
BYBLOCK
  5
BE1
 10
587.701803
 20
372.940335
 30
0.0
 11
587.701803
 21
333.872139
 31
0.0
  0
LINE
  8
0
  6
BYBLOCK
  5
BE2
 10
540.201803
 20
334.872139
 30
0.0
 11
585.201803
 21
334.872139
 31
0.0
  0
INSERT
  8
0
  6
BYBLOCK
  5
BE3
  2
_OPEN30
 10
537.701803
 20
334.872139
 30
0.0
 41
2.5
 42
2.5
 50
180.0
 43
2.5
  0
INSERT
  8
0
  6
BYBLOCK
  5
BE4
  2
_OPEN30
 10
587.701803
 20
334.872139
 30
0.0
 41
2.5
 42
2.5
 43
2.5
  0
TEXT
  8
0
  6
BYBLOCK
  5
BE5
 10
554.368469
 20
335.872139
 30
0.0
 40
4.0
  1
Min.50
  7
STANDARD
  0
POINT
  8
DEFPOINTS
  6
BYBLOCK
 62
     0
  5
BE6
 10
537.701803
 20
373.940335
 30
0.0
  0
POINT
  8
DEFPOINTS
  6
BYBLOCK
 62
     0
  5
BE7
 10
587.701803
 20
373.940335
 30
0.0
  0
POINT
  8
DEFPOINTS
  6
BYBLOCK
 62
     0
  5
BE8
 10
587.701803
 20
334.872139
 30
0.0
  0
ENDBLK
  8
0
  5
BE9
  0
BLOCK
  8
0
  5
BCC
  2
*D20
 70
    65
 10
0.0
 20
0.0
 30
0.0
  3
*D21
  0
LINE
  8
0
  6
BYBLOCK
  5
BCD
 10
510.555229
 20
449.079925
 30
0.0
 11
538.238093
 21
423.303256
 31
0.0
  0
TEXT
  8
0
  6
BYBLOCK
  5
BCE
 10
511.968544
 20
449.13032
 30
0.0
 40
4.0
  1
Max.R2
 50
317.042118
  7
STANDARD
  0
LINE
  8
0
  6
BYBLOCK
  5
BCF
 10
539.701803
 20
421.940335
 30
0.0
 11
538.238093
 21
423.303256
 31
0.0
  0
INSERT
  8
0
  6
BYBLOCK
  5
BD0
  2
_OPEN30
 10
538.238093
 20
423.303256
 30
0.0
 41
2.5
 42
2.5
 50
317.042118
 43
2.5
  0
POINT
  8
DEFPOINTS
  6
BYBLOCK
 62
     0
  5
BD1
 10
538.238093
 20
423.303256
 30
0.0
  0
POINT
  8
DEFPOINTS
  6
BYBLOCK
 62
     0
  5
BD2
 10
539.701803
 20
421.940335
 30
0.0
  0
ENDBLK
  8
0
  5
BD3
  0
BLOCK
  8
0
  5
B58
  2
*D21
 70
    65
 10
0.0
 20
0.0
 30
0.0
  3
*D22
  0
LINE
  8
0
  6
BYBLOCK
  5
B59
 10
134.457705
 20
383.391463
 30
0.0
 11
134.457705
 21
380.710149
 31
0.0
  0
LINE
  8
0
  6
BYBLOCK
  5
B5A
 10
158.457691
 20
383.391463
 30
0.0
 11
158.457691
 21
380.710149
 31
0.0
  0
LINE
  8
0
  6
BYBLOCK
  5
B5B
 10
136.957705
 20
381.710149
 30
0.0
 11
155.957691
 21
381.710149
 31
0.0
  0
INSERT
  8
0
  6
BYBLOCK
  5
B5C
  2
_OPEN30
 10
134.457705
 20
381.710149
 30
0.0
 41
2.5
 42
2.5
 50
180.0
 43
2.5
  0
INSERT
  8
0
  6
BYBLOCK
  5
B5D
  2
_OPEN30
 10
158.457691
 20
381.710149
 30
0.0
 41
2.5
 42
2.5
 43
2.5
  0
TEXT
  8
0
  6
BYBLOCK
  5
B5E
 10
143.124365
 20
382.710149
 30
0.0
 40
4.0
  1
24
  7
STANDARD
  0
POINT
  8
DEFPOINTS
  6
BYBLOCK
 62
     0
  5
B5F
 10
134.457705
 20
384.391463
 30
0.0
  0
POINT
  8
DEFPOINTS
  6
BYBLOCK
 62
     0
  5
B60
 10
158.457691
 20
384.391463
 30
0.0
  0
POINT
  8
DEFPOINTS
  6
BYBLOCK
 62
     0
  5
B61
 10
158.457691
 20
381.710149
 30
0.0
  0
ENDBLK
  8
0
  5
B62
  0
BLOCK
  8
0
  5
B7A
  2
*D22
 70
    65
 10
0.0
 20
0.0
 30
0.0
  3
*D23
  0
LINE
  8
0
  6
BYBLOCK
  5
B7B
 10
134.457705
 20
393.39509
 30
0.0
 11
134.457705
 21
388.86876
 31
0.0
  0
LINE
  8
0
  6
BYBLOCK
  5
B7C
 10
156.45769
 20
393.39509
 30
0.0
 11
156.45769
 21
388.86876
 31
0.0
  0
LINE
  8
0
  6
BYBLOCK
  5
B7D
 10
136.957705
 20
389.86876
 30
0.0
 11
153.95769
 21
389.86876
 31
0.0
  0
INSERT
  8
0
  6
BYBLOCK
  5
B7E
  2
_OPEN30
 10
134.457705
 20
389.86876
 30
0.0
 41
2.5
 42
2.5
 50
180.0
 43
2.5
  0
INSERT
  8
0
  6
BYBLOCK
  5
B7F
  2
_OPEN30
 10
156.45769
 20
389.86876
 30
0.0
 41
2.5
 42
2.5
 43
2.5
  0
TEXT
  8
0
  6
BYBLOCK
  5
B80
 10
142.124364
 20
390.86876
 30
0.0
 40
4.0
  1
22
  7
STANDARD
  0
POINT
  8
DEFPOINTS
  6
BYBLOCK
 62
     0
  5
B81
 10
134.457705
 20
394.39509
 30
0.0
  0
POINT
  8
DEFPOINTS
  6
BYBLOCK
 62
     0
  5
B82
 10
156.45769
 20
394.39509
 30
0.0
  0
POINT
  8
DEFPOINTS
  6
BYBLOCK
 62
     0
  5
B83
 10
156.45769
 20
389.86876
 30
0.0
  0
ENDBLK
  8
0
  5
B84
  0
BLOCK
  8
0
  5
1DE3
  2
*D23
 70
    65
 10
0.0
 20
0.0
 30
0.0
  3
*D25
  0
LINE
  8
0
  6
BYBLOCK
  5
1DE4
 10
353.829119
 20
353.877765
 30
0.0
 11
353.829119
 21
324.24408
 31
0.0
  0
LINE
  8
0
  6
BYBLOCK
  5
1DE5
 10
302.829119
 20
349.740335
 30
0.0
 11
302.829119
 21
324.24408
 31
0.0
  0
LINE
  8
0
  6
BYBLOCK
  5
1DE6
 10
351.329119
 20
325.24408
 30
0.0
 11
305.329119
 21
325.24408
 31
0.0
  0
INSERT
  8
0
  6
BYBLOCK
  5
1DE7
  2
_OPEN30
 10
353.829119
 20
325.24408
 30
0.0
 41
2.5
 42
2.5
 43
2.5
  0
INSERT
  8
0
  6
BYBLOCK
  5
1DE8
  2
_OPEN30
 10
302.829119
 20
325.24408
 30
0.0
 41
2.5
 42
2.5
 50
180.0
 43
2.5
  0
TEXT
  8
0
  6
BYBLOCK
  5
1DE9
 10
325.662453
 20
326.24408
 30
0.0
 40
4.0
  1
51
  7
STANDARD
  0
POINT
  8
DEFPOINTS
  6
BYBLOCK
 62
     0
  5
1DEA
 10
353.829119
 20
354.877765
 30
0.0
  0
POINT
  8
DEFPOINTS
  6
BYBLOCK
 62
     0
  5
1DEB
 10
302.829119
 20
350.740335
 30
0.0
  0
POINT
  8
DEFPOINTS
  6
BYBLOCK
 62
     0
  5
1DEC
 10
302.829119
 20
325.24408
 30
0.0
  0
ENDBLK
  8
0
  5
1DED
  0
BLOCK
  8
0
  5
24D7
  2
*D24
 70
    65
 10
0.0
 20
0.0
 30
0.0
  3
*D26
  0
LINE
  8
0
  6
BYBLOCK
  5
24D8
 10
-181.978218
 20
232.358034
 30
0.0
 11
-181.978218
 21
221.142491
 31
0.0
  0
LINE
  8
0
  6
BYBLOCK
  5
24D9
 10
-198.978218
 20
232.358034
 30
0.0
 11
-198.978218
 21
221.142491
 31
0.0
  0
LINE
  8
0
  6
BYBLOCK
  5
24DA
 10
-184.478218
 20
222.142491
 30
0.0
 11
-196.478218
 21
222.142491
 31
0.0
  0
INSERT
  8
0
  6
BYBLOCK
  5
24DB
  2
_OPEN30
 10
-181.978218
 20
222.142491
 30
0.0
 41
2.5
 42
2.5
 43
2.5
  0
INSERT
  8
0
  6
BYBLOCK
  5
24DC
  2
_OPEN30
 10
-198.978218
 20
222.142491
 30
0.0
 41
2.5
 42
2.5
 50
180.0
 43
2.5
  0
TEXT
  8
0
  6
BYBLOCK
  5
24DD
 10
-193.144885
 20
223.142491
 30
0.0
 40
4.0
  1
17
  7
STANDARD
  0
POINT
  8
DEFPOINTS
  6
BYBLOCK
 62
     0
  5
24DE
 10
-181.978218
 20
233.358034
 30
0.0
  0
POINT
  8
DEFPOINTS
  6
BYBLOCK
 62
     0
  5
24DF
 10
-198.978218
 20
233.358034
 30
0.0
  0
POINT
  8
DEFPOINTS
  6
BYBLOCK
 62
     0
  5
24E0
 10
-198.978218
 20
222.142491
 30
0.0
  0
ENDBLK
  8
0
  5
24E1
  0
BLOCK
  8
0
  5
24E2
  2
*D25
 70
    65
 10
0.0
 20
0.0
 30
0.0
  3
*D27
  0
LINE
  8
0
  6
BYBLOCK
  5
24E3
 10
-179.728218
 20
241.358034
 30
0.0
 11
-168.829166
 21
241.358034
 31
0.0
  0
LINE
  8
0
  6
BYBLOCK
  5
24E4
 10
-180.978218
 20
248.358034
 30
0.0
 11
-168.829166
 21
248.358034
 31
0.0
  0
LINE
  8
0
  6
BYBLOCK
  5
24E5
 10
-169.829166
 20
238.858034
 30
0.0
 11
-169.829166
 21
236.358034
 31
0.0
  0
LINE
  8
0
  6
BYBLOCK
  5
24E6
 10
-169.829166
 20
250.858034
 30
0.0
 11
-169.829166
 21
253.358034
 31
0.0
  0
LINE
  8
0
  6
BYBLOCK
  5
24E7
 10
-169.829166
 20
241.358034
 30
0.0
 11
-169.829166
 21
248.358034
 31
0.0
  0
INSERT
  8
0
  6
BYBLOCK
  5
24E8
  2
_OPEN30
 10
-169.829166
 20
241.358034
 30
0.0
 41
2.5
 42
2.5
 50
90.0
 43
2.5
  0
INSERT
  8
0
  6
BYBLOCK
  5
24E9
  2
_OPEN30
 10
-169.829166
 20
248.358034
 30
0.0
 41
2.5
 42
2.5
 50
270.0
 43
2.5
  0
TEXT
  8
0
  6
BYBLOCK
  5
24EA
 10
-170.829166
 20
243.524701
 30
0.0
 40
4.0
  1
7
 50
90.0
  7
STANDARD
  0
POINT
  8
DEFPOINTS
  6
BYBLOCK
 62
     0
  5
24EB
 10
-180.728218
 20
241.358034
 30
0.0
  0
POINT
  8
DEFPOINTS
  6
BYBLOCK
 62
     0
  5
24EC
 10
-181.978218
 20
248.358034
 30
0.0
  0
POINT
  8
DEFPOINTS
  6
BYBLOCK
 62
     0
  5
24ED
 10
-169.829166
 20
248.358034
 30
0.0
  0
ENDBLK
  8
0
  5
24EE
  0
BLOCK
  8
0
  5
24EF
  2
*D26
 70
    65
 10
0.0
 20
0.0
 30
0.0
  3
*D28
  0
LINE
  8
0
  6
BYBLOCK
  5
24F0
 10
-107.157249
 20
232.358034
 30
0.0
 11
-107.157249
 21
221.142491
 31
0.0
  0
LINE
  8
0
  6
BYBLOCK
  5
24F1
 10
-131.157249
 20
232.608034
 30
0.0
 11
-131.157249
 21
221.142491
 31
0.0
  0
LINE
  8
0
  6
BYBLOCK
  5
24F2
 10
-109.657249
 20
222.142491
 30
0.0
 11
-128.657249
 21
222.142491
 31
0.0
  0
INSERT
  8
0
  6
BYBLOCK
  5
24F3
  2
_OPEN30
 10
-107.157249
 20
222.142491
 30
0.0
 41
2.5
 42
2.5
 43
2.5
  0
INSERT
  8
0
  6
BYBLOCK
  5
24F4
  2
_OPEN30
 10
-131.157249
 20
222.142491
 30
0.0
 41
2.5
 42
2.5
 50
180.0
 43
2.5
  0
TEXT
  8
0
  6
BYBLOCK
  5
24F5
 10
-122.490582
 20
223.142491
 30
0.0
 40
4.0
  1
24
  7
STANDARD
  0
POINT
  8
DEFPOINTS
  6
BYBLOCK
 62
     0
  5
24F6
 10
-107.157249
 20
233.358034
 30
0.0
  0
POINT
  8
DEFPOINTS
  6
BYBLOCK
 62
     0
  5
24F7
 10
-131.157249
 20
233.608034
 30
0.0
  0
POINT
  8
DEFPOINTS
  6
BYBLOCK
 62
     0
  5
24F8
 10
-131.157249
 20
222.142491
 30
0.0
  0
ENDBLK
  8
0
  5
24F9
  0
BLOCK
  8
0
  5
24FA
  2
*D27
 70
    65
 10
0.0
 20
0.0
 30
0.0
  3
*D29
  0
LINE
  8
0
  6
BYBLOCK
  5
24FB
 10
-25.918023
 20
232.858034
 30
0.0
 11
-25.918023
 21
223.010791
 31
0.0
  0
LINE
  8
0
  6
BYBLOCK
  5
24FC
 10
-18.918023
 20
232.158037
 30
0.0
 11
-18.918023
 21
223.010791
 31
0.0
  0
LINE
  8
0
  6
BYBLOCK
  5
24FD
 10
-28.418023
 20
224.010791
 30
0.0
 11
-30.918023
 21
224.010791
 31
0.0
  0
LINE
  8
0
  6
BYBLOCK
  5
24FE
 10
-16.418023
 20
224.010791
 30
0.0
 11
-13.918023
 21
224.010791
 31
0.0
  0
LINE
  8
0
  6
BYBLOCK
  5
24FF
 10
-25.918023
 20
224.010791
 30
0.0
 11
-18.918023
 21
224.010791
 31
0.0
  0
INSERT
  8
0
  6
BYBLOCK
  5
2500
  2
_OPEN30
 10
-25.918023
 20
224.010791
 30
0.0
 41
2.5
 42
2.5
 43
2.5
  0
INSERT
  8
0
  6
BYBLOCK
  5
2501
  2
_OPEN30
 10
-18.918023
 20
224.010791
 30
0.0
 41
2.5
 42
2.5
 50
180.0
 43
2.5
  0
TEXT
  8
0
  6
BYBLOCK
  5
2502
 10
-23.751356
 20
225.010791
 30
0.0
 40
4.0
  1
7
  7
STANDARD
  0
POINT
  8
DEFPOINTS
  6
BYBLOCK
 62
     0
  5
2503
 10
-25.918023
 20
233.858034
 30
0.0
  0
POINT
  8
DEFPOINTS
  6
BYBLOCK
 62
     0
  5
2504
 10
-18.918023
 20
233.158037
 30
0.0
  0
POINT
  8
DEFPOINTS
  6
BYBLOCK
 62
     0
  5
2505
 10
-18.918023
 20
224.010791
 30
0.0
  0
ENDBLK
  8
0
  5
2506
  0
BLOCK
  8
0
  5
2507
  2
*D28
 70
    65
 10
0.0
 20
0.0
 30
0.0
  3
*D30
  0
LINE
  8
0
  6
BYBLOCK
  5
2508
 10
-26.918023
 20
233.858034
 30
0.0
 11
-40.375242
 21
233.858034
 31
0.0
  0
LINE
  8
0
  6
BYBLOCK
  5
2509
 10
-26.918023
 20
248.858034
 30
0.0
 11
-40.375242
 21
248.858034
 31
0.0
  0
LINE
  8
0
  6
BYBLOCK
  5
250A
 10
-39.375242
 20
236.358034
 30
0.0
 11
-39.375242
 21
246.358034
 31
0.0
  0
INSERT
  8
0
  6
BYBLOCK
  5
250B
  2
_OPEN30
 10
-39.375242
 20
233.858034
 30
0.0
 41
2.5
 42
2.5
 50
270.0
 43
2.5
  0
INSERT
  8
0
  6
BYBLOCK
  5
250C
  2
_OPEN30
 10
-39.375242
 20
248.858034
 30
0.0
 41
2.5
 42
2.5
 50
90.0
 43
2.5
  0
TEXT
  8
0
  6
BYBLOCK
  5
250D
 10
-40.375242
 20
232.024701
 30
0.0
 40
4.0
  1
Max.15
 50
90.0
  7
STANDARD
  0
POINT
  8
DEFPOINTS
  6
BYBLOCK
 62
     0
  5
250E
 10
-25.918023
 20
233.858034
 30
0.0
  0
POINT
  8
DEFPOINTS
  6
BYBLOCK
 62
     0
  5
250F
 10
-25.918023
 20
248.858034
 30
0.0
  0
POINT
  8
DEFPOINTS
  6
BYBLOCK
 62
     0
  5
2510
 10
-39.375242
 20
248.858034
 30
0.0
  0
ENDBLK
  8
0
  5
2511
  0
BLOCK
  8
0
  5
2512
  2
*D29
 70
    65
 10
0.0
 20
0.0
 30
0.0
  3
*D31
  0
LINE
  8
0
  6
BYBLOCK
  5
2513
 10
3.083952
 20
256.044589
 30
0.0
 11
-13.09594
 21
245.244337
 31
0.0
  0
LINE
  8
0
  6
BYBLOCK
  5
2514
 10
-24.740106
 20
237.471731
 30
0.0
 11
-26.819421
 21
236.083766
 31
0.0
  0
TEXT
  8
0
  6
BYBLOCK
  5
2515
 10
-3.847801
 20
252.619888
 30
0.0
 40
4.0
  1
%%c9
 50
33.723537
  7
STANDARD
  0
LINE
  8
0
  6
BYBLOCK
  5
2516
 10
-22.66079
 20
238.859697
 30
0.0
 11
-15.175255
 21
243.856372
 31
0.0
  0
INSERT
  8
0
  6
BYBLOCK
  5
2517
  2
_OPEN30
 10
-22.66079
 20
238.859697
 30
0.0
 41
2.5
 42
2.5
 50
33.723537
 43
2.5
  0
INSERT
  8
0
  6
BYBLOCK
  5
2518
  2
_OPEN30
 10
-15.175255
 20
243.856372
 30
0.0
 41
2.5
 42
2.5
 50
213.723537
 43
2.5
  0
POINT
  8
DEFPOINTS
  6
BYBLOCK
 62
     0
  5
2519
 10
-15.175255
 20
243.856372
 30
0.0
  0
POINT
  8
DEFPOINTS
  6
BYBLOCK
 62
     0
  5
251A
 10
-22.66079
 20
238.859697
 30
0.0
  0
ENDBLK
  8
0
  5
251B
  0
BLOCK
  8
0
  5
25D8
  2
*D30
 70
    65
 10
0.0
 20
0.0
 30
0.0
  3
*D32
  0
LINE
  8
0
  6
BYBLOCK
  5
25D9
 10
128.372391
 20
447.940335
 30
0.0
 11
91.465416
 21
447.940335
 31
0.0
  0
LINE
  8
0
  6
BYBLOCK
  5
25DA
 10
128.372391
 20
347.940333
 30
0.0
 11
91.465416
 21
347.940333
 31
0.0
  0
LINE
  8
0
  6
BYBLOCK
  5
25DB
 10
92.465416
 20
445.440335
 30
0.0
 11
92.465416
 21
350.440333
 31
0.0
  0
INSERT
  8
0
  6
BYBLOCK
  5
25DC
  2
_OPEN30
 10
92.465416
 20
447.940335
 30
0.0
 41
2.5
 42
2.5
 50
90.0
 43
2.5
  0
INSERT
  8
0
  6
BYBLOCK
  5
25DD
  2
_OPEN30
 10
92.465416
 20
347.940333
 30
0.0
 41
2.5
 42
2.5
 50
270.0
 43
2.5
  0
TEXT
  8
0
  6
BYBLOCK
  5
25DE
 10
91.465416
 20
393.940334
 30
0.0
 40
4.0
  1
100
 50
90.0
  7
STANDARD
  0
POINT
  8
DEFPOINTS
  6
BYBLOCK
 62
     0
  5
25DF
 10
129.372391
 20
447.940335
 30
0.0
  0
POINT
  8
DEFPOINTS
  6
BYBLOCK
 62
     0
  5
25E0
 10
129.372391
 20
347.940333
 30
0.0
  0
POINT
  8
DEFPOINTS
  6
BYBLOCK
 62
     0
  5
25E1
 10
92.465416
 20
347.940333
 30
0.0
  0
ENDBLK
  8
0
  5
25E2
  0
BLOCK
  8
0
  5
25E5
  2
*D31
 70
    65
 10
0.0
 20
0.0
 30
0.0
  3
*D33
  0
LINE
  8
0
  6
BYBLOCK
  5
25E6
 10
128.372391
 20
447.940335
 30
0.0
 11
91.465416
 21
447.940335
 31
0.0
  0
LINE
  8
0
  6
BYBLOCK
  5
25E7
 10
128.672345
 20
457.740336
 30
0.0
 11
91.465416
 21
457.740336
 31
0.0
  0
LINE
  8
0
  6
BYBLOCK
  5
25E8
 10
92.465416
 20
450.440335
 30
0.0
 11
92.465416
 21
455.240336
 31
0.0
  0
LINE
  8
0
  6
BYBLOCK
  5
25E9
 10
92.465416
 20
457.740336
 30
0.0
 11
92.465416
 21
470.240336
 31
0.0
  0
INSERT
  8
0
  6
BYBLOCK
  5
25EA
  2
_OPEN30
 10
92.465416
 20
447.940335
 30
0.0
 41
2.5
 42
2.5
 50
270.0
 43
2.5
  0
INSERT
  8
0
  6
BYBLOCK
  5
25EB
  2
_OPEN30
 10
92.465416
 20
457.740336
 30
0.0
 41
2.5
 42
2.5
 50
90.0
 43
2.5
  0
TEXT
  8
0
  6
BYBLOCK
  5
25EC
 10
91.465416
 20
461.240336
 30
0.0
 40
4.0
  1
9.8
 50
90.0
  7
STANDARD
  0
POINT
  8
DEFPOINTS
  6
BYBLOCK
 62
     0
  5
25ED
 10
129.372391
 20
447.940335
 30
0.0
  0
POINT
  8
DEFPOINTS
  6
BYBLOCK
 62
     0
  5
25EE
 10
129.672345
 20
457.740336
 30
0.0
  0
POINT
  8
DEFPOINTS
  6
BYBLOCK
 62
     0
  5
25EF
 10
92.465416
 20
457.740336
 30
0.0
  0
ENDBLK
  8
0
  5
25F0
  0
BLOCK
  8
0
  5
25F3
  2
*D32
 70
    65
 10
0.0
 20
0.0
 30
0.0
  3
*D34
  0
LINE
  8
0
  6
BYBLOCK
  5
25F4
 10
128.372391
 20
347.940333
 30
0.0
 11
91.465416
 21
347.940333
 31
0.0
  0
LINE
  8
0
  6
BYBLOCK
  5
25F5
 10
128.672773
 20
338.140334
 30
0.0
 11
91.465416
 21
338.140334
 31
0.0
  0
LINE
  8
0
  6
BYBLOCK
  5
25F6
 10
92.465416
 20
345.440333
 30
0.0
 11
92.465416
 21
340.640334
 31
0.0
  0
LINE
  8
0
  6
BYBLOCK
  5
25F7
 10
92.465416
 20
338.140334
 30
0.0
 11
92.465416
 21
325.640334
 31
0.0
  0
INSERT
  8
0
  6
BYBLOCK
  5
25F8
  2
_OPEN30
 10
92.465416
 20
347.940333
 30
0.0
 41
2.5
 42
2.5
 50
90.0
 43
2.5
  0
INSERT
  8
0
  6
BYBLOCK
  5
25F9
  2
_OPEN30
 10
92.465416
 20
338.140334
 30
0.0
 41
2.5
 42
2.5
 50
270.0
 43
2.5
  0
TEXT
  8
0
  6
BYBLOCK
  5
25FA
 10
91.465416
 20
326.640334
 30
0.0
 40
4.0
  1
9.8
 50
90.0
  7
STANDARD
  0
POINT
  8
DEFPOINTS
  6
BYBLOCK
 62
     0
  5
25FB
 10
129.372391
 20
347.940333
 30
0.0
  0
POINT
  8
DEFPOINTS
  6
BYBLOCK
 62
     0
  5
25FC
 10
129.672773
 20
338.140334
 30
0.0
  0
POINT
  8
DEFPOINTS
  6
BYBLOCK
 62
     0
  5
25FD
 10
92.465416
 20
338.140334
 30
0.0
  0
ENDBLK
  8
0
  5
25FE
  0
BLOCK
  8
0
  5
262E
  2
*X33
 70
    65
 10
0.0
 20
0.0
 30
0.0
  3
*X35
  0
LINE
  8
F02_DIM
 62
     0
  5
2619
 10
436.800549
 20
245.147115
 30
0.0
 11
437.70363
 21
246.050197
 31
0.0
  0
LINE
  8
F02_DIM
 62
     0
  5
261A
 10
433.972122
 20
245.147115
 30
0.0
 11
437.70363
 21
248.878624
 31
0.0
  0
LINE
  8
F02_DIM
 62
     0
  5
261B
 10
433.70363
 20
247.707051
 30
0.0
 11
437.70363
 21
251.707051
 31
0.0
  0
LINE
  8
F02_DIM
 62
     0
  5
261C
 10
433.70363
 20
250.535478
 30
0.0
 11
437.70363
 21
254.535478
 31
0.0
  0
LINE
  8
F02_DIM
 62
     0
  5
261D
 10
433.70363
 20
253.363905
 30
0.0
 11
437.70363
 21
257.363905
 31
0.0
  0
LINE
  8
F02_DIM
 62
     0
  5
261E
 10
433.70363
 20
256.192332
 30
0.0
 11
437.70363
 21
260.192332
 31
0.0
  0
LINE
  8
F02_DIM
 62
     0
  5
261F
 10
433.70363
 20
259.020759
 30
0.0
 11
437.70363
 21
263.020759
 31
0.0
  0
LINE
  8
F02_DIM
 62
     0
  5
2620
 10
432.001559
 20
260.147116
 30
0.0
 11
437.314993
 21
265.46055
 31
0.0
  0
LINE
  8
F02_DIM
 62
     0
  5
2621
 10
429.173132
 20
260.147116
 30
0.0
 11
434.486566
 21
265.46055
 31
0.0
  0
LINE
  8
F02_DIM
 62
     0
  5
2622
 10
414.173132
 20
245.147115
 30
0.0
 11
416.70363
 21
247.677614
 31
0.0
  0
LINE
  8
F02_DIM
 62
     0
  5
2623
 10
426.344705
 20
260.147116
 30
0.0
 11
431.658139
 21
265.46055
 31
0.0
  0
LINE
  8
F02_DIM
 62
     0
  5
2624
 10
412.70363
 20
246.506041
 30
0.0
 11
416.70363
 21
250.506041
 31
0.0
  0
LINE
  8
F02_DIM
 62
     0
  5
2625
 10
423.516278
 20
260.147116
 30
0.0
 11
428.829712
 21
265.46055
 31
0.0
  0
LINE
  8
F02_DIM
 62
     0
  5
2626
 10
412.70363
 20
249.334468
 30
0.0
 11
416.70363
 21
253.334468
 31
0.0
  0
LINE
  8
F02_DIM
 62
     0
  5
2627
 10
420.687851
 20
260.147116
 30
0.0
 11
426.001285
 21
265.46055
 31
0.0
  0
LINE
  8
F02_DIM
 62
     0
  5
2628
 10
412.70363
 20
252.162895
 30
0.0
 11
416.70363
 21
256.162895
 31
0.0
  0
LINE
  8
F02_DIM
 62
     0
  5
2629
 10
417.859423
 20
260.147116
 30
0.0
 11
423.172858
 21
265.46055
 31
0.0
  0
LINE
  8
F02_DIM
 62
     0
  5
262A
 10
412.70363
 20
254.991322
 30
0.0
 11
416.70363
 21
258.991322
 31
0.0
  0
LINE
  8
F02_DIM
 62
     0
  5
262B
 10
412.70363
 20
257.819749
 30
0.0
 11
420.344431
 21
265.46055
 31
0.0
  0
LINE
  8
F02_DIM
 62
     0
  5
262C
 10
412.70363
 20
260.648176
 30
0.0
 11
417.516004
 21
265.46055
 31
0.0
  0
LINE
  8
F02_DIM
 62
     0
  5
262D
 10
412.70363
 20
263.476604
 30
0.0
 11
414.687576
 21
265.46055
 31
0.0
  0
ENDBLK
  8
0
  5
262F
  0
BLOCK
  8
0
  5
264B
  2
*X34
 70
    65
 10
0.0
 20
0.0
 30
0.0
  3
*X36
  0
LINE
  8
F02_DIM
 62
     0
  5
2631
 10
506.475857
 20
245.147116
 30
0.0
 11
508.524599
 21
247.195857
 31
0.0
  0
LINE
  8
F02_DIM
 62
     0
  5
2632
 10
503.64743
 20
245.147116
 30
0.0
 11
508.524599
 21
250.024284
 31
0.0
  0
LINE
  8
F02_DIM
 62
     0
  5
2633
 10
500.819003
 20
245.147116
 30
0.0
 11
508.524599
 21
252.852711
 31
0.0
  0
LINE
  8
F02_DIM
 62
     0
  5
2634
 10
497.990576
 20
245.147116
 30
0.0
 11
508.524599
 21
255.681139
 31
0.0
  0
LINE
  8
F02_DIM
 62
     0
  5
2635
 10
495.162149
 20
245.147116
 30
0.0
 11
508.524599
 21
258.509566
 31
0.0
  0
LINE
  8
F02_DIM
 62
     0
  5
2636
 10
497.024598
 20
249.837992
 30
0.0
 11
508.524599
 21
261.337993
 31
0.0
  0
LINE
  8
F02_DIM
 62
     0
  5
2637
 10
492.333722
 20
245.147116
 30
0.0
 11
495.333721
 21
248.147115
 31
0.0
  0
LINE
  8
F02_DIM
 62
     0
  5
2638
 10
497.024598
 20
252.666419
 30
0.0
 11
508.524599
 21
264.16642
 31
0.0
  0
LINE
  8
F02_DIM
 62
     0
  5
2639
 10
489.505295
 20
245.147116
 30
0.0
 11
492.505294
 21
248.147115
 31
0.0
  0
LINE
  8
F02_DIM
 62
     0
  5
263A
 10
497.024598
 20
255.494846
 30
0.0
 11
506.976867
 21
265.447116
 31
0.0
  0
LINE
  8
F02_DIM
 62
     0
  5
263B
 10
487.024598
 20
245.494846
 30
0.0
 11
489.676867
 21
248.147115
 31
0.0
  0
LINE
  8
F02_DIM
 62
     0
  5
263C
 10
496.84844
 20
258.147115
 30
0.0
 11
504.14844
 21
265.447116
 31
0.0
  0
LINE
  8
F02_DIM
 62
     0
  5
263D
 10
494.020013
 20
258.147115
 30
0.0
 11
501.320013
 21
265.447116
 31
0.0
  0
LINE
  8
F02_DIM
 62
     0
  5
263E
 10
491.191586
 20
258.147115
 30
0.0
 11
498.491586
 21
265.447116
 31
0.0
  0
LINE
  8
F02_DIM
 62
     0
  5
263F
 10
488.363159
 20
258.147115
 30
0.0
 11
495.663159
 21
265.447116
 31
0.0
  0
LINE
  8
F02_DIM
 62
     0
  5
2640
 10
487.024598
 20
259.636982
 30
0.0
 11
492.834732
 21
265.447116
 31
0.0
  0
LINE
  8
F02_DIM
 62
     0
  5
2641
 10
484.721931
 20
260.162742
 30
0.0
 11
490.006305
 21
265.447116
 31
0.0
  0
LINE
  8
F02_DIM
 62
     0
  5
2642
 10
481.912569
 20
260.181807
 30
0.0
 11
487.177878
 21
265.447116
 31
0.0
  0
LINE
  8
F02_DIM
 62
     0
  5
2643
 10
479.103207
 20
260.200872
 30
0.0
 11
484.34945
 21
265.447116
 31
0.0
  0
LINE
  8
F02_DIM
 62
     0
  5
2644
 10
476.293845
 20
260.219937
 30
0.0
 11
481.521023
 21
265.447116
 31
0.0
  0
LINE
  8
F02_DIM
 62
     0
  5
2645
 10
473.484483
 20
260.239002
 30
0.0
 11
478.692596
 21
265.447116
 31
0.0
  0
LINE
  8
F02_DIM
 62
     0
  5
2646
 10
470.675121
 20
260.258067
 30
0.0
 11
475.864169
 21
265.447116
 31
0.0
  0
LINE
  8
F02_DIM
 62
     0
  5
2647
 10
467.865758
 20
260.277132
 30
0.0
 11
473.035742
 21
265.447116
 31
0.0
  0
LINE
  8
F02_DIM
 62
     0
  5
2648
 10
465.056396
 20
260.296197
 30
0.0
 11
470.207315
 21
265.447116
 31
0.0
  0
LINE
  8
F02_DIM
 62
     0
  5
2649
 10
463.72461
 20
261.792838
 30
0.0
 11
467.378888
 21
265.447116
 31
0.0
  0
LINE
  8
F02_DIM
 62
     0
  5
264A
 10
463.72461
 20
264.621265
 30
0.0
 11
464.550461
 21
265.447116
 31
0.0
  0
ENDBLK
  8
0
  5
264C
  0
ENDSEC
  0
SECTION
  2
ENTITIES
  0
LINE
  8
F03_CNT
  5
125
 10
172.772345
 20
387.340478
 30
0.0
 11
172.772345
 21
381.540478
 31
0.0
  0
LINE
  8
F03_CNT
  5
17A
 10
140.072405
 20
362.015346
 30
0.0
 11
140.072405
 21
349.865321
 31
0.0
  0
LINE
  8
F03_CNT
  5
17B
 10
140.072405
 20
445.076007
 30
0.0
 11
140.072405
 21
430.808428
 31
0.0
  0
LINE
  8
F03_CNT
  5
17D
 10
133.997393
 20
355.940334
 30
0.0
 11
146.147387
 21
355.940334
 31
0.0
  0
LINE
  8
F03_CNT
  5
17E
 10
158.997394
 20
355.940334
 30
0.0
 11
171.147388
 21
355.940334
 31
0.0
  0
LINE
  8
F03_CNT
  5
17F
 10
165.072375
 20
362.015346
 30
0.0
 11
165.072375
 21
349.865321
 31
0.0
  0
LINE
  8
F03_CNT
  5
180
 10
133.997393
 20
437.940335
 30
0.0
 11
146.147387
 21
437.940335
 31
0.0
  0
LINE
  8
F03_CNT
  5
181
 10
165.072375
 20
445.076007
 30
0.0
 11
165.072375
 21
430.808428
 31
0.0
  0
LINE
  8
F03_CNT
  5
183
 10
122.783567
 20
397.940335
 30
0.0
 11
181.791549
 21
397.940335
 31
0.0
  0
LINE
  8
F03_CNT
  5
186
 10
268.638658
 20
397.940335
 30
0.0
 11
357.774541
 21
397.940335
 31
0.0
  0
LINE
  8
F03_CNT
  5
187
 10
152.57233
 20
463.212805
 30
0.0
 11
152.57233
 21
333.341703
 31
0.0
  0
CIRCLE
  8
F01_OUT
  5
195
 10
172.772345
 20
384.440478
 30
0.0
 40
1.9
  0
ARC
  8
F01_OUT
  5
196
 10
175.07236
 20
421.940305
 30
0.0
 40
1.0
 50
0.0
 51
90.0
  0
ARC
  8
F01_OUT
  5
197
 10
128.925897
 20
373.293857
 30
0.0
 40
0.353553
 50
180.0
 51
270.0
  0
CIRCLE
  8
F01_OUT
  5
198
 10
152.57239
 20
439.940275
 30
0.0
 40
2.45
  0
ARC
  8
F01_OUT
  5
199
 10
152.57239
 20
439.940275
 30
0.0
 40
3.9
 50
104.478333
 51
37.303102
  0
ARC
  8
F01_OUT
  5
19A
 10
156.072329
 20
442.606813
 30
0.0
 40
0.5
 50
180.0
 51
217.303102
  0
ARC
  8
F01_OUT
  5
19B
 10
151.472329
 20
444.200541
 30
0.0
 40
0.5
 50
284.478333
 51
0.0
  0
ARC
  8
F01_OUT
  5
19C
 10
149.072329
 20
353.274016
 30
0.0
 40
0.5
 50
0.0
 51
37.300479
  0
ARC
  8
F01_OUT
  5
19D
 10
153.672329
 20
351.680097
 30
0.0
 40
0.5
 50
104.476692
 51
179.999991
  0
CIRCLE
  8
F01_OUT
  5
19E
 10
152.57239
 20
355.940395
 30
0.0
 40
2.45
  0
ARC
  8
F01_OUT
  5
19F
 10
128.925897
 20
422.586751
 30
0.0
 40
0.353553
 50
90.0
 51
180.0
  0
ARC
  8
F01_OUT
  5
1A0
 10
150.218776
 20
422.586751
 30
0.0
 40
0.353553
 50
0.0
 51
90.0
  0
ARC
  8
F01_OUT
  5
1A1
 10
175.07233
 20
373.940304
 30
0.0
 40
1.0
 50
270.0
 51
359.999999
  0
ARC
  8
F01_OUT
  5
1A2
 10
152.57239
 20
355.940395
 30
0.0
 40
3.9
 50
284.476692
 51
217.300479
  0
ARC
  8
F01_OUT
  5
1A3
 10
150.218776
 20
373.293857
 30
0.0
 40
0.353553
 50
270.0
 51
0.0
  0
LINE
  8
F01_OUT
  5
1A4
 10
175.772269
 20
351.690334
 30
0.0
 11
177.57233
 21
351.690334
 31
0.0
  0
LINE
  8
F01_OUT
  5
1A5
 10
175.772269
 20
351.690334
 30
0.0
 11
175.772269
 21
347.940333
 31
0.0
  0
LINE
  8
F01_OUT
  5
1A6
 10
177.57233
 20
444.190336
 30
0.0
 11
177.57233
 21
351.690334
 31
0.0
  0
LINE
  8
F01_OUT
  5
1A7
 10
175.772269
 20
444.190336
 30
0.0
 11
175.772269
 21
447.940335
 31
0.0
  0
LINE
  8
F01_OUT
  5
1A8
 10
175.772269
 20
444.190336
 30
0.0
 11
177.57233
 21
444.190336
 31
0.0
  0
LINE
  8
F01_OUT
  5
1A9
 10
175.07236
 20
422.940305
 30
0.0
 11
128.925897
 21
422.940305
 31
0.0
  0
LINE
  8
F01_OUT
  5
1AA
 10
157.572329
 20
359.940335
 30
0.0
 11
147.572329
 21
359.940335
 31
0.0
  0
LINE
  8
F01_OUT
  5
1AB
 10
147.572329
 20
430.940335
 30
0.0
 11
132.572329
 21
430.940335
 31
0.0
  0
LINE
  8
F01_OUT
  5
1AC
 10
177.57233
 20
435.840299
 30
0.0
 11
172.57233
 21
435.840299
 31
0.0
  0
LINE
  8
F01_OUT
  5
1AD
 10
177.57233
 20
359.940335
 30
0.0
 11
172.57233
 21
359.940335
 31
0.0
  0
LINE
  8
F01_OUT
  5
1AE
 10
147.572329
 20
430.940335
 30
0.0
 11
147.572329
 21
447.940335
 31
0.0
  0
LINE
  8
F01_OUT
  5
1AF
 10
172.57233
 20
447.940335
 30
0.0
 11
172.57233
 21
430.940335
 31
0.0
  0
LINE
  8
F01_OUT
  5
1B0
 10
132.572329
 20
447.940335
 30
0.0
 11
132.572329
 21
430.940335
 31
0.0
  0
LINE
  8
F01_OUT
  5
1B1
 10
157.572329
 20
447.940335
 30
0.0
 11
157.572329
 21
430.940335
 31
0.0
  0
LINE
  8
F01_OUT
  5
1B2
 10
157.572329
 20
435.840299
 30
0.0
 11
147.572329
 21
435.840299
 31
0.0
  0
LINE
  8
F01_OUT
  5
1B6
 10
153.172329
 20
351.680097
 30
0.0
 11
153.172329
 21
347.940333
 31
0.0
  0
LINE
  8
F01_OUT
  5
1B7
 10
149.572329
 20
353.274016
 30
0.0
 11
149.572329
 21
347.940333
 31
0.0
  0
LINE
  8
F01_OUT
  5
1B9
 10
149.572329
 20
351.690334
 30
0.0
 11
153.172329
 21
351.690334
 31
0.0
  0
LINE
  8
F01_OUT
  5
1BA
 10
148.67239
 20
355.944288
 30
0.0
 11
148.67239
 21
355.929421
 31
0.0
  0
LINE
  8
F01_OUT
  5
1BC
 10
129.372391
 20
351.690334
 30
0.0
 11
129.372391
 21
347.940333
 31
0.0
  0
LINE
  8
F01_OUT
  5
1BD
 10
129.372391
 20
351.690334
 30
0.0
 11
127.57233
 21
351.690334
 31
0.0
  0
LINE
  8
F01_OUT
  5
1BE
 10
155.572329
 20
442.606813
 30
0.0
 11
155.572329
 21
447.940335
 31
0.0
  0
LINE
  8
F01_OUT
  5
1BF
 10
151.972329
 20
444.190336
 30
0.0
 11
155.572329
 21
444.190336
 31
0.0
  0
LINE
  8
F01_OUT
  5
1C0
 10
129.372391
 20
444.190336
 30
0.0
 11
129.372391
 21
447.940335
 31
0.0
  0
LINE
  8
F01_OUT
  5
1C1
 10
129.372391
 20
444.190336
 30
0.0
 11
127.57233
 21
444.190336
 31
0.0
  0
LINE
  8
F01_OUT
  5
1C4
 10
128.572344
 20
422.586751
 30
0.0
 11
128.572344
 21
373.293857
 31
0.0
  0
LINE
  8
F01_OUT
  5
1C5
 10
172.57233
 20
347.940333
 30
0.0
 11
172.57233
 21
362.940334
 31
0.0
  0
LINE
  8
F01_OUT
  5
1C6
 10
147.572329
 20
347.940333
 30
0.0
 11
147.572329
 21
362.940334
 31
0.0
  0
LINE
  8
F01_OUT
  5
1C8
 10
151.972329
 20
444.200541
 30
0.0
 11
151.972329
 21
447.940335
 31
0.0
  0
LINE
  8
F01_OUT
  5
1C9
 10
157.572329
 20
362.940334
 30
0.0
 11
157.572329
 21
347.940333
 31
0.0
  0
LINE
  8
F01_OUT
  5
1CA
 10
132.572329
 20
362.940334
 30
0.0
 11
132.572329
 21
347.940333
 31
0.0
  0
LINE
  8
F01_OUT
  5
1CB
 10
150.572329
 20
422.586751
 30
0.0
 11
150.572329
 21
373.293857
 31
0.0
  0
LINE
  8
F01_OUT
  5
1CD
 10
127.57233
 20
444.190336
 30
0.0
 11
127.57233
 21
351.690334
 31
0.0
  0
LINE
  8
F01_OUT
  5
1CE
 10
176.07233
 20
421.940305
 30
0.0
 11
176.07233
 21
373.940304
 31
0.0
  0
LINE
  8
F01_OUT
  5
1CF
 10
128.925897
 20
372.940304
 30
0.0
 11
175.07233
 21
372.940304
 31
0.0
  0
LINE
  8
F01_OUT
  5
1D0
 10
172.57233
 20
430.940335
 30
0.0
 11
157.572329
 21
430.940335
 31
0.0
  0
ARC
  8
F01_OUT
  5
1D6
 10
135.772329
 20
417.575653
 30
0.0
 40
1.75
 50
90.0
 51
180.0
  0
ARC
  8
F01_OUT
  5
1D7
 10
144.372337
 20
417.575653
 30
0.0
 40
1.75
 50
0.0
 51
90.0
  0
LINE
  8
F01_OUT
  5
1D8
 10
134.022329
 20
417.575653
 30
0.0
 11
134.022329
 21
401.840365
 31
0.0
  0
LINE
  8
F01_OUT
  5
1D9
 10
146.122337
 20
417.575653
 30
0.0
 11
146.122337
 21
401.840365
 31
0.0
  0
LINE
  8
F01_OUT
  5
1DA
 10
146.122337
 20
413.040365
 30
0.0
 11
146.572344
 21
413.040365
 31
0.0
  0
LINE
  8
F01_OUT
  5
1DB
 10
145.425435
 20
415.217868
 30
0.0
 11
134.808009
 21
415.217868
 31
0.0
  0
LINE
  8
F01_OUT
  5
1DC
 10
144.372337
 20
419.325653
 30
0.0
 11
135.772329
 21
419.325653
 31
0.0
  0
LINE
  8
F01_OUT
  5
1DD
 10
133.572329
 20
401.840365
 30
0.0
 11
146.572344
 21
401.840365
 31
0.0
  0
LINE
  8
F01_OUT
  5
1DE
 10
133.572329
 20
413.040365
 30
0.0
 11
134.022329
 21
413.040365
 31
0.0
  0
LINE
  8
F01_OUT
  5
1DF
 10
146.572344
 20
416.190365
 30
0.0
 11
146.572344
 21
398.690365
 31
0.0
  0
LINE
  8
F01_OUT
  5
1E0
 10
133.572329
 20
416.190365
 30
0.0
 11
133.572329
 21
398.690365
 31
0.0
  0
LINE
  8
F01_OUT
  5
1E1
 10
133.572329
 20
398.690365
 30
0.0
 11
146.572344
 21
398.690365
 31
0.0
  0
LINE
  8
F01_OUT
  5
1E2
 10
133.572329
 20
416.190365
 30
0.0
 11
134.022329
 21
416.190365
 31
0.0
  0
LINE
  8
F01_OUT
  5
1E3
 10
146.122337
 20
416.190365
 30
0.0
 11
146.572344
 21
416.190365
 31
0.0
  0
LINE
  8
F01_OUT
  5
1E4
 10
134.022329
 20
407.219416
 30
0.0
 11
146.122337
 21
407.219416
 31
0.0
  0
LINE
  8
F01_OUT
  5
1E5
 10
149.572337
 20
421.940335
 30
0.0
 11
129.572337
 21
421.940335
 31
0.0
  0
LINE
  8
F01_OUT
  5
1E6
 10
129.572337
 20
421.940335
 30
0.0
 11
129.572337
 21
373.940335
 31
0.0
  0
LINE
  8
F01_OUT
  5
1E7
 10
149.572337
 20
421.940335
 30
0.0
 11
149.572337
 21
373.940335
 31
0.0
  0
LINE
  8
F01_OUT
  5
1E8
 10
149.572337
 20
373.940335
 30
0.0
 11
129.572337
 21
373.940335
 31
0.0
  0
LINE
  8
F01_OUT
  5
1E9
 10
129.572337
 20
373.940335
 30
0.0
 11
128.572337
 21
373.362984
 31
0.0
  0
LINE
  8
F01_OUT
  5
1EA
 10
149.572337
 20
373.940335
 30
0.0
 11
150.572337
 21
373.362984
 31
0.0
  0
LINE
  8
F01_OUT
  5
1EB
 10
129.572337
 20
421.940335
 30
0.0
 11
128.572337
 21
422.517685
 31
0.0
  0
LINE
  8
F01_OUT
  5
1EC
 10
149.572337
 20
421.940335
 30
0.0
 11
150.572337
 21
422.517685
 31
0.0
  0
LINE
  8
F01_OUT
  5
1ED
 10
282.829119
 20
422.17843
 30
0.0
 11
282.829119
 21
373.690335
 31
0.0
  0
LINE
  8
F01_OUT
  5
1EE
 10
302.829119
 20
444.190335
 30
0.0
 11
353.287048
 21
444.190335
 31
0.0
  0
LINE
  8
F01_OUT
  5
1EF
 10
302.829119
 20
351.690335
 30
0.0
 11
353.287038
 21
351.690335
 31
0.0
  0
ARC
  8
F01_OUT
  5
1F0
 10
294.329119
 20
360.440335
 30
0.0
 40
0.5
 50
180.0
 51
270.0
  0
ARC
  8
F01_OUT
  5
1F1
 10
294.329119
 20
435.440335
 30
0.0
 40
0.5
 50
90.0
 51
180.0
  0
LINE
  8
F01_OUT
  5
1F2
 10
351.028959
 20
382.290466
 30
0.0
 11
353.328959
 21
379.990466
 31
0.0
  0
LINE
  8
F01_OUT
  5
1F3
 10
350.388177
 20
380.290466
 30
0.0
 11
350.528959
 21
380.290466
 31
0.0
  0
LINE
  8
F01_OUT
  5
1F4
 10
351.028959
 20
382.290466
 30
0.0
 11
350.528959
 21
380.290466
 31
0.0
  0
LINE
  8
F01_OUT
  5
1F5
 10
353.328959
 20
379.990466
 30
0.0
 11
353.431541
 21
379.030579
 31
0.0
  0
LINE
  8
F01_OUT
  5
1F6
 10
302.829119
 20
359.940335
 30
0.0
 11
302.829119
 21
350.740335
 31
0.0
  0
ARC
  8
F01_OUT
  5
1F7
 10
351.829119
 20
377.833815
 30
0.0
 40
2.0
 50
0.0
 51
75.0
  0
LINE
  8
F01_OUT
  5
1F8
 10
350.079119
 20
380.373278
 30
0.0
 11
352.346757
 21
379.765666
 31
0.0
  0
LINE
  8
F01_OUT
  5
1F9
 10
285.829119
 20
422.940335
 30
0.0
 11
281.829119
 21
421.940335
 31
0.0
  0
LINE
  8
F01_OUT
  5
1FA
 10
285.829119
 20
422.940335
 30
0.0
 11
285.829119
 21
372.940335
 31
0.0
  0
LINE
  8
F01_OUT
  5
1FB
 10
302.829119
 20
350.740335
 30
0.0
 11
305.629119
 21
347.940335
 31
0.0
  0
LINE
  8
F01_OUT
  5
1FC
 10
302.829119
 20
445.140335
 30
0.0
 11
305.629119
 21
447.940335
 31
0.0
  0
LINE
  8
F01_OUT
  5
1FD
 10
293.829119
 20
422.940335
 30
0.0
 11
285.829119
 21
422.940335
 31
0.0
  0
LINE
  8
F01_OUT
  5
1FE
 10
353.829119
 20
377.833815
 30
0.0
 11
353.829119
 21
354.877765
 31
0.0
  0
ARC
  8
F01_OUT
  5
1FF
 10
351.817678
 20
414.697026
 30
0.0
 40
0.3
 50
190.0
 51
229.0
  0
ARC
  8
F01_OUT
  5
200
 10
351.817678
 20
414.697026
 30
0.0
 40
0.3
 50
190.0
 51
229.0
  0
ARC
  8
F01_OUT
  5
201
 10
350.960711
 20
445.940335
 30
0.0
 40
2.0
 50
9.651861
 51
90.0
  0
ARC
  8
F01_OUT
  5
202
 10
353.329089
 20
413.740384
 30
0.0
 40
0.5
 50
270.0
 51
0.0
  0
ARC
  8
F01_OUT
  5
203
 10
350.9607
 20
349.940335
 30
0.0
 40
2.0
 50
270.0
 51
350.348137
  0
ARC
  8
F01_OUT
  5
204
 10
273.794954
 20
417.575482
 30
0.0
 40
1.75
 50
68.0
 51
158.0
  0
ARC
  8
F01_OUT
  5
205
 10
273.233044
 20
416.184707
 30
0.0
 40
1.75
 50
158.0
 51
248.0
  0
CIRCLE
  8
F01_OUT
  5
206
 10
274.672632
 20
416.412004
 30
0.0
 40
1.0
  0
LINE
  8
F01_OUT
  5
207
 10
350.079119
 20
415.740323
 30
0.0
 11
350.079119
 21
380.373286
 31
0.0
  0
LINE
  8
F01_OUT
  5
208
 10
351.329089
 20
415.740323
 30
0.0
 11
351.522236
 21
414.644932
 31
0.0
  0
LINE
  8
F01_OUT
  5
209
 10
353.036078
 20
413.240384
 30
0.0
 11
353.329089
 21
413.240384
 31
0.0
  0
LINE
  8
F01_OUT
  5
20A
 10
351.62086
 20
414.470614
 30
0.0
 11
353.036078
 21
413.240384
 31
0.0
  0
LINE
  8
F01_OUT
  5
20B
 10
305.629119
 20
447.940335
 30
0.0
 11
350.960711
 21
447.940335
 31
0.0
  0
LINE
  8
F01_OUT
  5
20C
 10
352.93239
 20
349.605012
 30
0.0
 11
353.829119
 21
354.877765
 31
0.0
  0
LINE
  8
F01_OUT
  5
20D
 10
352.9324
 20
446.275657
 30
0.0
 11
353.829119
 21
441.002963
 31
0.0
  0
LINE
  8
F01_OUT
  5
20E
 10
305.629119
 20
347.940335
 30
0.0
 11
350.9607
 21
347.940335
 31
0.0
  0
LINE
  8
F01_OUT
  5
20F
 10
350.079119
 20
415.740323
 30
0.0
 11
351.329089
 21
415.740323
 31
0.0
  0
LINE
  8
F01_OUT
  5
210
 10
353.829119
 20
441.002963
 30
0.0
 11
353.829119
 21
413.740384
 31
0.0
  0
LINE
  8
F01_OUT
  5
211
 10
272.172383
 20
418.231044
 30
0.0
 11
271.610473
 21
416.840268
 31
0.0
  0
LINE
  8
F01_OUT
  5
212
 10
274.450516
 20
419.198054
 30
0.0
 11
281.829119
 21
416.216905
 31
0.0
  0
LINE
  8
F01_OUT
  5
213
 10
272.577483
 20
414.562135
 30
0.0
 11
281.829119
 21
410.824231
 31
0.0
  0
LINE
  8
F01_OUT
  5
214
 10
275.053791
 20
417.336514
 30
0.0
 11
281.829119
 21
414.599103
 31
0.0
  0
LINE
  8
F01_OUT
  5
215
 10
281.829119
 20
412.442045
 30
0.0
 11
274.298015
 21
415.484791
 31
0.0
  0
LINE
  8
F01_OUT
  5
216
 10
302.829119
 20
435.940335
 30
0.0
 11
294.329119
 21
435.940335
 31
0.0
  0
LINE
  8
F01_OUT
  5
217
 10
293.829119
 20
435.440335
 30
0.0
 11
293.829119
 21
360.440335
 31
0.0
  0
LINE
  8
F01_OUT
  5
218
 10
285.829119
 20
372.940335
 30
0.0
 11
293.829119
 21
372.940335
 31
0.0
  0
LINE
  8
F01_OUT
  5
219
 10
281.829119
 20
421.940335
 30
0.0
 11
281.829119
 21
373.940335
 31
0.0
  0
LINE
  8
F01_OUT
  5
21A
 10
302.829119
 20
359.940335
 30
0.0
 11
294.329119
 21
359.940335
 31
0.0
  0
LINE
  8
F01_OUT
  5
21B
 10
302.829119
 20
445.140335
 30
0.0
 11
302.829119
 21
435.940335
 31
0.0
  0
LINE
  8
F01_OUT
  5
21C
 10
285.829119
 20
372.940335
 30
0.0
 11
281.829119
 21
373.940335
 31
0.0
  0
LINE
  8
F01_OUT
  5
21D
 10
129.372391
 20
445.140335
 30
0.0
 11
132.57233
 21
445.140335
 31
0.0
  0
LINE
  8
F01_OUT
  5
21E
 10
175.772269
 20
445.140335
 30
0.0
 11
172.57233
 21
445.140335
 31
0.0
  0
LINE
  8
F01_OUT
  5
21F
 10
175.772269
 20
350.740335
 30
0.0
 11
172.57233
 21
350.740335
 31
0.0
  0
LINE
  8
F01_OUT
  5
220
 10
129.372391
 20
350.740335
 30
0.0
 11
132.57233
 21
350.740335
 31
0.0
  0
LINE
  8
F04_HID
  5
225
 10
310.829119
 20
437.490335
 30
0.0
 11
353.829119
 21
437.490335
 31
0.0
  0
LINE
  8
F04_HID
  5
226
 10
310.829119
 20
442.390335
 30
0.0
 11
353.829119
 21
442.390335
 31
0.0
  0
LINE
  8
F04_HID
  5
227
 10
302.829119
 20
436.040335
 30
0.0
 11
310.829119
 21
436.040335
 31
0.0
  0
LINE
  8
F04_HID
  5
228
 10
302.829119
 20
443.840335
 30
0.0
 11
310.829119
 21
443.840335
 31
0.0
  0
LINE
  8
F04_HID
  5
229
 10
310.829119
 20
436.040335
 30
0.0
 11
310.829119
 21
443.840335
 31
0.0
  0
LINE
  8
F03_CNT
  5
28F
 10
158.997394
 20
437.940335
 30
0.0
 11
171.147388
 21
437.940335
 31
0.0
  0
ARC
  8
F02_DIM
  5
3E2
 10
296.879119
 20
407.440335
 30
0.0
 40
27.05
 50
163.666331
 51
180.0
  0
TEXT
  8
F05_PRO
  5
7FF
 10
581.357964
 20
174.852864
 30
0.0
 40
5.0
  1
Dimension : mm
  7
STANDARD
  0
TEXT
  8
F05_PRO
  5
800
 10
149.182828
 20
155.44759
 30
0.0
 40
8.0
  1
Type
  7
STANDARD
  0
ARC
  8
F05_PRO
  5
801
 10
132.519553
 20
164.419168
 30
0.0
 40
8.419574
 50
280.279158
 51
339.332945
1001
ACAD
1000
ASC_BOUNDS
1002
{
1070
    19
1002
}
  0
POLYLINE
  8
F05_PRO
  5
802
 66
     1
 10
0.0
 20
0.0
 30
0.0
 70
   128
  0
VERTEX
  8
F05_PRO
  5
264D
 10
135.344198
 20
169.752487
 30
0.0
  0
VERTEX
  8
F05_PRO
  5
264E
 10
134.053259
 20
169.566566
 30
0.0
  0
VERTEX
  8
F05_PRO
  5
264F
 10
132.78563
 20
169.115926
 30
0.0
  0
VERTEX
  8
F05_PRO
  5
2650
 10
131.582324
 20
168.415148
 30
0.0
  0
VERTEX
  8
F05_PRO
  5
2651
 10
130.482273
 20
167.486906
 30
0.0
  0
VERTEX
  8
F05_PRO
  5
2652
 10
129.521069
 20
166.361231
 30
0.0
  0
VERTEX
  8
F05_PRO
  5
2653
 10
128.729811
 20
165.074545
 30
0.0
  0
VERTEX
  8
F05_PRO
  5
2654
 10
128.134101
 20
163.668478
 30
0.0
  0
SEQEND
  8
F05_PRO
  5
2655
  0
LINE
  8
F05_PRO
  5
803
 10
129.88196
 20
163.63759
 30
0.0
 11
141.926706
 21
163.63759
 31
0.0
  0
LINE
  8
F05_PRO
  5
804
 10
130.111024
 20
164.71759
 30
0.0
 11
140.974307
 21
164.71759
 31
0.0
  0
ARC
  8
F05_PRO
  5
805
 10
135.769714
 20
162.367182
 30
0.0
 40
8.364916
 50
98.442625
 51
137.3304
1001
ACAD
1000
ASC_BOUNDS
1002
{
1070
    19
1002
}
  0
ARC
  8
F05_PRO
  5
806
 10
132.783586
 20
164.183214
 30
0.0
 40
9.05618
 50
279.159834
 51
342.417868
1001
ACAD
1000
ASC_BOUNDS
1002
{
1070
    19
1002
}
  0
ARC
  8
F05_PRO
  5
807
 10
133.135548
 20
161.447563
 30
0.0
 40
6.3
 50
182.729155
 51
279.960292
1001
ACAD
1000
ASC_BOUNDS
1002
{
1070
    19
1002
}
  0
ARC
  8
F05_PRO
  5
808
 10
120.690007
 20
167.82259
 30
0.0
 40
2.625
 50
90.0
 51
168.003101
  0
LINE
  8
F05_PRO
  5
809
 10
115.376706
 20
155.44759
 30
0.0
 11
119.90051
 21
155.44759
 31
0.0
  0
LINE
  8
F05_PRO
  5
80A
 10
115.376706
 20
155.44759
 30
0.0
 11
118.12234
 21
168.368219
 31
0.0
  0
ARC
  8
F05_PRO
  5
80B
 10
135.948761
 20
161.33788
 30
0.0
 40
9.082225
 50
144.533818
 51
158.153358
  0
ARC
  8
F05_PRO
  5
80C
 10
122.879382
 20
165.85759
 30
0.0
 40
0.75
 50
90.0
 51
168.003101
  0
LINE
  8
F05_PRO
  5
80D
 10
121.870385
 20
164.71759
 30
0.0
 11
127.518792
 21
164.71759
 31
0.0
  0
ARC
  8
F05_PRO
  5
80E
 10
133.392909
 20
161.732152
 30
0.0
 40
5.632662
 50
186.002385
 51
276.412304
1001
ACAD
1000
ASC_BOUNDS
1002
{
1070
    19
1002
}
  0
LINE
  8
F05_PRO
  5
80F
 10
119.90051
 20
155.44759
 30
0.0
 11
121.11176
 21
161.14759
 31
0.0
  0
LINE
  8
F05_PRO
  5
810
 10
121.870385
 20
164.71759
 30
0.0
 11
122.145763
 21
166.013484
 31
0.0
  0
LINE
  8
F05_PRO
  5
811
 10
121.11176
 20
161.14759
 30
0.0
 11
126.842694
 21
161.14759
 31
0.0
  0
POLYLINE
  8
F05_PRO
  5
812
 66
     1
 10
0.0
 20
0.0
 30
0.0
 70
   128
  0
VERTEX
  8
F05_PRO
  5
2656
 10
128.134101
 20
163.668478
 30
0.0
  0
VERTEX
  8
F05_PRO
  5
2657
 10
127.851626
 20
162.383483
 30
0.0
  0
VERTEX
  8
F05_PRO
  5
2658
 10
127.791128
 20
161.128577
 30
0.0
  0
SEQEND
  8
F05_PRO
  5
2659
  0
LINE
  8
F05_PRO
  5
813
 10
130.111024
 20
164.71759
 30
0.0
 11
129.88196
 21
163.63759
 31
0.0
  0
LINE
  8
F05_PRO
  5
814
 10
120.690007
 20
170.44759
 30
0.0
 11
130.114206
 21
170.44759
 31
0.0
  0
LINE
  8
F05_PRO
  5
815
 10
122.879382
 20
166.60759
 30
0.0
 11
128.551669
 21
166.60759
 31
0.0
  0
LINE
  8
F05_PRO
  5
816
 10
130.114206
 20
170.44759
 30
0.0
 11
129.619206
 21
168.036669
 31
0.0
  0
ARC
  8
F05_PRO
  5
817
 10
135.686397
 20
164.50512
 30
0.0
 40
6.242447
 50
1.499529
 51
100.57959
1001
ACAD
1000
ASC_BOUNDS
1002
{
1070
    19
1002
}
  0
ARC
  8
F05_PRO
  5
818
 10
135.662152
 20
164.442737
 30
0.0
 40
5.319261
 50
2.961866
 51
93.426847
  0
LINE
  8
F05_PRO
  5
819
 10
141.416706
 20
161.44759
 30
0.0
 11
140.397303
 21
161.44759
 31
0.0
  0
LINE
  8
F05_PRO
  5
81A
 10
141.926706
 20
163.63759
 30
0.0
 11
141.926706
 21
164.668477
 31
0.0
  0
TEXT
  8
F05_PRO
  5
81B
 10
561.332245
 20
160.198917
 30
0.0
 40
3.0
  1
FILE NAME
  7
FSTD1
  0
LINE
  8
F05_PRO
  5
81C
 10
508.239502
 20
165.44759
 30
0.0
 11
644.069953
 21
165.44759
 31
0.0
  0
TEXT
  8
F05_PRO
  5
81D
 10
558.78024
 20
153.631379
 30
0.0
 40
3.0
  1
BW100U2
  7
FSTD1
  0
LINE
  8
F05_PRO
  5
822
 10
531.849613
 20
165.44759
 30
0.0
 11
531.849613
 21
137.44759
 31
0.0
  0
LINE
  8
F05_PRO
  5
823
 10
508.239502
 20
165.44759
 30
0.0
 11
508.239502
 21
137.44759
 31
0.0
  0
LINE
  8
F05_PRO
  5
824
 10
555.966506
 20
165.44759
 30
0.0
 11
555.966506
 21
137.44759
 31
0.0
  0
TEXT
  8
F05_PRO
  5
825
 10
534.745121
 20
153.375364
 30
0.0
 40
3.0
  1
2009-01
  7
FSTD1
  0
TEXT
  8
F05_PRO
  5
826
 10
537.94819
 20
160.284256
 30
0.0
 40
3.0
  1
DATE
  7
FSTD1
  0
TEXT
  8
F05_PRO
  5
827
 10
511.827384
 20
153.631379
 30
0.0
 40
3.0
  1
DRAWN
  7
FSTD1
  0
TEXT
  8
F05_PRO
  5
828
 10
511.827384
 20
146.489262
 30
0.0
 40
3.0
  1
CHANGE
  7
FSTD1
  0
LINE
  8
F05_PRO
  5
829
 10
644.069953
 20
165.44759
 30
0.0
 11
644.069953
 21
137.44759
 31
0.0
  0
LINE
  8
F05_PRO
  5
82A
 10
629.972796
 20
165.44759
 30
0.0
 11
629.972796
 21
137.44759
 31
0.0
  0
LINE
  8
F05_PRO
  5
82B
 10
591.705866
 20
165.44759
 30
0.0
 11
591.705866
 21
137.44759
 31
0.0
  0
TEXT
  8
F05_PRO
  5
82D
 10
596.167253
 20
159.942903
 30
0.0
 40
3.0
  1
DRAWING NO.
  7
FSTD1
  0
TEXT
  8
F05_PRO
  5
82E
 10
632.695775
 20
160.169068
 30
0.0
 40
3.0
  1
INDEX
 41
0.7
  7
FSTD1
  0
TEXT
  8
F05_PRO
  5
834
 10
187.547704
 20
154.51271
 30
0.0
 40
8.0
  1
BW100EAGU-2P
 41
0.8
  7
STANDARD
  0
TEXT
  8
F05_PRO
  5
845
 10
118.708772
 20
397.612038
 30
0.0
 40
3.0
  1
C
  7
STANDARD
  0
TEXT
  8
F05_PRO
  5
846
 10
119.774192
 20
395.857579
 30
0.0
 40
3.0
  1
L
  7
STANDARD
  0
TEXT
  8
F05_PRO
  5
848
 10
152.342426
 20
464.530017
 30
0.0
 40
3.0
  1
L
  7
STANDARD
  0
TEXT
  8
F05_PRO
  5
849
 10
151.277006
 20
466.284476
 30
0.0
 40
3.0
  1
C
  7
STANDARD
  0
TEXT
  8
F05_PRO
  5
84A
 10
264.806026
 20
395.857579
 30
0.0
 40
3.0
  1
L
  7
STANDARD
  0
TEXT
  8
F05_PRO
  5
84B
 10
263.740606
 20
397.612038
 30
0.0
 40
3.0
  1
C
  7
STANDARD
  0
TEXT
  8
F05_PRO
  5
84C
 10
268.881899
 20
425.657147
 30
0.0
 40
3.0
  1
ON
  7
STANDARD
  0
DIMENSION
  8
F02_DIM
  5
896
  2
*D1
 10
165.072375
 20
325.24408
 30
0.0
 11
152.57239
 21
328.24408
 31
0.0
 13
140.072405
 23
349.865321
 33
0.0
 14
165.072375
 24
349.865321
 34
0.0
  3
FSTD1
  0
DIMENSION
  8
F02_DIM
  5
8A3
  2
*D2
 10
176.07233
 20
315.609438
 30
0.0
 11
152.322337
 21
318.609438
 31
0.0
 13
128.572344
 23
373.293857
 33
0.0
 14
176.07233
 24
373.940304
 34
0.0
  3
FSTD1
  0
DIMENSION
  8
F02_DIM
  5
8B0
  2
*D3
 10
177.57233
 20
306.640248
 30
0.0
 11
152.57233
 21
309.640248
 31
0.0
 13
127.57233
 23
351.690334
 33
0.0
 14
177.57233
 24
351.690334
 34
0.0
  3
FSTD1
  0
DIMENSION
  8
F02_DIM
  5
8BD
  2
*D4
 10
113.19122
 20
372.940304
 30
0.0
 11
110.19122
 21
397.940305
 31
0.0
 12
-5.885361
 22
0.0
 32
0.0
 13
128.925897
 23
422.940305
 33
0.0
 14
128.925897
 24
372.940304
 34
0.0
 50
90.0
  3
FSTD1
  0
LINE
  8
F03_CNT
  5
8CB
 10
148.67239
 20
439.940335
 30
0.0
 11
156.47239
 21
439.940335
 31
0.0
  0
LINE
  8
F03_CNT
  5
8CC
 10
148.67239
 20
355.940335
 30
0.0
 11
156.47239
 21
355.940335
 31
0.0
  0
DIMENSION
  8
F02_DIM
  5
8E6
  2
*D5
 10
103.143078
 20
355.940335
 30
0.0
 11
100.143078
 21
397.940335
 31
0.0
 12
-5.885361
 22
0.0
 32
0.0
 13
148.67239
 23
439.940335
 33
0.0
 14
148.67239
 24
355.940335
 34
0.0
 50
90.0
  3
FSTD1
  0
LINE
  8
F03_CNT
  5
8F5
 10
169.872202
 20
384.440335
 30
0.0
 11
175.672488
 21
384.440335
 31
0.0
  0
DIMENSION
  8
F02_DIM
  5
91E
  2
*D6
 10
197.530703
 20
437.940335
 30
0.0
 11
194.530703
 21
417.940335
 31
0.0
 12
-5.885361
 22
0.0
 32
0.0
 13
182.791549
 23
397.940335
 33
0.0
 14
171.147388
 24
437.940335
 34
0.0
 50
90.0
  3
FSTD1
  0
DIMENSION
  8
F02_DIM
  5
92B
  2
*D7
 10
197.530703
 20
355.940334
 30
0.0
 11
194.530703
 21
376.940335
 31
0.0
 12
-5.885361
 22
0.0
 32
0.0
 13
181.791549
 23
397.940335
 33
0.0
 14
171.147388
 24
355.940334
 34
0.0
 50
90.0
  3
FSTD1
  0
LINE
  8
F01_OUT
  5
92C
 10
155.572329
 20
447.940335
 30
0.0
 11
175.772269
 21
447.940335
 31
0.0
  0
LINE
  8
F01_OUT
  5
92D
 10
129.372391
 20
447.940335
 30
0.0
 11
151.972329
 21
447.940335
 31
0.0
  0
DIMENSION
  8
F02_DIM
  5
93C
  2
*D8
 10
197.530703
 20
447.940335
 30
0.0
 11
194.530703
 21
442.940335
 31
0.0
 12
-5.885361
 22
0.0
 32
0.0
 13
171.147388
 23
437.940335
 33
0.0
 14
175.772269
 24
447.940335
 34
0.0
 50
90.0
  3
FSTD1
  0
LINE
  8
F01_OUT
  5
94C
 10
129.372391
 20
347.940333
 30
0.0
 11
149.572329
 21
347.940333
 31
0.0
  0
LINE
  8
F01_OUT
  5
94D
 10
153.172329
 20
347.940333
 30
0.0
 11
175.772269
 21
347.940333
 31
0.0
  0
DIMENSION
  8
F02_DIM
  5
95A
  2
*D9
 10
197.530703
 20
347.940333
 30
0.0
 11
194.530703
 21
351.940334
 31
0.0
 12
-5.885361
 22
0.0
 32
0.0
 13
171.147388
 23
355.940334
 33
0.0
 14
175.772269
 24
347.940333
 34
0.0
 50
90.0
  3
FSTD1
  0
LINE
  8
F01_OUT
  5
97A
 10
132.572329
 20
362.940334
 30
0.0
 11
147.572329
 21
362.940334
 31
0.0
  0
LINE
  8
F01_OUT
  5
97B
 10
157.572329
 20
362.940334
 30
0.0
 11
172.57233
 21
362.940334
 31
0.0
  0
LINE
  8
F03_CNT
  5
97C
 10
421.377032
 20
397.940335
 30
0.0
 11
491.377032
 21
397.940335
 31
0.0
  0
LINE
  8
F03_CNT
  5
998
 10
456.377032
 20
452.940335
 30
0.0
 11
456.377032
 21
342.940335
 31
0.0
  0
LINE
  8
F07_COO
  5
999
 10
431.377032
 20
447.940335
 30
0.0
 11
431.377032
 21
347.940335
 31
0.0
  0
LINE
  8
F07_COO
  5
99A
 10
481.377032
 20
447.940335
 30
0.0
 11
481.377032
 21
347.940335
 31
0.0
  0
LINE
  8
F07_COO
  5
99B
 10
431.377032
 20
447.940335
 30
0.0
 11
481.377032
 21
447.940335
 31
0.0
  0
LINE
  8
F07_COO
  5
99C
 10
431.377032
 20
347.940335
 30
0.0
 11
481.377032
 21
347.940335
 31
0.0
  0
LINE
  8
F03_CNT
  5
9A1
 10
450.935281
 20
439.940335
 30
0.0
 11
461.818783
 21
439.940335
 31
0.0
  0
LINE
  8
F03_CNT
  5
9A2
 10
450.935281
 20
355.940335
 30
0.0
 11
461.818783
 21
355.940335
 31
0.0
  0
CIRCLE
  8
F06_CUT
  5
9A3
 10
456.377032
 20
439.940335
 30
0.0
 40
2.5
  0
CIRCLE
  8
F06_CUT
  5
9A4
 10
456.377032
 20
355.940335
 30
0.0
 40
2.5
  0
DIMENSION
  8
F02_DIM
  5
9B3
  2
*D10
 10
504.160724
 20
355.940335
 30
0.0
 11
501.160724
 21
397.940335
 31
0.0
 12
21.653102
 22
0.0
 32
0.0
 13
461.818783
 23
439.940335
 33
0.0
 14
461.818783
 24
355.940335
 34
0.0
 50
90.0
  3
FSTD1
  0
TEXT
  8
F05_PRO
  5
9B4
 10
416.445272
 20
397.612038
 30
0.0
 40
3.0
  1
C
  7
STANDARD
  0
TEXT
  8
F05_PRO
  5
9B5
 10
417.510691
 20
395.857579
 30
0.0
 40
3.0
  1
L
  7
STANDARD
  0
TEXT
  8
F05_PRO
  5
9B6
 10
456.328014
 20
460.575574
 30
0.0
 40
3.0
  1
L
  7
STANDARD
  0
TEXT
  8
F05_PRO
  5
9B7
 10
455.262594
 20
462.330033
 30
0.0
 40
3.0
  1
C
  7
STANDARD
  0
TEXT
  8
F05_PRO
  5
9B8
 10
430.247451
 20
321.879638
 30
0.0
 40
5.0
  1
Panel drilling
  7
STANDARD
 72
     1
 11
456.330784
 21
321.879638
 31
0.0
  0
DIMENSION
  8
F02_DIM
  5
A36
  2
*D11
 10
293.829119
 20
315.609438
 30
0.0
 11
323.829119
 21
318.609438
 31
0.0
 13
353.829119
 23
354.877765
 33
0.0
 14
293.829119
 24
360.440335
 34
0.0
  3
FSTD1
  0
DIMENSION
  8
F02_DIM
  5
A43
  2
*D12
 10
285.829119
 20
315.609438
 30
0.0
 11
289.829119
 21
318.609438
 31
0.0
 13
293.829119
 23
360.440335
 33
0.0
 14
285.829119
 24
372.940335
 34
0.0
  3
FSTD1
  0
DIMENSION
  8
F02_DIM
  5
A52
  2
*D13
 10
281.829119
 20
315.609438
 30
0.0
 11
274.495786
 21
318.609438
 31
0.0
 13
285.829119
 23
372.940335
 33
0.0
 14
281.829119
 24
373.940335
 34
0.0
  3
FSTD1
  0
DIMENSION
  8
F02_DIM
  5
A5F
  2
*D14
 10
269.829119
 20
306.640248
 30
0.0
 11
311.829119
 21
309.640248
 31
0.0
 13
353.829119
 23
354.877765
 33
0.0
 14
269.829119
 24
407.440335
 34
0.0
  3
FSTD1
  0
DIMENSION
  8
F02_DIM
  5
A6E
  2
*D15
 10
370.279205
 20
442.390335
 30
0.0
 11
367.279205
 21
454.390335
 31
0.0
 12
-7.297326
 22
0.0
 32
0.0
  1
%%c<>
 13
353.829119
 23
437.490335
 33
0.0
 14
353.829119
 24
442.390335
 34
0.0
 50
90.0
  3
FSTD1
  0
DIMENSION
  8
F02_DIM
  5
A89
  2
*D16
 10
281.880664
 20
443.840335
 30
0.0
 11
278.880664
 21
453.340335
 31
0.0
 12
-7.297326
 22
0.0
 32
0.0
  1
%%c<>
 13
302.829119
 23
436.040335
 33
0.0
 14
302.829119
 24
443.840335
 34
0.0
 50
90.0
  3
FSTD1
  0
DIMENSION
  8
F02_DIM
  5
ACB
  2
*D17
 10
310.829119
 20
428.418218
 30
0.0
 11
332.329119
 21
431.418218
 31
0.0
 12
-7.297326
 22
0.0
 32
0.0
 13
353.829119
 23
437.490335
 33
0.0
 14
310.829119
 24
436.040335
 34
0.0
  3
FSTD1
  0
LINE
  8
F03_CNT
  5
AD7
 10
591.283004
 20
452.940335
 30
0.0
 11
591.283004
 21
342.940335
 31
0.0
  0
LINE
  8
F07_COO
  5
AD8
 10
566.283004
 20
447.940335
 30
0.0
 11
566.283004
 21
347.940335
 31
0.0
  0
LINE
  8
F07_COO
  5
AD9
 10
616.283004
 20
447.940335
 30
0.0
 11
616.283004
 21
347.940335
 31
0.0
  0
TEXT
  8
F05_PRO
  5
ADB
 10
549.486756
 20
321.879638
 30
0.0
 40
5.0
  1
Front panel cutting
  7
STANDARD
 72
     1
 11
591.236756
 21
321.879638
 31
0.0
  0
LINE
  8
F03_CNT
  5
ADC
 10
556.283004
 20
397.940335
 30
0.0
 11
626.283004
 21
397.940335
 31
0.0
  0
LINE
  8
F07_COO
  5
ADD
 10
566.283004
 20
347.940335
 30
0.0
 11
616.283004
 21
347.940335
 31
0.0
  0
TEXT
  8
F05_PRO
  5
ADE
 10
551.351243
 20
397.612038
 30
0.0
 40
3.0
  1
C
  7
STANDARD
  0
TEXT
  8
F05_PRO
  5
ADF
 10
552.416663
 20
395.857579
 30
0.0
 40
3.0
  1
L
  7
STANDARD
  0
LINE
  8
F07_COO
  5
AE2
 10
566.283004
 20
447.940335
 30
0.0
 11
616.283004
 21
447.940335
 31
0.0
  0
TEXT
  8
F05_PRO
  5
AE5
 10
591.233985
 20
460.575574
 30
0.0
 40
3.0
  1
L
  7
STANDARD
  0
TEXT
  8
F05_PRO
  5
AE6
 10
590.168566
 20
462.330033
 30
0.0
 40
3.0
  1
C
  7
STANDARD
  0
LINE
  8
F06_CUT
  5
AF3
 10
566.283004
 20
421.940335
 30
0.0
 11
566.283004
 21
373.940335
 31
0.0
  0
LINE
  8
F06_CUT
  5
AF4
 10
616.283004
 20
421.940335
 30
0.0
 11
616.283004
 21
373.940335
 31
0.0
  0
LINE
  8
F06_CUT
  5
AF5
 10
568.283004
 20
423.940335
 30
0.0
 11
614.283004
 21
423.940335
 31
0.0
  0
LINE
  8
F06_CUT
  5
AF6
 10
568.283004
 20
371.940335
 30
0.0
 11
614.283004
 21
371.940335
 31
0.0
  0
ARC
  8
F06_CUT
  5
AF7
 10
568.283004
 20
421.940335
 30
0.0
 40
2.0
 50
90.0
 51
180.0
  0
ARC
  8
F06_CUT
  5
AF8
 10
614.283004
 20
421.940335
 30
0.0
 40
2.0
 50
0.0
 51
90.0
  0
ARC
  8
F06_CUT
  5
AF9
 10
614.283004
 20
373.940335
 30
0.0
 40
2.0
 50
270.0
 51
0.0
  0
ARC
  8
F06_CUT
  5
AFA
 10
568.283004
 20
373.940335
 30
0.0
 40
2.0
 50
180.0
 51
270.0
  0
DIMENSION
  8
F02_DIM
  5
B0B
  2
*D18
 10
639.084128
 20
371.940335
 30
0.0
 11
636.084128
 21
397.940335
 31
0.0
 12
28.581201
 22
0.0
 32
0.0
  1
Min.<>
 13
614.283004
 23
423.940335
 33
0.0
 14
614.283004
 24
371.940335
 34
0.0
 50
90.0
  3
FSTD1
  0
DIMENSION
  8
F02_DIM
  5
B18
  2
*D19
 10
616.283004
 20
334.872139
 30
0.0
 11
591.283004
 21
337.872139
 31
0.0
 12
28.581201
 22
0.0
 32
0.0
  1
Min.<>
 13
566.283004
 23
373.940335
 33
0.0
 14
616.283004
 24
373.940335
 34
0.0
  3
FSTD1
  0
DIMENSION
  8
F02_DIM
  5
B38
  2
*D20
 10
568.283004
 20
421.940335
 30
0.0
 11
547.186833
 21
441.583859
 31
0.0
 12
28.581201
 22
0.0
 32
0.0
 70
   132
  1
Max.<>
 15
566.819294
 25
423.303256
 35
0.0
  3
FSTD1
1001
ACAD
1000
DSTYLE
1002
{
1070
   288
1070
     1
1002
}
  0
TEXT
  8
F05_PRO
  5
B43
 10
194.550855
 20
324.866473
 30
0.0
 40
3.0
  1
Trip button
 41
0.8
  7
STANDARD
  0
TEXT
  8
F05_PRO
  5
B44
 10
194.550855
 20
317.887259
 30
0.0
 40
3.0
  1
(%%c3.8)
  7
STANDARD
  0
LINE
  8
F05_PRO
  5
B45
 10
172.772345
 20
384.440335
 30
0.0
 11
192.888998
 21
323.180581
 31
0.0
  0
LINE
  8
F05_PRO
  5
B46
 10
192.888998
 20
323.180581
 30
0.0
 11
222.802429
 21
323.180581
 31
0.0
  0
TEXT
  8
F05_PRO
  5
B47
 10
112.578882
 20
466.791148
 30
0.0
 40
3.0
  1
Mounting hole
 41
0.8
  7
STANDARD
  0
LINE
  8
F05_PRO
  5
B48
 10
152.57233
 20
439.940335
 30
0.0
 11
143.27719
 21
464.655846
 31
0.0
  0
LINE
  8
F05_PRO
  5
B49
 10
143.27719
 20
464.655846
 30
0.0
 11
111.154433
 21
464.655846
 31
0.0
  0
DIMENSION
  8
F02_DIM
  5
B63
  2
*D21
 10
152.57233
 20
381.710149
 30
0.0
 11
140.572337
 21
384.710149
 31
0.0
 12
-5.885361
 22
0.0
 32
0.0
 13
128.572344
 23
384.391463
 33
0.0
 14
152.57233
 24
384.391463
 34
0.0
  3
FSTD1
  0
DIMENSION
  8
F02_DIM
  5
B85
  2
*D22
 10
150.572329
 20
389.86876
 30
0.0
 11
139.572337
 21
392.86876
 31
0.0
 12
-5.885361
 22
0.0
 32
0.0
 13
128.572344
 23
394.39509
 33
0.0
 14
150.572329
 24
394.39509
 34
0.0
  3
FSTD2
  0
INSERT
  8
F05_PRO
  5
B95
  2
_OPEN30
 10
466.170941
 20
447.940335
 30
0.0
 41
2.5
 42
2.5
 50
240.376347
 43
2.5
  0
LINE
  8
F05_PRO
  5
265A
 10
467.406693
 20
450.113562
 30
0.0
 11
474.229759
 21
462.112795
 31
0.0
1001
ACAD
1000
R13OBJECT
1002
{
1005
B95
1002
}
  0
TEXT
  8
F05_PRO
  5
B96
 10
475.436313
 20
463.733733
 30
0.0
 40
3.0
  1
MCCB
  7
STANDARD
  0
LINE
  8
F05_PRO
  5
B97
 10
474.229759
 20
462.112795
 30
0.0
 11
489.260733
 21
462.112795
 31
0.0
  0
TEXT
  8
F05_PRO
  5
B98
 10
610.342285
 20
463.733733
 30
0.0
 40
3.0
  1
MCCB
  7
STANDARD
  0
LINE
  8
F05_PRO
  5
B99
 10
609.135731
 20
462.112795
 30
0.0
 11
624.166705
 21
462.112795
 31
0.0
  0
INSERT
  8
F05_PRO
  5
B9A
  2
_OPEN30
 10
601.076912
 20
447.940335
 30
0.0
 41
2.5
 42
2.5
 50
240.376347
 43
2.5
  0
LINE
  8
F05_PRO
  5
265B
 10
602.312664
 20
450.113562
 30
0.0
 11
609.135731
 21
462.112795
 31
0.0
1001
ACAD
1000
R13OBJECT
1002
{
1005
B9A
1002
}
  0
INSERT
  8
F02_DIM
  5
B9B
  2
_OPEN30
 10
454.759116
 20
441.846207
 30
0.0
 41
2.5
 42
2.5
 50
298.928716
 43
2.5
  0
LINE
  8
F02_DIM
  5
265C
 10
453.549813
 20
444.034262
 30
0.0
 11
443.904317
 21
461.48637
 31
0.0
1001
ACAD
1000
R13OBJECT
1002
{
1005
B9B
1002
}
  0
TEXT
  8
F02_DIM
  5
B9C
 10
420.90859
 20
463.004935
 30
0.0
 40
3.0
  1
M4 or %%c5
  7
STANDARD
  0
LINE
  8
F02_DIM
  5
B9D
 10
443.904317
 20
461.48637
 30
0.0
 11
418.578626
 21
461.48637
 31
0.0
  0
DIMENSION
  8
F02_DIM
  5
C2D
  2
*D23
 10
302.829119
 20
325.24408
 30
0.0
 11
328.329119
 21
328.24408
 31
0.0
 13
353.829119
 23
354.877765
 33
0.0
 14
302.829119
 24
350.740335
 34
0.0
  3
FSTD2
  0
LINE
  8
F05_PRO
  5
C35
 10
508.239502
 20
158.44759
 30
0.0
 11
644.069953
 21
158.44759
 31
0.0
  0
LINE
  8
F05_PRO
  5
C36
 10
508.239502
 20
151.44759
 30
0.0
 11
644.069953
 21
151.44759
 31
0.0
  0
LINE
  8
F05_PRO
  5
C37
 10
508.239502
 20
144.44759
 30
0.0
 11
644.069953
 21
144.44759
 31
0.0
  0
LINE
  8
F05_PRO
  5
C38
 10
508.239502
 20
137.44759
 30
0.0
 11
644.069953
 21
137.44759
 31
0.0
  0
LINE
  8
F08_IMG
  5
1BD6
 10
139.172315
 20
455.140336
 30
0.0
 11
137.372315
 21
455.140336
 31
0.0
  0
LINE
  8
F08_IMG
  5
1BD7
 10
139.172345
 20
453.740336
 30
0.0
 11
137.372345
 21
453.740336
 31
0.0
  0
LINE
  8
F08_IMG
  5
1BD8
 10
175.471888
 20
457.740336
 30
0.0
 11
129.672345
 21
457.740336
 31
0.0
  0
LINE
  8
F08_IMG
  5
1BD9
 10
138.572345
 20
435.940336
 30
0.0
 11
141.572345
 21
435.940336
 31
0.0
  0
CIRCLE
  8
F08_IMG
  5
1BDA
 10
140.072345
 20
438.940336
 30
0.0
 40
2.0
  0
LINE
  8
F08_IMG
  5
1BDB
 10
137.072345
 20
435.440336
 30
0.0
 11
143.072345
 21
435.440336
 31
0.0
  0
LINE
  8
F08_IMG
  5
1BDC
 10
134.072345
 20
436.740336
 30
0.0
 11
146.072345
 21
436.740336
 31
0.0
  0
ARC
  8
F08_IMG
  5
1BDD
 10
140.072345
 20
438.940336
 30
0.0
 40
2.5
 50
336.421822
 51
203.578178
  0
LINE
  8
F08_IMG
  5
1BDE
 10
146.072345
 20
433.440336
 30
0.0
 11
134.072345
 21
433.440336
 31
0.0
  0
LINE
  8
F08_IMG
  5
1BDF
 10
130.272345
 20
451.040354
 30
0.0
 11
130.272345
 21
454.140336
 31
0.0
  0
LINE
  8
F08_IMG
  5
1BE0
 10
127.672345
 20
455.690336
 30
0.0
 11
127.672345
 21
444.540336
 31
0.0
  0
ARC
  8
F08_IMG
  5
1BE1
 10
132.872315
 20
452.640336
 30
0.0
 40
0.9
 50
180.0
 51
270.0
  0
ARC
  8
F08_IMG
  5
1BE2
 10
136.472315
 20
452.640336
 30
0.0
 40
0.9
 50
180.0
 51
0.0
  0
ARC
  8
F08_IMG
  5
1BE3
 10
132.872315
 20
452.640336
 30
0.0
 40
0.9
 50
270.0
 51
0.0
  0
LINE
  8
F08_IMG
  5
1BE4
 10
137.072345
 20
435.440336
 30
0.0
 11
137.072345
 21
433.440336
 31
0.0
  0
ARC
  8
F08_IMG
  5
1BE5
 10
134.072345
 20
434.440336
 30
0.0
 40
1.0
 50
180.0
 51
270.0
  0
LINE
  8
F08_IMG
  5
1BE6
 10
133.072345
 20
442.440336
 30
0.0
 11
132.006826
 21
444.28587
 31
0.0
  0
LINE
  8
F08_IMG
  5
1BE7
 10
138.572345
 20
435.940336
 30
0.0
 11
138.572345
 21
435.440336
 31
0.0
  0
LINE
  8
F08_IMG
  5
1BE8
 10
133.072345
 20
434.440336
 30
0.0
 11
133.072345
 21
442.440336
 31
0.0
  0
LINE
  8
F08_IMG
  5
1BE9
 10
134.072345
 20
437.940336
 30
0.0
 11
138.340295
 21
437.940336
 31
0.0
  0
LINE
  8
F08_IMG
  5
1BEA
 10
134.072345
 20
437.940336
 30
0.0
 11
133.072345
 21
438.940336
 31
0.0
  0
LINE
  8
F08_IMG
  5
1BEB
 10
133.072345
 20
435.740336
 30
0.0
 11
134.072345
 21
436.740336
 31
0.0
  0
LINE
  8
F08_IMG
  5
1BEC
 10
128.772345
 20
445.840336
 30
0.0
 11
133.072345
 21
445.840336
 31
0.0
  0
LINE
  8
F08_IMG
  5
1BED
 10
129.572345
 20
449.340354
 30
0.0
 11
133.072345
 21
449.340354
 31
0.0
  0
LINE
  8
F08_IMG
  5
1BEE
 10
130.272345
 20
451.040354
 30
0.0
 11
129.572345
 21
450.340354
 31
0.0
  0
ARC
  8
F08_IMG
  5
1BEF
 10
131.571265
 20
444.040336
 30
0.0
 40
0.5
 50
29.410892
 51
90.0
  0
LINE
  8
F08_IMG
  5
1BF0
 10
128.772345
 20
448.540354
 30
0.0
 11
128.772345
 21
445.840336
 31
0.0
  0
LINE
  8
F08_IMG
  5
1BF1
 10
129.572345
 20
449.340354
 30
0.0
 11
128.772345
 21
448.540354
 31
0.0
  0
LINE
  8
F08_IMG
  5
1BF2
 10
129.572345
 20
449.340354
 30
0.0
 11
129.572345
 21
450.340354
 31
0.0
  0
LINE
  8
F08_IMG
  5
1BF3
 10
127.672345
 20
444.540336
 30
0.0
 11
131.571265
 21
444.540336
 31
0.0
  0
LINE
  8
F08_IMG
  5
1BF4
 10
137.372315
 20
444.840336
 30
0.0
 11
137.372315
 21
448.540336
 31
0.0
  0
LINE
  8
F08_IMG
  5
1BF5
 10
135.572315
 20
444.840336
 30
0.0
 11
135.572315
 21
448.540336
 31
0.0
  0
ARC
  8
F08_IMG
  5
1BF6
 10
136.472315
 20
444.840336
 30
0.0
 40
0.9
 50
180.0
 51
0.0
  0
ARC
  8
F08_IMG
  5
1BF7
 10
136.472315
 20
448.540336
 30
0.0
 40
0.9
 50
0.0
 51
180.0
  0
LINE
  8
F08_IMG
  5
1BF8
 10
133.072345
 20
445.840336
 30
0.0
 11
133.072345
 21
449.340354
 31
0.0
  0
LINE
  8
F08_IMG
  5
1BF9
 10
133.772315
 20
455.140336
 30
0.0
 11
131.972315
 21
455.140336
 31
0.0
  0
LINE
  8
F08_IMG
  5
1BFA
 10
131.972315
 20
452.640336
 30
0.0
 11
131.972315
 21
457.740336
 31
0.0
  0
LINE
  8
F08_IMG
  5
1BFB
 10
131.972315
 20
455.140336
 30
0.0
 11
131.272345
 21
455.140336
 31
0.0
  0
ARC
  8
F08_IMG
  5
1BFC
 10
131.272345
 20
454.140336
 30
0.0
 40
1.0
 50
90.0
 51
180.0
  0
ARC
  8
F08_IMG
  5
1BFD
 10
129.672345
 20
455.740336
 30
0.0
 40
2.0
 50
90.0
 51
180.0
  0
LINE
  8
F08_IMG
  5
1BFE
 10
131.972345
 20
453.740336
 30
0.0
 11
127.672345
 21
453.740336
 31
0.0
  0
LINE
  8
F08_IMG
  5
1BFF
 10
137.372315
 20
452.640336
 30
0.0
 11
137.372315
 21
457.740336
 31
0.0
  0
LINE
  8
F08_IMG
  5
1C00
 10
135.572315
 20
452.640336
 30
0.0
 11
135.572315
 21
457.740336
 31
0.0
  0
LINE
  8
F08_IMG
  5
1C01
 10
133.772315
 20
452.640336
 30
0.0
 11
133.772315
 21
457.740336
 31
0.0
  0
LINE
  8
F08_IMG
  5
1C02
 10
137.372315
 20
455.140336
 30
0.0
 11
135.572315
 21
455.140336
 31
0.0
  0
LINE
  8
F08_IMG
  5
1C03
 10
135.572315
 20
455.140336
 30
0.0
 11
133.772315
 21
455.140336
 31
0.0
  0
LINE
  8
F08_IMG
  5
1C04
 10
135.572345
 20
453.740336
 30
0.0
 11
133.772345
 21
453.740336
 31
0.0
  0
LINE
  8
F08_IMG
  5
1C05
 10
174.871888
 20
451.040354
 30
0.0
 11
174.871888
 21
454.140336
 31
0.0
  0
LINE
  8
F08_IMG
  5
1C06
 10
177.471888
 20
455.690336
 30
0.0
 11
177.471888
 21
444.540336
 31
0.0
  0
LINE
  8
F08_IMG
  5
1C07
 10
153.072117
 20
447.940336
 30
0.0
 11
153.072117
 21
454.140336
 31
0.0
  0
LINE
  8
F08_IMG
  5
1C08
 10
154.672117
 20
447.940336
 30
0.0
 11
154.672117
 21
454.140336
 31
0.0
  0
ARC
  8
F08_IMG
  5
1C09
 10
143.672315
 20
452.640336
 30
0.0
 40
0.9
 50
180.0
 51
0.0
  0
ARC
  8
F08_IMG
  5
1C0A
 10
140.072315
 20
452.640336
 30
0.0
 40
0.9
 50
180.0
 51
0.0
  0
ARC
  8
F08_IMG
  5
1C0B
 10
147.272315
 20
452.640336
 30
0.0
 40
0.9
 50
180.0
 51
0.0
  0
ARC
  8
F08_IMG
  5
1C0C
 10
157.871888
 20
452.640336
 30
0.0
 40
0.9
 50
180.0
 51
0.0
  0
ARC
  8
F08_IMG
  5
1C0D
 10
161.471888
 20
452.640336
 30
0.0
 40
0.9
 50
180.0
 51
0.0
  0
ARC
  8
F08_IMG
  5
1C0E
 10
165.071888
 20
452.640336
 30
0.0
 40
0.9
 50
180.0
 51
0.0
  0
ARC
  8
F08_IMG
  5
1C0F
 10
168.671888
 20
452.640336
 30
0.0
 40
0.9
 50
180.0
 51
0.0
  0
ARC
  8
F08_IMG
  5
1C10
 10
172.271888
 20
452.640336
 30
0.0
 40
0.9
 50
180.0
 51
0.0
  0
ARC
  8
F08_IMG
  5
1C11
 10
165.071888
 20
448.540336
 30
0.0
 40
0.9
 50
90.0
 51
180.0
  0
CIRCLE
  8
F08_IMG
  5
1C12
 10
165.071888
 20
438.940336
 30
0.0
 40
2.0
  0
LINE
  8
F08_IMG
  5
1C13
 10
159.071888
 20
436.740336
 30
0.0
 11
171.071888
 21
436.740336
 31
0.0
  0
ARC
  8
F08_IMG
  5
1C14
 10
165.071888
 20
438.940336
 30
0.0
 40
2.5
 50
336.421822
 51
203.578178
  0
LINE
  8
F08_IMG
  5
1C15
 10
159.071888
 20
433.440336
 30
0.0
 11
171.071888
 21
433.440336
 31
0.0
  0
ARC
  8
F08_IMG
  5
1C16
 10
159.071888
 20
434.440336
 30
0.0
 40
1.0
 50
180.0
 51
270.0
  0
LINE
  8
F08_IMG
  5
1C17
 10
143.072345
 20
435.440336
 30
0.0
 11
143.072345
 21
433.440336
 31
0.0
  0
ARC
  8
F08_IMG
  5
1C18
 10
146.072345
 20
434.440336
 30
0.0
 40
1.0
 50
270.0
 51
0.0
  0
CIRCLE
  8
F08_IMG
  5
1C19
 10
149.77233
 20
445.440336
 30
0.0
 40
2.0
  0
LINE
  8
F08_IMG
  5
1C1A
 10
151.67233
 20
448.640336
 30
0.0
 11
147.57233
 21
448.640336
 31
0.0
  0
LINE
  8
F08_IMG
  5
1C1B
 10
151.67233
 20
449.140336
 30
0.0
 11
147.57233
 21
449.140336
 31
0.0
  0
LINE
  8
F08_IMG
  5
1C1C
 10
146.57233
 20
447.640336
 30
0.0
 11
146.57233
 21
442.440336
 31
0.0
  0
LINE
  8
F08_IMG
  5
1C1D
 10
146.07233
 20
447.640336
 30
0.0
 11
146.07233
 21
442.440336
 31
0.0
  0
LINE
  8
F08_IMG
  5
1C1E
 10
149.713752
 20
443.381757
 30
0.0
 11
148.57233
 21
442.240336
 31
0.0
  0
LINE
  8
F08_IMG
  5
1C1F
 10
141.804396
 20
437.940336
 30
0.0
 11
146.072345
 21
437.940336
 31
0.0
  0
LINE
  8
F08_IMG
  5
1C20
 10
141.572345
 20
435.940336
 30
0.0
 11
141.572345
 21
435.440336
 31
0.0
  0
LINE
  8
F08_IMG
  5
1C21
 10
147.072345
 20
434.440336
 30
0.0
 11
147.072345
 21
442.240336
 31
0.0
  0
ARC
  8
F08_IMG
  5
1C22
 10
146.77233
 20
442.440336
 30
0.0
 40
0.2
 50
180.0
 51
270.0
  0
ARC
  8
F08_IMG
  5
1C23
 10
146.27233
 20
442.440336
 30
0.0
 40
0.2
 50
180.0
 51
270.0
  0
LINE
  8
F08_IMG
  5
1C24
 10
148.57233
 20
442.240336
 30
0.0
 11
146.27233
 21
442.240336
 31
0.0
  0
LINE
  8
F08_IMG
  5
1C25
 10
146.072345
 20
437.940336
 30
0.0
 11
147.072345
 21
438.940336
 31
0.0
  0
LINE
  8
F08_IMG
  5
1C26
 10
146.072345
 20
436.740336
 30
0.0
 11
147.072345
 21
435.740336
 31
0.0
  0
ARC
  8
F08_IMG
  5
1C27
 10
143.672315
 20
444.840336
 30
0.0
 40
0.9
 50
180.0
 51
0.0
  0
ARC
  8
F08_IMG
  5
1C28
 10
143.672315
 20
448.540336
 30
0.0
 40
0.9
 50
0.0
 51
180.0
  0
LINE
  8
F08_IMG
  5
1C29
 10
142.772315
 20
444.840336
 30
0.0
 11
142.772315
 21
448.540336
 31
0.0
  0
LINE
  8
F08_IMG
  5
1C2A
 10
144.572315
 20
444.840336
 30
0.0
 11
144.572315
 21
448.540336
 31
0.0
  0
LINE
  8
F08_IMG
  5
1C2B
 10
140.972315
 20
444.840336
 30
0.0
 11
140.972315
 21
448.540336
 31
0.0
  0
LINE
  8
F08_IMG
  5
1C2C
 10
139.172315
 20
444.840336
 30
0.0
 11
139.172315
 21
448.540336
 31
0.0
  0
ARC
  8
F08_IMG
  5
1C2D
 10
140.072315
 20
448.540336
 30
0.0
 40
0.9
 50
0.0
 51
180.0
  0
ARC
  8
F08_IMG
  5
1C2E
 10
140.072315
 20
444.840336
 30
0.0
 40
0.9
 50
180.0
 51
0.0
  0
ARC
  8
F08_IMG
  5
1C2F
 10
149.57233
 20
443.523178
 30
0.0
 40
0.2
 50
315.0
 51
335.555487
  0
LINE
  8
F08_IMG
  5
1C30
 10
150.440967
 20
444.771699
 30
0.0
 11
149.004668
 21
446.207998
 31
0.0
  0
LINE
  8
F08_IMG
  5
1C31
 10
149.103694
 20
444.771699
 30
0.0
 11
150.539992
 21
446.207998
 31
0.0
  0
ARC
  8
F08_IMG
  5
1C32
 10
147.57233
 20
447.640336
 30
0.0
 40
1.0
 50
90.0
 51
180.0
  0
ARC
  8
F08_IMG
  5
1C33
 10
147.57233
 20
447.640336
 30
0.0
 40
1.5
 50
90.0
 51
180.0
  0
LINE
  8
F08_IMG
  5
1C34
 10
158.071918
 20
442.440283
 30
0.0
 11
156.871918
 21
444.518744
 31
0.0
  0
LINE
  8
F08_IMG
  5
1C35
 10
158.071888
 20
434.440336
 30
0.0
 11
158.071888
 21
442.440336
 31
0.0
  0
LINE
  8
F08_IMG
  5
1C36
 10
159.071888
 20
437.940336
 30
0.0
 11
158.071888
 21
438.940336
 31
0.0
  0
LINE
  8
F08_IMG
  5
1C37
 10
158.071888
 20
435.740336
 30
0.0
 11
159.071888
 21
436.740336
 31
0.0
  0
LINE
  8
F08_IMG
  5
1C38
 10
159.071888
 20
437.940336
 30
0.0
 11
163.339837
 21
437.940336
 31
0.0
  0
ARC
  8
F08_IMG
  5
1C39
 10
155.072345
 20
444.840336
 30
0.0
 40
0.3
 50
270.0
 51
0.0
  0
ARC
  8
F08_IMG
  5
1C3A
 10
156.371918
 20
447.440336
 30
0.0
 40
0.5
 50
0.0
 51
90.0
  0
ARC
  8
F08_IMG
  5
1C3B
 10
155.072345
 20
445.540336
 30
0.0
 40
0.3
 50
0.0
 51
90.0
  0
LINE
  8
F08_IMG
  5
1C3C
 10
154.672117
 20
445.840336
 30
0.0
 11
154.672117
 21
447.940336
 31
0.0
  0
LINE
  8
F08_IMG
  5
1C3D
 10
156.871918
 20
444.518744
 30
0.0
 11
156.871918
 21
447.440336
 31
0.0
  0
LINE
  8
F08_IMG
  5
1C3E
 10
154.672117
 20
445.840336
 30
0.0
 11
155.072345
 21
445.840336
 31
0.0
  0
LINE
  8
F08_IMG
  5
1C3F
 10
155.372345
 20
444.840336
 30
0.0
 11
155.372345
 21
445.540336
 31
0.0
  0
ARC
  8
F08_IMG
  5
1C40
 10
151.47233
 20
446.340336
 30
0.0
 40
0.2
 50
317.647404
 51
0.0
  0
ARC
  8
F08_IMG
  5
1C41
 10
152.671888
 20
444.840336
 30
0.0
 40
0.3
 50
180.0
 51
270.0
  0
ARC
  8
F08_IMG
  5
1C42
 10
152.671888
 20
445.540336
 30
0.0
 40
0.3
 50
90.0
 51
180.0
  0
LINE
  8
F08_IMG
  5
1C43
 10
151.67233
 20
446.340336
 30
0.0
 11
151.67233
 21
449.140336
 31
0.0
  0
LINE
  8
F08_IMG
  5
1C44
 10
153.072117
 20
445.840336
 30
0.0
 11
153.072117
 21
447.940336
 31
0.0
  0
LINE
  8
F08_IMG
  5
1C45
 10
153.072117
 20
445.840336
 30
0.0
 11
152.671888
 21
445.840336
 31
0.0
  0
LINE
  8
F08_IMG
  5
1C46
 10
152.671888
 20
444.540336
 30
0.0
 11
155.072345
 21
444.540336
 31
0.0
  0
LINE
  8
F08_IMG
  5
1C47
 10
152.371888
 20
444.840336
 30
0.0
 11
152.371888
 21
445.540336
 31
0.0
  0
LINE
  8
F08_IMG
  5
1C48
 10
151.67233
 20
447.940336
 30
0.0
 11
156.371918
 21
447.940336
 31
0.0
  0
ARC
  8
F08_IMG
  5
1C49
 10
161.471888
 20
444.840336
 30
0.0
 40
0.9
 50
180.0
 51
0.0
  0
ARC
  8
F08_IMG
  5
1C4A
 10
161.471888
 20
448.540336
 30
0.0
 40
0.9
 50
0.0
 51
180.0
  0
LINE
  8
F08_IMG
  5
1C4B
 10
160.571888
 20
444.840336
 30
0.0
 11
160.571888
 21
448.540336
 31
0.0
  0
LINE
  8
F08_IMG
  5
1C4C
 10
162.371888
 20
444.840336
 30
0.0
 11
162.371888
 21
448.540336
 31
0.0
  0
ARC
  8
F08_IMG
  5
1C4D
 10
171.071888
 20
434.440336
 30
0.0
 40
1.0
 50
270.0
 51
0.0
  0
LINE
  8
F08_IMG
  5
1C4E
 10
177.471888
 20
444.540336
 30
0.0
 11
173.573029
 21
444.540336
 31
0.0
  0
LINE
  8
F08_IMG
  5
1C4F
 10
173.140016
 20
444.290336
 30
0.0
 11
172.071888
 21
442.440283
 31
0.0
  0
LINE
  8
F08_IMG
  5
1C50
 10
166.803939
 20
437.940336
 30
0.0
 11
171.071888
 21
437.940336
 31
0.0
  0
LINE
  8
F08_IMG
  5
1C51
 10
172.071888
 20
434.440336
 30
0.0
 11
172.071888
 21
442.440283
 31
0.0
  0
LINE
  8
F08_IMG
  5
1C52
 10
171.071888
 20
437.940336
 30
0.0
 11
172.071888
 21
438.940336
 31
0.0
  0
LINE
  8
F08_IMG
  5
1C53
 10
171.071888
 20
436.740336
 30
0.0
 11
172.071888
 21
435.740336
 31
0.0
  0
ARC
  8
F08_IMG
  5
1C54
 10
168.671888
 20
444.840336
 30
0.0
 40
0.9
 50
180.0
 51
270.0
  0
ARC
  8
F08_IMG
  5
1C55
 10
168.671888
 20
444.840336
 30
0.0
 40
0.9
 50
270.0
 51
0.0
  0
LINE
  8
F08_IMG
  5
1C56
 10
169.571888
 20
444.840336
 30
0.0
 11
169.571888
 21
448.540336
 31
0.0
  0
ARC
  8
F08_IMG
  5
1C57
 10
168.671888
 20
448.540336
 30
0.0
 40
0.9
 50
90.0
 51
180.0
  0
LINE
  8
F08_IMG
  5
1C58
 10
167.771888
 20
444.840336
 30
0.0
 11
167.771888
 21
448.540336
 31
0.0
  0
LINE
  8
F08_IMG
  5
1C59
 10
165.971888
 20
444.840336
 30
0.0
 11
165.971888
 21
448.540336
 31
0.0
  0
LINE
  8
F08_IMG
  5
1C5A
 10
164.171888
 20
444.840336
 30
0.0
 11
164.171888
 21
448.540336
 31
0.0
  0
ARC
  8
F08_IMG
  5
1C5B
 10
165.071888
 20
444.840336
 30
0.0
 40
0.9
 50
180.0
 51
0.0
  0
ARC
  8
F08_IMG
  5
1C5C
 10
165.071888
 20
448.540336
 30
0.0
 40
0.9
 50
0.0
 51
90.0
  0
ARC
  8
F08_IMG
  5
1C5D
 10
168.671888
 20
448.540336
 30
0.0
 40
0.9
 50
0.0
 51
90.0
  0
LINE
  8
F08_IMG
  5
1C5E
 10
176.371888
 20
448.540354
 30
0.0
 11
176.371888
 21
445.840336
 31
0.0
  0
LINE
  8
F08_IMG
  5
1C5F
 10
174.871888
 20
451.040354
 30
0.0
 11
175.571888
 21
450.340354
 31
0.0
  0
LINE
  8
F08_IMG
  5
1C60
 10
175.571888
 20
449.340354
 30
0.0
 11
175.571888
 21
450.340354
 31
0.0
  0
ARC
  8
F08_IMG
  5
1C61
 10
173.573029
 20
444.040336
 30
0.0
 40
0.5
 50
90.0
 51
150.0
  0
LINE
  8
F08_IMG
  5
1C62
 10
172.071888
 20
445.840336
 30
0.0
 11
172.071888
 21
449.340354
 31
0.0
  0
LINE
  8
F08_IMG
  5
1C63
 10
175.571888
 20
449.340354
 30
0.0
 11
172.071888
 21
449.340354
 31
0.0
  0
LINE
  8
F08_IMG
  5
1C64
 10
175.571888
 20
449.340354
 30
0.0
 11
176.371888
 21
448.540354
 31
0.0
  0
LINE
  8
F08_IMG
  5
1C65
 10
176.371888
 20
445.840336
 30
0.0
 11
172.071888
 21
445.840336
 31
0.0
  0
LINE
  8
F08_IMG
  5
1C66
 10
164.171888
 20
455.140336
 30
0.0
 11
162.371888
 21
455.140336
 31
0.0
  0
LINE
  8
F08_IMG
  5
1C67
 10
162.371888
 20
453.740336
 30
0.0
 11
164.171888
 21
453.740336
 31
0.0
  0
LINE
  8
F08_IMG
  5
1C68
 10
152.072117
 20
455.140336
 30
0.0
 11
148.172315
 21
455.140336
 31
0.0
  0
LINE
  8
F08_IMG
  5
1C69
 10
153.872117
 20
453.740336
 30
0.0
 11
148.172345
 21
453.740336
 31
0.0
  0
LINE
  8
F08_IMG
  5
1C6A
 10
146.372315
 20
455.140336
 30
0.0
 11
144.572315
 21
455.140336
 31
0.0
  0
LINE
  8
F08_IMG
  5
1C6B
 10
146.372345
 20
453.740336
 30
0.0
 11
144.572345
 21
453.740336
 31
0.0
  0
LINE
  8
F08_IMG
  5
1C6C
 10
144.572315
 20
452.640336
 30
0.0
 11
144.572315
 21
457.740336
 31
0.0
  0
LINE
  8
F08_IMG
  5
1C6D
 10
142.772315
 20
452.640336
 30
0.0
 11
142.772315
 21
457.740336
 31
0.0
  0
LINE
  8
F08_IMG
  5
1C6E
 10
140.972315
 20
452.640336
 30
0.0
 11
140.972315
 21
457.740336
 31
0.0
  0
LINE
  8
F08_IMG
  5
1C6F
 10
139.172315
 20
452.640336
 30
0.0
 11
139.172315
 21
457.740336
 31
0.0
  0
LINE
  8
F08_IMG
  5
1C70
 10
144.572315
 20
455.140336
 30
0.0
 11
142.772315
 21
455.140336
 31
0.0
  0
LINE
  8
F08_IMG
  5
1C71
 10
142.772315
 20
455.140336
 30
0.0
 11
140.972315
 21
455.140336
 31
0.0
  0
LINE
  8
F08_IMG
  5
1C72
 10
142.772345
 20
453.740336
 30
0.0
 11
140.972345
 21
453.740336
 31
0.0
  0
LINE
  8
F08_IMG
  5
1C73
 10
140.972315
 20
455.140336
 30
0.0
 11
139.172315
 21
455.140336
 31
0.0
  0
LINE
  8
F08_IMG
  5
1C74
 10
146.372315
 20
452.640336
 30
0.0
 11
146.372315
 21
457.740336
 31
0.0
  0
LINE
  8
F08_IMG
  5
1C75
 10
148.172315
 20
452.640336
 30
0.0
 11
148.172315
 21
457.740336
 31
0.0
  0
LINE
  8
F08_IMG
  5
1C76
 10
148.172315
 20
455.140336
 30
0.0
 11
146.372315
 21
455.140336
 31
0.0
  0
LINE
  8
F08_IMG
  5
1C77
 10
158.771888
 20
455.140336
 30
0.0
 11
156.971888
 21
455.140336
 31
0.0
  0
LINE
  8
F08_IMG
  5
1C78
 10
156.971888
 20
452.640336
 30
0.0
 11
156.971888
 21
457.740336
 31
0.0
  0
ARC
  8
F08_IMG
  5
1C79
 10
155.672117
 20
454.140336
 30
0.0
 40
1.0
 50
90.0
 51
180.0
  0
LINE
  8
F08_IMG
  5
1C7A
 10
156.971888
 20
455.140336
 30
0.0
 11
155.672117
 21
455.140336
 31
0.0
  0
ARC
  8
F08_IMG
  5
1C7B
 10
152.072117
 20
454.140336
 30
0.0
 40
1.0
 50
0.0
 51
90.0
  0
LINE
  8
F08_IMG
  5
1C7C
 10
153.872117
 20
453.740336
 30
0.0
 11
156.971888
 21
453.740336
 31
0.0
  0
LINE
  8
F08_IMG
  5
1C7D
 10
160.571888
 20
452.640336
 30
0.0
 11
160.571888
 21
457.740336
 31
0.0
  0
LINE
  8
F08_IMG
  5
1C7E
 10
162.371888
 20
452.640336
 30
0.0
 11
162.371888
 21
457.740336
 31
0.0
  0
LINE
  8
F08_IMG
  5
1C7F
 10
158.771888
 20
452.640336
 30
0.0
 11
158.771888
 21
457.740336
 31
0.0
  0
LINE
  8
F08_IMG
  5
1C80
 10
162.371888
 20
455.140336
 30
0.0
 11
160.571888
 21
455.140336
 31
0.0
  0
LINE
  8
F08_IMG
  5
1C81
 10
160.571888
 20
455.140336
 30
0.0
 11
158.771888
 21
455.140336
 31
0.0
  0
LINE
  8
F08_IMG
  5
1C82
 10
158.771888
 20
453.740336
 30
0.0
 11
160.571888
 21
453.740336
 31
0.0
  0
ARC
  8
F08_IMG
  5
1C83
 10
175.471888
 20
455.740336
 30
0.0
 40
2.0
 50
0.0
 51
90.0
  0
LINE
  8
F08_IMG
  5
1C84
 10
173.171888
 20
453.740336
 30
0.0
 11
177.471888
 21
453.740336
 31
0.0
  0
LINE
  8
F08_IMG
  5
1C85
 10
171.371888
 20
455.140336
 30
0.0
 11
169.571888
 21
455.140336
 31
0.0
  0
LINE
  8
F08_IMG
  5
1C86
 10
169.571888
 20
453.740336
 30
0.0
 11
171.371888
 21
453.740336
 31
0.0
  0
LINE
  8
F08_IMG
  5
1C87
 10
169.571888
 20
452.640336
 30
0.0
 11
169.571888
 21
457.740336
 31
0.0
  0
LINE
  8
F08_IMG
  5
1C88
 10
167.771888
 20
452.640336
 30
0.0
 11
167.771888
 21
457.740336
 31
0.0
  0
LINE
  8
F08_IMG
  5
1C89
 10
165.971888
 20
452.640336
 30
0.0
 11
165.971888
 21
457.740336
 31
0.0
  0
LINE
  8
F08_IMG
  5
1C8A
 10
164.171888
 20
452.640336
 30
0.0
 11
164.171888
 21
457.740336
 31
0.0
  0
LINE
  8
F08_IMG
  5
1C8B
 10
167.771888
 20
455.140336
 30
0.0
 11
165.971888
 21
455.140336
 31
0.0
  0
LINE
  8
F08_IMG
  5
1C8C
 10
165.971888
 20
453.740336
 30
0.0
 11
167.771888
 21
453.740336
 31
0.0
  0
LINE
  8
F08_IMG
  5
1C8D
 10
165.971888
 20
455.140336
 30
0.0
 11
164.171888
 21
455.140336
 31
0.0
  0
LINE
  8
F08_IMG
  5
1C8E
 10
169.571888
 20
455.140336
 30
0.0
 11
167.771888
 21
455.140336
 31
0.0
  0
LINE
  8
F08_IMG
  5
1C8F
 10
173.171888
 20
452.640336
 30
0.0
 11
173.171888
 21
457.740336
 31
0.0
  0
LINE
  8
F08_IMG
  5
1C90
 10
171.371888
 20
452.640336
 30
0.0
 11
171.371888
 21
457.740336
 31
0.0
  0
LINE
  8
F08_IMG
  5
1C91
 10
173.871888
 20
455.140336
 30
0.0
 11
173.171888
 21
455.140336
 31
0.0
  0
LINE
  8
F08_IMG
  5
1C92
 10
173.171888
 20
455.140336
 30
0.0
 11
171.371888
 21
455.140336
 31
0.0
  0
ARC
  8
F08_IMG
  5
1C93
 10
173.871888
 20
454.140336
 30
0.0
 40
1.0
 50
0.0
 51
90.0
  0
LINE
  8
F08_IMG
  5
1C94
 10
146.072773
 20
362.440334
 30
0.0
 11
134.072773
 21
362.440334
 31
0.0
  0
CIRCLE
  8
F08_IMG
  5
1C95
 10
140.072773
 20
356.940334
 30
0.0
 40
2.0
  0
ARC
  8
F08_IMG
  5
1C96
 10
140.072773
 20
356.940334
 30
0.0
 40
2.5
 50
156.421822
 51
23.578178
  0
LINE
  8
F08_IMG
  5
1C97
 10
146.072773
 20
359.140334
 30
0.0
 11
134.072773
 21
359.140334
 31
0.0
  0
LINE
  8
F08_IMG
  5
1C98
 10
139.172773
 20
342.140334
 30
0.0
 11
137.372773
 21
342.140334
 31
0.0
  0
LINE
  8
F08_IMG
  5
1C99
 10
137.372773
 20
340.740334
 30
0.0
 11
139.172773
 21
340.740334
 31
0.0
  0
LINE
  8
F08_IMG
  5
1C9A
 10
129.672773
 20
338.140334
 30
0.0
 11
175.472315
 21
338.140334
 31
0.0
  0
LINE
  8
F08_IMG
  5
1C9B
 10
130.272773
 20
344.840315
 30
0.0
 11
130.272773
 21
341.740334
 31
0.0
  0
LINE
  8
F08_IMG
  5
1C9C
 10
127.672773
 20
340.190334
 30
0.0
 11
127.672773
 21
351.340334
 31
0.0
  0
LINE
  8
F08_IMG
  5
1C9D
 10
131.972773
 20
343.240334
 30
0.0
 11
131.972773
 21
338.140334
 31
0.0
  0
LINE
  8
F08_IMG
  5
1C9E
 10
137.372773
 20
343.240334
 30
0.0
 11
137.372773
 21
338.140334
 31
0.0
  0
LINE
  8
F08_IMG
  5
1C9F
 10
135.572773
 20
343.240334
 30
0.0
 11
135.572773
 21
338.140334
 31
0.0
  0
LINE
  8
F08_IMG
  5
1CA0
 10
133.772773
 20
343.240334
 30
0.0
 11
133.772773
 21
338.140334
 31
0.0
  0
LINE
  8
F08_IMG
  5
1CA1
 10
131.972773
 20
340.740334
 30
0.0
 11
133.772773
 21
340.740334
 31
0.0
  0
LINE
  8
F08_IMG
  5
1CA2
 10
131.272773
 20
340.740334
 30
0.0
 11
131.972773
 21
340.740334
 31
0.0
  0
ARC
  8
F08_IMG
  5
1CA3
 10
131.272773
 20
341.740334
 30
0.0
 40
1.0
 50
180.0
 51
270.0
  0
LINE
  8
F08_IMG
  5
1CA4
 10
131.972773
 20
342.140334
 30
0.0
 11
127.672773
 21
342.140334
 31
0.0
  0
ARC
  8
F08_IMG
  5
1CA5
 10
129.672773
 20
340.140334
 30
0.0
 40
2.0
 50
180.0
 51
270.0
  0
LINE
  8
F08_IMG
  5
1CA6
 10
135.572773
 20
340.740334
 30
0.0
 11
137.372773
 21
340.740334
 31
0.0
  0
LINE
  8
F08_IMG
  5
1CA7
 10
135.572773
 20
342.140334
 30
0.0
 11
133.772773
 21
342.140334
 31
0.0
  0
LINE
  8
F08_IMG
  5
1CA8
 10
133.772773
 20
340.740334
 30
0.0
 11
135.572773
 21
340.740334
 31
0.0
  0
LINE
  8
F08_IMG
  5
1CA9
 10
133.072773
 20
361.440334
 30
0.0
 11
133.072773
 21
353.440386
 31
0.0
  0
LINE
  8
F08_IMG
  5
1CAA
 10
132.004644
 20
351.590334
 30
0.0
 11
133.072773
 21
353.440386
 31
0.0
  0
ARC
  8
F08_IMG
  5
1CAB
 10
136.472773
 20
351.040334
 30
0.0
 40
0.9
 50
90.0
 51
180.0
  0
ARC
  8
F08_IMG
  5
1CAC
 10
136.472773
 20
351.040334
 30
0.0
 40
0.9
 50
0.0
 51
90.0
  0
ARC
  8
F08_IMG
  5
1CAD
 10
132.872773
 20
343.240334
 30
0.0
 40
0.9
 50
0.0
 51
180.0
  0
LINE
  8
F08_IMG
  5
1CAE
 10
128.772773
 20
350.040334
 30
0.0
 11
133.072773
 21
350.040334
 31
0.0
  0
LINE
  8
F08_IMG
  5
1CAF
 10
129.572773
 20
346.540315
 30
0.0
 11
133.072773
 21
346.540315
 31
0.0
  0
ARC
  8
F08_IMG
  5
1CB0
 10
131.571632
 20
351.840334
 30
0.0
 40
0.5
 50
270.0
 51
330.0
  0
LINE
  8
F08_IMG
  5
1CB1
 10
128.772773
 20
347.340315
 30
0.0
 11
128.772773
 21
350.040334
 31
0.0
  0
LINE
  8
F08_IMG
  5
1CB2
 10
129.572773
 20
346.540315
 30
0.0
 11
129.572773
 21
345.540315
 31
0.0
  0
LINE
  8
F08_IMG
  5
1CB3
 10
130.272773
 20
344.840315
 30
0.0
 11
129.572773
 21
345.540315
 31
0.0
  0
LINE
  8
F08_IMG
  5
1CB4
 10
129.572773
 20
346.540315
 30
0.0
 11
128.772773
 21
347.340315
 31
0.0
  0
LINE
  8
F08_IMG
  5
1CB5
 10
127.672773
 20
351.340334
 30
0.0
 11
131.571632
 21
351.340334
 31
0.0
  0
ARC
  8
F08_IMG
  5
1CB6
 10
136.472773
 20
343.240334
 30
0.0
 40
0.9
 50
0.0
 51
180.0
  0
LINE
  8
F08_IMG
  5
1CB7
 10
137.372773
 20
351.040334
 30
0.0
 11
137.372773
 21
347.340334
 31
0.0
  0
LINE
  8
F08_IMG
  5
1CB8
 10
135.572773
 20
351.040334
 30
0.0
 11
135.572773
 21
347.340334
 31
0.0
  0
ARC
  8
F08_IMG
  5
1CB9
 10
136.472773
 20
347.340334
 30
0.0
 40
0.9
 50
180.0
 51
270.0
  0
ARC
  8
F08_IMG
  5
1CBA
 10
136.472773
 20
347.340334
 30
0.0
 40
0.9
 50
270.0
 51
0.0
  0
LINE
  8
F08_IMG
  5
1CBB
 10
133.072773
 20
350.040334
 30
0.0
 11
133.072773
 21
346.540315
 31
0.0
  0
LINE
  8
F08_IMG
  5
1CBC
 10
138.340722
 20
357.940334
 30
0.0
 11
134.072773
 21
357.940334
 31
0.0
  0
LINE
  8
F08_IMG
  5
1CBD
 10
134.072773
 20
359.140334
 30
0.0
 11
133.072773
 21
360.140334
 31
0.0
  0
LINE
  8
F08_IMG
  5
1CBE
 10
134.072773
 20
357.940334
 30
0.0
 11
133.072773
 21
356.940334
 31
0.0
  0
ARC
  8
F08_IMG
  5
1CBF
 10
134.072773
 20
361.440334
 30
0.0
 40
1.0
 50
90.0
 51
180.0
  0
LINE
  8
F08_IMG
  5
1CC0
 10
174.872315
 20
344.840315
 30
0.0
 11
174.872315
 21
341.740334
 31
0.0
  0
LINE
  8
F08_IMG
  5
1CC1
 10
177.472315
 20
340.190334
 30
0.0
 11
177.472315
 21
351.340334
 31
0.0
  0
LINE
  8
F08_IMG
  5
1CC2
 10
152.072544
 20
347.940334
 30
0.0
 11
152.072544
 21
341.740334
 31
0.0
  0
LINE
  8
F08_IMG
  5
1CC3
 10
156.972345
 20
343.240334
 30
0.0
 11
156.972345
 21
338.140334
 31
0.0
  0
LINE
  8
F08_IMG
  5
1CC4
 10
162.372345
 20
343.240334
 30
0.0
 11
162.372345
 21
338.140334
 31
0.0
  0
LINE
  8
F08_IMG
  5
1CC5
 10
160.572345
 20
343.240334
 30
0.0
 11
160.572345
 21
338.140334
 31
0.0
  0
LINE
  8
F08_IMG
  5
1CC6
 10
158.772345
 20
343.240334
 30
0.0
 11
158.772345
 21
338.140334
 31
0.0
  0
LINE
  8
F08_IMG
  5
1CC7
 10
169.572345
 20
343.240334
 30
0.0
 11
169.572345
 21
338.140334
 31
0.0
  0
LINE
  8
F08_IMG
  5
1CC8
 10
165.972345
 20
343.240334
 30
0.0
 11
165.972345
 21
338.140334
 31
0.0
  0
LINE
  8
F08_IMG
  5
1CC9
 10
167.772345
 20
343.240334
 30
0.0
 11
167.772345
 21
338.140334
 31
0.0
  0
LINE
  8
F08_IMG
  5
1CCA
 10
164.172345
 20
343.240334
 30
0.0
 11
164.172345
 21
338.140334
 31
0.0
  0
LINE
  8
F08_IMG
  5
1CCB
 10
173.172345
 20
343.240334
 30
0.0
 11
173.172345
 21
338.140334
 31
0.0
  0
LINE
  8
F08_IMG
  5
1CCC
 10
171.372345
 20
343.240334
 30
0.0
 11
171.372345
 21
338.140334
 31
0.0
  0
LINE
  8
F08_IMG
  5
1CCD
 10
150.472544
 20
347.940334
 30
0.0
 11
150.472544
 21
341.740334
 31
0.0
  0
LINE
  8
F08_IMG
  5
1CCE
 10
142.772773
 20
343.240334
 30
0.0
 11
142.772773
 21
338.140334
 31
0.0
  0
LINE
  8
F08_IMG
  5
1CCF
 10
144.572773
 20
343.240334
 30
0.0
 11
144.572773
 21
338.140334
 31
0.0
  0
LINE
  8
F08_IMG
  5
1CD0
 10
140.972773
 20
343.240334
 30
0.0
 11
140.972773
 21
338.140334
 31
0.0
  0
LINE
  8
F08_IMG
  5
1CD1
 10
139.172773
 20
343.240334
 30
0.0
 11
139.172773
 21
338.140334
 31
0.0
  0
LINE
  8
F08_IMG
  5
1CD2
 10
146.372773
 20
343.240334
 30
0.0
 11
146.372773
 21
338.140334
 31
0.0
  0
LINE
  8
F08_IMG
  5
1CD3
 10
148.172773
 20
343.240334
 30
0.0
 11
148.172773
 21
338.140334
 31
0.0
  0
LINE
  8
F08_IMG
  5
1CD4
 10
162.372315
 20
342.140334
 30
0.0
 11
164.172315
 21
342.140334
 31
0.0
  0
LINE
  8
F08_IMG
  5
1CD5
 10
162.372345
 20
340.740334
 30
0.0
 11
164.172345
 21
340.740334
 31
0.0
  0
LINE
  8
F08_IMG
  5
1CD6
 10
151.272544
 20
342.140334
 30
0.0
 11
156.972315
 21
342.140334
 31
0.0
  0
LINE
  8
F08_IMG
  5
1CD7
 10
146.372773
 20
342.140334
 30
0.0
 11
144.572773
 21
342.140334
 31
0.0
  0
LINE
  8
F08_IMG
  5
1CD8
 10
144.572773
 20
340.740334
 30
0.0
 11
146.372773
 21
340.740334
 31
0.0
  0
LINE
  8
F08_IMG
  5
1CD9
 10
142.772773
 20
340.740334
 30
0.0
 11
144.572773
 21
340.740334
 31
0.0
  0
LINE
  8
F08_IMG
  5
1CDA
 10
142.772773
 20
342.140334
 30
0.0
 11
140.972773
 21
342.140334
 31
0.0
  0
LINE
  8
F08_IMG
  5
1CDB
 10
140.972773
 20
340.740334
 30
0.0
 11
142.772773
 21
340.740334
 31
0.0
  0
LINE
  8
F08_IMG
  5
1CDC
 10
139.172773
 20
340.740334
 30
0.0
 11
140.972773
 21
340.740334
 31
0.0
  0
ARC
  8
F08_IMG
  5
1CDD
 10
149.472544
 20
341.740334
 30
0.0
 40
1.0
 50
270.0
 51
0.0
  0
LINE
  8
F08_IMG
  5
1CDE
 10
146.372773
 20
340.740334
 30
0.0
 11
148.172773
 21
340.740334
 31
0.0
  0
LINE
  8
F08_IMG
  5
1CDF
 10
148.172773
 20
340.740334
 30
0.0
 11
149.472544
 21
340.740334
 31
0.0
  0
LINE
  8
F08_IMG
  5
1CE0
 10
151.272544
 20
342.140334
 30
0.0
 11
148.172773
 21
342.140334
 31
0.0
  0
LINE
  8
F08_IMG
  5
1CE1
 10
156.972345
 20
340.740334
 30
0.0
 11
158.772345
 21
340.740334
 31
0.0
  0
ARC
  8
F08_IMG
  5
1CE2
 10
153.072544
 20
341.740334
 30
0.0
 40
1.0
 50
180.0
 51
270.0
  0
LINE
  8
F08_IMG
  5
1CE3
 10
153.072544
 20
340.740334
 30
0.0
 11
156.972345
 21
340.740334
 31
0.0
  0
LINE
  8
F08_IMG
  5
1CE4
 10
160.572345
 20
340.740334
 30
0.0
 11
162.372345
 21
340.740334
 31
0.0
  0
LINE
  8
F08_IMG
  5
1CE5
 10
158.772315
 20
342.140334
 30
0.0
 11
160.572315
 21
342.140334
 31
0.0
  0
LINE
  8
F08_IMG
  5
1CE6
 10
158.772345
 20
340.740334
 30
0.0
 11
160.572345
 21
340.740334
 31
0.0
  0
LINE
  8
F08_IMG
  5
1CE7
 10
173.172315
 20
342.140334
 30
0.0
 11
177.472315
 21
342.140334
 31
0.0
  0
ARC
  8
F08_IMG
  5
1CE8
 10
175.472315
 20
340.140334
 30
0.0
 40
2.0
 50
270.0
 51
0.0
  0
LINE
  8
F08_IMG
  5
1CE9
 10
169.572315
 20
342.140334
 30
0.0
 11
171.372315
 21
342.140334
 31
0.0
  0
LINE
  8
F08_IMG
  5
1CEA
 10
169.572345
 20
340.740334
 30
0.0
 11
171.372345
 21
340.740334
 31
0.0
  0
LINE
  8
F08_IMG
  5
1CEB
 10
165.972315
 20
342.140334
 30
0.0
 11
167.772315
 21
342.140334
 31
0.0
  0
LINE
  8
F08_IMG
  5
1CEC
 10
165.972345
 20
340.740334
 30
0.0
 11
167.772345
 21
340.740334
 31
0.0
  0
LINE
  8
F08_IMG
  5
1CED
 10
164.172345
 20
340.740334
 30
0.0
 11
165.972345
 21
340.740334
 31
0.0
  0
LINE
  8
F08_IMG
  5
1CEE
 10
167.772345
 20
340.740334
 30
0.0
 11
169.572345
 21
340.740334
 31
0.0
  0
LINE
  8
F08_IMG
  5
1CEF
 10
173.172345
 20
340.740334
 30
0.0
 11
173.872315
 21
340.740334
 31
0.0
  0
LINE
  8
F08_IMG
  5
1CF0
 10
171.372345
 20
340.740334
 30
0.0
 11
173.172345
 21
340.740334
 31
0.0
  0
ARC
  8
F08_IMG
  5
1CF1
 10
173.872315
 20
341.740334
 30
0.0
 40
1.0
 50
270.0
 51
0.0
  0
LINE
  8
F08_IMG
  5
1CF2
 10
159.072315
 20
362.440334
 30
0.0
 11
171.072315
 21
362.440334
 31
0.0
  0
LINE
  8
F08_IMG
  5
1CF3
 10
166.572315
 20
359.940334
 30
0.0
 11
163.572315
 21
359.940334
 31
0.0
  0
LINE
  8
F08_IMG
  5
1CF4
 10
168.072315
 20
360.440334
 30
0.0
 11
162.072315
 21
360.440334
 31
0.0
  0
CIRCLE
  8
F08_IMG
  5
1CF5
 10
165.072315
 20
356.940334
 30
0.0
 40
2.0
  0
ARC
  8
F08_IMG
  5
1CF6
 10
165.072315
 20
356.940334
 30
0.0
 40
2.5
 50
156.421822
 51
23.578178
  0
LINE
  8
F08_IMG
  5
1CF7
 10
171.072315
 20
359.140334
 30
0.0
 11
159.072315
 21
359.140334
 31
0.0
  0
LINE
  8
F08_IMG
  5
1CF8
 10
162.072315
 20
360.440334
 30
0.0
 11
162.072315
 21
362.440334
 31
0.0
  0
LINE
  8
F08_IMG
  5
1CF9
 10
158.072315
 20
361.440334
 30
0.0
 11
158.072315
 21
353.640334
 31
0.0
  0
LINE
  8
F08_IMG
  5
1CFA
 10
147.072773
 20
361.440334
 30
0.0
 11
147.072773
 21
353.440334
 31
0.0
  0
LINE
  8
F08_IMG
  5
1CFB
 10
152.472773
 20
351.340334
 30
0.0
 11
150.072315
 21
351.340334
 31
0.0
  0
LINE
  8
F08_IMG
  5
1CFC
 10
153.47233
 20
347.940334
 30
0.0
 11
148.772742
 21
347.940334
 31
0.0
  0
LINE
  8
F08_IMG
  5
1CFD
 10
147.072742
 20
353.440386
 30
0.0
 11
148.272742
 21
351.361925
 31
0.0
  0
ARC
  8
F08_IMG
  5
1CFE
 10
143.672773
 20
351.040334
 30
0.0
 40
0.9
 50
0.0
 51
180.0
  0
ARC
  8
F08_IMG
  5
1CFF
 10
140.072773
 20
351.040334
 30
0.0
 40
0.9
 50
0.0
 51
180.0
  0
ARC
  8
F08_IMG
  5
1D00
 10
143.672773
 20
343.240334
 30
0.0
 40
0.9
 50
0.0
 51
180.0
  0
ARC
  8
F08_IMG
  5
1D01
 10
140.072773
 20
343.240334
 30
0.0
 40
0.9
 50
0.0
 51
180.0
  0
LINE
  8
F08_IMG
  5
1D02
 10
142.772773
 20
351.040334
 30
0.0
 11
142.772773
 21
347.340334
 31
0.0
  0
LINE
  8
F08_IMG
  5
1D03
 10
144.572773
 20
351.040334
 30
0.0
 11
144.572773
 21
347.340334
 31
0.0
  0
LINE
  8
F08_IMG
  5
1D04
 10
140.972773
 20
351.040334
 30
0.0
 11
140.972773
 21
347.340334
 31
0.0
  0
ARC
  8
F08_IMG
  5
1D05
 10
143.672773
 20
347.340334
 30
0.0
 40
0.9
 50
180.0
 51
0.0
  0
ARC
  8
F08_IMG
  5
1D06
 10
140.072773
 20
347.340334
 30
0.0
 40
0.9
 50
270.0
 51
0.0
  0
LINE
  8
F08_IMG
  5
1D07
 10
139.172773
 20
351.040334
 30
0.0
 11
139.172773
 21
347.340334
 31
0.0
  0
ARC
  8
F08_IMG
  5
1D08
 10
140.072773
 20
347.340334
 30
0.0
 40
0.9
 50
180.0
 51
270.0
  0
ARC
  8
F08_IMG
  5
1D09
 10
147.272773
 20
343.240334
 30
0.0
 40
0.9
 50
0.0
 51
180.0
  0
ARC
  8
F08_IMG
  5
1D0A
 10
150.072315
 20
350.340334
 30
0.0
 40
0.3
 50
180.0
 51
270.0
  0
ARC
  8
F08_IMG
  5
1D0B
 10
150.072315
 20
351.040334
 30
0.0
 40
0.3
 50
90.0
 51
180.0
  0
LINE
  8
F08_IMG
  5
1D0C
 10
149.772315
 20
351.040334
 30
0.0
 11
149.772315
 21
350.340334
 31
0.0
  0
LINE
  8
F08_IMG
  5
1D0D
 10
150.472544
 20
350.040334
 30
0.0
 11
150.072315
 21
350.040334
 31
0.0
  0
LINE
  8
F08_IMG
  5
1D0E
 10
150.472544
 20
350.040334
 30
0.0
 11
150.472544
 21
347.940334
 31
0.0
  0
LINE
  8
F08_IMG
  5
1D0F
 10
148.272742
 20
351.361925
 30
0.0
 11
148.272742
 21
348.440334
 31
0.0
  0
ARC
  8
F08_IMG
  5
1D10
 10
148.772742
 20
348.440334
 30
0.0
 40
0.5
 50
180.0
 51
270.0
  0
LINE
  8
F08_IMG
  5
1D11
 10
146.072773
 20
357.940334
 30
0.0
 11
141.804824
 21
357.940334
 31
0.0
  0
LINE
  8
F08_IMG
  5
1D12
 10
147.072773
 20
360.140334
 30
0.0
 11
146.072773
 21
359.140334
 31
0.0
  0
LINE
  8
F08_IMG
  5
1D13
 10
146.072773
 20
357.940334
 30
0.0
 11
147.072773
 21
356.940334
 31
0.0
  0
LINE
  8
F08_IMG
  5
1D14
 10
159.07233
 20
348.240334
 30
0.0
 11
159.07233
 21
353.440334
 31
0.0
  0
LINE
  8
F08_IMG
  5
1D15
 10
158.57233
 20
348.240334
 30
0.0
 11
158.57233
 21
353.440334
 31
0.0
  0
CIRCLE
  8
F08_IMG
  5
1D16
 10
155.37233
 20
350.440334
 30
0.0
 40
2.0
  0
ARC
  8
F08_IMG
  5
1D17
 10
161.472345
 20
351.040334
 30
0.0
 40
0.9
 50
0.0
 51
180.0
  0
ARC
  8
F08_IMG
  5
1D18
 10
157.57233
 20
348.240334
 30
0.0
 40
1.0
 50
270.0
 51
0.0
  0
ARC
  8
F08_IMG
  5
1D19
 10
157.57233
 20
348.240334
 30
0.0
 40
1.5
 50
270.0
 51
0.0
  0
ARC
  8
F08_IMG
  5
1D1A
 10
157.872345
 20
343.240334
 30
0.0
 40
0.9
 50
0.0
 51
180.0
  0
LINE
  8
F08_IMG
  5
1D1B
 10
156.040967
 20
351.10897
 30
0.0
 11
154.604668
 21
349.672672
 31
0.0
  0
LINE
  8
F08_IMG
  5
1D1C
 10
154.703694
 20
351.10897
 30
0.0
 11
156.139992
 21
349.672672
 31
0.0
  0
ARC
  8
F08_IMG
  5
1D1D
 10
152.472773
 20
350.340334
 30
0.0
 40
0.3
 50
270.0
 51
0.0
  0
ARC
  8
F08_IMG
  5
1D1E
 10
152.472773
 20
351.040334
 30
0.0
 40
0.3
 50
0.0
 51
90.0
  0
ARC
  8
F08_IMG
  5
1D1F
 10
153.67233
 20
349.540334
 30
0.0
 40
0.2
 50
137.647404
 51
180.0
  0
LINE
  8
F08_IMG
  5
1D20
 10
152.772773
 20
351.040334
 30
0.0
 11
152.772773
 21
350.340334
 31
0.0
  0
LINE
  8
F08_IMG
  5
1D21
 10
152.072544
 20
350.040334
 30
0.0
 11
152.472773
 21
350.040334
 31
0.0
  0
LINE
  8
F08_IMG
  5
1D22
 10
152.072544
 20
350.040334
 30
0.0
 11
152.072544
 21
347.940334
 31
0.0
  0
LINE
  8
F08_IMG
  5
1D23
 10
153.47233
 20
349.540334
 30
0.0
 11
153.47233
 21
346.740334
 31
0.0
  0
LINE
  8
F08_IMG
  5
1D24
 10
153.47233
 20
346.740334
 30
0.0
 11
157.57233
 21
346.740334
 31
0.0
  0
LINE
  8
F08_IMG
  5
1D25
 10
153.47233
 20
347.240334
 30
0.0
 11
157.57233
 21
347.240334
 31
0.0
  0
ARC
  8
F08_IMG
  5
1D26
 10
161.472345
 20
343.240334
 30
0.0
 40
0.9
 50
0.0
 51
180.0
  0
LINE
  8
F08_IMG
  5
1D27
 10
160.572345
 20
351.040334
 30
0.0
 11
160.572345
 21
347.340334
 31
0.0
  0
LINE
  8
F08_IMG
  5
1D28
 10
162.372345
 20
351.040334
 30
0.0
 11
162.372345
 21
347.340334
 31
0.0
  0
ARC
  8
F08_IMG
  5
1D29
 10
161.472345
 20
347.340334
 30
0.0
 40
0.9
 50
180.0
 51
0.0
  0
LINE
  8
F08_IMG
  5
1D2A
 10
156.57233
 20
353.640334
 30
0.0
 11
158.87233
 21
353.640334
 31
0.0
  0
LINE
  8
F08_IMG
  5
1D2B
 10
155.430909
 20
352.498912
 30
0.0
 11
156.57233
 21
353.640334
 31
0.0
  0
ARC
  8
F08_IMG
  5
1D2C
 10
155.57233
 20
352.357491
 30
0.0
 40
0.2
 50
135.0
 51
155.555487
  0
LINE
  8
F08_IMG
  5
1D2D
 10
163.572315
 20
359.940334
 30
0.0
 11
163.572315
 21
360.440334
 31
0.0
  0
LINE
  8
F08_IMG
  5
1D2E
 10
159.072315
 20
359.140334
 30
0.0
 11
158.072315
 21
360.140334
 31
0.0
  0
LINE
  8
F08_IMG
  5
1D2F
 10
159.072315
 20
357.940334
 30
0.0
 11
158.072315
 21
356.940334
 31
0.0
  0
LINE
  8
F08_IMG
  5
1D30
 10
163.340264
 20
357.940334
 30
0.0
 11
159.072315
 21
357.940334
 31
0.0
  0
ARC
  8
F08_IMG
  5
1D31
 10
158.87233
 20
353.440334
 30
0.0
 40
0.2
 50
0.0
 51
90.0
  0
ARC
  8
F08_IMG
  5
1D32
 10
158.37233
 20
353.440334
 30
0.0
 40
0.2
 50
0.0
 51
90.0
  0
ARC
  8
F08_IMG
  5
1D33
 10
146.072773
 20
361.440334
 30
0.0
 40
1.0
 50
0.0
 51
90.0
  0
ARC
  8
F08_IMG
  5
1D34
 10
159.072315
 20
361.440334
 30
0.0
 40
1.0
 50
90.0
 51
180.0
  0
LINE
  8
F08_IMG
  5
1D35
 10
168.072315
 20
360.440334
 30
0.0
 11
168.072315
 21
362.440334
 31
0.0
  0
LINE
  8
F08_IMG
  5
1D36
 10
172.072315
 20
361.440334
 30
0.0
 11
172.072315
 21
353.440334
 31
0.0
  0
LINE
  8
F08_IMG
  5
1D37
 10
177.472315
 20
351.340334
 30
0.0
 11
173.573395
 21
351.340334
 31
0.0
  0
LINE
  8
F08_IMG
  5
1D38
 10
172.072315
 20
353.440334
 30
0.0
 11
173.137835
 21
351.594799
 31
0.0
  0
ARC
  8
F08_IMG
  5
1D39
 10
165.072345
 20
351.040334
 30
0.0
 40
0.9
 50
0.0
 51
180.0
  0
ARC
  8
F08_IMG
  5
1D3A
 10
168.672345
 20
351.040334
 30
0.0
 40
0.9
 50
0.0
 51
180.0
  0
ARC
  8
F08_IMG
  5
1D3B
 10
165.072345
 20
343.240334
 30
0.0
 40
0.9
 50
0.0
 51
180.0
  0
ARC
  8
F08_IMG
  5
1D3C
 10
168.672345
 20
343.240334
 30
0.0
 40
0.9
 50
0.0
 51
180.0
  0
LINE
  8
F08_IMG
  5
1D3D
 10
169.572345
 20
351.040334
 30
0.0
 11
169.572345
 21
347.340334
 31
0.0
  0
LINE
  8
F08_IMG
  5
1D3E
 10
167.772345
 20
351.040334
 30
0.0
 11
167.772345
 21
347.340334
 31
0.0
  0
LINE
  8
F08_IMG
  5
1D3F
 10
165.972345
 20
351.040334
 30
0.0
 11
165.972345
 21
347.340334
 31
0.0
  0
LINE
  8
F08_IMG
  5
1D40
 10
164.172345
 20
351.040334
 30
0.0
 11
164.172345
 21
347.340334
 31
0.0
  0
ARC
  8
F08_IMG
  5
1D41
 10
165.072345
 20
347.340334
 30
0.0
 40
0.9
 50
180.0
 51
0.0
  0
ARC
  8
F08_IMG
  5
1D42
 10
168.672345
 20
347.340334
 30
0.0
 40
0.9
 50
180.0
 51
0.0
  0
LINE
  8
F08_IMG
  5
1D43
 10
176.372315
 20
347.340315
 30
0.0
 11
176.372315
 21
350.040334
 31
0.0
  0
ARC
  8
F08_IMG
  5
1D44
 10
172.272345
 20
343.240334
 30
0.0
 40
0.9
 50
0.0
 51
90.0
  0
ARC
  8
F08_IMG
  5
1D45
 10
172.272345
 20
343.240334
 30
0.0
 40
0.9
 50
90.0
 51
180.0
  0
LINE
  8
F08_IMG
  5
1D46
 10
175.572315
 20
346.540315
 30
0.0
 11
175.572315
 21
345.540315
 31
0.0
  0
LINE
  8
F08_IMG
  5
1D47
 10
174.872315
 20
344.840315
 30
0.0
 11
175.572315
 21
345.540315
 31
0.0
  0
ARC
  8
F08_IMG
  5
1D48
 10
173.573395
 20
351.840334
 30
0.0
 40
0.5
 50
209.410892
 51
270.0
  0
LINE
  8
F08_IMG
  5
1D49
 10
172.072315
 20
350.040334
 30
0.0
 11
172.072315
 21
346.540315
 31
0.0
  0
LINE
  8
F08_IMG
  5
1D4A
 10
175.572315
 20
346.540315
 30
0.0
 11
172.072315
 21
346.540315
 31
0.0
  0
LINE
  8
F08_IMG
  5
1D4B
 10
175.572315
 20
346.540315
 30
0.0
 11
176.372315
 21
347.340315
 31
0.0
  0
LINE
  8
F08_IMG
  5
1D4C
 10
176.372315
 20
350.040334
 30
0.0
 11
172.072315
 21
350.040334
 31
0.0
  0
LINE
  8
F08_IMG
  5
1D4D
 10
171.072315
 20
357.940334
 30
0.0
 11
166.804366
 21
357.940334
 31
0.0
  0
LINE
  8
F08_IMG
  5
1D4E
 10
166.572315
 20
359.940334
 30
0.0
 11
166.572315
 21
360.440334
 31
0.0
  0
LINE
  8
F08_IMG
  5
1D4F
 10
172.072315
 20
360.140334
 30
0.0
 11
171.072315
 21
359.140334
 31
0.0
  0
LINE
  8
F08_IMG
  5
1D50
 10
171.072315
 20
357.940334
 30
0.0
 11
172.072315
 21
356.940334
 31
0.0
  0
ARC
  8
F08_IMG
  5
1D51
 10
171.072315
 20
361.440334
 30
0.0
 40
1.0
 50
0.0
 51
90.0
  0
LINE
  8
F08_IMG
  5
1D53
 10
343.829599
 20
444.540336
 30
0.0
 11
300.329119
 21
444.540336
 31
0.0
  0
LINE
  8
F08_IMG
  5
1D54
 10
351.329119
 20
457.740336
 30
0.0
 11
304.329119
 21
457.740336
 31
0.0
  0
LINE
  8
F08_IMG
  5
1D55
 10
351.329119
 20
455.140336
 30
0.0
 11
305.406074
 21
455.140336
 31
0.0
  0
LINE
  8
F08_IMG
  5
1D56
 10
302.829119
 20
447.690397
 30
0.0
 11
302.829119
 21
452.56338
 31
0.0
  0
LINE
  8
F08_IMG
  5
1D57
 10
300.329119
 20
437.940336
 30
0.0
 11
300.329119
 21
453.740336
 31
0.0
  0
LINE
  8
F08_IMG
  5
1D58
 10
298.829119
 20
443.381757
 30
0.0
 11
300.329119
 21
443.381757
 31
0.0
  0
LINE
  8
F08_IMG
  5
1D59
 10
298.829119
 20
442.240336
 30
0.0
 11
300.329119
 21
442.240336
 31
0.0
  0
LINE
  8
F08_IMG
  5
1D5A
 10
298.829119
 20
448.640336
 30
0.0
 11
300.329119
 21
449.140336
 31
0.0
  0
LINE
  8
F08_IMG
  5
1D5B
 10
298.829119
 20
442.240336
 30
0.0
 11
298.829119
 21
448.640336
 31
0.0
  0
LINE
  8
F08_IMG
  5
1D5C
 10
298.829119
 20
447.440336
 30
0.0
 11
297.729119
 21
447.440336
 31
0.0
  0
LINE
  8
F08_IMG
  5
1D5D
 10
296.729119
 20
446.440336
 30
0.0
 11
296.729119
 21
444.440336
 31
0.0
  0
ARC
  8
F08_IMG
  5
1D5E
 10
297.729119
 20
446.440336
 30
0.0
 40
1.0
 50
90.0
 51
180.0
  0
LINE
  8
F08_IMG
  5
1D5F
 10
298.829119
 20
443.440336
 30
0.0
 11
297.729119
 21
443.440336
 31
0.0
  0
ARC
  8
F08_IMG
  5
1D60
 10
297.729119
 20
444.440336
 30
0.0
 40
1.0
 50
180.0
 51
270.0
  0
LINE
  8
F08_IMG
  5
1D61
 10
302.829119
 20
444.540336
 30
0.0
 11
302.829119
 21
437.940336
 31
0.0
  0
LINE
  8
F08_IMG
  5
1D63
 10
300.329119
 20
437.940336
 30
0.0
 11
300.829119
 21
437.940336
 31
0.0
  0
LINE
  8
F08_IMG
  5
1D64
 10
300.329119
 20
433.440336
 30
0.0
 11
300.329119
 21
436.740336
 31
0.0
  0
LINE
  8
F08_IMG
  5
1D65
 10
300.329119
 20
436.740336
 30
0.0
 11
300.829119
 21
436.740336
 31
0.0
  0
LINE
  8
F08_IMG
  5
1D66
 10
300.829119
 20
437.940336
 30
0.0
 11
300.829119
 21
436.740336
 31
0.0
  0
LINE
  8
F08_IMG
  5
1D67
 10
302.029119
 20
437.940336
 30
0.0
 11
302.829119
 21
437.940336
 31
0.0
  0
LINE
  8
F08_IMG
  5
1D68
 10
302.029119
 20
436.740336
 30
0.0
 11
302.029119
 21
437.940336
 31
0.0
  0
LINE
  8
F08_IMG
  5
1D69
 10
302.029119
 20
436.740336
 30
0.0
 11
302.829119
 21
436.740336
 31
0.0
  0
LINE
  8
F08_IMG
  5
1D6A
 10
302.829119
 20
436.740336
 30
0.0
 11
302.829119
 21
433.440336
 31
0.0
  0
LINE
  8
F08_IMG
  5
1D6B
 10
302.829119
 20
444.540336
 30
0.0
 11
302.829119
 21
447.690397
 31
0.0
  0
LINE
  8
F08_IMG
  5
1D6C
 10
300.329119
 20
453.740336
 30
0.0
 11
304.329119
 21
457.740336
 31
0.0
  0
LINE
  8
F08_IMG
  5
1D6D
 10
302.829119
 20
452.56338
 30
0.0
 11
305.406074
 21
455.140336
 31
0.0
  0
LINE
  8
F08_IMG
  5
1D6E
 10
351.329119
 20
457.740336
 30
0.0
 11
351.329119
 21
447.540336
 31
0.0
  0
ARC
  8
F08_IMG
  5
1D6F
 10
349.329119
 20
447.540336
 30
0.0
 40
2.0
 50
270.0
 51
0.0
  0
LINE
  8
F08_IMG
  5
1D70
 10
349.329119
 20
445.540336
 30
0.0
 11
344.829599
 21
445.540336
 31
0.0
  0
LINE
  8
F08_IMG
  5
1D71
 10
343.829599
 20
444.540336
 30
0.0
 11
344.829599
 21
445.540336
 31
0.0
  0
LINE
  8
F08_IMG
  5
1D72
 10
351.329119
 20
340.740334
 30
0.0
 11
305.406074
 21
340.740334
 31
0.0
  0
LINE
  8
F08_IMG
  5
1D73
 10
351.329119
 20
338.140334
 30
0.0
 11
304.329119
 21
338.140334
 31
0.0
  0
LINE
  8
F08_IMG
  5
1D74
 10
343.829599
 20
351.340334
 30
0.0
 11
300.329119
 21
351.340334
 31
0.0
  0
LINE
  8
F08_IMG
  5
1D75
 10
302.829119
 20
343.317289
 30
0.0
 11
305.406074
 21
340.740334
 31
0.0
  0
LINE
  8
F08_IMG
  5
1D76
 10
300.329119
 20
357.940334
 30
0.0
 11
300.329119
 21
342.140334
 31
0.0
  0
LINE
  8
F08_IMG
  5
1D77
 10
300.329119
 20
342.140334
 30
0.0
 11
304.329119
 21
338.140334
 31
0.0
  0
LINE
  8
F08_IMG
  5
1D78
 10
298.829119
 20
347.240334
 30
0.0
 11
300.329119
 21
346.740334
 31
0.0
  0
LINE
  8
F08_IMG
  5
1D79
 10
298.829119
 20
353.640334
 30
0.0
 11
300.329119
 21
353.640334
 31
0.0
  0
LINE
  8
F08_IMG
  5
1D7A
 10
298.829119
 20
352.498912
 30
0.0
 11
300.329119
 21
352.498912
 31
0.0
  0
ARC
  8
F08_IMG
  5
1D7B
 10
297.729119
 20
351.440334
 30
0.0
 40
1.0
 50
90.0
 51
180.0
  0
LINE
  8
F08_IMG
  5
1D7C
 10
298.829119
 20
353.640334
 30
0.0
 11
298.829119
 21
347.240334
 31
0.0
  0
LINE
  8
F08_IMG
  5
1D7D
 10
298.829119
 20
348.440334
 30
0.0
 11
297.729119
 21
348.440334
 31
0.0
  0
LINE
  8
F08_IMG
  5
1D7E
 10
296.729119
 20
349.440334
 30
0.0
 11
296.729119
 21
351.440334
 31
0.0
  0
ARC
  8
F08_IMG
  5
1D7F
 10
297.729119
 20
349.440334
 30
0.0
 40
1.0
 50
180.0
 51
270.0
  0
LINE
  8
F08_IMG
  5
1D80
 10
298.829119
 20
352.440334
 30
0.0
 11
297.729119
 21
352.440334
 31
0.0
  0
LINE
  8
F08_IMG
  5
1D81
 10
302.829119
 20
351.340334
 30
0.0
 11
302.829119
 21
357.940334
 31
0.0
  0
LINE
  8
F08_IMG
  5
1D82
 10
302.829119
 20
348.190394
 30
0.0
 11
302.829119
 21
351.340334
 31
0.0
  0
LINE
  8
F08_IMG
  5
1D83
 10
302.829119
 20
348.190394
 30
0.0
 11
302.829119
 21
343.317289
 31
0.0
  0
LINE
  8
F08_IMG
  5
1D85
 10
300.829119
 20
357.940334
 30
0.0
 11
300.829119
 21
359.140334
 31
0.0
  0
LINE
  8
F08_IMG
  5
1D86
 10
300.329119
 20
359.140334
 30
0.0
 11
300.829119
 21
359.140334
 31
0.0
  0
LINE
  8
F08_IMG
  5
1D87
 10
300.329119
 20
362.440334
 30
0.0
 11
300.329119
 21
359.140334
 31
0.0
  0
LINE
  8
F08_IMG
  5
1D88
 10
300.329119
 20
357.940334
 30
0.0
 11
300.829119
 21
357.940334
 31
0.0
  0
LINE
  8
F08_IMG
  5
1D89
 10
302.029119
 20
359.140334
 30
0.0
 11
302.829119
 21
359.140334
 31
0.0
  0
LINE
  8
F08_IMG
  5
1D8A
 10
302.029119
 20
359.140334
 30
0.0
 11
302.029119
 21
357.940334
 31
0.0
  0
LINE
  8
F08_IMG
  5
1D8B
 10
302.029119
 20
357.940334
 30
0.0
 11
302.829119
 21
357.940334
 31
0.0
  0
LINE
  8
F08_IMG
  5
1D8C
 10
302.829119
 20
359.140334
 30
0.0
 11
302.829119
 21
362.440334
 31
0.0
  0
LINE
  8
F08_IMG
  5
1D8D
 10
351.329119
 20
338.140334
 30
0.0
 11
351.329119
 21
348.340334
 31
0.0
  0
ARC
  8
F08_IMG
  5
1D8E
 10
349.329119
 20
348.340334
 30
0.0
 40
2.0
 50
0.0
 51
90.0
  0
LINE
  8
F08_IMG
  5
1D8F
 10
349.329119
 20
350.340334
 30
0.0
 11
344.829599
 21
350.340334
 31
0.0
  0
LINE
  8
F08_IMG
  5
1D90
 10
343.829599
 20
351.340334
 30
0.0
 11
344.829599
 21
350.340334
 31
0.0
  0
LINE
  8
F08_IMG
  5
1D92
 10
300.329119
 20
433.440336
 30
0.0
 11
302.829119
 21
433.440336
 31
0.0
  0
LINE
  8
F08_IMG
  5
1D93
 10
300.329119
 20
362.440334
 30
0.0
 11
302.829119
 21
362.440334
 31
0.0
  0
LINE
  8
F01_OUT
  5
212E
 10
421.844873
 20
249.788358
 30
0.0
 11
428.562388
 21
256.505872
 31
0.0
  0
LINE
  8
F01_OUT
  5
212F
 10
430.153378
 20
248.197368
 30
0.0
 11
420.253883
 21
258.096863
 31
0.0
  0
ARC
  8
F01_OUT
  5
2130
 10
425.20363
 20
253.147115
 30
0.0
 40
7.75
 50
115.414617
 51
64.585383
  0
CIRCLE
  8
F01_OUT
  5
2131
 10
425.20363
 20
253.147115
 30
0.0
 40
7.0
  0
LINE
  8
F01_OUT
  5
2132
 10
487.024598
 20
257.147115
 30
0.0
 11
495.924598
 21
257.147115
 31
0.0
  0
LINE
  8
F01_OUT
  5
2133
 10
487.024598
 20
249.147115
 30
0.0
 11
495.924598
 21
249.147115
 31
0.0
  0
LINE
  8
F01_OUT
  5
2134
 10
495.924598
 20
249.147115
 30
0.0
 11
495.924598
 21
257.147115
 31
0.0
  0
ARC
  8
F01_OUT
  5
2135
 10
478.96655
 20
257.547115
 30
0.0
 40
2.6
 50
90.0
 51
163.39845
  0
ARC
  8
F01_OUT
  5
2136
 10
478.96655
 20
248.747115
 30
0.0
 40
2.6
 50
196.60155
 51
270.0
  0
ARC
  8
F01_OUT
  5
2137
 10
493.724598
 20
253.147115
 30
0.0
 40
18.0
 50
163.39845
 51
196.60155
  0
LINE
  8
F01_OUT
  5
2138
 10
478.96655
 20
260.147115
 30
0.0
 11
480.963843
 21
260.147115
 31
0.0
  0
LINE
  8
F01_OUT
  5
2139
 10
478.96655
 20
246.147115
 30
0.0
 11
480.924598
 21
246.147115
 31
0.0
  0
LINE
  8
F01_OUT
  5
213A
 10
480.924598
 20
245.897115
 30
0.0
 11
482.924598
 21
245.897115
 31
0.0
  0
LINE
  8
F01_OUT
  5
213B
 10
480.924598
 20
245.897115
 30
0.0
 11
480.924598
 21
260.147115
 31
0.0
  0
LINE
  8
F01_OUT
  5
213C
 10
482.924598
 20
245.397115
 30
0.0
 11
487.024598
 21
245.397115
 31
0.0
  0
LINE
  8
F01_OUT
  5
213D
 10
482.924598
 20
245.397115
 30
0.0
 11
482.924598
 21
260.147115
 31
0.0
  0
LINE
  8
F01_OUT
  5
213E
 10
484.524598
 20
260.147115
 30
0.0
 11
484.524598
 21
245.397115
 31
0.0
  0
LINE
  8
F01_OUT
  5
213F
 10
508.524598
 20
245.147115
 30
0.0
 11
508.524598
 21
265.447115
 31
0.0
  0
LINE
  8
F01_OUT
  5
2140
 10
412.70363
 20
245.147115
 30
0.0
 11
437.70363
 21
245.147115
 31
0.0
  0
LINE
  8
F01_OUT
  5
2141
 10
416.70363
 20
260.147115
 30
0.0
 11
433.70363
 21
260.147115
 31
0.0
  0
LINE
  8
F01_OUT
  5
2142
 10
433.70363
 20
260.147115
 30
0.0
 11
433.70363
 21
245.147115
 31
0.0
  0
LINE
  8
F01_OUT
  5
2143
 10
416.70363
 20
260.147115
 30
0.0
 11
416.70363
 21
245.147115
 31
0.0
  0
LINE
  8
F01_OUT
  5
2144
 10
497.024598
 20
258.147115
 30
0.0
 11
497.024598
 21
248.147115
 31
0.0
  0
LINE
  8
F01_OUT
  5
2145
 10
487.024598
 20
258.147115
 30
0.0
 11
497.024598
 21
258.147115
 31
0.0
  0
LINE
  8
F01_OUT
  5
2146
 10
487.024598
 20
248.147115
 30
0.0
 11
497.024598
 21
248.147115
 31
0.0
  0
LINE
  8
F01_OUT
  5
2147
 10
487.024598
 20
260.147115
 30
0.0
 11
487.024598
 21
245.147115
 31
0.0
  0
LINE
  8
F01_OUT
  5
2148
 10
463.72461
 20
260.147115
 30
0.0
 11
487.024598
 21
260.147115
 31
0.0
  0
LINE
  8
F01_OUT
  5
2149
 10
470.72461
 20
245.147115
 30
0.0
 11
508.524598
 21
245.147115
 31
0.0
  0
CIRCLE
  8
F01_OUT
  5
214A
 10
596.763825
 20
253.147115
 30
0.0
 40
4.5
  0
LINE
  8
F01_OUT
  5
214B
 10
589.763825
 20
260.647115
 30
0.0
 11
589.763825
 21
245.647115
 31
0.0
  0
LINE
  8
F01_OUT
  5
214C
 10
589.763825
 20
260.647115
 30
0.0
 11
619.139909
 21
260.647115
 31
0.0
  0
LINE
  8
F01_OUT
  5
214D
 10
589.763825
 20
245.647115
 30
0.0
 11
619.139909
 21
245.647115
 31
0.0
  0
LINE
  8
F01_OUT
  5
214E
 10
480.924598
 20
252.147115
 30
0.0
 11
482.924598
 21
252.99255
 31
0.0
  0
LINE
  8
F01_OUT
  5
214F
 10
480.924598
 20
253.147115
 30
0.0
 11
482.924598
 21
253.99255
 31
0.0
  0
LINE
  8
F01_OUT
  5
21D8
 10
487.024598
 20
257.147115
 30
0.0
 11
484.524598
 21
257.147115
 31
0.0
  0
LINE
  8
F01_OUT
  5
21D9
 10
487.024598
 20
249.147115
 30
0.0
 11
484.524598
 21
249.147115
 31
0.0
  0
LINE
  8
F01_OUT
  5
21DF
 10
495.924598
 20
256.147115
 30
0.0
 11
487.024598
 21
256.147115
 31
0.0
  0
LINE
  8
F01_OUT
  5
21E0
 10
487.024598
 20
250.147115
 30
0.0
 11
495.924598
 21
250.147115
 31
0.0
  0
LINE
  8
F03_CNT
  5
21E1
 10
596.763825
 20
244.947118
 30
0.0
 11
596.763825
 21
261.347112
 31
0.0
  0
LINE
  8
F03_CNT
  5
21E2
 10
604.963822
 20
253.147115
 30
0.0
 11
588.563828
 21
253.147115
 31
0.0
  0
INSERT
  8
F01_OUT
  6
CONTINUOUS
  5
21EA
  2
*X34
 10
0.0
 20
0.0
 30
0.0
1001
ACAD
1000
HATCH
1002
{
1070
    19
1000
ANSI31
1040
0.629921
1040
0.0
1000
R14_HATCH_DATA
1000
21EA
1011
1.0
1021
0.0
1031
0.0
1011
0.0
1021
1.0
1031
0.0
1011
0.0
1021
0.0
1031
1.0
1040
0.0
1010
0.0
1020
0.0
1030
1.0
1000
ANSI31
1070
     0
1070
     0
1071
        1
1071
        2
1070
     0
1070
     1
1071
       11
1040
463.72461
1040
260.147116
1040
463.72461
1040
265.447116
1040
508.524599
1040
265.447116
1040
508.524599
1040
245.147116
1040
487.024598
1040
245.147116
1040
487.024598
1040
248.147115
1040
497.024598
1040
248.147115
1040
497.024598
1040
258.147115
1040
487.024598
1040
258.147115
1040
487.024598
1040
260.147116
1040
463.854052
1040
260.304357
1071
        0
1070
     0
1070
     1
1040
0.0
1040
0.629921
1070
     0
1070
     1
1040
0.785398
1040
185.811463
1040
-41.576153
1040
-1.414214
1040
1.414214
1070
     0
1071
        1
1040
185.811463
1040
-41.576153
1040
0.0
1002
}
  0
INSERT
  8
F01_OUT
  6
CONTINUOUS
  5
21EB
  2
*X33
 10
0.0
 20
0.0
 30
0.0
1001
ACAD
1000
HATCH
1002
{
1070
    19
1000
ANSI31
1040
0.629921
1040
0.0
1000
R14_HATCH_DATA
1000
21EB
1011
1.0
1021
0.0
1031
0.0
1011
0.0
1021
1.0
1031
0.0
1011
0.0
1021
0.0
1031
1.0
1040
0.0
1010
0.0
1020
0.0
1030
1.0
1000
ANSI31
1070
     0
1070
     0
1071
        1
1071
        2
1070
     0
1070
     1
1071
        8
1040
437.70363
1040
245.147115
1040
437.70363
1040
265.46055
1040
412.70363
1040
265.46055
1040
412.70363
1040
245.147115
1040
416.70363
1040
245.147115
1040
416.70363
1040
260.147116
1040
433.70363
1040
260.147116
1040
433.70363
1040
245.147115
1071
        0
1070
     0
1070
     1
1040
0.0
1040
0.629921
1070
     0
1070
     1
1040
0.785398
1040
172.704698
1040
-41.576153
1040
-1.414214
1040
1.414214
1070
     0
1071
        1
1040
172.704698
1040
-41.576153
1040
0.0
1002
}
  0
LINE
  8
F03_CNT
  5
21ED
 10
497.924598
 20
253.147115
 30
0.0
 11
473.435054
 21
253.147115
 31
0.0
  0
LINE
  8
F03_CNT
  5
21EE
 10
425.20363
 20
243.397115
 30
0.0
 11
425.20363
 21
262.897115
 31
0.0
  0
LINE
  8
F03_CNT
  5
21EF
 10
434.95363
 20
253.147115
 30
0.0
 11
415.45363
 21
253.147115
 31
0.0
  0
DIMENSION
  8
F02_DIM
  5
2251
  2
*D24
 10
416.70363
 20
233.931572
 30
0.0
 11
425.20363
 21
236.931572
 31
0.0
 12
615.681847
 22
11.789081
 32
0.0
 13
433.70363
 23
245.147115
 33
0.0
 14
416.70363
 24
245.147115
 34
0.0
  3
FSTD1
  0
DIMENSION
  8
F02_DIM
  5
2252
  2
*D25
 10
445.852681
 20
260.147115
 30
0.0
 11
442.852681
 21
256.647115
 31
0.0
 12
615.681847
 22
11.789081
 32
0.0
 13
434.95363
 23
253.147115
 33
0.0
 14
433.70363
 24
260.147115
 34
0.0
 50
90.0
  3
FSTD1
  0
DIMENSION
  8
F02_DIM
  5
2253
  2
*D26
 10
484.524598
 20
233.931572
 30
0.0
 11
496.524598
 21
236.931572
 31
0.0
 12
615.681847
 22
11.789081
 32
0.0
 13
508.524598
 23
245.147115
 33
0.0
 14
484.524598
 24
245.397115
 34
0.0
  3
FSTD1
  0
TEXT
  8
F05_PRO
  5
2254
 10
427.714421
 20
218.509908
 30
0.0
 40
5.0
  1
Terminal section
  7
STANDARD
 72
     1
 11
461.297754
 21
218.509908
 31
0.0
  0
TEXT
  8
F05_PRO
  5
2255
 10
566.800108
 20
219.899913
 30
0.0
 40
5.0
  1
Busbar cutting
  7
STANDARD
 72
     1
 11
598.300108
 21
219.899913
 31
0.0
  0
DIMENSION
  8
F02_DIM
  5
2256
  2
*D27
 10
596.763825
 20
235.799872
 30
0.0
 11
593.263825
 21
238.799872
 31
0.0
 12
615.681847
 22
11.789081
 32
0.0
 13
589.763825
 23
245.647115
 33
0.0
 14
596.763825
 24
244.947118
 34
0.0
  3
FSTD1
  0
DIMENSION
  8
F02_DIM
  5
2257
  2
*D28
 10
576.306605
 20
260.647115
 30
0.0
 11
576.306605
 21
253.147115
 31
0.0
 12
615.681847
 22
11.789081
 32
0.0
 70
   128
  1
Max.<>
 13
589.763825
 23
245.647115
 33
0.0
 14
589.763825
 24
260.647115
 34
0.0
 50
90.0
  3
FSTD1
  0
DIMENSION
  8
F02_DIM
  5
2258
  2
*D29
 10
593.021057
 20
250.648778
 30
0.0
 11
615.161653
 21
265.427864
 31
0.0
 12
615.681847
 22
11.789081
 32
0.0
 70
   131
 15
600.506592
 25
255.645453
 35
0.0
  3
FSTD1
1001
ACAD
1000
DSTYLE
1002
{
1070
   288
1070
     1
1002
}
  0
TEXT
  8
F05_PRO
  5
2259
 10
624.76623
 20
251.941301
 30
0.0
 40
3.0
  1
t   6
  7
STANDARD
  0
LINE
  8
F05_PRO
  5
225A
 10
631.044548
 20
251.903409
 30
0.0
 11
628.946873
 21
251.903409
 31
0.0
  0
LINE
  8
F05_PRO
  5
225B
 10
628.946873
 20
252.625096
 30
0.0
 11
631.056012
 21
252.625096
 31
0.0
  0
LINE
  8
F05_PRO
  5
225C
 10
631.056012
 20
253.048944
 30
0.0
 11
628.923948
 21
253.91955
 31
0.0
  0
LINE
  8
F05_PRO
  5
225D
 10
628.923948
 20
253.91955
 30
0.0
 11
631.010162
 21
254.870344
 31
0.0
  0
TEXT
  8
F02_DIM
  5
2290
 10
452.902736
 20
279.106231
 30
0.0
 40
3.0
  1
M8x15
  7
STANDARD
  0
TEXT
  8
F02_DIM
  5
2291
 10
453.289982
 20
273.184237
 30
0.0
 40
3.0
  1
Cross recessed
 41
0.8
  7
STANDARD
  0
LINE
  8
F02_DIM
  5
2292
 10
488.46889
 20
277.558235
 30
0.0
 11
450.966498
 21
277.558235
 31
0.0
  0
INSERT
  8
F02_DIM
  5
229A
  2
_OPEN30
 10
493.939746
 20
257.095955
 30
0.0
 41
2.5
 42
2.5
 50
284.968656
 43
2.5
  0
POLYLINE
  8
F02_DIM
  5
229B
 66
     1
 10
0.0
 20
0.0
 30
0.0
  0
VERTEX
  8
F02_DIM
  5
265D
 10
493.294019
 20
259.511123
 30
0.0
  0
VERTEX
  8
F02_DIM
  5
265E
 10
488.46889
 20
277.558235
 30
0.0
  0
SEQEND
  8
F02_DIM
  5
265F
  0
TEXT
  8
F02_DIM
  5
229C
 10
453.289982
 20
268.27216
 30
0.0
 40
3.0
  1
head screw
 41
0.8
  7
STANDARD
  0
DIMENSION
  8
F02_DIM
  5
25E3
  2
*D30
 10
92.465416
 20
347.940333
 30
0.0
 11
89.465416
 21
397.940334
 31
0.0
 13
129.372391
 23
447.940335
 33
0.0
 14
129.372391
 24
347.940333
 34
0.0
 50
90.0
  3
FSTD1
  0
DIMENSION
  8
F02_DIM
  5
25F1
  2
*D31
 10
92.465416
 20
457.740336
 30
0.0
 11
89.465416
 21
465.240336
 31
0.0
 13
129.372391
 23
447.940335
 33
0.0
 14
129.672345
 24
457.740336
 34
0.0
 50
90.0
  3
FSTD1
  0
DIMENSION
  8
F02_DIM
  5
25FF
  2
*D32
 10
92.465416
 20
338.140334
 30
0.0
 11
89.465416
 21
330.640334
 31
0.0
 13
129.372391
 23
347.940333
 33
0.0
 14
129.672773
 24
338.140334
 34
0.0
 50
90.0
  3
FSTD1
  0
ENDSEC
  0
EOF
