  0
SECTION
  2
HEADER
  9
$ACADVER
  1
AC1009
  9
$INSBASE
 10
0.0
 20
0.0
 30
0.0
  9
$EXTMIN
 10
-128.623982
 20
-50.999872
 30
0.0
  9
$EXTMAX
 10
268.821031
 20
251.342442
 30
0.0
  9
$LIMMIN
 10
-210.0
 20
-297.0
  9
$LIMMAX
 10
210.0
 20
297.0
  9
$ORTHOMODE
 70
     0
  9
$REGENMODE
 70
     1
  9
$FILLMODE
 70
     1
  9
$QTEXTMODE
 70
     0
  9
$MIRRTEXT
 70
     1
  9
$DRAGMODE
 70
     2
  9
$LTSCALE
 40
0.2
  9
$OSMODE
 70
    49
  9
$ATTMODE
 70
     1
  9
$TEXTSIZE
 40
1.8
  9
$TRACEWID
 40
0.05
  9
$TEXTSTYLE
  7
FSTD2
  9
$CLAYER
  8
0
  9
$CELTYPE
  6
BYLAYER
  9
$CECOLOR
 62
   256
  9
$DIMSCALE
 40
0.0
  9
$DIMASZ
 40
3.0
  9
$DIMEXO
 40
1.0
  9
$DIMDLI
 40
0.38
  9
$DIMRND
 40
0.0
  9
$DIMDLE
 40
0.0
  9
$DIMEXE
 40
1.0
  9
$DIMTP
 40
0.2
  9
$DIMTM
 40
0.0
  9
$DIMTXT
 40
4.0
  9
$DIMCEN
 40
0.09
  9
$DIMTSZ
 40
0.0
  9
$DIMTOL
 70
     0
  9
$DIMLIM
 70
     0
  9
$DIMTIH
 70
     0
  9
$DIMTOH
 70
     0
  9
$DIMSE1
 70
     0
  9
$DIMSE2
 70
     0
  9
$DIMTAD
 70
     1
  9
$DIMZIN
 70
     8
  9
$DIMBLK
  1

  9
$DIMASO
 70
     1
  9
$DIMSHO
 70
     1
  9
$DIMPOST
  1

  9
$DIMAPOST
  1

  9
$DIMALT
 70
     0
  9
$DIMALTD
 70
     4
  9
$DIMALTF
 40
0.0394
  9
$DIMLFAC
 40
1.0
  9
$DIMTOFL
 70
     1
  9
$DIMTVP
 40
0.0
  9
$DIMTIX
 70
     0
  9
$DIMSOXD
 70
     0
  9
$DIMSAH
 70
     1
  9
$DIMBLK1
  1
_OPEN30
  9
$DIMBLK2
  1
_OPEN30
  9
$DIMSTYLE
  2
FSTD1
  9
$DIMCLRD
 70
     0
  9
$DIMCLRE
 70
     0
  9
$DIMCLRT
 70
     0
  9
$DIMTFAC
 40
0.7
  9
$DIMGAP
 40
1.0
  9
$LUNITS
 70
     2
  9
$LUPREC
 70
     4
  9
$SKETCHINC
 40
0.1
  9
$FILLETRAD
 40
0.0
  9
$AUNITS
 70
     0
  9
$AUPREC
 70
     0
  9
$MENU
  1
acad
  9
$ELEVATION
 40
0.0
  9
$PELEVATION
 40
0.0
  9
$THICKNESS
 40
0.0
  9
$LIMCHECK
 70
     0
  9
$BLIPMODE
 70
     0
  9
$CHAMFERA
 40
0.0
  9
$CHAMFERB
 40
0.0
  9
$SKPOLY
 70
     0
  9
$TDCREATE
 40
2455839.736788194
  9
$TDUPDATE
 40
2455843.647861319
  9
$TDINDWG
 40
0.0823914699
  9
$TDUSRTIMER
 40
0.0823914699
  9
$USRTIMER
 70
     1
  9
$ANGBASE
 50
0.0
  9
$ANGDIR
 70
     0
  9
$PDMODE
 70
     0
  9
$PDSIZE
 40
0.0
  9
$PLINEWID
 40
0.0
  9
$COORDS
 70
     1
  9
$SPLFRAME
 70
     0
  9
$SPLINETYPE
 70
     6
  9
$SPLINESEGS
 70
     8
  9
$ATTDIA
 70
     0
  9
$ATTREQ
 70
     1
  9
$HANDLING
 70
     1
  9
$HANDSEED
  5
1929
  9
$SURFTAB1
 70
     6
  9
$SURFTAB2
 70
     6
  9
$SURFTYPE
 70
     6
  9
$SURFU
 70
     6
  9
$SURFV
 70
     6
  9
$UCSNAME
  2

  9
$UCSORG
 10
0.0
 20
0.0
 30
0.0
  9
$UCSXDIR
 10
1.0
 20
0.0
 30
0.0
  9
$UCSYDIR
 10
0.0
 20
1.0
 30
0.0
  9
$PUCSNAME
  2

  9
$PUCSORG
 10
0.0
 20
0.0
 30
0.0
  9
$PUCSXDIR
 10
1.0
 20
0.0
 30
0.0
  9
$PUCSYDIR
 10
0.0
 20
1.0
 30
0.0
  9
$USERI1
 70
     0
  9
$USERI2
 70
     0
  9
$USERI3
 70
     0
  9
$USERI4
 70
     0
  9
$USERI5
 70
     0
  9
$USERR1
 40
0.0
  9
$USERR2
 40
0.0
  9
$USERR3
 40
0.0
  9
$USERR4
 40
0.0
  9
$USERR5
 40
0.0
  9
$WORLDVIEW
 70
     1
  9
$SHADEDGE
 70
     3
  9
$SHADEDIF
 70
    70
  9
$TILEMODE
 70
     1
  9
$MAXACTVP
 70
    16
  9
$PINSBASE
 10
0.0
 20
0.0
 30
0.0
  9
$PLIMCHECK
 70
     0
  9
$PEXTMIN
 10
1.000000E+20
 20
1.000000E+20
 30
1.000000E+20
  9
$PEXTMAX
 10
-1.000000E+20
 20
-1.000000E+20
 30
-1.000000E+20
  9
$PLIMMIN
 10
0.0
 20
0.0
  9
$PLIMMAX
 10
12.0
 20
9.0
  9
$UNITMODE
 70
     0
  9
$VISRETAIN
 70
     0
  9
$PLINEGEN
 70
     1
  9
$PSLTSCALE
 70
     0
  9
$TREEDEPTH
 70
  3020
  9
$DWGCODEPAGE
  3
dos932
  0
ENDSEC
  0
SECTION
  2
TABLES
  0
TABLE
  2
VPORT
 70
     2
  0
VPORT
  2
*ACTIVE
 70
     0
 10
0.0
 20
0.0
 11
1.0
 21
1.0
 12
111.468999
 22
109.949863
 13
0.0
 23
0.0
 14
1.0
 24
1.0
 15
0.0
 25
0.0
 16
0.0
 26
0.0
 36
1.0
 17
0.0
 27
0.0
 37
0.0
 40
324.233839
 41
1.492415
 42
50.0
 43
0.0
 44
0.0
 50
0.0
 51
0.0
 71
     0
 72
   100
 73
     1
 74
     1
 75
     0
 76
     0
 77
     0
 78
     0
  0
ENDTAB
  0
TABLE
  2
LTYPE
 70
     4
  0
LTYPE
  2
CONTINUOUS
 70
    64
  3
Solid line
 72
    65
 73
     0
 40
0.0
  0
LTYPE
  2
PHANTOM
 70
    64
  3
Phantom ______  __  __  ______  __  __  ______
 72
    65
 73
     6
 40
63.5
 49
31.75
 49
-6.35
 49
6.35
 49
-6.35
 49
6.35
 49
-6.35
  0
LTYPE
  2
DASHED
 70
    64
  3
Dashed __ __ __ __ __ __ __ __ __ __ __ __ __ _
 72
    65
 73
     2
 40
19.05
 49
12.7
 49
-6.35
  0
LTYPE
  2
CENTER
 70
    64
  3
Center ____ _ ____ _ ____ _ ____ _ ____ _ ____
 72
    65
 73
     4
 40
50.8
 49
31.75
 49
-6.35
 49
6.35
 49
-6.35
  0
ENDTAB
  0
TABLE
  2
LAYER
 70
    12
  0
LAYER
  2
0
 70
    64
 62
     7
  6
CONTINUOUS
  0
LAYER
  2
DEFPOINTS
 70
    64
 62
     7
  6
CONTINUOUS
  0
LAYER
  2
F03_CNT
 70
    64
 62
     1
  6
CENTER
  0
LAYER
  2
F02_DIM
 70
    64
 62
     4
  6
CONTINUOUS
  0
LAYER
  2
F05_PRO
 70
    64
 62
     4
  6
CONTINUOUS
  0
LAYER
  2
F01_OUT
 70
    64
 62
     6
  6
CONTINUOUS
  0
LAYER
  2
F06_CUT
 70
    64
 62
     6
  6
CONTINUOUS
  0
LAYER
  2
F04_HID
 70
    64
 62
     3
  6
DASHED
  0
LAYER
  2
F07_COO
 70
    64
 62
     3
  6
PHANTOM
  0
LAYER
  2
F08_IMG
 70
    64
 62
     2
  6
PHANTOM
  0
LAYER
  2
F09_IMG2
 70
    64
 62
     2
  6
PHANTOM
  0
LAYER
  2
F10_IMG3
 70
    64
 62
     2
  6
PHANTOM
  0
ENDTAB
  0
TABLE
  2
STYLE
 70
     4
  0
STYLE
  2
MX_NOTE_STANDARD
 70
     0
 40
0.0
 41
1.0
 50
0.0
 71
     0
 42
4.0
  3
txt.shx
  4
extfont.shx
  0
STYLE
  2
STANDARD
 70
     0
 40
0.0
 41
1.0
 50
0.0
 71
     0
 42
0.2
  3

  4

  0
STYLE
  2
FSTD1
 70
    64
 40
0.0
 41
1.0
 50
0.0
 71
     0
 42
5.0
  3
txt.shx
  4
bigfont.shx
  0
STYLE
  2
FSTD2
 70
    64
 40
0.0
 41
0.7
 50
0.0
 71
     0
 42
1.8
  3
txt.shx
  4
bigfont.shx
  0
ENDTAB
  0
TABLE
  2
VIEW
 70
     0
  0
ENDTAB
  0
TABLE
  2
UCS
 70
     0
  0
ENDTAB
  0
TABLE
  2
APPID
 70
     3
  0
APPID
  2
ACAD
 70
    64
  0
ENDTAB
  0
TABLE
  2
DIMSTYLE
 70
     5
  0
DIMSTYLE
  2
MXDIMSTYLE
 70
     0
  3

  4

  5

  6
OPEN30
  7
OPEN30
 40
2.0
 41
2.5
 42
0.5
 43
3.75
 44
1.0
 45
0.0
 46
0.0
 47
0.0
 48
0.0
140
4.1656
141
2.5
142
0.0
143
0.03937
144
1.0
145
0.0
146
1.0
147
1.0
 71
     0
 72
     0
 73
     0
 74
     0
 75
     0
 76
     0
 77
     1
 78
     8
170
     0
171
     4
172
     1
173
     1
174
     0
175
     0
176
     0
177
     0
178
     0
  0
DIMSTYLE
  2
FSTD1
 70
    64
  3

  4

  5

  6
_OPEN30
  7
_OPEN30
 40
0.0
 41
3.0
 42
1.0
 43
0.38
 44
1.0
 45
0.0
 46
0.0
 47
0.2
 48
0.0
140
4.0
141
0.09
142
0.0
143
0.0394
144
1.0
145
0.0
146
0.7
147
1.0
 71
     0
 72
     0
 73
     0
 74
     0
 75
     0
 76
     0
 77
     1
 78
     8
170
     0
171
     4
172
     1
173
     1
174
     0
175
     0
176
     0
177
     0
178
     0
  0
DIMSTYLE
  2
FSTD2
 70
    64
  3

  4

  5

  6
_OPEN30
  7
_OPEN30
 40
0.0
 41
3.0
 42
1.0
 43
0.38
 44
1.0
 45
0.0
 46
0.0
 47
0.2
 48
0.0
140
4.0
141
0.09
142
0.0
143
0.0394
144
1.0
145
0.0
146
0.7
147
1.0
 71
     0
 72
     0
 73
     0
 74
     0
 75
     0
 76
     0
 77
     1
 78
     8
170
     0
171
     4
172
     1
173
     1
174
     0
175
     0
176
     0
177
     0
178
     0
  0
DIMSTYLE
  2
FSTD3
 70
     0
  3

  4

  5

  6
_DOT
  7
_NONE
 40
0.0
 41
1.0
 42
1.0
 43
0.38
 44
1.0
 45
0.0
 46
0.0
 47
0.2
 48
0.0
140
4.0
141
0.09
142
0.0
143
0.0394
144
1.0
145
0.0
146
0.7
147
1.0
 71
     0
 72
     0
 73
     0
 74
     0
 75
     0
 76
     0
 77
     1
 78
     8
170
     0
171
     4
172
     1
173
     1
174
     0
175
     0
176
     0
177
     0
178
     0
  0
DIMSTYLE
  2
FSTD4
 70
    64
  3

  4

  5

  6
_OPEN30
  7
_OPEN30
 40
0.0
 41
3.0
 42
1.0
 43
0.38
 44
1.0
 45
0.0
 46
0.0
 47
0.2
 48
0.0
140
4.0
141
0.09
142
0.0
143
0.0394
144
1.0
145
0.0
146
0.7
147
-1.0
 71
     0
 72
     0
 73
     0
 74
     0
 75
     0
 76
     0
 77
     1
 78
     8
170
     0
171
     4
172
     1
173
     1
174
     0
175
     0
176
     0
177
     0
178
     0
  0
ENDTAB
  0
ENDSEC
  0
SECTION
  2
BLOCKS
  0
BLOCK
  8
0
  5
12E
  2
_OPEN30
 70
    66
 10
0.0
 20
0.0
 30
0.0
  3
_OPEN30
1001
ACAD
1000
RTLwPs
1070
   158
1000
RTMaterial
1005
0
  0
LINE
  8
0
  6
BYBLOCK
 62
     0
  5
12F
 10
-1.0
 20
0.267949
 30
0.0
 11
0.0
 21
0.0
 31
0.0
1001
ACAD
1000
RTLwPs
1070
   158
1000
RTMaterial
1005
0
  0
LINE
  8
0
  6
BYBLOCK
 62
     0
  5
130
 10
0.0
 20
0.0
 30
0.0
 11
-1.0
 21
-0.267949
 31
0.0
1001
ACAD
1000
RTLwPs
1070
   158
1000
RTMaterial
1005
0
  0
LINE
  8
0
  6
BYBLOCK
 62
     0
  5
131
 10
0.0
 20
0.0
 30
0.0
 11
-1.0
 21
0.0
 31
0.0
1001
ACAD
1000
RTLwPs
1070
   158
1000
RTMaterial
1005
0
  0
ENDBLK
  8
0
  5
132
1001
ACAD
1000
RTLwPs
1070
   158
1000
RTMaterial
1005
0
  0
BLOCK
  8
0
  5
F51
  2
_DOTSMALL
 70
    66
 10
0.0
 20
0.0
 30
0.0
  3
_DOTSMALL
1001
ACAD
1000
RTLwPs
1070
   158
1000
RTMaterial
1005
0
  0
POLYLINE
  8
0
  6
BYBLOCK
 62
     0
  5
F50
 66
     1
 10
0.0
 20
0.0
 30
0.0
 70
     1
1001
ACAD
1000
RTLwPs
1070
   158
1000
RTMaterial
1005
780DBB0300000000
  0
VERTEX
  8
0
  6
BYBLOCK
 62
     0
  5
1926
 10
-0.0625
 20
0.0
 30
0.0
 40
0.5
 41
0.5
 42
1.0
  0
VERTEX
  8
0
  6
BYBLOCK
 62
     0
  5
1927
 10
0.0625
 20
0.0
 30
0.0
 40
0.5
 41
0.5
 42
1.0
  0
SEQEND
  8
0
  6
BYBLOCK
 62
     0
  5
1928
  0
ENDBLK
  8
0
  5
F52
1001
ACAD
1000
RTLwPs
1070
   158
1000
RTMaterial
1005
0
  0
BLOCK
  8
0
  5
15DF
  2
*D2
 70
    65
 10
0.0
 20
0.0
 30
0.0
  3
*D2
  0
LINE
  8
0
  6
BYBLOCK
 62
     0
  5
15E0
 10
-113.550088
 20
209.210308
 30
0.0
 11
-113.550088
 21
217.311492
 31
0.0
  0
LINE
  8
0
  6
BYBLOCK
 62
     0
  5
15E1
 10
-107.550088
 20
208.710308
 30
0.0
 11
-107.550088
 21
217.311492
 31
0.0
  0
LINE
  8
0
  6
BYBLOCK
 62
     0
  5
15E2
 10
-116.550088
 20
216.311492
 30
0.0
 11
-119.550088
 21
216.311492
 31
0.0
  0
LINE
  8
0
  6
BYBLOCK
 62
     0
  5
15E3
 10
-104.550088
 20
216.311492
 30
0.0
 11
-101.550088
 21
216.311492
 31
0.0
  0
LINE
  8
0
  6
BYBLOCK
 62
     0
  5
15E4
 10
-113.550088
 20
216.311492
 30
0.0
 11
-107.550088
 21
216.311492
 31
0.0
  0
INSERT
  8
0
  6
BYBLOCK
 62
     0
  5
15E5
  2
_OPEN30
 10
-113.550088
 20
216.311492
 30
0.0
 41
3.0
 42
3.0
 43
3.0
  0
INSERT
  8
0
  6
BYBLOCK
 62
     0
  5
15E6
  2
_OPEN30
 10
-107.550088
 20
216.311492
 30
0.0
 41
3.0
 42
3.0
 50
180.0
 43
3.0
  0
TEXT
  8
0
  6
BYBLOCK
 62
     0
  5
15E7
 10
-111.883421
 20
217.311492
 30
0.0
 40
4.0
  1
6
  7
FSTD1
  0
POINT
  8
DEFPOINTS
  6
BYBLOCK
 62
     0
  5
15E8
 10
-113.550088
 20
208.210308
 30
0.0
  0
POINT
  8
DEFPOINTS
  6
BYBLOCK
 62
     0
  5
15E9
 10
-107.550088
 20
207.710308
 30
0.0
  0
POINT
  8
DEFPOINTS
  6
BYBLOCK
 62
     0
  5
15EA
 10
-107.550088
 20
216.311492
 30
0.0
  0
ENDBLK
  8
0
  5
15EB
  0
BLOCK
  8
0
  5
15EE
  2
*D3
 70
    65
 10
0.0
 20
0.0
 30
0.0
  3
*D3
  0
LINE
  8
0
  6
BYBLOCK
 62
     0
  5
15EF
 10
-113.550088
 20
209.210308
 30
0.0
 11
-113.550088
 21
226.616077
 31
0.0
  0
LINE
  8
0
  6
BYBLOCK
 62
     0
  5
15F0
 10
-77.550088
 20
205.710308
 30
0.0
 11
-77.550088
 21
226.616077
 31
0.0
  0
LINE
  8
0
  6
BYBLOCK
 62
     0
  5
15F1
 10
-110.550088
 20
225.616077
 30
0.0
 11
-80.550088
 21
225.616077
 31
0.0
  0
INSERT
  8
0
  6
BYBLOCK
 62
     0
  5
15F2
  2
_OPEN30
 10
-113.550088
 20
225.616077
 30
0.0
 41
3.0
 42
3.0
 50
180.0
 43
3.0
  0
INSERT
  8
0
  6
BYBLOCK
 62
     0
  5
15F3
  2
_OPEN30
 10
-77.550088
 20
225.616077
 30
0.0
 41
3.0
 42
3.0
 43
3.0
  0
TEXT
  8
0
  6
BYBLOCK
 62
     0
  5
15F4
 10
-98.883421
 20
226.616077
 30
0.0
 40
4.0
  1
36
  7
FSTD1
  0
POINT
  8
DEFPOINTS
  6
BYBLOCK
 62
     0
  5
15F5
 10
-113.550088
 20
208.210308
 30
0.0
  0
POINT
  8
DEFPOINTS
  6
BYBLOCK
 62
     0
  5
15F6
 10
-77.550088
 20
204.710308
 30
0.0
  0
POINT
  8
DEFPOINTS
  6
BYBLOCK
 62
     0
  5
15F7
 10
-77.550088
 20
225.616077
 30
0.0
  0
ENDBLK
  8
0
  5
15F8
  0
BLOCK
  8
0
  5
15FB
  2
*D4
 70
    65
 10
0.0
 20
0.0
 30
0.0
  3
*D4
  0
LINE
  8
0
  6
BYBLOCK
 62
     0
  5
15FC
 10
-113.550088
 20
209.210308
 30
0.0
 11
-113.550088
 21
236.348866
 31
0.0
  0
LINE
  8
0
  6
BYBLOCK
 62
     0
  5
15FD
 10
-64.550088
 20
196.710308
 30
0.0
 11
-64.550088
 21
236.348866
 31
0.0
  0
LINE
  8
0
  6
BYBLOCK
 62
     0
  5
15FE
 10
-110.550088
 20
235.348866
 30
0.0
 11
-67.550088
 21
235.348866
 31
0.0
  0
INSERT
  8
0
  6
BYBLOCK
 62
     0
  5
15FF
  2
_OPEN30
 10
-113.550088
 20
235.348866
 30
0.0
 41
3.0
 42
3.0
 50
180.0
 43
3.0
  0
INSERT
  8
0
  6
BYBLOCK
 62
     0
  5
1600
  2
_OPEN30
 10
-64.550088
 20
235.348866
 30
0.0
 41
3.0
 42
3.0
 43
3.0
  0
TEXT
  8
0
  6
BYBLOCK
 62
     0
  5
1601
 10
-92.383421
 20
236.348866
 30
0.0
 40
4.0
  1
49
  7
FSTD1
  0
POINT
  8
DEFPOINTS
  6
BYBLOCK
 62
     0
  5
1602
 10
-113.550088
 20
208.210308
 30
0.0
  0
POINT
  8
DEFPOINTS
  6
BYBLOCK
 62
     0
  5
1603
 10
-64.550088
 20
195.710308
 30
0.0
  0
POINT
  8
DEFPOINTS
  6
BYBLOCK
 62
     0
  5
1604
 10
-64.550088
 20
235.348866
 30
0.0
  0
ENDBLK
  8
0
  5
1605
  0
BLOCK
  8
0
  5
184F
  2
*D5
 70
    65
 10
0.0
 20
0.0
 30
0.0
  3
*D5
  0
LINE
  8
0
  6
BYBLOCK
 62
     0
  5
1850
 10
-125.550088
 20
198.335308
 30
0.0
 11
-125.550088
 21
246.67471
 31
0.0
  0
LINE
  8
0
  6
BYBLOCK
 62
     0
  5
1851
 10
-64.550088
 20
196.710308
 30
0.0
 11
-64.550088
 21
246.67471
 31
0.0
  0
LINE
  8
0
  6
BYBLOCK
 62
     0
  5
1852
 10
-122.550088
 20
245.67471
 30
0.0
 11
-67.550088
 21
245.67471
 31
0.0
  0
INSERT
  8
0
  6
BYBLOCK
 62
     0
  5
1853
  2
_OPEN30
 10
-125.550088
 20
245.67471
 30
0.0
 41
3.0
 42
3.0
 50
180.0
 43
3.0
  0
INSERT
  8
0
  6
BYBLOCK
 62
     0
  5
1854
  2
_OPEN30
 10
-64.550088
 20
245.67471
 30
0.0
 41
3.0
 42
3.0
 43
3.0
  0
TEXT
  8
0
  6
BYBLOCK
 62
     0
  5
1855
 10
-110.202914
 20
246.67471
 30
0.0
 40
4.0
  1
61
  7
FSTD1
  0
POINT
  8
DEFPOINTS
  6
BYBLOCK
 62
     0
  5
1856
 10
-125.550088
 20
197.335308
 30
0.0
  0
POINT
  8
DEFPOINTS
  6
BYBLOCK
 62
     0
  5
1857
 10
-64.550088
 20
195.710308
 30
0.0
  0
POINT
  8
DEFPOINTS
  6
BYBLOCK
 62
     0
  5
1858
 10
-64.550088
 20
245.67471
 30
0.0
  0
ENDBLK
  8
0
  5
1859
  0
BLOCK
  8
0
  5
162E
  2
*D6
 70
    65
 10
0.0
 20
0.0
 30
0.0
  3
*D6
  0
LINE
  8
0
  6
BYBLOCK
 62
     0
  5
162F
 10
-64.550088
 20
196.710308
 30
0.0
 11
-64.550088
 21
236.348866
 31
0.0
  0
LINE
  8
0
  6
BYBLOCK
 62
     0
  5
1630
 10
-47.550088
 20
195.935308
 30
0.0
 11
-47.550088
 21
236.348866
 31
0.0
  0
LINE
  8
0
  6
BYBLOCK
 62
     0
  5
1631
 10
-61.550088
 20
235.348866
 30
0.0
 11
-50.550088
 21
235.348866
 31
0.0
  0
INSERT
  8
0
  6
BYBLOCK
 62
     0
  5
1632
  2
_OPEN30
 10
-64.550088
 20
235.348866
 30
0.0
 41
3.0
 42
3.0
 50
180.0
 43
3.0
  0
INSERT
  8
0
  6
BYBLOCK
 62
     0
  5
1633
  2
_OPEN30
 10
-47.550088
 20
235.348866
 30
0.0
 41
3.0
 42
3.0
 43
3.0
  0
TEXT
  8
0
  6
BYBLOCK
 62
     0
  5
1634
 10
-61.383421
 20
236.348866
 30
0.0
 40
4.0
  1
(17)
  7
FSTD1
  0
POINT
  8
DEFPOINTS
  6
BYBLOCK
 62
     0
  5
1635
 10
-64.550088
 20
195.710308
 30
0.0
  0
POINT
  8
DEFPOINTS
  6
BYBLOCK
 62
     0
  5
1636
 10
-47.550088
 20
194.935308
 30
0.0
  0
POINT
  8
DEFPOINTS
  6
BYBLOCK
 62
     0
  5
1637
 10
-47.550088
 20
235.348866
 30
0.0
  0
ENDBLK
  8
0
  5
1638
  0
BLOCK
  8
0
  5
1639
  2
*D7
 70
    65
 10
0.0
 20
0.0
 30
0.0
  3
*D7
  0
LINE
  8
0
  6
BYBLOCK
 62
     0
  5
163A
 10
-64.550088
 20
196.710308
 30
0.0
 11
-64.550088
 21
246.713655
 31
0.0
  0
LINE
  8
0
  6
BYBLOCK
 62
     0
  5
163B
 10
-30.550088
 20
185.635308
 30
0.0
 11
-30.550088
 21
246.713655
 31
0.0
  0
LINE
  8
0
  6
BYBLOCK
 62
     0
  5
163C
 10
-61.550088
 20
245.713655
 30
0.0
 11
-33.550088
 21
245.713655
 31
0.0
  0
INSERT
  8
0
  6
BYBLOCK
 62
     0
  5
163D
  2
_OPEN30
 10
-64.550088
 20
245.713655
 30
0.0
 41
3.0
 42
3.0
 50
180.0
 43
3.0
  0
INSERT
  8
0
  6
BYBLOCK
 62
     0
  5
163E
  2
_OPEN30
 10
-30.550088
 20
245.713655
 30
0.0
 41
3.0
 42
3.0
 43
3.0
  0
TEXT
  8
0
  6
BYBLOCK
 62
     0
  5
163F
 10
-53.550088
 20
246.713655
 30
0.0
 40
4.0
  1
(34)
  7
FSTD1
  0
POINT
  8
DEFPOINTS
  6
BYBLOCK
 62
     0
  5
1640
 10
-64.550088
 20
195.710308
 30
0.0
  0
POINT
  8
DEFPOINTS
  6
BYBLOCK
 62
     0
  5
1641
 10
-30.550088
 20
184.635308
 30
0.0
  0
POINT
  8
DEFPOINTS
  6
BYBLOCK
 62
     0
  5
1642
 10
-30.550088
 20
245.713655
 30
0.0
  0
ENDBLK
  8
0
  5
1643
  0
BLOCK
  8
0
  5
1651
  2
*D8
 70
    65
 10
0.0
 20
0.0
 30
0.0
  3
*D8
  0
LINE
  8
0
  6
BYBLOCK
 62
     0
  5
1652
 10
-113.550088
 20
159.210308
 30
0.0
 11
-113.550088
 21
97.225411
 31
0.0
  0
LINE
  8
0
  6
BYBLOCK
 62
     0
  5
1653
 10
-76.250088
 20
114.710308
 30
0.0
 11
-76.250088
 21
97.225411
 31
0.0
  0
LINE
  8
0
  6
BYBLOCK
 62
     0
  5
1654
 10
-110.550088
 20
98.225411
 30
0.0
 11
-79.250088
 21
98.225411
 31
0.0
  0
INSERT
  8
0
  6
BYBLOCK
 62
     0
  5
1655
  2
_OPEN30
 10
-113.550088
 20
98.225411
 30
0.0
 41
3.0
 42
3.0
 50
180.0
 43
3.0
  0
INSERT
  8
0
  6
BYBLOCK
 62
     0
  5
1656
  2
_OPEN30
 10
-76.250088
 20
98.225411
 30
0.0
 41
3.0
 42
3.0
 43
3.0
  0
TEXT
  8
0
  6
BYBLOCK
 62
     0
  5
1657
 10
-98.233421
 20
99.225411
 30
0.0
 40
4.0
  1
37
  7
FSTD1
  0
POINT
  8
DEFPOINTS
  6
BYBLOCK
 62
     0
  5
1658
 10
-113.550088
 20
160.210308
 30
0.0
  0
POINT
  8
DEFPOINTS
  6
BYBLOCK
 62
     0
  5
1659
 10
-76.250088
 20
115.710308
 30
0.0
  0
POINT
  8
DEFPOINTS
  6
BYBLOCK
 62
     0
  5
165A
 10
-76.250088
 20
98.225411
 30
0.0
  0
ENDBLK
  8
0
  5
165B
  0
BLOCK
  8
0
  5
1669
  2
*D9
 70
    65
 10
0.0
 20
0.0
 30
0.0
  3
*D9
  0
LINE
  8
0
  6
BYBLOCK
 62
     0
  5
166A
 10
-113.550088
 20
159.210308
 30
0.0
 11
-113.550088
 21
85.658395
 31
0.0
  0
LINE
  8
0
  6
BYBLOCK
 62
     0
  5
166B
 10
-63.050088
 20
119.710308
 30
0.0
 11
-63.050088
 21
85.658395
 31
0.0
  0
LINE
  8
0
  6
BYBLOCK
 62
     0
  5
166C
 10
-110.550088
 20
86.658395
 30
0.0
 11
-66.050088
 21
86.658395
 31
0.0
  0
INSERT
  8
0
  6
BYBLOCK
 62
     0
  5
166D
  2
_OPEN30
 10
-113.550088
 20
86.658395
 30
0.0
 41
3.0
 42
3.0
 50
180.0
 43
3.0
  0
INSERT
  8
0
  6
BYBLOCK
 62
     0
  5
166E
  2
_OPEN30
 10
-63.050088
 20
86.658395
 30
0.0
 41
3.0
 42
3.0
 43
3.0
  0
TEXT
  8
0
  6
BYBLOCK
 62
     0
  5
166F
 10
-91.300088
 20
87.658395
 30
0.0
 40
4.0
  1
50
  7
FSTD1
  0
POINT
  8
DEFPOINTS
  6
BYBLOCK
 62
     0
  5
1670
 10
-113.550088
 20
160.210308
 30
0.0
  0
POINT
  8
DEFPOINTS
  6
BYBLOCK
 62
     0
  5
1671
 10
-63.050088
 20
120.710308
 30
0.0
  0
POINT
  8
DEFPOINTS
  6
BYBLOCK
 62
     0
  5
1672
 10
-63.050088
 20
86.658395
 30
0.0
  0
ENDBLK
  8
0
  5
1673
  0
BLOCK
  8
0
  5
1683
  2
*D10
 70
    65
 10
0.0
 20
0.0
 30
0.0
  3
*D10
  0
LINE
  8
0
  6
BYBLOCK
 62
     0
  5
1684
 10
-63.050088
 20
118.710308
 30
0.0
 11
-63.050088
 21
85.658395
 31
0.0
  0
LINE
  8
0
  6
BYBLOCK
 62
     0
  5
1685
 10
-58.650088
 20
140.860818
 30
0.0
 11
-58.650088
 21
85.658395
 31
0.0
  0
LINE
  8
0
  6
BYBLOCK
 62
     0
  5
1686
 10
-66.050088
 20
86.658395
 30
0.0
 11
-69.050088
 21
86.658395
 31
0.0
  0
LINE
  8
0
  6
BYBLOCK
 62
     0
  5
1687
 10
-55.650088
 20
86.658395
 30
0.0
 11
-47.983421
 21
86.658395
 31
0.0
  0
LINE
  8
0
  6
BYBLOCK
 62
     0
  5
1688
 10
-63.050088
 20
86.658395
 30
0.0
 11
-58.650088
 21
86.658395
 31
0.0
  0
INSERT
  8
0
  6
BYBLOCK
 62
     0
  5
1689
  2
_OPEN30
 10
-63.050088
 20
86.658395
 30
0.0
 41
3.0
 42
3.0
 43
3.0
  0
INSERT
  8
0
  6
BYBLOCK
 62
     0
  5
168A
  2
_OPEN30
 10
-58.650088
 20
86.658395
 30
0.0
 41
3.0
 42
3.0
 50
180.0
 43
3.0
  0
TEXT
  8
0
  6
BYBLOCK
 62
     0
  5
168B
 10
-51.650088
 20
87.658395
 30
0.0
 40
4.0
  1
A
  7
FSTD1
  0
POINT
  8
DEFPOINTS
  6
BYBLOCK
 62
     0
  5
168C
 10
-63.050088
 20
119.710308
 30
0.0
  0
POINT
  8
DEFPOINTS
  6
BYBLOCK
 62
     0
  5
168D
 10
-58.650088
 20
141.860818
 30
0.0
  0
POINT
  8
DEFPOINTS
  6
BYBLOCK
 62
     0
  5
168E
 10
-58.650088
 20
86.658395
 30
0.0
  0
ENDBLK
  8
0
  5
168F
  0
BLOCK
  8
0
  5
18A1
  2
*D11
 70
    65
 10
0.0
 20
0.0
 30
0.0
  3
*D11
  0
LINE
  8
0
  6
BYBLOCK
 62
     0
  5
18A2
 10
33.297521
 20
110.137044
 30
0.0
 11
33.297521
 21
102.817282
 31
0.0
  0
LINE
  8
0
  6
BYBLOCK
 62
     0
  5
18A3
 10
42.097521
 20
110.260311
 30
0.0
 11
42.097521
 21
102.817282
 31
0.0
  0
LINE
  8
0
  6
BYBLOCK
 62
     0
  5
18A4
 10
36.297521
 20
103.817282
 30
0.0
 11
39.097521
 21
103.817282
 31
0.0
  0
INSERT
  8
0
  6
BYBLOCK
 62
     0
  5
18A5
  2
_OPEN30
 10
33.297521
 20
103.817282
 30
0.0
 41
3.0
 42
3.0
 50
180.0
 43
3.0
  0
INSERT
  8
0
  6
BYBLOCK
 62
     0
  5
18A6
  2
_OPEN30
 10
42.097521
 20
103.817282
 30
0.0
 41
3.0
 42
3.0
 43
3.0
  0
TEXT
  8
0
  6
BYBLOCK
 62
     0
  5
18A7
 10
35.04029
 20
104.817282
 30
0.0
 40
4.0
  1
8.7
 41
0.7
  7
FSTD2
  0
POINT
  8
DEFPOINTS
  6
BYBLOCK
 62
     0
  5
18A8
 10
33.297521
 20
111.137044
 30
0.0
  0
POINT
  8
DEFPOINTS
  6
BYBLOCK
 62
     0
  5
18A9
 10
42.097521
 20
111.260311
 30
0.0
  0
POINT
  8
DEFPOINTS
  6
BYBLOCK
 62
     0
  5
18AA
 10
42.097521
 20
103.817282
 30
0.0
  0
ENDBLK
  8
0
  5
18AB
  0
BLOCK
  8
0
  5
17F9
  2
*D12
 70
    65
 10
0.0
 20
0.0
 30
0.0
  3
*D12
  0
LINE
  8
0
  6
BYBLOCK
 62
     0
  5
17FA
 10
85.349913
 20
110.210308
 30
0.0
 11
85.349913
 21
94.107113
 31
0.0
  0
LINE
  8
0
  6
BYBLOCK
 62
     0
  5
17FB
 10
77.549913
 20
110.210308
 30
0.0
 11
77.549913
 21
94.107113
 31
0.0
  0
LINE
  8
0
  6
BYBLOCK
 62
     0
  5
17FC
 10
88.349913
 20
95.107113
 30
0.0
 11
91.349913
 21
95.107113
 31
0.0
  0
LINE
  8
0
  6
BYBLOCK
 62
     0
  5
17FD
 10
74.549913
 20
95.107113
 30
0.0
 11
63.149913
 21
95.107113
 31
0.0
  0
LINE
  8
0
  6
BYBLOCK
 62
     0
  5
17FE
 10
85.349913
 20
95.107113
 30
0.0
 11
77.549913
 21
95.107113
 31
0.0
  0
INSERT
  8
0
  6
BYBLOCK
 62
     0
  5
17FF
  2
_OPEN30
 10
85.349913
 20
95.107113
 30
0.0
 41
3.0
 42
3.0
 50
180.0
 43
3.0
  0
INSERT
  8
0
  6
BYBLOCK
 62
     0
  5
1800
  2
_OPEN30
 10
77.549913
 20
95.107113
 30
0.0
 41
3.0
 42
3.0
 43
3.0
  0
TEXT
  8
0
  6
BYBLOCK
 62
     0
  5
1801
 10
64.549913
 20
96.107113
 30
0.0
 40
4.0
  1
7.7
 41
0.7
  7
FSTD2
  0
POINT
  8
DEFPOINTS
  6
BYBLOCK
 62
     0
  5
1802
 10
85.349913
 20
111.210308
 30
0.0
  0
POINT
  8
DEFPOINTS
  6
BYBLOCK
 62
     0
  5
1803
 10
77.549913
 20
111.210308
 30
0.0
  0
POINT
  8
DEFPOINTS
  6
BYBLOCK
 62
     0
  5
1804
 10
77.549913
 20
95.107113
 30
0.0
  0
ENDBLK
  8
0
  5
1805
  0
BLOCK
  8
0
  5
1712
  2
*D13
 70
    65
 10
0.0
 20
0.0
 30
0.0
  3
*D13
  0
LINE
  8
0
  6
BYBLOCK
 62
     0
  5
1713
 10
46.449913
 20
205.09922
 30
0.0
 11
46.449913
 21
227.82492
 31
0.0
  0
LINE
  8
0
  6
BYBLOCK
 62
     0
  5
1714
 10
55.149913
 20
205.09922
 30
0.0
 11
55.149913
 21
227.82492
 31
0.0
  0
LINE
  8
0
  6
BYBLOCK
 62
     0
  5
1715
 10
49.449913
 20
226.82492
 30
0.0
 11
52.149913
 21
226.82492
 31
0.0
  0
INSERT
  8
0
  6
BYBLOCK
 62
     0
  5
1716
  2
_OPEN30
 10
46.449913
 20
226.82492
 30
0.0
 41
3.0
 42
3.0
 50
180.0
 43
3.0
  0
INSERT
  8
0
  6
BYBLOCK
 62
     0
  5
1717
  2
_OPEN30
 10
55.149913
 20
226.82492
 30
0.0
 41
3.0
 42
3.0
 43
3.0
  0
TEXT
  8
0
  6
BYBLOCK
 62
     0
  5
1718
 10
47.999913
 20
227.82492
 30
0.0
 40
4.0
  1
8.7
 41
0.7
  7
FSTD2
  0
POINT
  8
DEFPOINTS
  6
BYBLOCK
 62
     0
  5
1719
 10
46.449913
 20
204.09922
 30
0.0
  0
POINT
  8
DEFPOINTS
  6
BYBLOCK
 62
     0
  5
171A
 10
55.149913
 20
204.09922
 30
0.0
  0
POINT
  8
DEFPOINTS
  6
BYBLOCK
 62
     0
  5
171B
 10
55.149913
 20
226.82492
 30
0.0
  0
ENDBLK
  8
0
  5
171C
  0
BLOCK
  8
0
  5
173A
  2
*D14
 70
    65
 10
0.0
 20
0.0
 30
0.0
  3
*D14
  0
LINE
  8
0
  6
BYBLOCK
 62
     0
  5
173B
 10
59.974913
 20
208.910308
 30
0.0
 11
59.974913
 21
219.895573
 31
0.0
  0
LINE
  8
0
  6
BYBLOCK
 62
     0
  5
173C
 10
67.724913
 20
208.910308
 30
0.0
 11
67.724913
 21
219.895573
 31
0.0
  0
LINE
  8
0
  6
BYBLOCK
 62
     0
  5
173D
 10
56.974913
 20
218.895573
 30
0.0
 11
53.974913
 21
218.895573
 31
0.0
  0
LINE
  8
0
  6
BYBLOCK
 62
     0
  5
173E
 10
70.724913
 20
218.895573
 30
0.0
 11
73.724913
 21
218.895573
 31
0.0
  0
LINE
  8
0
  6
BYBLOCK
 62
     0
  5
173F
 10
59.974913
 20
218.895573
 30
0.0
 11
67.724913
 21
218.895573
 31
0.0
  0
INSERT
  8
0
  6
BYBLOCK
 62
     0
  5
1740
  2
_OPEN30
 10
59.974913
 20
218.895573
 30
0.0
 41
3.0
 42
3.0
 43
3.0
  0
INSERT
  8
0
  6
BYBLOCK
 62
     0
  5
1741
  2
_OPEN30
 10
67.724913
 20
218.895573
 30
0.0
 41
3.0
 42
3.0
 50
180.0
 43
3.0
  0
TEXT
  8
0
  6
BYBLOCK
 62
     0
  5
1742
 10
61.049913
 20
219.895573
 30
0.0
 40
4.0
  1
7.7
 41
0.7
  7
FSTD2
  0
POINT
  8
DEFPOINTS
  6
BYBLOCK
 62
     0
  5
1743
 10
59.974913
 20
207.910308
 30
0.0
  0
POINT
  8
DEFPOINTS
  6
BYBLOCK
 62
     0
  5
1744
 10
67.724913
 20
207.910308
 30
0.0
  0
POINT
  8
DEFPOINTS
  6
BYBLOCK
 62
     0
  5
1745
 10
67.724913
 20
218.895573
 30
0.0
  0
ENDBLK
  8
0
  5
1746
  0
BLOCK
  8
0
  5
1748
  2
*D15
 70
    65
 10
0.0
 20
0.0
 30
0.0
  3
*D15
  0
LINE
  8
0
  6
BYBLOCK
 62
     0
  5
1749
 10
41.349913
 20
208.910308
 30
0.0
 11
41.349913
 21
236.348866
 31
0.0
  0
LINE
  8
0
  6
BYBLOCK
 62
     0
  5
174A
 10
86.349913
 20
208.910308
 30
0.0
 11
86.349913
 21
236.348866
 31
0.0
  0
LINE
  8
0
  6
BYBLOCK
 62
     0
  5
174B
 10
44.349913
 20
235.348866
 30
0.0
 11
83.349913
 21
235.348866
 31
0.0
  0
INSERT
  8
0
  6
BYBLOCK
 62
     0
  5
174C
  2
_OPEN30
 10
41.349913
 20
235.348866
 30
0.0
 41
3.0
 42
3.0
 50
180.0
 43
3.0
  0
INSERT
  8
0
  6
BYBLOCK
 62
     0
  5
174D
  2
_OPEN30
 10
86.349913
 20
235.348866
 30
0.0
 41
3.0
 42
3.0
 43
3.0
  0
TEXT
  8
0
  6
BYBLOCK
 62
     0
  5
174E
 10
60.51658
 20
236.348866
 30
0.0
 40
4.0
  1
45
  7
FSTD1
  0
POINT
  8
DEFPOINTS
  6
BYBLOCK
 62
     0
  5
174F
 10
41.349913
 20
207.910308
 30
0.0
  0
POINT
  8
DEFPOINTS
  6
BYBLOCK
 62
     0
  5
1750
 10
86.349913
 20
207.910308
 30
0.0
  0
POINT
  8
DEFPOINTS
  6
BYBLOCK
 62
     0
  5
1751
 10
86.349913
 20
235.348866
 30
0.0
  0
ENDBLK
  8
0
  5
1752
  0
BLOCK
  8
0
  5
1843
  2
*D16
 70
    65
 10
0.0
 20
0.0
 30
0.0
  3
*D16
  0
LINE
  8
0
  6
BYBLOCK
 62
     0
  5
1844
 10
19.597521
 20
111.310308
 30
0.0
 11
19.597521
 21
85.658395
 31
0.0
  0
LINE
  8
0
  6
BYBLOCK
 62
     0
  5
1845
 10
59.897521
 20
139.711271
 30
0.0
 11
59.897521
 21
85.658395
 31
0.0
  0
LINE
  8
0
  6
BYBLOCK
 62
     0
  5
1846
 10
22.597521
 20
86.658395
 30
0.0
 11
56.897521
 21
86.658395
 31
0.0
  0
INSERT
  8
0
  6
BYBLOCK
 62
     0
  5
1847
  2
_OPEN30
 10
19.597521
 20
86.658395
 30
0.0
 41
3.0
 42
3.0
 50
180.0
 43
3.0
  0
INSERT
  8
0
  6
BYBLOCK
 62
     0
  5
1848
  2
_OPEN30
 10
59.897521
 20
86.658395
 30
0.0
 41
3.0
 42
3.0
 43
3.0
  0
TEXT
  8
0
  6
BYBLOCK
 62
     0
  5
1849
 10
34.080854
 20
87.658395
 30
0.0
 40
4.0
  1
40.5
  7
FSTD1
  0
POINT
  8
DEFPOINTS
  6
BYBLOCK
 62
     0
  5
184A
 10
19.597521
 20
112.310308
 30
0.0
  0
POINT
  8
DEFPOINTS
  6
BYBLOCK
 62
     0
  5
184B
 10
59.897521
 20
140.711271
 30
0.0
  0
POINT
  8
DEFPOINTS
  6
BYBLOCK
 62
     0
  5
184C
 10
59.897521
 20
86.658395
 30
0.0
  0
ENDBLK
  8
0
  5
184D
  0
BLOCK
  8
0
  5
177A
  2
*D17
 70
    65
 10
0.0
 20
0.0
 30
0.0
  3
*D17
  0
LINE
  8
0
  6
BYBLOCK
 62
     0
  5
177B
 10
39.5379
 20
199.710308
 30
0.0
 11
32.224892
 21
199.710308
 31
0.0
  0
LINE
  8
0
  6
BYBLOCK
 62
     0
  5
177C
 10
40.777481
 20
120.710308
 30
0.0
 11
32.224892
 21
120.710308
 31
0.0
  0
LINE
  8
0
  6
BYBLOCK
 62
     0
  5
177D
 10
33.224892
 20
196.710308
 30
0.0
 11
33.224892
 21
123.710308
 31
0.0
  0
INSERT
  8
0
  6
BYBLOCK
 62
     0
  5
177E
  2
_OPEN30
 10
33.224892
 20
199.710308
 30
0.0
 41
3.0
 42
3.0
 50
90.0
 43
3.0
  0
INSERT
  8
0
  6
BYBLOCK
 62
     0
  5
177F
  2
_OPEN30
 10
33.224892
 20
120.710308
 30
0.0
 41
3.0
 42
3.0
 50
270.0
 43
3.0
  0
TEXT
  8
0
  6
BYBLOCK
 62
     0
  5
1780
 10
32.224892
 20
156.876975
 30
0.0
 40
4.0
  1
79
 50
90.0
  7
FSTD1
  0
POINT
  8
DEFPOINTS
  6
BYBLOCK
 62
     0
  5
1781
 10
40.5379
 20
199.710308
 30
0.0
  0
POINT
  8
DEFPOINTS
  6
BYBLOCK
 62
     0
  5
1782
 10
41.777481
 20
120.710308
 30
0.0
  0
POINT
  8
DEFPOINTS
  6
BYBLOCK
 62
     0
  5
1783
 10
33.224892
 20
120.710308
 30
0.0
  0
ENDBLK
  8
0
  5
1784
  0
BLOCK
  8
0
  5
18DC
  2
*D18
 70
    65
 10
0.0
 20
0.0
 30
0.0
  3
*D18
  0
LINE
  8
0
  6
BYBLOCK
 62
     0
  5
18DD
 10
65.297521
 20
208.210308
 30
0.0
 11
83.159339
 21
208.210308
 31
0.0
  0
LINE
  8
0
  6
BYBLOCK
 62
     0
  5
18DE
 10
66.800017
 20
199.710308
 30
0.0
 11
83.159339
 21
199.710308
 31
0.0
  0
LINE
  8
0
  6
BYBLOCK
 62
     0
  5
18DF
 10
82.159339
 20
205.210308
 30
0.0
 11
82.159339
 21
202.710308
 31
0.0
  0
INSERT
  8
0
  6
BYBLOCK
 62
     0
  5
18E0
  2
_OPEN30
 10
82.159339
 20
208.210308
 30
0.0
 41
3.0
 42
3.0
 50
90.0
 43
3.0
  0
INSERT
  8
0
  6
BYBLOCK
 62
     0
  5
18E1
  2
_OPEN30
 10
82.159339
 20
199.710308
 30
0.0
 41
3.0
 42
3.0
 50
270.0
 43
3.0
  0
TEXT
  8
0
  6
BYBLOCK
 62
     0
  5
18E2
 10
81.159339
 20
201.160308
 30
0.0
 40
4.0
  1
8.5
 50
90.0
 41
0.7
  7
FSTD2
  0
POINT
  8
DEFPOINTS
  6
BYBLOCK
 62
     0
  5
18E3
 10
64.297521
 20
208.210308
 30
0.0
  0
POINT
  8
DEFPOINTS
  6
BYBLOCK
 62
     0
  5
18E4
 10
65.800017
 20
199.710308
 30
0.0
  0
POINT
  8
DEFPOINTS
  6
BYBLOCK
 62
     0
  5
18E5
 10
82.159339
 20
199.710308
 30
0.0
  0
ENDBLK
  8
0
  5
18E6
  0
BLOCK
  8
0
  5
18B0
  2
*D19
 70
    65
 10
0.0
 20
0.0
 30
0.0
  3
*D19
  0
LINE
  8
0
  6
BYBLOCK
 62
     0
  5
18B1
 10
66.800017
 20
199.710308
 30
0.0
 11
83.159339
 21
199.710308
 31
0.0
  0
LINE
  8
0
  6
BYBLOCK
 62
     0
  5
18B2
 10
66.800017
 20
168.710308
 30
0.0
 11
83.159339
 21
168.710308
 31
0.0
  0
LINE
  8
0
  6
BYBLOCK
 62
     0
  5
18B3
 10
82.159339
 20
196.710308
 30
0.0
 11
82.159339
 21
171.710308
 31
0.0
  0
INSERT
  8
0
  6
BYBLOCK
 62
     0
  5
18B4
  2
_OPEN30
 10
82.159339
 20
199.710308
 30
0.0
 41
3.0
 42
3.0
 50
90.0
 43
3.0
  0
INSERT
  8
0
  6
BYBLOCK
 62
     0
  5
18B5
  2
_OPEN30
 10
82.159339
 20
168.710308
 30
0.0
 41
3.0
 42
3.0
 50
270.0
 43
3.0
  0
TEXT
  8
0
  6
BYBLOCK
 62
     0
  5
18B6
 10
81.159339
 20
181.543641
 30
0.0
 40
4.0
  1
31
 50
90.0
  7
FSTD1
  0
POINT
  8
DEFPOINTS
  6
BYBLOCK
 62
     0
  5
18B7
 10
65.800017
 20
199.710308
 30
0.0
  0
POINT
  8
DEFPOINTS
  6
BYBLOCK
 62
     0
  5
18B8
 10
65.800017
 20
168.710308
 30
0.0
  0
POINT
  8
DEFPOINTS
  6
BYBLOCK
 62
     0
  5
18B9
 10
82.159339
 20
168.710308
 30
0.0
  0
ENDBLK
  8
0
  5
18BA
  0
BLOCK
  8
0
  5
18BB
  2
*D20
 70
    65
 10
0.0
 20
0.0
 30
0.0
  3
*D20
  0
LINE
  8
0
  6
BYBLOCK
 62
     0
  5
18BC
 10
65.297521
 20
208.210308
 30
0.0
 11
92.482909
 21
208.210308
 31
0.0
  0
LINE
  8
0
  6
BYBLOCK
 62
     0
  5
18BD
 10
65.297521
 20
160.210308
 30
0.0
 11
92.482909
 21
160.210308
 31
0.0
  0
LINE
  8
0
  6
BYBLOCK
 62
     0
  5
18BE
 10
91.482909
 20
205.210308
 30
0.0
 11
91.482909
 21
163.210308
 31
0.0
  0
INSERT
  8
0
  6
BYBLOCK
 62
     0
  5
18BF
  2
_OPEN30
 10
91.482909
 20
208.210308
 30
0.0
 41
3.0
 42
3.0
 50
90.0
 43
3.0
  0
INSERT
  8
0
  6
BYBLOCK
 62
     0
  5
18C0
  2
_OPEN30
 10
91.482909
 20
160.210308
 30
0.0
 41
3.0
 42
3.0
 50
270.0
 43
3.0
  0
TEXT
  8
0
  6
BYBLOCK
 62
     0
  5
18C1
 10
90.482909
 20
180.876975
 30
0.0
 40
4.0
  1
48
 50
90.0
  7
FSTD1
  0
POINT
  8
DEFPOINTS
  6
BYBLOCK
 62
     0
  5
18C2
 10
64.297521
 20
208.210308
 30
0.0
  0
POINT
  8
DEFPOINTS
  6
BYBLOCK
 62
     0
  5
18C3
 10
64.297521
 20
160.210308
 30
0.0
  0
POINT
  8
DEFPOINTS
  6
BYBLOCK
 62
     0
  5
18C4
 10
91.482909
 20
160.210308
 30
0.0
  0
ENDBLK
  8
0
  5
18C5
  0
BLOCK
  8
0
  5
18C6
  2
*D21
 70
    65
 10
0.0
 20
0.0
 30
0.0
  3
*D21
  0
LINE
  8
0
  6
BYBLOCK
 62
     0
  5
18C7
 10
65.297521
 20
208.210308
 30
0.0
 11
101.682165
 21
208.210308
 31
0.0
  0
LINE
  8
0
  6
BYBLOCK
 62
     0
  5
18C8
 10
64.228148
 20
144.110308
 30
0.0
 11
101.682165
 21
144.110308
 31
0.0
  0
LINE
  8
0
  6
BYBLOCK
 62
     0
  5
18C9
 10
100.682165
 20
205.210308
 30
0.0
 11
100.682165
 21
147.110308
 31
0.0
  0
INSERT
  8
0
  6
BYBLOCK
 62
     0
  5
18CA
  2
_OPEN30
 10
100.682165
 20
208.210308
 30
0.0
 41
3.0
 42
3.0
 50
90.0
 43
3.0
  0
INSERT
  8
0
  6
BYBLOCK
 62
     0
  5
18CB
  2
_OPEN30
 10
100.682165
 20
144.110308
 30
0.0
 41
3.0
 42
3.0
 50
270.0
 43
3.0
  0
TEXT
  8
0
  6
BYBLOCK
 62
     0
  5
18CC
 10
99.682165
 20
172.826975
 30
0.0
 40
4.0
  1
64
 50
90.0
  7
FSTD1
  0
POINT
  8
DEFPOINTS
  6
BYBLOCK
 62
     0
  5
18CD
 10
64.297521
 20
208.210308
 30
0.0
  0
POINT
  8
DEFPOINTS
  6
BYBLOCK
 62
     0
  5
18CE
 10
63.228148
 20
144.110308
 30
0.0
  0
POINT
  8
DEFPOINTS
  6
BYBLOCK
 62
     0
  5
18CF
 10
100.682165
 20
144.110308
 30
0.0
  0
ENDBLK
  8
0
  5
18D0
  0
BLOCK
  8
0
  5
18D1
  2
*D22
 70
    65
 10
0.0
 20
0.0
 30
0.0
  3
*D22
  0
LINE
  8
0
  6
BYBLOCK
 62
     0
  5
18D2
 10
65.297521
 20
208.210308
 30
0.0
 11
111.254365
 21
208.210308
 31
0.0
  0
LINE
  8
0
  6
BYBLOCK
 62
     0
  5
18D3
 10
65.297521
 20
110.910308
 30
0.0
 11
111.254365
 21
110.910308
 31
0.0
  0
LINE
  8
0
  6
BYBLOCK
 62
     0
  5
18D4
 10
110.254365
 20
205.210308
 30
0.0
 11
110.254365
 21
113.910308
 31
0.0
  0
INSERT
  8
0
  6
BYBLOCK
 62
     0
  5
18D5
  2
_OPEN30
 10
110.254365
 20
208.210308
 30
0.0
 41
3.0
 42
3.0
 50
90.0
 43
3.0
  0
INSERT
  8
0
  6
BYBLOCK
 62
     0
  5
18D6
  2
_OPEN30
 10
110.254365
 20
110.910308
 30
0.0
 41
3.0
 42
3.0
 50
270.0
 43
3.0
  0
TEXT
  8
0
  6
BYBLOCK
 62
     0
  5
18D7
 10
109.254365
 20
153.560308
 30
0.0
 40
4.0
  1
97.5
 50
90.0
  7
FSTD1
  0
POINT
  8
DEFPOINTS
  6
BYBLOCK
 62
     0
  5
18D8
 10
64.297521
 20
208.210308
 30
0.0
  0
POINT
  8
DEFPOINTS
  6
BYBLOCK
 62
     0
  5
18D9
 10
64.297521
 20
110.910308
 30
0.0
  0
POINT
  8
DEFPOINTS
  6
BYBLOCK
 62
     0
  5
18DA
 10
110.254365
 20
110.910308
 30
0.0
  0
ENDBLK
  8
0
  5
18DB
  0
BLOCK
  8
0
  5
17E9
  2
_DOT
 70
    64
 10
0.0
 20
0.0
 30
0.0
  3
_DOT
  0
POLYLINE
  8
0
  6
BYBLOCK
 62
     0
  5
17EA
 66
     1
 10
0.0
 20
0.0
 30
0.0
 70
     1
 40
0.5
 41
0.5
  0
VERTEX
  8
0
  6
BYBLOCK
 62
     0
  5
17EB
 10
-0.25
 20
0.0
 30
0.0
 42
1.0
  0
VERTEX
  8
0
  6
BYBLOCK
 62
     0
  5
17EC
 10
0.25
 20
0.0
 30
0.0
 42
1.0
  0
SEQEND
  8
0
  6
BYBLOCK
 62
     0
  5
17ED
  0
LINE
  8
0
  6
BYBLOCK
 62
     0
  5
17EE
 10
-0.5
 20
0.0
 30
0.0
 11
-1.0
 21
0.0
 31
0.0
  0
ENDBLK
  8
0
  5
17EF
  0
BLOCK
  8
0
  5
17F1
  2
_NONE
 70
     0
 10
0.0
 20
0.0
 30
0.0
  3
_NONE
  0
CIRCLE
  8
0
  6
BYBLOCK
 62
     0
  5
17F2
 10
0.0
 20
0.0
 30
0.0
 40
0.25
  0
ENDBLK
  8
0
  5
17F3
  0
BLOCK
  8
0
  5
181E
  2
*D25
 70
    65
 10
0.0
 20
0.0
 30
0.0
  3
*D25
  0
LINE
  8
0
  6
BYBLOCK
 62
     0
  5
181F
 10
260.920065
 20
208.051833
 30
0.0
 11
260.920065
 21
218.585834
 31
0.0
  0
LINE
  8
0
  6
BYBLOCK
 62
     0
  5
1820
 10
295.920065
 20
168.051833
 30
0.0
 11
295.920065
 21
218.585834
 31
0.0
  0
LINE
  8
0
  6
BYBLOCK
 62
     0
  5
1821
 10
263.920065
 20
217.585834
 30
0.0
 11
292.920065
 21
217.585834
 31
0.0
  0
INSERT
  8
0
  6
BYBLOCK
 62
     0
  5
1822
  2
_OPEN30
 10
260.920065
 20
217.585834
 30
0.0
 41
3.0
 42
3.0
 50
180.0
 43
3.0
  0
INSERT
  8
0
  6
BYBLOCK
 62
     0
  5
1823
  2
_OPEN30
 10
295.920065
 20
217.585834
 30
0.0
 41
3.0
 42
3.0
 43
3.0
  0
TEXT
  8
0
  6
BYBLOCK
 62
     0
  5
1824
 10
275.086732
 20
219.585834
 30
0.0
 40
4.0
  1
35
  7
FSTD1
  0
LINE
  8
0
  6
BYBLOCK
 62
     0
  5
1825
 10
274.086732
 20
218.585834
 30
0.0
 11
282.753399
 21
218.585834
 31
0.0
  0
LINE
  8
0
  6
BYBLOCK
 62
     0
  5
1826
 10
282.753399
 20
218.585834
 30
0.0
 11
282.753399
 21
224.585834
 31
0.0
  0
LINE
  8
0
  6
BYBLOCK
 62
     0
  5
1827
 10
282.753399
 20
224.585834
 30
0.0
 11
274.086732
 21
224.585834
 31
0.0
  0
LINE
  8
0
  6
BYBLOCK
 62
     0
  5
1828
 10
274.086732
 20
224.585834
 30
0.0
 11
274.086732
 21
218.585834
 31
0.0
  0
POINT
  8
DEFPOINTS
  6
BYBLOCK
 62
     0
  5
1829
 10
260.920065
 20
207.051833
 30
0.0
  0
POINT
  8
DEFPOINTS
  6
BYBLOCK
 62
     0
  5
182A
 10
295.920065
 20
167.051833
 30
0.0
  0
POINT
  8
DEFPOINTS
  6
BYBLOCK
 62
     0
  5
182B
 10
295.920065
 20
217.585834
 30
0.0
  0
ENDBLK
  8
0
  5
182C
  0
BLOCK
  8
0
  5
182F
  2
*D26
 70
    65
 10
0.0
 20
0.0
 30
0.0
  3
*D26
  0
LINE
  8
0
  6
BYBLOCK
 62
     0
  5
1830
 10
300.104229
 20
203.835308
 30
0.0
 11
317.54608
 21
203.835308
 31
0.0
  0
LINE
  8
0
  6
BYBLOCK
 62
     0
  5
1831
 10
265.104229
 20
163.835308
 30
0.0
 11
317.54608
 21
163.835308
 31
0.0
  0
LINE
  8
0
  6
BYBLOCK
 62
     0
  5
1832
 10
316.54608
 20
200.835308
 30
0.0
 11
316.54608
 21
166.835308
 31
0.0
  0
INSERT
  8
0
  6
BYBLOCK
 62
     0
  5
1833
  2
_OPEN30
 10
316.54608
 20
203.835308
 30
0.0
 41
3.0
 42
3.0
 50
90.0
 43
3.0
  0
INSERT
  8
0
  6
BYBLOCK
 62
     0
  5
1834
  2
_OPEN30
 10
316.54608
 20
163.835308
 30
0.0
 41
3.0
 42
3.0
 50
270.0
 43
3.0
  0
TEXT
  8
0
  6
BYBLOCK
 62
     0
  5
1835
 10
314.54608
 20
180.835308
 30
0.0
 40
4.0
  1
40
 50
90.0
  7
FSTD1
  0
LINE
  8
0
  6
BYBLOCK
 62
     0
  5
1836
 10
315.54608
 20
179.835308
 30
0.0
 11
315.54608
 21
187.835308
 31
0.0
  0
LINE
  8
0
  6
BYBLOCK
 62
     0
  5
1837
 10
315.54608
 20
187.835308
 30
0.0
 11
309.54608
 21
187.835308
 31
0.0
  0
LINE
  8
0
  6
BYBLOCK
 62
     0
  5
1838
 10
309.54608
 20
187.835308
 30
0.0
 11
309.54608
 21
179.835308
 31
0.0
  0
LINE
  8
0
  6
BYBLOCK
 62
     0
  5
1839
 10
309.54608
 20
179.835308
 30
0.0
 11
315.54608
 21
179.835308
 31
0.0
  0
POINT
  8
DEFPOINTS
  6
BYBLOCK
 62
     0
  5
183A
 10
299.104229
 20
203.835308
 30
0.0
  0
POINT
  8
DEFPOINTS
  6
BYBLOCK
 62
     0
  5
183B
 10
264.104229
 20
163.835308
 30
0.0
  0
POINT
  8
DEFPOINTS
  6
BYBLOCK
 62
     0
  5
183C
 10
316.54608
 20
163.835308
 30
0.0
  0
ENDBLK
  8
0
  5
183D
  0
ENDSEC
  0
SECTION
  2
ENTITIES
  0
LINE
  8
F01_OUT
  5
133
 10
-64.550088
 20
174.935308
 30
0.0
 11
-64.550088
 21
192.735308
 31
0.0
1001
ACAD
1000
RTMaterial
1005
0
  0
LINE
  8
F07_COO
  5
135
 10
242.31594
 20
159.835308
 30
0.0
 11
242.31594
 21
207.835308
 31
0.0
1001
ACAD
1000
RTMaterial
1005
0
  0
LINE
  8
F07_COO
  5
136
 10
197.31594
 20
207.835308
 30
0.0
 11
197.31594
 21
159.835308
 31
0.0
1001
ACAD
1000
RTMaterial
1005
0
  0
LINE
  8
F07_COO
  5
137
 10
197.31594
 20
159.835308
 30
0.0
 11
202.51594
 21
159.835308
 31
0.0
1001
ACAD
1000
RTMaterial
1005
0
  0
LINE
  8
F07_COO
  5
138
 10
242.31594
 20
159.835308
 30
0.0
 11
232.16594
 21
159.835308
 31
0.0
1001
ACAD
1000
RTMaterial
1005
0
  0
LINE
  8
F07_COO
  5
139
 10
197.31594
 20
207.835308
 30
0.0
 11
242.31594
 21
207.835308
 31
0.0
1001
ACAD
1000
RTMaterial
1005
0
  0
ARC
  8
F07_COO
  5
13A
 10
202.21594
 20
157.335308
 30
0.0
 40
0.3
 50
90.0
 51
180.0
1001
ACAD
1000
RTMaterial
1005
0
  0
ARC
  8
F07_COO
  5
13B
 10
233.66594
 20
154.535308
 30
0.0
 40
1.5
 50
180.0
 51
191.536959
1001
ACAD
1000
RTMaterial
1005
0
  0
LINE
  8
F07_COO
  5
13C
 10
201.91594
 20
157.335308
 30
0.0
 11
201.91594
 21
153.035308
 31
0.0
1001
ACAD
1000
RTMaterial
1005
0
  0
LINE
  8
F07_COO
  5
13D
 10
202.21594
 20
157.635308
 30
0.0
 11
202.51594
 21
157.635308
 31
0.0
1001
ACAD
1000
RTMaterial
1005
0
  0
LINE
  8
F07_COO
  5
13E
 10
197.31594
 20
153.035308
 30
0.0
 11
201.91594
 21
153.035308
 31
0.0
1001
ACAD
1000
RTMaterial
1005
0
  0
LINE
  8
F07_COO
  5
13F
 10
232.16594
 20
159.835308
 30
0.0
 11
232.16594
 21
154.535308
 31
0.0
1001
ACAD
1000
RTMaterial
1005
0
  0
ARC
  8
F07_COO
  5
140
 10
214.61594
 20
113.735308
 30
0.0
 40
0.3
 50
0.0
 51
90.0
1001
ACAD
1000
RTMaterial
1005
0
  0
ARC
  8
F07_COO
  5
141
 10
216.21594
 20
113.735308
 30
0.0
 40
0.3
 50
90.0
 51
180.0
1001
ACAD
1000
RTMaterial
1005
0
  0
ARC
  8
F07_COO
  5
142
 10
207.41594
 20
113.735308
 30
0.0
 40
0.3
 50
90.0
 51
180.0
1001
ACAD
1000
RTMaterial
1005
0
  0
ARC
  8
F07_COO
  5
143
 10
215.21594
 20
111.935308
 30
0.0
 40
0.3
 50
180.0
 51
270.0
1001
ACAD
1000
RTMaterial
1005
0
  0
ARC
  8
F07_COO
  5
144
 10
215.61594
 20
111.935308
 30
0.0
 40
0.3
 50
270.0
 51
0.0
1001
ACAD
1000
RTMaterial
1005
0
  0
ARC
  8
F07_COO
  5
145
 10
241.61594
 20
110.835308
 30
0.0
 40
0.3
 50
180.0
 51
270.0
1001
ACAD
1000
RTMaterial
1005
0
  0
ARC
  8
F07_COO
  5
146
 10
233.21594
 20
110.835308
 30
0.0
 40
0.3
 50
270.0
 51
0.0
1001
ACAD
1000
RTMaterial
1005
0
  0
ARC
  8
F07_COO
  5
147
 10
232.81594
 20
110.835308
 30
0.0
 40
0.3
 50
180.0
 51
270.0
1001
ACAD
1000
RTMaterial
1005
0
  0
ARC
  8
F07_COO
  5
148
 10
242.01594
 20
110.835308
 30
0.0
 40
0.3
 50
270.0
 51
0.0
1001
ACAD
1000
RTMaterial
1005
0
  0
ARC
  8
F07_COO
  5
149
 10
198.61594
 20
113.735308
 30
0.0
 40
0.3
 50
90.0
 51
180.0
1001
ACAD
1000
RTMaterial
1005
0
  0
ARC
  8
F07_COO
  5
14A
 10
205.81594
 20
113.735308
 30
0.0
 40
0.3
 50
0.0
 51
90.0
1001
ACAD
1000
RTMaterial
1005
0
  0
ARC
  8
F07_COO
  5
14B
 10
197.61594
 20
111.935308
 30
0.0
 40
0.3
 50
180.0
 51
270.0
1001
ACAD
1000
RTMaterial
1005
0
  0
ARC
  8
F07_COO
  5
14C
 10
198.01594
 20
111.935308
 30
0.0
 40
0.3
 50
270.0
 51
0.0
1001
ACAD
1000
RTMaterial
1005
0
  0
ARC
  8
F07_COO
  5
14D
 10
206.41594
 20
111.935308
 30
0.0
 40
0.3
 50
180.0
 51
270.0
1001
ACAD
1000
RTMaterial
1005
0
  0
ARC
  8
F07_COO
  5
14E
 10
206.81594
 20
111.935308
 30
0.0
 40
0.3
 50
270.0
 51
0.0
1001
ACAD
1000
RTMaterial
1005
0
  0
ARC
  8
F07_COO
  5
14F
 10
223.41594
 20
113.735308
 30
0.0
 40
0.3
 50
70.528779
 51
90.0
1001
ACAD
1000
RTMaterial
1005
0
  0
ARC
  8
F07_COO
  5
150
 10
223.41594
 20
113.735308
 30
0.0
 40
0.3
 50
0.0
 51
70.528779
1001
ACAD
1000
RTMaterial
1005
0
  0
LINE
  8
F07_COO
  5
151
 10
207.41594
 20
114.035308
 30
0.0
 11
214.61594
 21
114.035308
 31
0.0
1001
ACAD
1000
RTMaterial
1005
0
  0
LINE
  8
F07_COO
  5
152
 10
215.91594
 20
113.735308
 30
0.0
 11
215.91594
 21
112.154135
 31
0.0
1001
ACAD
1000
RTMaterial
1005
0
  0
LINE
  8
F07_COO
  5
153
 10
214.91594
 20
113.735308
 30
0.0
 11
214.91594
 21
112.154135
 31
0.0
1001
ACAD
1000
RTMaterial
1005
0
  0
LINE
  8
F07_COO
  5
154
 10
207.11594
 20
113.735308
 30
0.0
 11
207.11594
 21
112.154135
 31
0.0
1001
ACAD
1000
RTMaterial
1005
0
  0
LINE
  8
F07_COO
  5
155
 10
215.21594
 20
111.635308
 30
0.0
 11
215.61594
 21
111.635308
 31
0.0
1001
ACAD
1000
RTMaterial
1005
0
  0
LINE
  8
F07_COO
  5
156
 10
215.91594
 20
112.154135
 30
0.0
 11
215.91594
 21
111.935308
 31
0.0
1001
ACAD
1000
RTMaterial
1005
0
  0
LINE
  8
F07_COO
  5
157
 10
214.91594
 20
112.154135
 30
0.0
 11
214.91594
 21
111.935308
 31
0.0
1001
ACAD
1000
RTMaterial
1005
0
  0
LINE
  8
F07_COO
  5
158
 10
233.21594
 20
110.535308
 30
0.0
 11
232.81594
 21
110.535308
 31
0.0
1001
ACAD
1000
RTMaterial
1005
0
  0
LINE
  8
F07_COO
  5
159
 10
233.51594
 20
110.835308
 30
0.0
 11
233.51594
 21
111.735308
 31
0.0
1001
ACAD
1000
RTMaterial
1005
0
  0
LINE
  8
F07_COO
  5
15A
 10
232.51594
 20
111.735308
 30
0.0
 11
232.51594
 21
110.835308
 31
0.0
1001
ACAD
1000
RTMaterial
1005
0
  0
LINE
  8
F07_COO
  5
15B
 10
241.61594
 20
110.535308
 30
0.0
 11
242.01594
 21
110.535308
 31
0.0
1001
ACAD
1000
RTMaterial
1005
0
  0
LINE
  8
F07_COO
  5
15C
 10
205.81594
 20
114.035308
 30
0.0
 11
198.61594
 21
114.035308
 31
0.0
1001
ACAD
1000
RTMaterial
1005
0
  0
LINE
  8
F07_COO
  5
15D
 10
198.31594
 20
113.735308
 30
0.0
 11
198.31594
 21
112.154135
 31
0.0
1001
ACAD
1000
RTMaterial
1005
0
  0
LINE
  8
F07_COO
  5
15E
 10
198.31594
 20
112.154135
 30
0.0
 11
198.31594
 21
111.935308
 31
0.0
1001
ACAD
1000
RTMaterial
1005
0
  0
LINE
  8
F07_COO
  5
15F
 10
197.31594
 20
112.231781
 30
0.0
 11
197.31594
 21
111.935308
 31
0.0
1001
ACAD
1000
RTMaterial
1005
0
  0
LINE
  8
F07_COO
  5
160
 10
197.31594
 20
153.035308
 30
0.0
 11
197.31594
 21
112.231781
 31
0.0
1001
ACAD
1000
RTMaterial
1005
0
  0
LINE
  8
F07_COO
  5
161
 10
206.11594
 20
113.735308
 30
0.0
 11
206.11594
 21
112.154135
 31
0.0
1001
ACAD
1000
RTMaterial
1005
0
  0
LINE
  8
F07_COO
  5
162
 10
206.11594
 20
112.154135
 30
0.0
 11
206.11594
 21
111.935308
 31
0.0
1001
ACAD
1000
RTMaterial
1005
0
  0
LINE
  8
F07_COO
  5
163
 10
198.01594
 20
111.635308
 30
0.0
 11
197.61594
 21
111.635308
 31
0.0
1001
ACAD
1000
RTMaterial
1005
0
  0
LINE
  8
F07_COO
  5
164
 10
206.41594
 20
111.635308
 30
0.0
 11
206.81594
 21
111.635308
 31
0.0
1001
ACAD
1000
RTMaterial
1005
0
  0
LINE
  8
F07_COO
  5
165
 10
207.11594
 20
112.154135
 30
0.0
 11
207.11594
 21
111.935308
 31
0.0
1001
ACAD
1000
RTMaterial
1005
0
  0
LINE
  8
F07_COO
  5
166
 10
216.21594
 20
114.035308
 30
0.0
 11
223.21594
 21
114.035308
 31
0.0
1001
ACAD
1000
RTMaterial
1005
0
  0
LINE
  8
F07_COO
  5
167
 10
223.21594
 20
114.035308
 30
0.0
 11
223.41594
 21
114.035308
 31
0.0
1001
ACAD
1000
RTMaterial
1005
0
  0
LINE
  8
F07_COO
  5
168
 10
223.71594
 20
113.735308
 30
0.0
 11
223.71594
 21
111.735308
 31
0.0
1001
ACAD
1000
RTMaterial
1005
0
  0
LINE
  8
F07_COO
  5
169
 10
232.51594
 20
111.735308
 30
0.0
 11
223.71594
 21
111.735308
 31
0.0
1001
ACAD
1000
RTMaterial
1005
0
  0
LINE
  8
F07_COO
  5
16A
 10
232.51594
 20
111.735308
 30
0.0
 11
232.41594
 21
111.735308
 31
0.0
1001
ACAD
1000
RTMaterial
1005
0
  0
LINE
  8
F07_COO
  5
16B
 10
241.21594
 20
111.735308
 30
0.0
 11
233.51594
 21
111.735308
 31
0.0
1001
ACAD
1000
RTMaterial
1005
0
  0
LINE
  8
F07_COO
  5
16C
 10
241.31594
 20
111.735308
 30
0.0
 11
241.21594
 21
111.735308
 31
0.0
1001
ACAD
1000
RTMaterial
1005
0
  0
LINE
  8
F07_COO
  5
16D
 10
202.51594
 20
157.635308
 30
0.0
 11
202.51594
 21
159.835308
 31
0.0
1001
ACAD
1000
RTMaterial
1005
0
  0
LINE
  8
F07_COO
  5
16E
 10
242.21594
 20
154.235308
 30
0.0
 11
232.16594
 21
154.235308
 31
0.0
1001
ACAD
1000
RTMaterial
1005
0
  0
LINE
  8
F07_COO
  5
16F
 10
242.31594
 20
110.835308
 30
0.0
 11
242.31594
 21
154.235308
 31
0.0
1001
ACAD
1000
RTMaterial
1005
0
  0
LINE
  8
F07_COO
  5
170
 10
241.31594
 20
111.735308
 30
0.0
 11
241.31594
 21
110.835308
 31
0.0
1001
ACAD
1000
RTMaterial
1005
0
  0
CIRCLE
  8
F06_CUT
  5
171
 10
202.31594
 20
203.835308
 30
0.0
 40
2.0
1001
ACAD
1000
RTMaterial
1005
0
  0
CIRCLE
  8
F06_CUT
  5
172
 10
237.31594
 20
203.835308
 30
0.0
 40
2.0
1001
ACAD
1000
RTMaterial
1005
0
  0
CIRCLE
  8
F06_CUT
  5
173
 10
237.31594
 20
163.835308
 30
0.0
 40
2.0
1001
ACAD
1000
RTMaterial
1005
0
  0
CIRCLE
  8
F06_CUT
  5
174
 10
202.31594
 20
163.835308
 30
0.0
 40
2.0
1001
ACAD
1000
RTMaterial
1005
0
  0
LINE
  8
F05_PRO
  5
197
 10
235.998931
 20
202.330155
 30
0.0
 11
203.632949
 21
165.340462
 31
0.0
1001
ACAD
1000
RTMaterial
1005
0
  0
LINE
  8
F05_PRO
  5
198
 10
203.632949
 20
202.330155
 30
0.0
 11
235.998931
 21
165.340462
 31
0.0
1001
ACAD
1000
RTMaterial
1005
0
  0
LINE
  8
F05_PRO
  5
199
 10
235.998931
 20
202.330155
 30
0.0
 11
234.233789
 21
198.740688
 31
0.0
1001
ACAD
1000
RTMaterial
1005
0
  0
LINE
  8
F05_PRO
  5
19A
 10
203.632949
 20
165.340462
 30
0.0
 11
205.398091
 21
168.929929
 31
0.0
1001
ACAD
1000
RTMaterial
1005
0
  0
LINE
  8
F05_PRO
  5
19B
 10
235.998931
 20
202.330155
 30
0.0
 11
232.67554
 21
200.104156
 31
0.0
1001
ACAD
1000
RTMaterial
1005
0
  0
LINE
  8
F05_PRO
  5
19C
 10
203.632949
 20
165.340462
 30
0.0
 11
206.95634
 21
167.56646
 31
0.0
1001
ACAD
1000
RTMaterial
1005
0
  0
LINE
  8
F05_PRO
  5
19D
 10
203.632949
 20
202.330155
 30
0.0
 11
206.95634
 21
200.104156
 31
0.0
1001
ACAD
1000
RTMaterial
1005
0
  0
LINE
  8
F05_PRO
  5
19E
 10
203.632949
 20
202.330155
 30
0.0
 11
205.398091
 21
198.740688
 31
0.0
1001
ACAD
1000
RTMaterial
1005
0
  0
LINE
  8
F05_PRO
  5
19F
 10
235.998931
 20
165.340462
 30
0.0
 11
232.67554
 21
167.56646
 31
0.0
1001
ACAD
1000
RTMaterial
1005
0
  0
LINE
  8
F05_PRO
  5
1A0
 10
235.998931
 20
165.340462
 30
0.0
 11
234.233789
 21
168.929929
 31
0.0
1001
ACAD
1000
RTMaterial
1005
0
  0
LINE
  8
F04_HID
  5
1A2
 10
-77.550088
 20
204.710308
 30
0.0
 11
-78.550088
 21
204.710308
 31
0.0
1001
ACAD
1000
RTMaterial
1005
0
  0
LINE
  8
F04_HID
  5
1A3
 10
-78.550088
 20
204.710308
 30
0.0
 11
-78.550088
 21
196.380015
 31
0.0
1001
ACAD
1000
RTMaterial
1005
0
  0
LINE
  8
F04_HID
  5
1A4
 10
-77.550088
 20
204.710308
 30
0.0
 11
-77.550088
 21
196.380015
 31
0.0
1001
ACAD
1000
RTMaterial
1005
0
  0
LINE
  8
F04_HID
  5
1A5
 10
-76.250088
 20
115.710308
 30
0.0
 11
-77.250088
 21
115.710308
 31
0.0
1001
ACAD
1000
RTMaterial
1005
0
  0
LINE
  8
F04_HID
  5
1A6
 10
-77.250088
 20
124.310308
 30
0.0
 11
-77.250088
 21
115.710308
 31
0.0
1001
ACAD
1000
RTMaterial
1005
0
  0
LINE
  8
F04_HID
  5
1A7
 10
-76.250088
 20
124.310308
 30
0.0
 11
-76.250088
 21
115.710308
 31
0.0
1001
ACAD
1000
RTMaterial
1005
0
  0
LINE
  8
F01_OUT
  5
1A8
 10
60.182804
 20
131.610308
 30
0.0
 11
59.786802
 21
131.110308
 31
0.0
1001
ACAD
1000
RTMaterial
1005
6408BB0300000000
  0
LINE
  8
F01_OUT
  5
1A9
 10
45.997521
 20
114.486044
 30
0.0
 11
45.697521
 21
114.910308
 31
0.0
1001
ACAD
1000
RTMaterial
1005
980EBB0300000000
  0
LINE
  8
F01_OUT
  5
1AA
 10
20.897521
 20
114.910308
 30
0.0
 11
20.597521
 21
114.486044
 31
0.0
1001
ACAD
1000
RTMaterial
1005
EC25BB0300000000
  0
LINE
  8
F01_OUT
  5
1AB
 10
28.397521
 20
114.486044
 30
0.0
 11
28.097521
 21
114.910308
 31
0.0
1001
ACAD
1000
RTMaterial
1005
D80DBB0300000000
  0
LINE
  8
F01_OUT
  5
1AC
 10
19.748078
 20
149.910308
 30
0.0
 11
19.897521
 21
149.279832
 31
0.0
1001
ACAD
1000
RTMaterial
1005
7807BB0300000000
  0
LINE
  8
F01_OUT
  5
1AD
 10
19.897521
 20
127.240784
 30
0.0
 11
19.748078
 21
126.610308
 31
0.0
1001
ACAD
1000
RTMaterial
1005
940FBB0300000000
  0
LINE
  8
F01_OUT
  5
1AE
 10
37.197521
 20
114.486044
 30
0.0
 11
36.897521
 21
114.910308
 31
0.0
1001
ACAD
1000
RTMaterial
1005
EC0EBB0300000000
  0
LINE
  8
F01_OUT
  5
1AF
 10
29.697521
 20
114.910308
 30
0.0
 11
29.397521
 21
114.486044
 31
0.0
1001
ACAD
1000
RTMaterial
1005
202CBB0300000000
  0
LINE
  8
F01_OUT
  5
1B0
 10
38.497521
 20
114.910308
 30
0.0
 11
38.197521
 21
114.486044
 31
0.0
1001
ACAD
1000
RTMaterial
1005
780FBB0300000000
  0
LINE
  8
F01_OUT
  5
1B1
 10
48.292571
 20
157.420208
 30
0.0
 11
48.060479
 21
157.425703
 31
0.0
1001
ACAD
1000
RTMaterial
1005
5808BB0300000000
  0
LINE
  8
F01_OUT
  5
1B2
 10
47.997521
 20
158.027544
 30
0.0
 11
48.080439
 21
157.844472
 31
0.0
1001
ACAD
1000
RTMaterial
1005
8C0EBB0300000000
  0
LINE
  8
F01_OUT
  5
1B3
 10
50.055348
 20
153.698176
 30
0.0
 11
50.047521
 21
153.910308
 31
0.0
1001
ACAD
1000
RTMaterial
1005
8C10BB0300000000
  0
LINE
  8
F01_OUT
  5
1B4
 10
43.922924
 20
159.910308
 30
0.0
 11
43.535626
 21
160.210308
 31
0.0
1001
ACAD
1000
RTMaterial
1005
EC3FBB0300000000
  0
LINE
  8
F01_OUT
  5
1B5
 10
45.472118
 20
159.910308
 30
0.0
 11
45.859416
 21
160.210308
 31
0.0
1001
ACAD
1000
RTMaterial
1005
1C3EBB0300000000
  0
LINE
  8
F01_OUT
  5
1B6
 10
48.080624
 20
154.786044
 30
0.0
 11
47.797521
 21
154.998176
 31
0.0
1001
ACAD
1000
RTMaterial
1005
142CBB0300000000
  0
LINE
  8
F01_OUT
  5
1B7
 10
48.080624
 20
154.786044
 30
0.0
 11
48.297521
 21
154.203201
 31
0.0
1001
ACAD
1000
RTMaterial
1005
E025BB0300000000
  0
LINE
  8
F01_OUT
  5
1B8
 10
45.097521
 20
154.910308
 30
0.0
 11
44.797521
 21
154.486044
 31
0.0
1001
ACAD
1000
RTMaterial
1005
4C08BB0300000000
  0
LINE
  8
F01_OUT
  5
1B9
 10
27.872118
 20
159.910308
 30
0.0
 11
28.259416
 21
160.210308
 31
0.0
1001
ACAD
1000
RTMaterial
1005
8010BB0300000000
  0
LINE
  8
F01_OUT
  5
1BA
 10
26.322924
 20
159.910308
 30
0.0
 11
25.935626
 21
160.210308
 31
0.0
1001
ACAD
1000
RTMaterial
1005
E03FBB0300000000
  0
LINE
  8
F01_OUT
  5
1BB
 10
64.197521
 20
150.910308
 30
0.0
 11
64.497521
 21
150.786044
 31
0.0
1001
ACAD
1000
RTMaterial
1005
103EBB0300000000
  0
LINE
  8
F01_OUT
  5
1BC
 10
36.672118
 20
159.910308
 30
0.0
 11
37.059416
 21
160.210308
 31
0.0
1001
ACAD
1000
RTMaterial
1005
82CBB0300000000
  0
LINE
  8
F01_OUT
  5
1BD
 10
35.122924
 20
159.910308
 30
0.0
 11
34.735626
 21
160.210308
 31
0.0
1001
ACAD
1000
RTMaterial
1005
380FBB0300000000
  0
LINE
  8
F01_OUT
  5
1BE
 10
21.397521
 20
190.960308
 30
0.0
 11
21.097521
 21
190.624898
 31
0.0
1001
ACAD
1000
RTMaterial
1005
9816BB0300000000
  0
LINE
  8
F01_OUT
  5
1BF
 10
22.997521
 20
180.524898
 30
0.0
 11
22.697521
 21
180.860308
 31
0.0
1001
ACAD
1000
RTMaterial
1005
CC0DBB0300000000
  0
LINE
  8
F01_OUT
  5
1C0
 10
22.997521
 20
190.624898
 30
0.0
 11
22.697521
 21
190.960308
 31
0.0
1001
ACAD
1000
RTMaterial
1005
6C07BB0300000000
  0
LINE
  8
F01_OUT
  5
1C1
 10
21.397521
 20
180.860308
 30
0.0
 11
21.097521
 21
180.524898
 31
0.0
1001
ACAD
1000
RTMaterial
1005
743CBB0300000000
  0
LINE
  8
F01_OUT
  5
1C2
 10
-85.267245
 20
114.410308
 30
0.0
 11
-85.250088
 21
114.39315
 31
0.0
1001
ACAD
1000
RTMaterial
1005
A803BB0300000000
  0
LINE
  8
F01_OUT
  5
1C3
 10
-64.589959
 20
149.910308
 30
0.0
 11
-64.550088
 21
149.279832
 31
0.0
1001
ACAD
1000
RTMaterial
1005
7410BB0300000000
  0
LINE
  8
F01_OUT
  5
1C4
 10
-64.550088
 20
127.240784
 30
0.0
 11
-64.589959
 21
126.610308
 31
0.0
1001
ACAD
1000
RTMaterial
1005
8C16BB0300000000
  0
LINE
  8
F01_OUT
  5
1C5
 10
-62.550088
 20
146.610308
 30
0.0
 11
-62.850088
 21
146.579058
 31
0.0
1001
ACAD
1000
RTMaterial
1005
D43FBB0300000000
  0
LINE
  8
F01_OUT
  5
1C6
 10
-58.850088
 20
146.49171
 30
0.0
 11
-58.791597
 21
146.501198
 31
0.0
1001
ACAD
1000
RTMaterial
1005
683CBB0300000000
  0
LINE
  8
F01_OUT
  5
1C7
 10
-58.650088
 20
145.157887
 30
0.0
 11
-58.656382
 21
145.194838
 31
0.0
1001
ACAD
1000
RTMaterial
1005
9C03BB0300000000
  0
LINE
  8
F01_OUT
  5
1C8
 10
-58.791597
 20
146.501198
 30
0.0
 11
-58.650088
 21
146.353727
 31
0.0
1001
ACAD
1000
RTMaterial
1005
6810BB0300000000
  0
ARC
  8
F01_OUT
  5
1C9
 10
59.897521
 20
144.110308
 30
0.0
 40
2.5
 50
17.718932
 51
72.281068
1001
ACAD
1000
RTMaterial
1005
0
  0
ARC
  8
F01_OUT
  5
1CA
 10
59.897521
 20
144.110308
 30
0.0
 40
2.5
 50
107.718932
 51
147.737298
1001
ACAD
1000
RTMaterial
1005
0
  0
ARC
  8
F01_OUT
  5
1CB
 10
59.897521
 20
144.110308
 30
0.0
 40
3.7
 50
45.897355
 51
47.493358
1001
ACAD
1000
RTMaterial
1005
0
  0
ARC
  8
F01_OUT
  5
1CC
 10
59.897521
 20
144.110308
 30
0.0
 40
2.5
 50
72.281068
 51
80.931278
1001
ACAD
1000
RTMaterial
1005
0
  0
ARC
  8
F01_OUT
  5
1CD
 10
59.897521
 20
144.110308
 30
0.0
 40
2.5
 50
99.068722
 51
107.718932
1001
ACAD
1000
RTMaterial
1005
0
  0
ARC
  8
F01_OUT
  5
1CE
 10
59.897521
 20
146.510308
 30
0.0
 40
0.4
 50
9.896853
 51
170.103147
1001
ACAD
1000
RTMaterial
1005
0
  0
ARC
  8
F01_OUT
  5
1CF
 10
59.897521
 20
144.110308
 30
0.0
 40
2.5
 50
80.931278
 51
99.068722
1001
ACAD
1000
RTMaterial
1005
0
  0
ARC
  8
F01_OUT
  5
1D0
 10
59.897521
 20
144.110308
 30
0.0
 40
2.5
 50
342.281068
 51
17.718932
1001
ACAD
1000
RTMaterial
1005
0
  0
ARC
  8
F01_OUT
  5
1D1
 10
59.897521
 20
144.110308
 30
0.0
 40
2.5
 50
302.262702
 51
342.281068
1001
ACAD
1000
RTMaterial
1005
0
  0
ARC
  8
F01_OUT
  5
1D2
 10
59.897521
 20
144.110308
 30
0.0
 40
2.5
 50
147.737298
 51
208.57006
1001
ACAD
1000
RTMaterial
1005
0
  0
ARC
  8
F01_OUT
  5
1D3
 10
57.948031
 20
142.160818
 30
0.0
 40
0.5
 50
180.0
 51
270.0
1001
ACAD
1000
RTMaterial
1005
0
  0
ARC
  8
F01_OUT
  5
1D4
 10
59.897521
 20
144.110308
 30
0.0
 40
2.5
 50
241.42994
 51
302.262702
1001
ACAD
1000
RTMaterial
1005
0
  0
LINE
  8
F01_OUT
  5
1D5
 10
57.648031
 20
142.860818
 30
0.0
 11
57.701939
 21
142.914725
 31
0.0
1001
ACAD
1000
RTMaterial
1005
0
  0
LINE
  8
F01_OUT
  5
1D6
 10
57.648031
 20
142.860818
 30
0.0
 11
57.448031
 21
142.660818
 31
0.0
1001
ACAD
1000
RTMaterial
1005
0
  0
LINE
  8
F01_OUT
  5
1D7
 10
57.448031
 20
142.160818
 30
0.0
 11
57.448031
 21
142.660818
 31
0.0
1001
ACAD
1000
RTMaterial
1005
0
  0
LINE
  8
F01_OUT
  5
1D8
 10
58.448031
 20
141.660818
 30
0.0
 11
58.648031
 21
141.860818
 31
0.0
1001
ACAD
1000
RTMaterial
1005
0
  0
LINE
  8
F01_OUT
  5
1D9
 10
58.701939
 20
141.914725
 30
0.0
 11
58.648031
 21
141.860818
 31
0.0
1001
ACAD
1000
RTMaterial
1005
0
  0
LINE
  8
F01_OUT
  5
1DA
 10
58.448031
 20
141.660818
 30
0.0
 11
57.948031
 21
141.660818
 31
0.0
1001
ACAD
1000
RTMaterial
1005
0
  0
LINE
  8
F01_OUT
  5
1DB
 10
63.597521
 20
120.710308
 30
0.0
 11
63.597521
 21
120.810308
 31
0.0
1001
ACAD
1000
RTMaterial
1005
0
  0
LINE
  8
F01_OUT
  5
1DC
 10
63.597521
 20
119.810308
 30
0.0
 11
63.597521
 21
120.710308
 31
0.0
1001
ACAD
1000
RTMaterial
1005
0
  0
LINE
  8
F01_OUT
  5
1DD
 10
60.182804
 20
134.710308
 30
0.0
 11
60.182804
 21
131.610308
 31
0.0
1001
ACAD
1000
RTMaterial
1005
0
  0
LINE
  8
F01_OUT
  5
1DE
 10
60.182804
 20
134.710308
 30
0.0
 11
59.507494
 21
134.710308
 31
0.0
1001
ACAD
1000
RTMaterial
1005
0
  0
LINE
  8
F01_OUT
  5
1DF
 10
56.197521
 20
134.710308
 30
0.0
 11
59.45765
 21
134.710308
 31
0.0
1001
ACAD
1000
RTMaterial
1005
0
  0
LINE
  8
F01_OUT
  5
1E0
 10
59.507494
 20
134.710308
 30
0.0
 11
59.45765
 21
134.710308
 31
0.0
1001
ACAD
1000
RTMaterial
1005
0
  0
LINE
  8
F01_OUT
  5
1E1
 10
56.197521
 20
134.710308
 30
0.0
 11
56.197521
 21
131.110308
 31
0.0
1001
ACAD
1000
RTMaterial
1005
0
  0
LINE
  8
F01_OUT
  5
1E2
 10
56.197521
 20
131.110308
 30
0.0
 11
59.45765
 21
131.110308
 31
0.0
1001
ACAD
1000
RTMaterial
1005
0
  0
LINE
  8
F01_OUT
  5
1E3
 10
59.786801
 20
131.110308
 30
0.0
 11
59.507494
 21
131.110308
 31
0.0
1001
ACAD
1000
RTMaterial
1005
0
  0
LINE
  8
F01_OUT
  5
1E4
 10
59.507494
 20
131.110308
 30
0.0
 11
59.45765
 21
131.110308
 31
0.0
1001
ACAD
1000
RTMaterial
1005
0
  0
LINE
  8
F01_OUT
  5
1E5
 10
46.997521
 20
128.410308
 30
0.0
 11
47.097521
 21
128.076974
 31
0.0
1001
ACAD
1000
RTMaterial
1005
0
  0
LINE
  8
F01_OUT
  5
1E6
 10
46.997521
 20
119.810308
 30
0.0
 11
47.097521
 21
119.476974
 31
0.0
1001
ACAD
1000
RTMaterial
1005
0
  0
LINE
  8
F01_OUT
  5
1E7
 10
47.097521
 20
120.810308
 30
0.0
 11
46.997521
 21
120.810308
 31
0.0
1001
ACAD
1000
RTMaterial
1005
0
  0
LINE
  8
F01_OUT
  5
1E8
 10
54.797521
 20
119.810308
 30
0.0
 11
54.797521
 21
120.810308
 31
0.0
1001
ACAD
1000
RTMaterial
1005
0
  0
CIRCLE
  8
F01_OUT
  5
1E9
 10
50.597521
 20
144.410308
 30
0.0
 40
3.0
1001
ACAD
1000
RTMaterial
1005
0
  0
CIRCLE
  8
F01_OUT
  5
1EA
 10
50.597521
 20
144.410308
 30
0.0
 40
0.4
1001
ACAD
1000
RTMaterial
1005
0
  0
CIRCLE
  8
F01_OUT
  5
1EB
 10
48.097521
 20
140.080181
 30
0.0
 40
0.25
1001
ACAD
1000
RTMaterial
1005
0
  0
CIRCLE
  8
F01_OUT
  5
1EC
 10
50.597521
 20
144.410308
 30
0.0
 40
5.5
1001
ACAD
1000
RTMaterial
1005
0
  0
ARC
  8
F01_OUT
  5
1ED
 10
48.997521
 20
142.810308
 30
0.0
 40
1.0
 50
0.0
 51
90.0
1001
ACAD
1000
RTMaterial
1005
0
  0
ARC
  8
F01_OUT
  5
1EE
 10
48.997521
 20
146.010308
 30
0.0
 40
1.0
 50
270.0
 51
0.0
1001
ACAD
1000
RTMaterial
1005
0
  0
ARC
  8
F01_OUT
  5
1EF
 10
52.197521
 20
146.010308
 30
0.0
 40
1.0
 50
180.0
 51
270.0
1001
ACAD
1000
RTMaterial
1005
0
  0
ARC
  8
F01_OUT
  5
1F0
 10
52.197521
 20
142.810308
 30
0.0
 40
1.0
 50
90.0
 51
180.0
1001
ACAD
1000
RTMaterial
1005
0
  0
LINE
  8
F01_OUT
  5
1F1
 10
49.997521
 20
142.810308
 30
0.0
 11
49.997521
 21
142.160308
 31
0.0
1001
ACAD
1000
RTMaterial
1005
0
  0
LINE
  8
F01_OUT
  5
1F2
 10
48.347521
 20
143.810308
 30
0.0
 11
48.997521
 21
143.810308
 31
0.0
1001
ACAD
1000
RTMaterial
1005
0
  0
LINE
  8
F01_OUT
  5
1F3
 10
48.347521
 20
145.010308
 30
0.0
 11
48.347521
 21
143.810308
 31
0.0
1001
ACAD
1000
RTMaterial
1005
0
  0
LINE
  8
F01_OUT
  5
1F4
 10
48.997521
 20
145.010308
 30
0.0
 11
48.347521
 21
145.010308
 31
0.0
1001
ACAD
1000
RTMaterial
1005
0
  0
LINE
  8
F01_OUT
  5
1F5
 10
49.997521
 20
146.660308
 30
0.0
 11
49.997521
 21
146.010308
 31
0.0
1001
ACAD
1000
RTMaterial
1005
0
  0
LINE
  8
F01_OUT
  5
1F6
 10
52.197521
 20
143.810308
 30
0.0
 11
52.847521
 21
143.810308
 31
0.0
1001
ACAD
1000
RTMaterial
1005
0
  0
LINE
  8
F01_OUT
  5
1F7
 10
52.847521
 20
143.810308
 30
0.0
 11
52.847521
 21
145.010308
 31
0.0
1001
ACAD
1000
RTMaterial
1005
0
  0
LINE
  8
F01_OUT
  5
1F8
 10
51.197521
 20
146.010308
 30
0.0
 11
51.197521
 21
146.660308
 31
0.0
1001
ACAD
1000
RTMaterial
1005
0
  0
LINE
  8
F01_OUT
  5
1F9
 10
51.197521
 20
142.160308
 30
0.0
 11
51.197521
 21
142.810308
 31
0.0
1001
ACAD
1000
RTMaterial
1005
0
  0
LINE
  8
F01_OUT
  5
1FA
 10
49.997521
 20
142.160308
 30
0.0
 11
51.197521
 21
142.160308
 31
0.0
1001
ACAD
1000
RTMaterial
1005
0
  0
LINE
  8
F01_OUT
  5
1FB
 10
52.847521
 20
145.010308
 30
0.0
 11
52.197521
 21
145.010308
 31
0.0
1001
ACAD
1000
RTMaterial
1005
0
  0
LINE
  8
F01_OUT
  5
1FC
 10
51.197521
 20
146.660308
 30
0.0
 11
49.997521
 21
146.660308
 31
0.0
1001
ACAD
1000
RTMaterial
1005
0
  0
CIRCLE
  8
F01_OUT
  5
1FD
 10
33.297521
 20
120.710308
 30
0.0
 40
3.3
1001
ACAD
1000
RTMaterial
1005
0
  0
CIRCLE
  8
F01_OUT
  5
1FE
 10
24.497521
 20
120.710308
 30
0.0
 40
3.3
1001
ACAD
1000
RTMaterial
1005
0
  0
CIRCLE
  8
F01_OUT
  5
1FF
 10
42.097521
 20
120.710308
 30
0.0
 40
3.3
1001
ACAD
1000
RTMaterial
1005
0
  0
LINE
  8
F01_OUT
  5
200
 10
37.547521
 20
124.310308
 30
0.0
 11
29.047521
 21
124.310308
 31
0.0
1001
ACAD
1000
RTMaterial
1005
0
  0
LINE
  8
F01_OUT
  5
201
 10
37.847521
 20
115.710308
 30
0.0
 11
37.547521
 21
115.710308
 31
0.0
1001
ACAD
1000
RTMaterial
1005
0
  0
LINE
  8
F01_OUT
  5
202
 10
37.847521
 20
115.710308
 30
0.0
 11
37.847521
 21
124.310308
 31
0.0
1001
ACAD
1000
RTMaterial
1005
0
  0
LINE
  8
F01_OUT
  5
203
 10
37.547521
 20
115.710308
 30
0.0
 11
37.547521
 21
124.310308
 31
0.0
1001
ACAD
1000
RTMaterial
1005
0
  0
LINE
  8
F01_OUT
  5
204
 10
37.547521
 20
124.558513
 30
0.0
 11
37.547521
 21
124.310308
 31
0.0
1001
ACAD
1000
RTMaterial
1005
0
  0
LINE
  8
F01_OUT
  5
205
 10
37.847521
 20
124.558513
 30
0.0
 11
37.847521
 21
124.310308
 31
0.0
1001
ACAD
1000
RTMaterial
1005
0
  0
LINE
  8
F01_OUT
  5
206
 10
37.847521
 20
124.558513
 30
0.0
 11
37.547521
 21
124.558513
 31
0.0
1001
ACAD
1000
RTMaterial
1005
0
  0
LINE
  8
F01_OUT
  5
207
 10
37.547521
 20
115.710308
 30
0.0
 11
29.047521
 21
115.710308
 31
0.0
1001
ACAD
1000
RTMaterial
1005
0
  0
LINE
  8
F01_OUT
  5
208
 10
29.047521
 20
115.710308
 30
0.0
 11
29.047521
 21
124.310308
 31
0.0
1001
ACAD
1000
RTMaterial
1005
0
  0
LINE
  8
F01_OUT
  5
209
 10
29.047521
 20
124.558513
 30
0.0
 11
29.047521
 21
124.310308
 31
0.0
1001
ACAD
1000
RTMaterial
1005
0
  0
LINE
  8
F01_OUT
  5
20A
 10
24.297521
 20
124.610308
 30
0.0
 11
22.097521
 21
124.610308
 31
0.0
1001
ACAD
1000
RTMaterial
1005
0
  0
LINE
  8
F01_OUT
  5
20B
 10
28.397521
 20
124.610308
 30
0.0
 11
26.197521
 21
124.610308
 31
0.0
1001
ACAD
1000
RTMaterial
1005
0
  0
LINE
  8
F01_OUT
  5
20C
 10
26.197521
 20
124.610308
 30
0.0
 11
25.797521
 21
124.610308
 31
0.0
1001
ACAD
1000
RTMaterial
1005
0
  0
LINE
  8
F01_OUT
  5
20D
 10
25.797521
 20
124.610308
 30
0.0
 11
24.297521
 21
124.610308
 31
0.0
1001
ACAD
1000
RTMaterial
1005
0
  0
LINE
  8
F01_OUT
  5
20E
 10
28.747521
 20
115.710308
 30
0.0
 11
20.797521
 21
115.710308
 31
0.0
1001
ACAD
1000
RTMaterial
1005
0
  0
LINE
  8
F01_OUT
  5
20F
 10
28.747521
 20
124.310308
 30
0.0
 11
19.597521
 21
124.310308
 31
0.0
1001
ACAD
1000
RTMaterial
1005
0
  0
LINE
  8
F01_OUT
  5
210
 10
20.797521
 20
116.810308
 30
0.0
 11
19.597521
 21
116.810308
 31
0.0
1001
ACAD
1000
RTMaterial
1005
0
  0
LINE
  8
F01_OUT
  5
211
 10
20.597521
 20
115.710308
 30
0.0
 11
20.797521
 21
115.710308
 31
0.0
1001
ACAD
1000
RTMaterial
1005
0
  0
LINE
  8
F01_OUT
  5
212
 10
20.597521
 20
124.610308
 30
0.0
 11
19.897521
 21
124.610308
 31
0.0
1001
ACAD
1000
RTMaterial
1005
0
  0
LINE
  8
F01_OUT
  5
213
 10
19.897521
 20
124.610308
 30
0.0
 11
19.597521
 21
124.610308
 31
0.0
1001
ACAD
1000
RTMaterial
1005
0
  0
LINE
  8
F01_OUT
  5
214
 10
28.747521
 20
115.710308
 30
0.0
 11
28.747521
 21
124.310308
 31
0.0
1001
ACAD
1000
RTMaterial
1005
0
  0
LINE
  8
F01_OUT
  5
215
 10
20.797521
 20
115.710308
 30
0.0
 11
20.797521
 21
116.710308
 31
0.0
1001
ACAD
1000
RTMaterial
1005
0
  0
LINE
  8
F01_OUT
  5
216
 10
20.797521
 20
116.710308
 30
0.0
 11
20.797521
 21
116.810308
 31
0.0
1001
ACAD
1000
RTMaterial
1005
0
  0
LINE
  8
F01_OUT
  5
217
 10
28.747521
 20
124.558513
 30
0.0
 11
28.747521
 21
124.310308
 31
0.0
1001
ACAD
1000
RTMaterial
1005
0
  0
LINE
  8
F01_OUT
  5
218
 10
22.097521
 20
124.610308
 30
0.0
 11
20.597521
 21
124.610308
 31
0.0
1001
ACAD
1000
RTMaterial
1005
0
  0
LINE
  8
F01_OUT
  5
219
 10
29.047521
 20
124.558513
 30
0.0
 11
28.747521
 21
124.558513
 31
0.0
1001
ACAD
1000
RTMaterial
1005
0
  0
LINE
  8
F01_OUT
  5
21A
 10
29.047521
 20
115.710308
 30
0.0
 11
28.747521
 21
115.710308
 31
0.0
1001
ACAD
1000
RTMaterial
1005
0
  0
LINE
  8
F01_OUT
  5
21B
 10
45.797521
 20
115.710308
 30
0.0
 11
37.847521
 21
115.710308
 31
0.0
1001
ACAD
1000
RTMaterial
1005
0
  0
LINE
  8
F01_OUT
  5
21C
 10
45.797521
 20
115.710308
 30
0.0
 11
45.797521
 21
116.710308
 31
0.0
1001
ACAD
1000
RTMaterial
1005
0
  0
LINE
  8
F01_OUT
  5
21D
 10
45.797521
 20
116.710308
 30
0.0
 11
45.797521
 21
116.810308
 31
0.0
1001
ACAD
1000
RTMaterial
1005
0
  0
LINE
  8
F01_OUT
  5
21E
 10
45.997521
 20
115.710308
 30
0.0
 11
45.797521
 21
115.710308
 31
0.0
1001
ACAD
1000
RTMaterial
1005
0
  0
LINE
  8
F01_OUT
  5
21F
 10
46.997521
 20
116.810308
 30
0.0
 11
46.997521
 21
121.010308
 31
0.0
1001
ACAD
1000
RTMaterial
1005
0
  0
LINE
  8
F01_OUT
  5
220
 10
46.997521
 20
116.810308
 30
0.0
 11
45.797521
 21
116.810308
 31
0.0
1001
ACAD
1000
RTMaterial
1005
0
  0
LINE
  8
F01_OUT
  5
221
 10
46.997521
 20
121.010308
 30
0.0
 11
46.997521
 21
122.210308
 31
0.0
1001
ACAD
1000
RTMaterial
1005
0
  0
LINE
  8
F01_OUT
  5
222
 10
46.997521
 20
122.210308
 30
0.0
 11
46.997521
 21
124.310308
 31
0.0
1001
ACAD
1000
RTMaterial
1005
0
  0
LINE
  8
F01_OUT
  5
223
 10
46.997521
 20
124.310308
 30
0.0
 11
46.997521
 21
124.610308
 31
0.0
1001
ACAD
1000
RTMaterial
1005
0
  0
LINE
  8
F01_OUT
  5
224
 10
46.997521
 20
124.610308
 30
0.0
 11
45.997521
 21
124.610308
 31
0.0
1001
ACAD
1000
RTMaterial
1005
0
  0
LINE
  8
F01_OUT
  5
225
 10
45.997521
 20
124.610308
 30
0.0
 11
42.297521
 21
124.610308
 31
0.0
1001
ACAD
1000
RTMaterial
1005
0
  0
LINE
  8
F01_OUT
  5
226
 10
42.297521
 20
124.610308
 30
0.0
 11
40.797521
 21
124.610308
 31
0.0
1001
ACAD
1000
RTMaterial
1005
0
  0
LINE
  8
F01_OUT
  5
227
 10
46.997521
 20
124.310308
 30
0.0
 11
37.847521
 21
124.310308
 31
0.0
1001
ACAD
1000
RTMaterial
1005
0
  0
LINE
  8
F01_OUT
  5
228
 10
40.797521
 20
124.610308
 30
0.0
 11
28.397521
 21
124.610308
 31
0.0
1001
ACAD
1000
RTMaterial
1005
0
  0
CIRCLE
  8
F01_OUT
  5
229
 10
59.697521
 20
117.110308
 30
0.0
 40
3.3
1001
ACAD
1000
RTMaterial
1005
0
  0
CIRCLE
  8
F01_OUT
  5
22A
 10
50.897521
 20
117.110308
 30
0.0
 40
3.3
1001
ACAD
1000
RTMaterial
1005
0
  0
LINE
  8
F01_OUT
  5
22B
 10
55.797521
 20
121.010308
 30
0.0
 11
55.897521
 21
121.010308
 31
0.0
1001
ACAD
1000
RTMaterial
1005
0
  0
LINE
  8
F01_OUT
  5
22C
 10
63.497521
 20
120.710308
 30
0.0
 11
55.897521
 21
120.710308
 31
0.0
1001
ACAD
1000
RTMaterial
1005
0
  0
LINE
  8
F01_OUT
  5
22D
 10
55.897521
 20
120.710308
 30
0.0
 11
55.797521
 21
120.710308
 31
0.0
1001
ACAD
1000
RTMaterial
1005
0
  0
LINE
  8
F01_OUT
  5
22E
 10
63.597521
 20
120.710308
 30
0.0
 11
63.497521
 21
120.710308
 31
0.0
1001
ACAD
1000
RTMaterial
1005
0
  0
LINE
  8
F01_OUT
  5
22F
 10
63.497521
 20
113.110308
 30
0.0
 11
63.597521
 21
113.110308
 31
0.0
1001
ACAD
1000
RTMaterial
1005
0
  0
LINE
  8
F01_OUT
  5
230
 10
55.447521
 20
113.210308
 30
0.0
 11
55.447521
 21
119.510308
 31
0.0
1001
ACAD
1000
RTMaterial
1005
0
  0
LINE
  8
F01_OUT
  5
231
 10
55.147521
 20
113.210308
 30
0.0
 11
55.147521
 21
119.510308
 31
0.0
1001
ACAD
1000
RTMaterial
1005
0
  0
LINE
  8
F01_OUT
  5
232
 10
55.447521
 20
113.210308
 30
0.0
 11
55.147521
 21
113.210308
 31
0.0
1001
ACAD
1000
RTMaterial
1005
0
  0
LINE
  8
F01_OUT
  5
233
 10
64.597521
 20
113.210308
 30
0.0
 11
63.497521
 21
113.210308
 31
0.0
1001
ACAD
1000
RTMaterial
1005
0
  0
LINE
  8
F01_OUT
  5
234
 10
55.897521
 20
113.210308
 30
0.0
 11
55.447521
 21
113.210308
 31
0.0
1001
ACAD
1000
RTMaterial
1005
0
  0
LINE
  8
F01_OUT
  5
235
 10
63.597521
 20
112.110308
 30
0.0
 11
63.497521
 21
112.110308
 31
0.0
1001
ACAD
1000
RTMaterial
1005
0
  0
LINE
  8
F01_OUT
  5
236
 10
63.497521
 20
112.110308
 30
0.0
 11
55.897521
 21
112.110308
 31
0.0
1001
ACAD
1000
RTMaterial
1005
0
  0
LINE
  8
F01_OUT
  5
237
 10
63.497521
 20
112.110308
 30
0.0
 11
63.497521
 21
113.110308
 31
0.0
1001
ACAD
1000
RTMaterial
1005
0
  0
LINE
  8
F01_OUT
  5
238
 10
63.497521
 20
113.110308
 30
0.0
 11
63.497521
 21
113.210308
 31
0.0
1001
ACAD
1000
RTMaterial
1005
0
  0
LINE
  8
F01_OUT
  5
239
 10
55.897521
 20
112.110308
 30
0.0
 11
55.897521
 21
113.210308
 31
0.0
1001
ACAD
1000
RTMaterial
1005
0
  0
LINE
  8
F01_OUT
  5
23A
 10
64.597521
 20
113.210308
 30
0.0
 11
64.597521
 21
119.810308
 31
0.0
1001
ACAD
1000
RTMaterial
1005
0
  0
LINE
  8
F01_OUT
  5
23B
 10
64.597521
 20
119.810308
 30
0.0
 11
64.597521
 21
120.710308
 31
0.0
1001
ACAD
1000
RTMaterial
1005
0
  0
LINE
  8
F01_OUT
  5
23C
 10
64.597521
 20
120.710308
 30
0.0
 11
64.597521
 21
121.010308
 31
0.0
1001
ACAD
1000
RTMaterial
1005
0
  0
LINE
  8
F01_OUT
  5
23D
 10
47.097521
 20
115.576333
 30
0.0
 11
47.097521
 21
116.598983
 31
0.0
1001
ACAD
1000
RTMaterial
1005
0
  0
LINE
  8
F01_OUT
  5
23E
 10
47.097521
 20
116.598983
 30
0.0
 11
47.097521
 21
117.621633
 31
0.0
1001
ACAD
1000
RTMaterial
1005
0
  0
LINE
  8
F01_OUT
  5
23F
 10
47.097521
 20
117.621633
 30
0.0
 11
47.097521
 21
118.644282
 31
0.0
1001
ACAD
1000
RTMaterial
1005
0
  0
LINE
  8
F01_OUT
  5
240
 10
47.097521
 20
118.644282
 30
0.0
 11
47.097521
 21
120.410308
 31
0.0
1001
ACAD
1000
RTMaterial
1005
0
  0
LINE
  8
F01_OUT
  5
241
 10
47.097521
 20
120.710308
 30
0.0
 11
47.097521
 21
121.010308
 31
0.0
1001
ACAD
1000
RTMaterial
1005
0
  0
LINE
  8
F01_OUT
  5
242
 10
47.097521
 20
113.810308
 30
0.0
 11
47.097521
 21
115.576333
 31
0.0
1001
ACAD
1000
RTMaterial
1005
0
  0
LINE
  8
F01_OUT
  5
243
 10
54.797521
 20
112.110308
 30
0.0
 11
54.697521
 21
112.110308
 31
0.0
1001
ACAD
1000
RTMaterial
1005
0
  0
LINE
  8
F01_OUT
  5
244
 10
54.697521
 20
112.110308
 30
0.0
 11
47.097521
 21
112.110308
 31
0.0
1001
ACAD
1000
RTMaterial
1005
0
  0
LINE
  8
F01_OUT
  5
245
 10
54.697521
 20
112.110308
 30
0.0
 11
54.697521
 21
113.110308
 31
0.0
1001
ACAD
1000
RTMaterial
1005
0
  0
LINE
  8
F01_OUT
  5
246
 10
54.697521
 20
113.110308
 30
0.0
 11
54.697521
 21
113.210308
 31
0.0
1001
ACAD
1000
RTMaterial
1005
0
  0
LINE
  8
F01_OUT
  5
247
 10
54.697521
 20
113.110308
 30
0.0
 11
54.797521
 21
113.110308
 31
0.0
1001
ACAD
1000
RTMaterial
1005
0
  0
LINE
  8
F01_OUT
  5
248
 10
47.097521
 20
112.110308
 30
0.0
 11
47.097521
 21
113.810308
 31
0.0
1001
ACAD
1000
RTMaterial
1005
0
  0
LINE
  8
F01_OUT
  5
249
 10
47.097521
 20
120.410308
 30
0.0
 11
47.097521
 21
120.710308
 31
0.0
1001
ACAD
1000
RTMaterial
1005
0
  0
LINE
  8
F01_OUT
  5
24A
 10
54.797521
 20
120.710308
 30
0.0
 11
54.697521
 21
120.710308
 31
0.0
1001
ACAD
1000
RTMaterial
1005
0
  0
LINE
  8
F01_OUT
  5
24B
 10
54.697521
 20
120.710308
 30
0.0
 11
47.097521
 21
120.710308
 31
0.0
1001
ACAD
1000
RTMaterial
1005
0
  0
LINE
  8
F01_OUT
  5
24C
 10
55.147521
 20
113.210308
 30
0.0
 11
54.697521
 21
113.210308
 31
0.0
1001
ACAD
1000
RTMaterial
1005
0
  0
CIRCLE
  8
F01_OUT
  5
24D
 10
59.697521
 20
125.710308
 30
0.0
 40
3.3
1001
ACAD
1000
RTMaterial
1005
0
  0
CIRCLE
  8
F01_OUT
  5
24E
 10
50.897521
 20
125.710308
 30
0.0
 40
3.3
1001
ACAD
1000
RTMaterial
1005
0
  0
LINE
  8
F01_OUT
  5
24F
 10
63.497521
 20
120.710308
 30
0.0
 11
55.897521
 21
120.710308
 31
0.0
1001
ACAD
1000
RTMaterial
1005
0
  0
LINE
  8
F01_OUT
  5
250
 10
63.597521
 20
120.710308
 30
0.0
 11
63.497521
 21
120.710308
 31
0.0
1001
ACAD
1000
RTMaterial
1005
0
  0
LINE
  8
F01_OUT
  5
251
 10
63.497521
 20
129.610308
 30
0.0
 11
63.597521
 21
129.610308
 31
0.0
1001
ACAD
1000
RTMaterial
1005
0
  0
LINE
  8
F01_OUT
  5
252
 10
63.497521
 20
121.710308
 30
0.0
 11
63.597521
 21
121.710308
 31
0.0
1001
ACAD
1000
RTMaterial
1005
0
  0
LINE
  8
F01_OUT
  5
253
 10
63.497521
 20
120.710308
 30
0.0
 11
63.497521
 21
121.710308
 31
0.0
1001
ACAD
1000
RTMaterial
1005
0
  0
LINE
  8
F01_OUT
  5
254
 10
63.497521
 20
121.710308
 30
0.0
 11
63.497521
 21
121.810308
 31
0.0
1001
ACAD
1000
RTMaterial
1005
0
  0
LINE
  8
F01_OUT
  5
255
 10
62.897521
 20
129.610308
 30
0.0
 11
63.497521
 21
129.610308
 31
0.0
1001
ACAD
1000
RTMaterial
1005
0
  0
LINE
  8
F01_OUT
  5
256
 10
62.397521
 20
129.610308
 30
0.0
 11
62.897521
 21
129.610308
 31
0.0
1001
ACAD
1000
RTMaterial
1005
0
  0
LINE
  8
F01_OUT
  5
257
 10
62.397521
 20
129.610308
 30
0.0
 11
61.997521
 21
129.610308
 31
0.0
1001
ACAD
1000
RTMaterial
1005
0
  0
LINE
  8
F01_OUT
  5
258
 10
64.597521
 20
129.610308
 30
0.0
 11
63.597521
 21
129.610308
 31
0.0
1001
ACAD
1000
RTMaterial
1005
0
  0
LINE
  8
F01_OUT
  5
259
 10
64.597521
 20
129.310308
 30
0.0
 11
55.447521
 21
129.310308
 31
0.0
1001
ACAD
1000
RTMaterial
1005
0
  0
LINE
  8
F01_OUT
  5
25A
 10
64.597521
 20
121.810308
 30
0.0
 11
63.497521
 21
121.810308
 31
0.0
1001
ACAD
1000
RTMaterial
1005
0
  0
LINE
  8
F01_OUT
  5
25B
 10
55.447521
 20
121.810308
 30
0.0
 11
55.447521
 21
129.310308
 31
0.0
1001
ACAD
1000
RTMaterial
1005
0
  0
LINE
  8
F01_OUT
  5
25C
 10
55.447521
 20
129.558513
 30
0.0
 11
55.447521
 21
129.310308
 31
0.0
1001
ACAD
1000
RTMaterial
1005
0
  0
LINE
  8
F01_OUT
  5
25D
 10
55.147521
 20
121.810308
 30
0.0
 11
55.147521
 21
129.310308
 31
0.0
1001
ACAD
1000
RTMaterial
1005
0
  0
LINE
  8
F01_OUT
  5
25E
 10
55.447521
 20
129.558513
 30
0.0
 11
55.147521
 21
129.558513
 31
0.0
1001
ACAD
1000
RTMaterial
1005
0
  0
LINE
  8
F01_OUT
  5
25F
 10
55.147521
 20
129.558513
 30
0.0
 11
55.147521
 21
129.310308
 31
0.0
1001
ACAD
1000
RTMaterial
1005
0
  0
LINE
  8
F01_OUT
  5
260
 10
55.897521
 20
120.710308
 30
0.0
 11
55.897521
 21
121.810308
 31
0.0
1001
ACAD
1000
RTMaterial
1005
0
  0
LINE
  8
F01_OUT
  5
261
 10
55.447521
 20
121.810308
 30
0.0
 11
55.147521
 21
121.810308
 31
0.0
1001
ACAD
1000
RTMaterial
1005
0
  0
LINE
  8
F01_OUT
  5
262
 10
55.897521
 20
121.810308
 30
0.0
 11
55.447521
 21
121.810308
 31
0.0
1001
ACAD
1000
RTMaterial
1005
0
  0
LINE
  8
F01_OUT
  5
263
 10
64.597521
 20
121.810308
 30
0.0
 11
64.597521
 21
129.310308
 31
0.0
1001
ACAD
1000
RTMaterial
1005
0
  0
LINE
  8
F01_OUT
  5
264
 10
64.597521
 20
129.310308
 30
0.0
 11
64.597521
 21
129.610308
 31
0.0
1001
ACAD
1000
RTMaterial
1005
0
  0
LINE
  8
F01_OUT
  5
265
 10
53.697521
 20
129.610308
 30
0.0
 11
48.797521
 21
129.610308
 31
0.0
1001
ACAD
1000
RTMaterial
1005
0
  0
LINE
  8
F01_OUT
  5
266
 10
47.097521
 20
129.610308
 30
0.0
 11
48.597521
 21
129.610308
 31
0.0
1001
ACAD
1000
RTMaterial
1005
0
  0
LINE
  8
F01_OUT
  5
267
 10
48.597521
 20
129.610308
 30
0.0
 11
48.797521
 21
129.610308
 31
0.0
1001
ACAD
1000
RTMaterial
1005
0
  0
LINE
  8
F01_OUT
  5
268
 10
47.097521
 20
129.310308
 30
0.0
 11
47.097521
 21
129.610308
 31
0.0
1001
ACAD
1000
RTMaterial
1005
0
  0
LINE
  8
F01_OUT
  5
269
 10
47.097521
 20
122.410308
 30
0.0
 11
47.097521
 21
124.176333
 31
0.0
1001
ACAD
1000
RTMaterial
1005
0
  0
LINE
  8
F01_OUT
  5
26A
 10
47.097521
 20
121.010308
 30
0.0
 11
47.097521
 21
122.410308
 31
0.0
1001
ACAD
1000
RTMaterial
1005
0
  0
LINE
  8
F01_OUT
  5
26B
 10
47.097521
 20
125.198983
 30
0.0
 11
47.097521
 21
126.221633
 31
0.0
1001
ACAD
1000
RTMaterial
1005
0
  0
LINE
  8
F01_OUT
  5
26C
 10
47.097521
 20
126.221633
 30
0.0
 11
47.097521
 21
127.244282
 31
0.0
1001
ACAD
1000
RTMaterial
1005
0
  0
LINE
  8
F01_OUT
  5
26D
 10
47.097521
 20
124.176333
 30
0.0
 11
47.097521
 21
125.198983
 31
0.0
1001
ACAD
1000
RTMaterial
1005
0
  0
LINE
  8
F01_OUT
  5
26E
 10
47.097521
 20
127.244282
 30
0.0
 11
47.097521
 21
129.010308
 31
0.0
1001
ACAD
1000
RTMaterial
1005
0
  0
LINE
  8
F01_OUT
  5
26F
 10
47.097521
 20
120.710308
 30
0.0
 11
47.097521
 21
121.010308
 31
0.0
1001
ACAD
1000
RTMaterial
1005
0
  0
LINE
  8
F01_OUT
  5
270
 10
47.097521
 20
129.010308
 30
0.0
 11
47.097521
 21
129.310308
 31
0.0
1001
ACAD
1000
RTMaterial
1005
0
  0
LINE
  8
F01_OUT
  5
271
 10
61.997521
 20
129.610308
 30
0.0
 11
53.697521
 21
129.610308
 31
0.0
1001
ACAD
1000
RTMaterial
1005
0
  0
LINE
  8
F01_OUT
  5
272
 10
55.147521
 20
129.310308
 30
0.0
 11
47.097521
 21
129.310308
 31
0.0
1001
ACAD
1000
RTMaterial
1005
0
  0
LINE
  8
F01_OUT
  5
273
 10
54.797521
 20
120.710308
 30
0.0
 11
54.697521
 21
120.710308
 31
0.0
1001
ACAD
1000
RTMaterial
1005
0
  0
LINE
  8
F01_OUT
  5
274
 10
54.697521
 20
120.710308
 30
0.0
 11
47.097521
 21
120.710308
 31
0.0
1001
ACAD
1000
RTMaterial
1005
0
  0
LINE
  8
F01_OUT
  5
275
 10
54.697521
 20
121.710308
 30
0.0
 11
54.797521
 21
121.710308
 31
0.0
1001
ACAD
1000
RTMaterial
1005
0
  0
LINE
  8
F01_OUT
  5
276
 10
54.697521
 20
120.710308
 30
0.0
 11
54.697521
 21
121.710308
 31
0.0
1001
ACAD
1000
RTMaterial
1005
0
  0
LINE
  8
F01_OUT
  5
277
 10
54.697521
 20
121.710308
 30
0.0
 11
54.697521
 21
121.810308
 31
0.0
1001
ACAD
1000
RTMaterial
1005
0
  0
LINE
  8
F01_OUT
  5
278
 10
55.147521
 20
121.810308
 30
0.0
 11
54.697521
 21
121.810308
 31
0.0
1001
ACAD
1000
RTMaterial
1005
0
  0
LINE
  8
F01_OUT
  5
279
 10
55.497521
 20
119.510308
 30
0.0
 11
55.097521
 21
119.510308
 31
0.0
1001
ACAD
1000
RTMaterial
1005
0
  0
LINE
  8
F01_OUT
  5
27A
 10
54.797521
 20
121.810308
 30
0.0
 11
54.797521
 21
120.810308
 31
0.0
1001
ACAD
1000
RTMaterial
1005
0
  0
LINE
  8
F01_OUT
  5
27B
 10
47.097521
 20
121.010308
 30
0.0
 11
46.997521
 21
121.010308
 31
0.0
1001
ACAD
1000
RTMaterial
1005
0
  0
LINE
  8
F01_OUT
  5
27C
 10
46.997521
 20
112.410308
 30
0.0
 11
46.997521
 21
112.529134
 31
0.0
1001
ACAD
1000
RTMaterial
1005
0
  0
LINE
  8
F01_OUT
  5
27D
 10
45.997521
 20
115.510308
 30
0.0
 11
45.997521
 21
114.486044
 31
0.0
1001
ACAD
1000
RTMaterial
1005
0
  0
LINE
  8
F01_OUT
  5
27E
 10
46.997521
 20
113.610308
 30
0.0
 11
46.997521
 21
115.510308
 31
0.0
1001
ACAD
1000
RTMaterial
1005
0
  0
LINE
  8
F01_OUT
  5
27F
 10
45.997521
 20
112.529134
 30
0.0
 11
45.997521
 21
112.310308
 31
0.0
1001
ACAD
1000
RTMaterial
1005
0
  0
LINE
  8
F01_OUT
  5
280
 10
45.997521
 20
114.110308
 30
0.0
 11
45.997521
 21
112.529134
 31
0.0
1001
ACAD
1000
RTMaterial
1005
0
  0
LINE
  8
F01_OUT
  5
281
 10
47.097521
 20
113.510308
 30
0.0
 11
46.997521
 21
113.610308
 31
0.0
1001
ACAD
1000
RTMaterial
1005
0
  0
LINE
  8
F01_OUT
  5
282
 10
46.297521
 20
112.010308
 30
0.0
 11
46.697521
 21
112.010308
 31
0.0
1001
ACAD
1000
RTMaterial
1005
0
  0
LINE
  8
F01_OUT
  5
283
 10
46.297521
 20
112.010308
 30
0.0
 11
45.797521
 21
112.010308
 31
0.0
1001
ACAD
1000
RTMaterial
1005
0
  0
LINE
  8
F01_OUT
  5
284
 10
54.697521
 20
130.610308
 30
0.0
 11
54.697521
 21
136.610308
 31
0.0
1001
ACAD
1000
RTMaterial
1005
0
  0
LINE
  8
F01_OUT
  5
285
 10
50.597521
 20
136.510308
 30
0.0
 11
53.697521
 21
136.510308
 31
0.0
1001
ACAD
1000
RTMaterial
1005
0
  0
LINE
  8
F01_OUT
  5
286
 10
53.697521
 20
137.910308
 30
0.0
 11
50.597521
 21
137.910308
 31
0.0
1001
ACAD
1000
RTMaterial
1005
0
  0
LINE
  8
F01_OUT
  5
287
 10
45.997521
 20
114.486044
 30
0.0
 11
45.997521
 21
114.110308
 31
0.0
1001
ACAD
1000
RTMaterial
1005
0
  0
LINE
  8
F01_OUT
  5
288
 10
46.997521
 20
112.410308
 30
0.0
 11
47.097521
 21
112.410308
 31
0.0
1001
ACAD
1000
RTMaterial
1005
0
  0
LINE
  8
F01_OUT
  5
289
 10
45.497521
 20
112.310308
 30
0.0
 11
45.497521
 21
114.410308
 31
0.0
1001
ACAD
1000
RTMaterial
1005
0
  0
LINE
  8
F01_OUT
  5
28A
 10
46.997521
 20
112.310308
 30
0.0
 11
46.997521
 21
112.410308
 31
0.0
1001
ACAD
1000
RTMaterial
1005
0
  0
LINE
  8
F01_OUT
  5
28B
 10
46.997521
 20
112.529134
 30
0.0
 11
46.997521
 21
113.610308
 31
0.0
1001
ACAD
1000
RTMaterial
1005
0
  0
LINE
  8
F01_OUT
  5
28C
 10
47.104045
 20
138.928919
 30
0.0
 11
45.989332
 21
137.993564
 31
0.0
1001
ACAD
1000
RTMaterial
1005
0
  0
LINE
  8
F01_OUT
  5
28D
 10
45.989332
 20
137.993564
 30
0.0
 11
45.468543
 21
137.55657
 31
0.0
1001
ACAD
1000
RTMaterial
1005
0
  0
LINE
  8
F01_OUT
  5
28E
 10
46.876499
 20
135.935396
 30
0.0
 11
47.226499
 21
136.541613
 31
0.0
1001
ACAD
1000
RTMaterial
1005
0
  0
LINE
  8
F01_OUT
  5
28F
 10
47.426103
 20
139.199158
 30
0.0
 11
47.104045
 21
138.928919
 31
0.0
1001
ACAD
1000
RTMaterial
1005
0
  0
LINE
  8
F01_OUT
  5
290
 10
47.226499
 20
136.541613
 30
0.0
 11
47.344553
 21
137.211127
 31
0.0
1001
ACAD
1000
RTMaterial
1005
0
  0
LINE
  8
F01_OUT
  5
291
 10
47.597238
 20
138.644174
 30
0.0
 11
47.670242
 21
139.058204
 31
0.0
1001
ACAD
1000
RTMaterial
1005
0
  0
LINE
  8
F01_OUT
  5
292
 10
47.344553
 20
137.211127
 30
0.0
 11
47.597238
 21
138.644174
 31
0.0
1001
ACAD
1000
RTMaterial
1005
0
  0
LINE
  8
F01_OUT
  5
293
 10
47.097521
 20
122.110308
 30
0.0
 11
46.997521
 21
122.210308
 31
0.0
1001
ACAD
1000
RTMaterial
1005
0
  0
LINE
  8
F01_OUT
  5
294
 10
40.797521
 20
124.610308
 30
0.0
 11
28.397521
 21
124.610308
 31
0.0
1001
ACAD
1000
RTMaterial
1005
0
  0
LINE
  8
F01_OUT
  5
295
 10
48.297521
 20
150.910308
 30
0.0
 11
56.822521
 21
150.910308
 31
0.0
1001
ACAD
1000
RTMaterial
1005
0
  0
LINE
  8
F01_OUT
  5
296
 10
64.597521
 20
148.410308
 30
0.0
 11
64.597521
 21
149.010308
 31
0.0
1001
ACAD
1000
RTMaterial
1005
0
  0
LINE
  8
F01_OUT
  5
297
 10
64.597521
 20
149.010308
 30
0.0
 11
64.597521
 21
150.410308
 31
0.0
1001
ACAD
1000
RTMaterial
1005
0
  0
LINE
  8
F01_OUT
  5
298
 10
64.497521
 20
152.310308
 30
0.0
 11
64.597521
 21
152.310308
 31
0.0
1001
ACAD
1000
RTMaterial
1005
0
  0
LINE
  8
F01_OUT
  5
299
 10
64.597521
 20
152.310308
 30
0.0
 11
64.597521
 21
150.410308
 31
0.0
1001
ACAD
1000
RTMaterial
1005
0
  0
LINE
  8
F01_OUT
  5
29A
 10
64.597521
 20
148.410308
 30
0.0
 11
64.597521
 21
145.210308
 31
0.0
1001
ACAD
1000
RTMaterial
1005
0
  0
LINE
  8
F01_OUT
  5
29B
 10
64.597521
 20
143.410308
 30
0.0
 11
64.597521
 21
141.610308
 31
0.0
1001
ACAD
1000
RTMaterial
1005
0
  0
LINE
  8
F01_OUT
  5
29C
 10
61.997521
 20
129.610308
 30
0.0
 11
53.697521
 21
129.610308
 31
0.0
1001
ACAD
1000
RTMaterial
1005
0
  0
LINE
  8
F01_OUT
  5
29D
 10
62.297521
 20
136.610308
 30
0.0
 11
54.697521
 21
136.610308
 31
0.0
1001
ACAD
1000
RTMaterial
1005
0
  0
LINE
  8
F01_OUT
  5
29E
 10
56.197521
 20
130.610308
 30
0.0
 11
54.697521
 21
130.610308
 31
0.0
1001
ACAD
1000
RTMaterial
1005
0
  0
LINE
  8
F01_OUT
  5
29F
 10
54.697521
 20
136.610308
 30
0.0
 11
56.197521
 21
135.110308
 31
0.0
1001
ACAD
1000
RTMaterial
1005
0
  0
LINE
  8
F01_OUT
  5
2A0
 10
45.497521
 20
114.410308
 30
0.0
 11
45.697521
 21
114.410308
 31
0.0
1001
ACAD
1000
RTMaterial
1005
0
  0
LINE
  8
F01_OUT
  5
2A1
 10
38.497521
 20
114.410308
 30
0.0
 11
45.497521
 21
114.410308
 31
0.0
1001
ACAD
1000
RTMaterial
1005
0
  0
LINE
  8
F01_OUT
  5
2A2
 10
38.497521
 20
114.910308
 30
0.0
 11
45.697521
 21
114.910308
 31
0.0
1001
ACAD
1000
RTMaterial
1005
0
  0
LINE
  8
F01_OUT
  5
2A3
 10
42.297521
 20
124.610308
 30
0.0
 11
40.797521
 21
124.610308
 31
0.0
1001
ACAD
1000
RTMaterial
1005
0
  0
LINE
  8
F01_OUT
  5
2A4
 10
45.997521
 20
124.610308
 30
0.0
 11
42.297521
 21
124.610308
 31
0.0
1001
ACAD
1000
RTMaterial
1005
0
  0
LINE
  8
F01_OUT
  5
2A5
 10
46.997521
 20
124.310308
 30
0.0
 11
46.997521
 21
124.610308
 31
0.0
1001
ACAD
1000
RTMaterial
1005
0
  0
LINE
  8
F01_OUT
  5
2A6
 10
46.997521
 20
122.210308
 30
0.0
 11
46.997521
 21
124.310308
 31
0.0
1001
ACAD
1000
RTMaterial
1005
0
  0
LINE
  8
F01_OUT
  5
2A7
 10
46.997521
 20
121.010308
 30
0.0
 11
46.997521
 21
122.210308
 31
0.0
1001
ACAD
1000
RTMaterial
1005
0
  0
LINE
  8
F01_OUT
  5
2A8
 10
46.997521
 20
124.610308
 30
0.0
 11
46.997521
 21
129.610308
 31
0.0
1001
ACAD
1000
RTMaterial
1005
0
  0
LINE
  8
F01_OUT
  5
2A9
 10
46.997521
 20
115.510308
 30
0.0
 11
46.997521
 21
116.810308
 31
0.0
1001
ACAD
1000
RTMaterial
1005
0
  0
LINE
  8
F01_OUT
  5
2AA
 10
46.997521
 20
116.810308
 30
0.0
 11
46.997521
 21
121.010308
 31
0.0
1001
ACAD
1000
RTMaterial
1005
0
  0
LINE
  8
F01_OUT
  5
2AB
 10
45.997521
 20
116.810308
 30
0.0
 11
45.997521
 21
115.510308
 31
0.0
1001
ACAD
1000
RTMaterial
1005
0
  0
LINE
  8
F01_OUT
  5
2AC
 10
45.997521
 20
129.610308
 30
0.0
 11
45.997521
 21
132.510308
 31
0.0
1001
ACAD
1000
RTMaterial
1005
0
  0
LINE
  8
F01_OUT
  5
2AD
 10
45.068926
 20
148.581712
 30
0.0
 11
45.097521
 21
148.610308
 31
0.0
1001
ACAD
1000
RTMaterial
1005
0
  0
LINE
  8
F01_OUT
  5
2AE
 10
48.597521
 20
129.610308
 30
0.0
 11
48.797521
 21
129.610308
 31
0.0
1001
ACAD
1000
RTMaterial
1005
0
  0
LINE
  8
F01_OUT
  5
2AF
 10
47.097521
 20
129.610308
 30
0.0
 11
48.597521
 21
129.610308
 31
0.0
1001
ACAD
1000
RTMaterial
1005
0
  0
LINE
  8
F01_OUT
  5
2B0
 10
45.997521
 20
129.610308
 30
0.0
 11
46.997521
 21
129.610308
 31
0.0
1001
ACAD
1000
RTMaterial
1005
0
  0
LINE
  8
F01_OUT
  5
2B1
 10
43.497521
 20
129.610308
 30
0.0
 11
45.997521
 21
129.610308
 31
0.0
1001
ACAD
1000
RTMaterial
1005
0
  0
LINE
  8
F01_OUT
  5
2B2
 10
53.697521
 20
129.610308
 30
0.0
 11
48.797521
 21
129.610308
 31
0.0
1001
ACAD
1000
RTMaterial
1005
0
  0
LINE
  8
F01_OUT
  5
2B3
 10
53.697521
 20
137.910308
 30
0.0
 11
53.697521
 21
136.510308
 31
0.0
1001
ACAD
1000
RTMaterial
1005
0
  0
LINE
  8
F01_OUT
  5
2B4
 10
45.468543
 20
137.55657
 30
0.0
 11
45.118543
 21
136.950352
 31
0.0
1001
ACAD
1000
RTMaterial
1005
0
  0
LINE
  8
F01_OUT
  5
2B5
 10
53.697521
 20
136.510308
 30
0.0
 11
53.697521
 21
129.610308
 31
0.0
1001
ACAD
1000
RTMaterial
1005
0
  0
LINE
  8
F01_OUT
  5
2B6
 10
46.997521
 20
129.610308
 30
0.0
 11
47.097521
 21
129.610308
 31
0.0
1001
ACAD
1000
RTMaterial
1005
0
  0
LINE
  8
F01_OUT
  5
2B7
 10
45.22835
 20
136.540545
 30
0.0
 11
46.466692
 21
135.825588
 31
0.0
1001
ACAD
1000
RTMaterial
1005
0
  0
LINE
  8
F01_OUT
  5
2B8
 10
45.997521
 20
132.510308
 30
0.0
 11
43.497521
 21
132.510308
 31
0.0
1001
ACAD
1000
RTMaterial
1005
0
  0
LINE
  8
F01_OUT
  5
2B9
 10
43.797521
 20
147.610308
 30
0.0
 11
44.597521
 21
147.610308
 31
0.0
1001
ACAD
1000
RTMaterial
1005
0
  0
LINE
  8
F01_OUT
  5
2BA
 10
45.324002
 20
140.610308
 30
0.0
 11
43.671483
 21
140.610308
 31
0.0
1001
ACAD
1000
RTMaterial
1005
0
  0
LINE
  8
F01_OUT
  5
2BB
 10
43.497521
 20
132.510308
 30
0.0
 11
43.497521
 21
129.610308
 31
0.0
1001
ACAD
1000
RTMaterial
1005
0
  0
LINE
  8
F01_OUT
  5
2BC
 10
43.497521
 20
140.610308
 30
0.0
 11
43.497521
 21
132.510308
 31
0.0
1001
ACAD
1000
RTMaterial
1005
0
  0
LINE
  8
F01_OUT
  5
2BD
 10
43.671483
 20
140.610308
 30
0.0
 11
43.497521
 21
140.610308
 31
0.0
1001
ACAD
1000
RTMaterial
1005
0
  0
LINE
  8
F01_OUT
  5
2BE
 10
43.297521
 20
148.910308
 30
0.0
 11
43.297521
 21
148.817415
 31
0.0
1001
ACAD
1000
RTMaterial
1005
0
  0
LINE
  8
F01_OUT
  5
2BF
 10
43.297521
 20
148.817415
 30
0.0
 11
43.297521
 21
148.110308
 31
0.0
1001
ACAD
1000
RTMaterial
1005
0
  0
LINE
  8
F01_OUT
  5
2C0
 10
45.097521
 20
148.110308
 30
0.0
 11
45.097521
 21
148.610308
 31
0.0
1001
ACAD
1000
RTMaterial
1005
0
  0
LINE
  8
F01_OUT
  5
2C1
 10
45.097521
 20
148.610308
 30
0.0
 11
45.097521
 21
148.910308
 31
0.0
1001
ACAD
1000
RTMaterial
1005
0
  0
LINE
  8
F01_OUT
  5
2C2
 10
44.597521
 20
149.410308
 30
0.0
 11
43.797521
 21
149.410308
 31
0.0
1001
ACAD
1000
RTMaterial
1005
0
  0
LINE
  8
F01_OUT
  5
2C3
 10
45.497521
 20
150.910308
 30
0.0
 11
45.997521
 21
150.910308
 31
0.0
1001
ACAD
1000
RTMaterial
1005
0
  0
LINE
  8
F01_OUT
  5
2C4
 10
43.097521
 20
150.910308
 30
0.0
 11
43.597521
 21
150.910308
 31
0.0
1001
ACAD
1000
RTMaterial
1005
0
  0
LINE
  8
F01_OUT
  5
2C5
 10
43.597521
 20
150.910308
 30
0.0
 11
43.797521
 21
150.910308
 31
0.0
1001
ACAD
1000
RTMaterial
1005
0
  0
LINE
  8
F01_OUT
  5
2C6
 10
45.297521
 20
150.910308
 30
0.0
 11
45.497521
 21
150.910308
 31
0.0
1001
ACAD
1000
RTMaterial
1005
0
  0
LINE
  8
F01_OUT
  5
2C7
 10
45.997521
 20
150.910308
 30
0.0
 11
46.497521
 21
150.910308
 31
0.0
1001
ACAD
1000
RTMaterial
1005
0
  0
LINE
  8
F01_OUT
  5
2C8
 10
43.797521
 20
150.910308
 30
0.0
 11
45.297521
 21
150.910308
 31
0.0
1001
ACAD
1000
RTMaterial
1005
0
  0
LINE
  8
F01_OUT
  5
2C9
 10
38.197521
 20
150.910308
 30
0.0
 11
43.097521
 21
150.910308
 31
0.0
1001
ACAD
1000
RTMaterial
1005
0
  0
LINE
  8
F01_OUT
  5
2CA
 10
38.697521
 20
151.910308
 30
0.0
 11
39.697521
 21
151.910308
 31
0.0
1001
ACAD
1000
RTMaterial
1005
0
  0
LINE
  8
F01_OUT
  5
2CB
 10
45.997521
 20
150.910308
 30
0.0
 11
45.997521
 21
151.410308
 31
0.0
1001
ACAD
1000
RTMaterial
1005
0
  0
LINE
  8
F01_OUT
  5
2CC
 10
46.997521
 20
150.910308
 30
0.0
 11
47.297521
 21
150.910308
 31
0.0
1001
ACAD
1000
RTMaterial
1005
0
  0
LINE
  8
F01_OUT
  5
2CD
 10
46.997521
 20
150.910308
 30
0.0
 11
46.497521
 21
150.910308
 31
0.0
1001
ACAD
1000
RTMaterial
1005
0
  0
LINE
  8
F01_OUT
  5
2CE
 10
47.297521
 20
150.910308
 30
0.0
 11
48.297521
 21
150.910308
 31
0.0
1001
ACAD
1000
RTMaterial
1005
0
  0
LINE
  8
F01_OUT
  5
2CF
 10
29.397521
 20
112.529134
 30
0.0
 11
29.397521
 21
112.310308
 31
0.0
1001
ACAD
1000
RTMaterial
1005
0
  0
LINE
  8
F01_OUT
  5
2D0
 10
28.397521
 20
150.910308
 30
0.0
 11
29.247521
 21
150.910308
 31
0.0
1001
ACAD
1000
RTMaterial
1005
0
  0
LINE
  8
F01_OUT
  5
2D1
 10
28.697521
 20
112.010308
 30
0.0
 11
29.097521
 21
112.010308
 31
0.0
1001
ACAD
1000
RTMaterial
1005
0
  0
LINE
  8
F01_OUT
  5
2D2
 10
20.297521
 20
112.010308
 30
0.0
 11
19.897521
 21
112.010308
 31
0.0
1001
ACAD
1000
RTMaterial
1005
0
  0
LINE
  8
F01_OUT
  5
2D3
 10
28.397521
 20
112.529134
 30
0.0
 11
28.397521
 21
112.310308
 31
0.0
1001
ACAD
1000
RTMaterial
1005
0
  0
LINE
  8
F01_OUT
  5
2D4
 10
22.097521
 20
124.610308
 30
0.0
 11
20.597521
 21
124.610308
 31
0.0
1001
ACAD
1000
RTMaterial
1005
0
  0
LINE
  8
F01_OUT
  5
2D5
 10
20.597521
 20
115.510308
 30
0.0
 11
20.597521
 21
114.486044
 31
0.0
1001
ACAD
1000
RTMaterial
1005
0
  0
LINE
  8
F01_OUT
  5
2D6
 10
22.097521
 20
126.110308
 30
0.0
 11
20.597521
 21
126.110308
 31
0.0
1001
ACAD
1000
RTMaterial
1005
0
  0
LINE
  8
F01_OUT
  5
2D7
 10
20.597521
 20
125.110308
 30
0.0
 11
20.597521
 21
124.610308
 31
0.0
1001
ACAD
1000
RTMaterial
1005
0
  0
LINE
  8
F01_OUT
  5
2D8
 10
20.597521
 20
126.110308
 30
0.0
 11
20.597521
 21
125.110308
 31
0.0
1001
ACAD
1000
RTMaterial
1005
0
  0
LINE
  8
F01_OUT
  5
2D9
 10
26.397521
 20
150.910308
 30
0.0
 11
26.697521
 21
150.910308
 31
0.0
1001
ACAD
1000
RTMaterial
1005
0
  0
LINE
  8
F01_OUT
  5
2DA
 10
25.997521
 20
150.910308
 30
0.0
 11
26.097521
 21
150.910308
 31
0.0
1001
ACAD
1000
RTMaterial
1005
0
  0
LINE
  8
F01_OUT
  5
2DB
 10
26.097521
 20
150.910308
 30
0.0
 11
26.397521
 21
150.910308
 31
0.0
1001
ACAD
1000
RTMaterial
1005
0
  0
LINE
  8
F01_OUT
  5
2DC
 10
26.697521
 20
150.910308
 30
0.0
 11
28.397521
 21
150.910308
 31
0.0
1001
ACAD
1000
RTMaterial
1005
0
  0
LINE
  8
F01_OUT
  5
2DD
 10
28.397521
 20
114.486044
 30
0.0
 11
28.397521
 21
114.110308
 31
0.0
1001
ACAD
1000
RTMaterial
1005
0
  0
LINE
  8
F01_OUT
  5
2DE
 10
28.397521
 20
115.510308
 30
0.0
 11
28.397521
 21
114.486044
 31
0.0
1001
ACAD
1000
RTMaterial
1005
0
  0
LINE
  8
F01_OUT
  5
2DF
 10
28.397521
 20
115.710308
 30
0.0
 11
28.397521
 21
115.510308
 31
0.0
1001
ACAD
1000
RTMaterial
1005
0
  0
LINE
  8
F01_OUT
  5
2E0
 10
28.397521
 20
114.110308
 30
0.0
 11
28.397521
 21
112.529134
 31
0.0
1001
ACAD
1000
RTMaterial
1005
0
  0
LINE
  8
F01_OUT
  5
2E1
 10
22.097521
 20
125.110308
 30
0.0
 11
20.597521
 21
125.110308
 31
0.0
1001
ACAD
1000
RTMaterial
1005
0
  0
LINE
  8
F01_OUT
  5
2E2
 10
28.097521
 20
114.910308
 30
0.0
 11
20.897521
 21
114.910308
 31
0.0
1001
ACAD
1000
RTMaterial
1005
0
  0
LINE
  8
F01_OUT
  5
2E3
 10
19.597521
 20
150.910308
 30
0.0
 11
19.597521
 21
150.410308
 31
0.0
1001
ACAD
1000
RTMaterial
1005
0
  0
LINE
  8
F01_OUT
  5
2E4
 10
20.597521
 20
150.410308
 30
0.0
 11
20.597521
 21
150.910308
 31
0.0
1001
ACAD
1000
RTMaterial
1005
0
  0
LINE
  8
F01_OUT
  5
2E5
 10
19.748078
 20
150.410308
 30
0.0
 11
19.748078
 21
149.910308
 31
0.0
1001
ACAD
1000
RTMaterial
1005
0
  0
LINE
  8
F01_OUT
  5
2E6
 10
19.748078
 20
150.410308
 30
0.0
 11
19.597521
 21
150.410308
 31
0.0
1001
ACAD
1000
RTMaterial
1005
0
  0
LINE
  8
F01_OUT
  5
2E7
 10
19.597521
 20
150.410308
 30
0.0
 11
19.597521
 21
112.310308
 31
0.0
1001
ACAD
1000
RTMaterial
1005
0
  0
LINE
  8
F01_OUT
  5
2E8
 10
19.748078
 20
126.610308
 30
0.0
 11
19.748078
 21
126.110308
 31
0.0
1001
ACAD
1000
RTMaterial
1005
0
  0
LINE
  8
F01_OUT
  5
2E9
 10
19.748078
 20
126.110308
 30
0.0
 11
19.597521
 21
126.110308
 31
0.0
1001
ACAD
1000
RTMaterial
1005
0
  0
LINE
  8
F01_OUT
  5
2EA
 10
19.997521
 20
150.910308
 30
0.0
 11
19.697521
 21
150.910308
 31
0.0
1001
ACAD
1000
RTMaterial
1005
0
  0
LINE
  8
F01_OUT
  5
2EB
 10
19.697521
 20
150.910308
 30
0.0
 11
19.597521
 21
150.910308
 31
0.0
1001
ACAD
1000
RTMaterial
1005
0
  0
LINE
  8
F01_OUT
  5
2EC
 10
20.597521
 20
150.910308
 30
0.0
 11
19.997521
 21
150.910308
 31
0.0
1001
ACAD
1000
RTMaterial
1005
0
  0
LINE
  8
F01_OUT
  5
2ED
 10
19.697521
 20
152.310308
 30
0.0
 11
19.597521
 21
152.310308
 31
0.0
1001
ACAD
1000
RTMaterial
1005
0
  0
LINE
  8
F01_OUT
  5
2EE
 10
19.597521
 20
150.910308
 30
0.0
 11
19.597521
 21
152.310308
 31
0.0
1001
ACAD
1000
RTMaterial
1005
0
  0
LINE
  8
F01_OUT
  5
2EF
 10
19.897521
 20
124.610308
 30
0.0
 11
19.597521
 21
124.610308
 31
0.0
1001
ACAD
1000
RTMaterial
1005
0
  0
LINE
  8
F01_OUT
  5
2F0
 10
20.597521
 20
124.610308
 30
0.0
 11
19.897521
 21
124.610308
 31
0.0
1001
ACAD
1000
RTMaterial
1005
0
  0
LINE
  8
F01_OUT
  5
2F1
 10
20.597521
 20
126.110308
 30
0.0
 11
19.748078
 21
126.110308
 31
0.0
1001
ACAD
1000
RTMaterial
1005
0
  0
LINE
  8
F01_OUT
  5
2F2
 10
20.597521
 20
114.486044
 30
0.0
 11
20.597521
 21
114.110308
 31
0.0
1001
ACAD
1000
RTMaterial
1005
0
  0
LINE
  8
F01_OUT
  5
2F3
 10
20.597521
 20
112.529134
 30
0.0
 11
20.597521
 21
112.310308
 31
0.0
1001
ACAD
1000
RTMaterial
1005
0
  0
LINE
  8
F01_OUT
  5
2F4
 10
20.597521
 20
114.110308
 30
0.0
 11
20.597521
 21
112.529134
 31
0.0
1001
ACAD
1000
RTMaterial
1005
0
  0
LINE
  8
F01_OUT
  5
2F5
 10
20.597521
 20
116.810308
 30
0.0
 11
20.597521
 21
115.510308
 31
0.0
1001
ACAD
1000
RTMaterial
1005
0
  0
LINE
  8
F01_OUT
  5
2F6
 10
25.997521
 20
150.410308
 30
0.0
 11
25.997521
 21
150.910308
 31
0.0
1001
ACAD
1000
RTMaterial
1005
0
  0
LINE
  8
F01_OUT
  5
2F7
 10
25.797521
 20
147.660308
 30
0.0
 11
25.797521
 21
145.660308
 31
0.0
1001
ACAD
1000
RTMaterial
1005
0
  0
LINE
  8
F01_OUT
  5
2F8
 10
20.597521
 20
150.410308
 30
0.0
 11
19.748078
 21
150.410308
 31
0.0
1001
ACAD
1000
RTMaterial
1005
0
  0
LINE
  8
F01_OUT
  5
2F9
 10
22.92866
 20
149.910308
 30
0.0
 11
22.92866
 21
150.410308
 31
0.0
1001
ACAD
1000
RTMaterial
1005
0
  0
LINE
  8
F01_OUT
  5
2FA
 10
22.92866
 20
150.410308
 30
0.0
 11
20.597521
 21
150.410308
 31
0.0
1001
ACAD
1000
RTMaterial
1005
0
  0
LINE
  8
F01_OUT
  5
2FB
 10
23.397521
 20
145.660308
 30
0.0
 11
23.397521
 21
147.660308
 31
0.0
1001
ACAD
1000
RTMaterial
1005
0
  0
LINE
  8
F01_OUT
  5
2FC
 10
25.797521
 20
147.660308
 30
0.0
 11
23.397521
 21
147.660308
 31
0.0
1001
ACAD
1000
RTMaterial
1005
0
  0
LINE
  8
F01_OUT
  5
2FD
 10
23.397521
 20
145.660308
 30
0.0
 11
25.797521
 21
145.660308
 31
0.0
1001
ACAD
1000
RTMaterial
1005
0
  0
LINE
  8
F01_OUT
  5
2FE
 10
25.997521
 20
150.410308
 30
0.0
 11
22.92866
 21
150.410308
 31
0.0
1001
ACAD
1000
RTMaterial
1005
0
  0
LINE
  8
F01_OUT
  5
2FF
 10
28.097521
 20
114.410308
 30
0.0
 11
20.897521
 21
114.410308
 31
0.0
1001
ACAD
1000
RTMaterial
1005
0
  0
LINE
  8
F01_OUT
  5
300
 10
22.097521
 20
126.110308
 30
0.0
 11
22.097521
 21
124.610308
 31
0.0
1001
ACAD
1000
RTMaterial
1005
0
  0
LINE
  8
F01_OUT
  5
301
 10
22.92866
 20
126.110308
 30
0.0
 11
22.097521
 21
126.110308
 31
0.0
1001
ACAD
1000
RTMaterial
1005
0
  0
LINE
  8
F01_OUT
  5
302
 10
26.197521
 20
126.110308
 30
0.0
 11
22.92866
 21
126.110308
 31
0.0
1001
ACAD
1000
RTMaterial
1005
0
  0
LINE
  8
F01_OUT
  5
303
 10
26.197521
 20
126.110308
 30
0.0
 11
26.197521
 21
124.610308
 31
0.0
1001
ACAD
1000
RTMaterial
1005
0
  0
LINE
  8
F01_OUT
  5
304
 10
22.92866
 20
126.110308
 30
0.0
 11
22.92866
 21
126.610308
 31
0.0
1001
ACAD
1000
RTMaterial
1005
0
  0
LINE
  8
F01_OUT
  5
305
 10
25.797521
 20
124.610308
 30
0.0
 11
24.297521
 21
124.610308
 31
0.0
1001
ACAD
1000
RTMaterial
1005
0
  0
LINE
  8
F01_OUT
  5
306
 10
26.197521
 20
124.610308
 30
0.0
 11
25.797521
 21
124.610308
 31
0.0
1001
ACAD
1000
RTMaterial
1005
0
  0
LINE
  8
F01_OUT
  5
307
 10
28.397521
 20
124.610308
 30
0.0
 11
26.197521
 21
124.610308
 31
0.0
1001
ACAD
1000
RTMaterial
1005
0
  0
LINE
  8
F01_OUT
  5
308
 10
24.297521
 20
124.610308
 30
0.0
 11
22.097521
 21
124.610308
 31
0.0
1001
ACAD
1000
RTMaterial
1005
0
  0
LINE
  8
F01_OUT
  5
309
 10
63.897521
 20
110.910308
 30
0.0
 11
64.297521
 21
110.910308
 31
0.0
1001
ACAD
1000
RTMaterial
1005
0
  0
LINE
  8
F01_OUT
  5
30A
 10
64.597521
 20
150.410308
 30
0.0
 11
64.497521
 21
150.410308
 31
0.0
1001
ACAD
1000
RTMaterial
1005
0
  0
LINE
  8
F01_OUT
  5
30B
 10
64.597521
 20
129.310308
 30
0.0
 11
64.597521
 21
129.610308
 31
0.0
1001
ACAD
1000
RTMaterial
1005
0
  0
LINE
  8
F01_OUT
  5
30C
 10
64.597521
 20
121.010308
 30
0.0
 11
64.597521
 21
121.810308
 31
0.0
1001
ACAD
1000
RTMaterial
1005
0
  0
LINE
  8
F01_OUT
  5
30D
 10
64.597521
 20
120.710308
 30
0.0
 11
64.597521
 21
121.010308
 31
0.0
1001
ACAD
1000
RTMaterial
1005
0
  0
LINE
  8
F01_OUT
  5
30E
 10
64.597521
 20
119.810308
 30
0.0
 11
64.597521
 21
120.710308
 31
0.0
1001
ACAD
1000
RTMaterial
1005
0
  0
LINE
  8
F01_OUT
  5
30F
 10
64.597521
 20
129.610308
 30
0.0
 11
64.597521
 21
141.610308
 31
0.0
1001
ACAD
1000
RTMaterial
1005
0
  0
LINE
  8
F01_OUT
  5
310
 10
64.597521
 20
121.810308
 30
0.0
 11
64.597521
 21
129.310308
 31
0.0
1001
ACAD
1000
RTMaterial
1005
0
  0
LINE
  8
F01_OUT
  5
311
 10
64.597521
 20
111.210308
 30
0.0
 11
64.597521
 21
112.410308
 31
0.0
1001
ACAD
1000
RTMaterial
1005
0
  0
LINE
  8
F01_OUT
  5
312
 10
64.597521
 20
112.410308
 30
0.0
 11
64.597521
 21
113.210308
 31
0.0
1001
ACAD
1000
RTMaterial
1005
0
  0
LINE
  8
F01_OUT
  5
313
 10
64.597521
 20
113.210308
 30
0.0
 11
64.597521
 21
119.810308
 31
0.0
1001
ACAD
1000
RTMaterial
1005
0
  0
LINE
  8
F01_OUT
  5
314
 10
64.597521
 20
145.210308
 30
0.0
 11
63.597521
 21
145.210308
 31
0.0
1001
ACAD
1000
RTMaterial
1005
0
  0
LINE
  8
F01_OUT
  5
315
 10
63.597521
 20
143.410308
 30
0.0
 11
64.597521
 21
143.410308
 31
0.0
1001
ACAD
1000
RTMaterial
1005
0
  0
LINE
  8
F01_OUT
  5
316
 10
54.797521
 20
119.810308
 30
0.0
 11
54.797521
 21
120.810308
 31
0.0
1001
ACAD
1000
RTMaterial
1005
0
  0
LINE
  8
F01_OUT
  5
317
 10
54.797521
 20
113.210308
 30
0.0
 11
54.797521
 21
111.210308
 31
0.0
1001
ACAD
1000
RTMaterial
1005
0
  0
LINE
  8
F01_OUT
  5
318
 10
63.597521
 20
111.210308
 30
0.0
 11
63.597521
 21
113.210308
 31
0.0
1001
ACAD
1000
RTMaterial
1005
0
  0
LINE
  8
F01_OUT
  5
319
 10
55.797521
 20
111.210308
 30
0.0
 11
55.797521
 21
112.410308
 31
0.0
1001
ACAD
1000
RTMaterial
1005
0
  0
LINE
  8
F01_OUT
  5
31A
 10
55.497521
 20
110.910308
 30
0.0
 11
55.097521
 21
110.910308
 31
0.0
1001
ACAD
1000
RTMaterial
1005
0
  0
LINE
  8
F01_OUT
  5
31B
 10
55.797521
 20
112.410308
 30
0.0
 11
55.897521
 21
112.410308
 31
0.0
1001
ACAD
1000
RTMaterial
1005
0
  0
LINE
  8
F01_OUT
  5
31C
 10
55.797521
 20
113.210308
 30
0.0
 11
55.797521
 21
112.410308
 31
0.0
1001
ACAD
1000
RTMaterial
1005
0
  0
LINE
  8
F01_OUT
  5
31D
 10
64.297521
 20
119.510308
 30
0.0
 11
63.897521
 21
119.510308
 31
0.0
1001
ACAD
1000
RTMaterial
1005
0
  0
LINE
  8
F01_OUT
  5
31E
 10
56.197521
 20
131.110308
 30
0.0
 11
56.197521
 21
130.610308
 31
0.0
1001
ACAD
1000
RTMaterial
1005
0
  0
LINE
  8
F01_OUT
  5
31F
 10
55.797521
 20
121.810308
 30
0.0
 11
55.797521
 21
121.010308
 31
0.0
1001
ACAD
1000
RTMaterial
1005
0
  0
LINE
  8
F01_OUT
  5
320
 10
55.797521
 20
119.810308
 30
0.0
 11
55.797521
 21
121.010308
 31
0.0
1001
ACAD
1000
RTMaterial
1005
0
  0
LINE
  8
F01_OUT
  5
321
 10
62.297521
 20
130.610308
 30
0.0
 11
62.297521
 21
136.610308
 31
0.0
1001
ACAD
1000
RTMaterial
1005
0
  0
LINE
  8
F01_OUT
  5
322
 10
63.597521
 20
120.810308
 30
0.0
 11
63.597521
 21
121.810308
 31
0.0
1001
ACAD
1000
RTMaterial
1005
0
  0
LINE
  8
F01_OUT
  5
323
 10
60.797521
 20
130.610308
 30
0.0
 11
60.797521
 21
135.110308
 31
0.0
1001
ACAD
1000
RTMaterial
1005
0
  0
LINE
  8
F01_OUT
  5
324
 10
62.297521
 20
136.610308
 30
0.0
 11
60.797521
 21
135.110308
 31
0.0
1001
ACAD
1000
RTMaterial
1005
0
  0
LINE
  8
F01_OUT
  5
325
 10
56.197521
 20
134.710308
 30
0.0
 11
56.197521
 21
131.110308
 31
0.0
1001
ACAD
1000
RTMaterial
1005
0
  0
LINE
  8
F01_OUT
  5
326
 10
56.197521
 20
135.110308
 30
0.0
 11
56.197521
 21
134.710308
 31
0.0
1001
ACAD
1000
RTMaterial
1005
0
  0
LINE
  8
F01_OUT
  5
327
 10
60.797521
 20
135.110308
 30
0.0
 11
56.197521
 21
135.110308
 31
0.0
1001
ACAD
1000
RTMaterial
1005
0
  0
LINE
  8
F01_OUT
  5
328
 10
62.297521
 20
130.610308
 30
0.0
 11
60.797521
 21
130.610308
 31
0.0
1001
ACAD
1000
RTMaterial
1005
0
  0
LINE
  8
F01_OUT
  5
329
 10
60.797521
 20
130.610308
 30
0.0
 11
56.197521
 21
130.610308
 31
0.0
1001
ACAD
1000
RTMaterial
1005
0
  0
LINE
  8
F01_OUT
  5
32A
 10
62.397521
 20
129.610308
 30
0.0
 11
61.997521
 21
129.610308
 31
0.0
1001
ACAD
1000
RTMaterial
1005
0
  0
LINE
  8
F01_OUT
  5
32B
 10
62.397521
 20
129.610308
 30
0.0
 11
62.897521
 21
129.610308
 31
0.0
1001
ACAD
1000
RTMaterial
1005
0
  0
LINE
  8
F01_OUT
  5
32C
 10
62.897521
 20
129.610308
 30
0.0
 11
63.497521
 21
129.610308
 31
0.0
1001
ACAD
1000
RTMaterial
1005
0
  0
LINE
  8
F01_OUT
  5
32D
 10
62.897521
 20
129.610308
 30
0.0
 11
63.397521
 21
130.110308
 31
0.0
1001
ACAD
1000
RTMaterial
1005
0
  0
LINE
  8
F01_OUT
  5
32E
 10
63.497521
 20
129.610308
 30
0.0
 11
63.597521
 21
129.610308
 31
0.0
1001
ACAD
1000
RTMaterial
1005
0
  0
LINE
  8
F01_OUT
  5
32F
 10
63.597521
 20
120.710308
 30
0.0
 11
63.597521
 21
120.810308
 31
0.0
1001
ACAD
1000
RTMaterial
1005
0
  0
LINE
  8
F01_OUT
  5
330
 10
63.597521
 20
119.810308
 30
0.0
 11
63.597521
 21
120.710308
 31
0.0
1001
ACAD
1000
RTMaterial
1005
0
  0
LINE
  8
F01_OUT
  5
331
 10
63.397521
 20
141.610308
 30
0.0
 11
63.397521
 21
130.110308
 31
0.0
1001
ACAD
1000
RTMaterial
1005
0
  0
LINE
  8
F01_OUT
  5
332
 10
55.797521
 20
121.010308
 30
0.0
 11
55.897521
 21
121.010308
 31
0.0
1001
ACAD
1000
RTMaterial
1005
0
  0
LINE
  8
F01_OUT
  5
333
 10
64.597521
 20
141.610308
 30
0.0
 11
64.297521
 21
141.610308
 31
0.0
1001
ACAD
1000
RTMaterial
1005
0
  0
LINE
  8
F01_OUT
  5
334
 10
64.297521
 20
141.610308
 30
0.0
 11
63.397521
 21
141.610308
 31
0.0
1001
ACAD
1000
RTMaterial
1005
0
  0
LINE
  8
F01_OUT
  5
335
 10
64.597521
 20
145.210308
 30
0.0
 11
64.597521
 21
143.410308
 31
0.0
1001
ACAD
1000
RTMaterial
1005
0
  0
LINE
  8
F01_OUT
  5
336
 10
62.397521
 20
146.110308
 30
0.0
 11
62.472521
 21
146.110308
 31
0.0
1001
ACAD
1000
RTMaterial
1005
0
  0
LINE
  8
F01_OUT
  5
337
 10
62.472521
 20
144.110308
 30
0.0
 11
62.472521
 21
148.410308
 31
0.0
1001
ACAD
1000
RTMaterial
1005
0
  0
LINE
  8
F01_OUT
  5
338
 10
57.322521
 20
147.129923
 30
0.0
 11
57.622521
 21
146.610308
 31
0.0
1001
ACAD
1000
RTMaterial
1005
0
  0
LINE
  8
F01_OUT
  5
339
 10
57.322521
 20
150.410308
 30
0.0
 11
57.322521
 21
147.129923
 31
0.0
1001
ACAD
1000
RTMaterial
1005
0
  0
LINE
  8
F01_OUT
  5
33A
 10
57.622521
 20
145.316542
 30
0.0
 11
57.622521
 21
146.610308
 31
0.0
1001
ACAD
1000
RTMaterial
1005
0
  0
LINE
  8
F01_OUT
  5
33B
 10
64.497521
 20
148.410308
 30
0.0
 11
64.597521
 21
148.410308
 31
0.0
1001
ACAD
1000
RTMaterial
1005
0
  0
LINE
  8
F01_OUT
  5
33C
 10
63.597521
 20
148.410308
 30
0.0
 11
64.497521
 21
148.410308
 31
0.0
1001
ACAD
1000
RTMaterial
1005
0
  0
LINE
  8
F01_OUT
  5
33D
 10
62.997521
 20
148.410308
 30
0.0
 11
63.497521
 21
148.410308
 31
0.0
1001
ACAD
1000
RTMaterial
1005
0
  0
LINE
  8
F01_OUT
  5
33E
 10
63.497521
 20
148.410308
 30
0.0
 11
63.597521
 21
148.410308
 31
0.0
1001
ACAD
1000
RTMaterial
1005
0
  0
LINE
  8
F01_OUT
  5
33F
 10
62.472521
 20
148.410308
 30
0.0
 11
62.997521
 21
148.410308
 31
0.0
1001
ACAD
1000
RTMaterial
1005
0
  0
LINE
  8
F01_OUT
  5
340
 10
62.472521
 20
148.010308
 30
0.0
 11
62.397521
 21
148.010308
 31
0.0
1001
ACAD
1000
RTMaterial
1005
0
  0
LINE
  8
F01_OUT
  5
341
 10
63.597521
 20
143.410308
 30
0.0
 11
63.597521
 21
145.210308
 31
0.0
1001
ACAD
1000
RTMaterial
1005
0
  0
LINE
  8
F01_OUT
  5
342
 10
37.197521
 20
112.529134
 30
0.0
 11
37.197521
 21
112.310308
 31
0.0
1001
ACAD
1000
RTMaterial
1005
0
  0
LINE
  8
F01_OUT
  5
343
 10
38.197521
 20
112.529134
 30
0.0
 11
38.197521
 21
112.310308
 31
0.0
1001
ACAD
1000
RTMaterial
1005
0
  0
LINE
  8
F01_OUT
  5
344
 10
37.497521
 20
112.010308
 30
0.0
 11
37.897521
 21
112.010308
 31
0.0
1001
ACAD
1000
RTMaterial
1005
0
  0
LINE
  8
F01_OUT
  5
345
 10
29.397521
 20
114.486044
 30
0.0
 11
29.397521
 21
114.110308
 31
0.0
1001
ACAD
1000
RTMaterial
1005
0
  0
LINE
  8
F01_OUT
  5
346
 10
29.397521
 20
114.110308
 30
0.0
 11
29.397521
 21
112.529134
 31
0.0
1001
ACAD
1000
RTMaterial
1005
0
  0
LINE
  8
F01_OUT
  5
347
 10
37.197521
 20
114.486044
 30
0.0
 11
37.197521
 21
114.110308
 31
0.0
1001
ACAD
1000
RTMaterial
1005
0
  0
LINE
  8
F01_OUT
  5
348
 10
37.197521
 20
114.110308
 30
0.0
 11
37.197521
 21
112.529134
 31
0.0
1001
ACAD
1000
RTMaterial
1005
0
  0
LINE
  8
F01_OUT
  5
349
 10
38.197521
 20
114.486044
 30
0.0
 11
38.197521
 21
114.110308
 31
0.0
1001
ACAD
1000
RTMaterial
1005
0
  0
LINE
  8
F01_OUT
  5
34A
 10
38.197521
 20
114.110308
 30
0.0
 11
38.197521
 21
112.529134
 31
0.0
1001
ACAD
1000
RTMaterial
1005
0
  0
LINE
  8
F01_OUT
  5
34B
 10
37.197521
 20
115.510308
 30
0.0
 11
37.197521
 21
114.486044
 31
0.0
1001
ACAD
1000
RTMaterial
1005
0
  0
LINE
  8
F01_OUT
  5
34C
 10
38.197521
 20
115.510308
 30
0.0
 11
38.197521
 21
114.486044
 31
0.0
1001
ACAD
1000
RTMaterial
1005
0
  0
LINE
  8
F01_OUT
  5
34D
 10
29.697521
 20
114.410308
 30
0.0
 11
36.897521
 21
114.410308
 31
0.0
1001
ACAD
1000
RTMaterial
1005
0
  0
LINE
  8
F01_OUT
  5
34E
 10
29.397521
 20
115.510308
 30
0.0
 11
29.397521
 21
114.486044
 31
0.0
1001
ACAD
1000
RTMaterial
1005
0
  0
LINE
  8
F01_OUT
  5
34F
 10
29.397521
 20
115.710308
 30
0.0
 11
29.397521
 21
115.510308
 31
0.0
1001
ACAD
1000
RTMaterial
1005
0
  0
LINE
  8
F01_OUT
  5
350
 10
29.697521
 20
114.910308
 30
0.0
 11
36.897521
 21
114.910308
 31
0.0
1001
ACAD
1000
RTMaterial
1005
0
  0
LINE
  8
F01_OUT
  5
351
 10
38.197521
 20
150.910308
 30
0.0
 11
38.047521
 21
150.910308
 31
0.0
1001
ACAD
1000
RTMaterial
1005
0
  0
LINE
  8
F01_OUT
  5
352
 10
37.197521
 20
150.910308
 30
0.0
 11
38.047521
 21
150.910308
 31
0.0
1001
ACAD
1000
RTMaterial
1005
0
  0
LINE
  8
F01_OUT
  5
353
 10
29.397521
 20
150.910308
 30
0.0
 11
37.197521
 21
150.910308
 31
0.0
1001
ACAD
1000
RTMaterial
1005
0
  0
LINE
  8
F01_OUT
  5
354
 10
29.397521
 20
151.910308
 30
0.0
 11
29.897521
 21
151.910308
 31
0.0
1001
ACAD
1000
RTMaterial
1005
0
  0
LINE
  8
F01_OUT
  5
355
 10
29.897521
 20
151.910308
 30
0.0
 11
30.897521
 21
151.910308
 31
0.0
1001
ACAD
1000
RTMaterial
1005
0
  0
LINE
  8
F01_OUT
  5
356
 10
29.397521
 20
150.910308
 30
0.0
 11
29.247521
 21
150.910308
 31
0.0
1001
ACAD
1000
RTMaterial
1005
0
  0
LINE
  8
F01_OUT
  5
357
 10
37.197521
 20
115.710308
 30
0.0
 11
37.197521
 21
115.510308
 31
0.0
1001
ACAD
1000
RTMaterial
1005
0
  0
LINE
  8
F01_OUT
  5
358
 10
28.897521
 20
151.910308
 30
0.0
 11
29.397521
 21
151.910308
 31
0.0
1001
ACAD
1000
RTMaterial
1005
0
  0
LINE
  8
F01_OUT
  5
359
 10
38.197521
 20
115.510308
 30
0.0
 11
38.197521
 21
115.710308
 31
0.0
1001
ACAD
1000
RTMaterial
1005
0
  0
ARC
  8
F01_OUT
  5
35A
 10
55.097521
 20
119.810308
 30
0.0
 40
0.3
 50
180.0
 51
270.0
1001
ACAD
1000
RTMaterial
1005
0
  0
ARC
  8
F01_OUT
  5
35B
 10
46.297521
 20
112.310308
 30
0.0
 40
0.3
 50
180.0
 51
270.0
1001
ACAD
1000
RTMaterial
1005
0
  0
ARC
  8
F01_OUT
  5
35C
 10
46.697521
 20
112.310308
 30
0.0
 40
0.3
 50
270.0
 51
0.0
1001
ACAD
1000
RTMaterial
1005
0
  0
ARC
  8
F01_OUT
  5
35D
 10
45.797521
 20
112.310308
 30
0.0
 40
0.3
 50
180.0
 51
270.0
1001
ACAD
1000
RTMaterial
1005
0
  0
ARC
  8
F01_OUT
  5
35E
 10
50.597521
 20
144.410308
 30
0.0
 40
7.9
 50
245.684045
 51
270.0
1001
ACAD
1000
RTMaterial
1005
0
  0
ARC
  8
F01_OUT
  5
35F
 10
50.597521
 20
144.410308
 30
0.0
 40
6.5
 50
242.510756
 51
270.0
1001
ACAD
1000
RTMaterial
1005
0
  0
ARC
  8
F01_OUT
  5
360
 10
46.616692
 20
136.085396
 30
0.0
 40
0.3
 50
240.0
 51
330.0
1001
ACAD
1000
RTMaterial
1005
0
  0
ARC
  8
F01_OUT
  5
361
 10
45.697521
 20
114.110308
 30
0.0
 40
0.3
 50
0.0
 51
70.528779
1001
ACAD
1000
RTMaterial
1005
0
  0
ARC
  8
F01_OUT
  5
362
 10
45.697521
 20
114.110308
 30
0.0
 40
0.3
 50
70.528779
 51
90.0
1001
ACAD
1000
RTMaterial
1005
0
  0
ARC
  8
F01_OUT
  5
363
 10
50.597521
 20
144.410308
 30
0.0
 40
6.5
 50
215.775823
 51
237.489244
1001
ACAD
1000
RTMaterial
1005
0
  0
ARC
  8
F01_OUT
  5
364
 10
47.522521
 20
139.084252
 30
0.0
 40
0.15
 50
350.0
 51
130.0
1001
ACAD
1000
RTMaterial
1005
0
  0
ARC
  8
F01_OUT
  5
365
 10
64.297521
 20
149.010308
 30
0.0
 40
0.3
 50
0.0
 51
58.633022
1001
ACAD
1000
RTMaterial
1005
0
  0
ARC
  8
F01_OUT
  5
366
 10
45.37835
 20
136.800352
 30
0.0
 40
0.3
 50
150.0
 51
240.0
1001
ACAD
1000
RTMaterial
1005
0
  0
ARC
  8
F01_OUT
  5
367
 10
44.597521
 20
148.110308
 30
0.0
 40
0.5
 50
270.0
 51
0.0
1001
ACAD
1000
RTMaterial
1005
0
  0
ARC
  8
F01_OUT
  5
368
 10
43.797521
 20
148.910308
 30
0.0
 40
0.5
 50
90.0
 51
180.0
1001
ACAD
1000
RTMaterial
1005
0
  0
ARC
  8
F01_OUT
  5
369
 10
43.797521
 20
148.110308
 30
0.0
 40
0.5
 50
180.0
 51
270.0
1001
ACAD
1000
RTMaterial
1005
0
  0
ARC
  8
F01_OUT
  5
36A
 10
44.597521
 20
148.910308
 30
0.0
 40
0.5
 50
0.0
 51
90.0
1001
ACAD
1000
RTMaterial
1005
0
  0
ARC
  8
F01_OUT
  5
36B
 10
50.597521
 20
144.410308
 30
0.0
 40
7.9
 50
208.751561
 51
234.315955
1001
ACAD
1000
RTMaterial
1005
0
  0
ARC
  8
F01_OUT
  5
36C
 10
29.097521
 20
112.310308
 30
0.0
 40
0.3
 50
270.0
 51
0.0
1001
ACAD
1000
RTMaterial
1005
0
  0
ARC
  8
F01_OUT
  5
36D
 10
28.697521
 20
112.310308
 30
0.0
 40
0.3
 50
180.0
 51
270.0
1001
ACAD
1000
RTMaterial
1005
0
  0
ARC
  8
F01_OUT
  5
36E
 10
20.297521
 20
112.310308
 30
0.0
 40
0.3
 50
270.0
 51
0.0
1001
ACAD
1000
RTMaterial
1005
0
  0
ARC
  8
F01_OUT
  5
36F
 10
19.897521
 20
112.310308
 30
0.0
 40
0.3
 50
180.0
 51
270.0
1001
ACAD
1000
RTMaterial
1005
0
  0
ARC
  8
F01_OUT
  5
370
 10
28.097521
 20
114.110308
 30
0.0
 40
0.3
 50
0.0
 51
90.0
1001
ACAD
1000
RTMaterial
1005
0
  0
ARC
  8
F01_OUT
  5
371
 10
20.897521
 20
114.110308
 30
0.0
 40
0.3
 50
90.0
 51
180.0
1001
ACAD
1000
RTMaterial
1005
0
  0
ARC
  8
F01_OUT
  5
372
 10
21.347521
 20
149.910308
 30
0.0
 40
1.581139
 50
203.499936
 51
0.0
1001
ACAD
1000
RTMaterial
1005
0
  0
ARC
  8
F01_OUT
  5
373
 10
21.347521
 20
126.610308
 30
0.0
 40
1.581139
 50
0.0
 51
156.500064
1001
ACAD
1000
RTMaterial
1005
0
  0
ARC
  8
F01_OUT
  5
374
 10
64.297521
 20
119.810308
 30
0.0
 40
0.3
 50
270.0
 51
0.0
1001
ACAD
1000
RTMaterial
1005
0
  0
ARC
  8
F01_OUT
  5
375
 10
64.297521
 20
111.210308
 30
0.0
 40
0.3
 50
270.0
 51
0.0
1001
ACAD
1000
RTMaterial
1005
0
  0
ARC
  8
F01_OUT
  5
376
 10
55.097521
 20
111.210308
 30
0.0
 40
0.3
 50
180.0
 51
270.0
1001
ACAD
1000
RTMaterial
1005
0
  0
ARC
  8
F01_OUT
  5
377
 10
55.497521
 20
111.210308
 30
0.0
 40
0.3
 50
270.0
 51
0.0
1001
ACAD
1000
RTMaterial
1005
0
  0
ARC
  8
F01_OUT
  5
378
 10
63.897521
 20
111.210308
 30
0.0
 40
0.3
 50
180.0
 51
270.0
1001
ACAD
1000
RTMaterial
1005
0
  0
ARC
  8
F01_OUT
  5
379
 10
55.497521
 20
119.810308
 30
0.0
 40
0.3
 50
270.0
 51
0.0
1001
ACAD
1000
RTMaterial
1005
0
  0
ARC
  8
F01_OUT
  5
37A
 10
63.897521
 20
119.810308
 30
0.0
 40
0.3
 50
180.0
 51
270.0
1001
ACAD
1000
RTMaterial
1005
0
  0
ARC
  8
F01_OUT
  5
37B
 10
59.897521
 20
144.110308
 30
0.0
 40
2.575
 50
302.935142
 51
0.0
1001
ACAD
1000
RTMaterial
1005
0
  0
ARC
  8
F01_OUT
  5
37C
 10
59.899255
 20
144.110366
 30
0.0
 40
2.574107
 50
240.916708
 51
302.902052
1001
ACAD
1000
RTMaterial
1005
0
  0
ARC
  8
F01_OUT
  5
37D
 10
59.897502
 20
144.11218
 30
0.0
 40
2.574107
 50
152.10352
 51
209.086824
1001
ACAD
1000
RTMaterial
1005
0
  0
ARC
  8
F01_OUT
  5
37E
 10
56.822521
 20
150.410308
 30
0.0
 40
0.5
 50
0.0
 51
90.0
1001
ACAD
1000
RTMaterial
1005
0
  0
ARC
  8
F01_OUT
  5
37F
 10
37.897521
 20
112.310308
 30
0.0
 40
0.3
 50
270.0
 51
0.0
1001
ACAD
1000
RTMaterial
1005
0
  0
ARC
  8
F01_OUT
  5
380
 10
37.497521
 20
112.310308
 30
0.0
 40
0.3
 50
180.0
 51
270.0
1001
ACAD
1000
RTMaterial
1005
0
  0
ARC
  8
F01_OUT
  5
381
 10
29.697521
 20
114.110308
 30
0.0
 40
0.3
 50
90.0
 51
180.0
1001
ACAD
1000
RTMaterial
1005
0
  0
ARC
  8
F01_OUT
  5
382
 10
38.497521
 20
114.110308
 30
0.0
 40
0.3
 50
90.0
 51
180.0
1001
ACAD
1000
RTMaterial
1005
0
  0
ARC
  8
F01_OUT
  5
383
 10
36.897521
 20
114.110308
 30
0.0
 40
0.3
 50
0.0
 51
90.0
1001
ACAD
1000
RTMaterial
1005
0
  0
CIRCLE
  8
F01_OUT
  5
384
 10
33.297521
 20
120.710308
 30
0.0
 40
3.0
1001
ACAD
1000
RTMaterial
1005
0
  0
CIRCLE
  8
F01_OUT
  5
385
 10
24.497521
 20
120.710308
 30
0.0
 40
3.0
1001
ACAD
1000
RTMaterial
1005
0
  0
CIRCLE
  8
F01_OUT
  5
386
 10
42.097521
 20
120.710308
 30
0.0
 40
3.0
1001
ACAD
1000
RTMaterial
1005
0
  0
LINE
  8
F01_OUT
  5
387
 10
47.097521
 20
127.244282
 30
0.0
 11
47.097521
 21
129.010308
 31
0.0
1001
ACAD
1000
RTMaterial
1005
0
  0
LINE
  8
F01_OUT
  5
388
 10
47.097521
 20
124.176333
 30
0.0
 11
47.097521
 21
125.198983
 31
0.0
1001
ACAD
1000
RTMaterial
1005
0
  0
LINE
  8
F01_OUT
  5
389
 10
47.097521
 20
126.221633
 30
0.0
 11
47.097521
 21
127.244282
 31
0.0
1001
ACAD
1000
RTMaterial
1005
0
  0
LINE
  8
F01_OUT
  5
38A
 10
47.097521
 20
125.198983
 30
0.0
 11
47.097521
 21
126.221633
 31
0.0
1001
ACAD
1000
RTMaterial
1005
0
  0
LINE
  8
F01_OUT
  5
38B
 10
47.097521
 20
122.410308
 30
0.0
 11
47.097521
 21
124.176333
 31
0.0
1001
ACAD
1000
RTMaterial
1005
0
  0
CIRCLE
  8
F01_OUT
  5
38C
 10
50.897521
 20
125.710308
 30
0.0
 40
3.0
1001
ACAD
1000
RTMaterial
1005
0
  0
CIRCLE
  8
F01_OUT
  5
38D
 10
59.697521
 20
125.710308
 30
0.0
 40
3.0
1001
ACAD
1000
RTMaterial
1005
0
  0
LINE
  8
F01_OUT
  5
38E
 10
47.097521
 20
113.810308
 30
0.0
 11
47.097521
 21
115.576333
 31
0.0
1001
ACAD
1000
RTMaterial
1005
0
  0
LINE
  8
F01_OUT
  5
38F
 10
47.097521
 20
118.644282
 30
0.0
 11
47.097521
 21
120.410308
 31
0.0
1001
ACAD
1000
RTMaterial
1005
0
  0
LINE
  8
F01_OUT
  5
390
 10
47.097521
 20
117.621633
 30
0.0
 11
47.097521
 21
118.644282
 31
0.0
1001
ACAD
1000
RTMaterial
1005
0
  0
LINE
  8
F01_OUT
  5
391
 10
47.097521
 20
116.598983
 30
0.0
 11
47.097521
 21
117.621633
 31
0.0
1001
ACAD
1000
RTMaterial
1005
0
  0
LINE
  8
F01_OUT
  5
392
 10
47.097521
 20
115.576333
 30
0.0
 11
47.097521
 21
116.598983
 31
0.0
1001
ACAD
1000
RTMaterial
1005
0
  0
CIRCLE
  8
F01_OUT
  5
393
 10
50.897521
 20
117.110308
 30
0.0
 40
3.0
1001
ACAD
1000
RTMaterial
1005
0
  0
CIRCLE
  8
F01_OUT
  5
394
 10
59.697521
 20
117.110308
 30
0.0
 40
3.0
1001
ACAD
1000
RTMaterial
1005
0
  0
LINE
  8
F01_OUT
  5
395
 10
48.297521
 20
150.910308
 30
0.0
 11
56.822521
 21
150.910308
 31
0.0
1001
ACAD
1000
RTMaterial
1005
0
  0
LINE
  8
F01_OUT
  5
396
 10
49.697521
 20
154.610308
 30
0.0
 11
63.197521
 21
154.610308
 31
0.0
1001
ACAD
1000
RTMaterial
1005
0
  0
LINE
  8
F01_OUT
  5
397
 10
54.447521
 20
163.710308
 30
0.0
 11
54.447521
 21
154.910308
 31
0.0
1001
ACAD
1000
RTMaterial
1005
0
  0
LINE
  8
F01_OUT
  5
398
 10
43.097521
 20
151.410308
 30
0.0
 11
43.097521
 21
150.910308
 31
0.0
1001
ACAD
1000
RTMaterial
1005
0
  0
LINE
  8
F01_OUT
  5
399
 10
48.297521
 20
151.410308
 30
0.0
 11
48.297521
 21
150.910308
 31
0.0
1001
ACAD
1000
RTMaterial
1005
0
  0
LINE
  8
F01_OUT
  5
39A
 10
38.197521
 20
158.010308
 30
0.0
 11
42.397521
 21
158.010308
 31
0.0
1001
ACAD
1000
RTMaterial
1005
0
  0
LINE
  8
F01_OUT
  5
39B
 10
45.497521
 20
151.910308
 30
0.0
 11
46.497521
 21
151.910308
 31
0.0
1001
ACAD
1000
RTMaterial
1005
0
  0
LINE
  8
F01_OUT
  5
39C
 10
45.497521
 20
150.910308
 30
0.0
 11
45.997521
 21
150.910308
 31
0.0
1001
ACAD
1000
RTMaterial
1005
0
  0
LINE
  8
F01_OUT
  5
39D
 10
46.272521
 20
160.210308
 30
0.0
 11
46.197521
 21
160.210308
 31
0.0
1001
ACAD
1000
RTMaterial
1005
0
  0
LINE
  8
F01_OUT
  5
39E
 10
46.197521
 20
160.210308
 30
0.0
 11
45.997521
 21
160.210308
 31
0.0
1001
ACAD
1000
RTMaterial
1005
0
  0
LINE
  8
F01_OUT
  5
39F
 10
46.997521
 20
160.210308
 30
0.0
 11
46.697521
 21
160.210308
 31
0.0
1001
ACAD
1000
RTMaterial
1005
0
  0
LINE
  8
F01_OUT
  5
3A0
 10
46.997521
 20
157.410308
 30
0.0
 11
46.997521
 21
155.210308
 31
0.0
1001
ACAD
1000
RTMaterial
1005
0
  0
LINE
  8
F01_OUT
  5
3A1
 10
46.622521
 20
160.210308
 30
0.0
 11
46.272521
 21
160.210308
 31
0.0
1001
ACAD
1000
RTMaterial
1005
0
  0
LINE
  8
F01_OUT
  5
3A2
 10
46.997521
 20
159.910308
 30
0.0
 11
46.997521
 21
157.410308
 31
0.0
1001
ACAD
1000
RTMaterial
1005
0
  0
LINE
  8
F01_OUT
  5
3A3
 10
43.097521
 20
150.910308
 30
0.0
 11
43.597521
 21
150.910308
 31
0.0
1001
ACAD
1000
RTMaterial
1005
0
  0
LINE
  8
F01_OUT
  5
3A4
 10
43.597521
 20
150.910308
 30
0.0
 11
43.797521
 21
150.910308
 31
0.0
1001
ACAD
1000
RTMaterial
1005
0
  0
LINE
  8
F01_OUT
  5
3A5
 10
45.297521
 20
150.910308
 30
0.0
 11
45.497521
 21
150.910308
 31
0.0
1001
ACAD
1000
RTMaterial
1005
0
  0
LINE
  8
F01_OUT
  5
3A6
 10
45.997521
 20
150.910308
 30
0.0
 11
46.497521
 21
150.910308
 31
0.0
1001
ACAD
1000
RTMaterial
1005
0
  0
LINE
  8
F01_OUT
  5
3A7
 10
43.797521
 20
150.910308
 30
0.0
 11
45.297521
 21
150.910308
 31
0.0
1001
ACAD
1000
RTMaterial
1005
0
  0
LINE
  8
F01_OUT
  5
3A8
 10
38.197521
 20
150.910308
 30
0.0
 11
43.097521
 21
150.910308
 31
0.0
1001
ACAD
1000
RTMaterial
1005
0
  0
LINE
  8
F01_OUT
  5
3A9
 10
48.080439
 20
157.844472
 30
0.0
 11
48.292571
 21
157.420208
 31
0.0
1001
ACAD
1000
RTMaterial
1005
0
  0
LINE
  8
F01_OUT
  5
3AA
 10
47.962111
 20
157.410308
 30
0.0
 11
46.997521
 21
157.410308
 31
0.0
1001
ACAD
1000
RTMaterial
1005
0
  0
LINE
  8
F01_OUT
  5
3AB
 10
49.542571
 20
154.920208
 30
0.0
 11
49.697521
 21
154.610308
 31
0.0
1001
ACAD
1000
RTMaterial
1005
0
  0
LINE
  8
F01_OUT
  5
3AC
 10
47.997521
 20
158.010308
 30
0.0
 11
48.080439
 21
157.844472
 31
0.0
1001
ACAD
1000
RTMaterial
1005
0
  0
LINE
  8
F01_OUT
  5
3AD
 10
49.647521
 20
154.910308
 30
0.0
 11
49.647521
 21
163.710308
 31
0.0
1001
ACAD
1000
RTMaterial
1005
0
  0
LINE
  8
F01_OUT
  5
3AE
 10
47.997521
 20
161.910308
 30
0.0
 11
47.697521
 21
161.910308
 31
0.0
1001
ACAD
1000
RTMaterial
1005
0
  0
LINE
  8
F01_OUT
  5
3AF
 10
47.297521
 20
161.910308
 30
0.0
 11
47.697521
 21
161.910308
 31
0.0
1001
ACAD
1000
RTMaterial
1005
0
  0
LINE
  8
F01_OUT
  5
3B0
 10
51.547521
 20
163.710308
 30
0.0
 11
51.547521
 21
154.910308
 31
0.0
1001
ACAD
1000
RTMaterial
1005
0
  0
LINE
  8
F01_OUT
  5
3B1
 10
52.547521
 20
163.710308
 30
0.0
 11
52.547521
 21
154.910308
 31
0.0
1001
ACAD
1000
RTMaterial
1005
0
  0
LINE
  8
F01_OUT
  5
3B2
 10
47.997521
 20
161.910308
 30
0.0
 11
47.997521
 21
158.010308
 31
0.0
1001
ACAD
1000
RTMaterial
1005
0
  0
LINE
  8
F01_OUT
  5
3B3
 10
52.547521
 20
154.910308
 30
0.0
 11
52.547521
 21
154.610308
 31
0.0
1001
ACAD
1000
RTMaterial
1005
0
  0
LINE
  8
F01_OUT
  5
3B4
 10
49.697521
 20
154.610308
 30
0.0
 11
49.741455
 21
154.52244
 31
0.0
1001
ACAD
1000
RTMaterial
1005
0
  0
LINE
  8
F01_OUT
  5
3B5
 10
51.547521
 20
154.910308
 30
0.0
 11
51.547521
 21
154.610308
 31
0.0
1001
ACAD
1000
RTMaterial
1005
0
  0
LINE
  8
F01_OUT
  5
3B6
 10
49.741455
 20
154.52244
 30
0.0
 11
50.047521
 21
153.910308
 31
0.0
1001
ACAD
1000
RTMaterial
1005
0
  0
LINE
  8
F01_OUT
  5
3B7
 10
40.347521
 20
160.210308
 30
0.0
 11
39.347521
 21
160.210308
 31
0.0
1001
ACAD
1000
RTMaterial
1005
0
  0
LINE
  8
F01_OUT
  5
3B8
 10
38.697521
 20
151.910308
 30
0.0
 11
39.697521
 21
151.910308
 31
0.0
1001
ACAD
1000
RTMaterial
1005
0
  0
LINE
  8
F01_OUT
  5
3B9
 10
39.697521
 20
151.910308
 30
0.0
 11
42.597521
 21
151.910308
 31
0.0
1001
ACAD
1000
RTMaterial
1005
0
  0
LINE
  8
F01_OUT
  5
3BA
 10
45.472118
 20
163.710308
 30
0.0
 11
45.472118
 21
159.910308
 31
0.0
1001
ACAD
1000
RTMaterial
1005
0
  0
LINE
  8
F01_OUT
  5
3BB
 10
43.922924
 20
163.710308
 30
0.0
 11
43.922924
 21
159.910308
 31
0.0
1001
ACAD
1000
RTMaterial
1005
0
  0
LINE
  8
F01_OUT
  5
3BC
 10
43.097521
 20
163.410308
 30
0.0
 11
43.097521
 21
163.710308
 31
0.0
1001
ACAD
1000
RTMaterial
1005
0
  0
LINE
  8
F01_OUT
  5
3BD
 10
43.097521
 20
160.210308
 30
0.0
 11
43.097521
 21
163.410308
 31
0.0
1001
ACAD
1000
RTMaterial
1005
0
  0
LINE
  8
F01_OUT
  5
3BE
 10
43.097521
 20
160.210308
 30
0.0
 11
42.697521
 21
160.210308
 31
0.0
1001
ACAD
1000
RTMaterial
1005
0
  0
LINE
  8
F01_OUT
  5
3BF
 10
45.997521
 20
160.210308
 30
0.0
 11
45.859416
 21
160.210308
 31
0.0
1001
ACAD
1000
RTMaterial
1005
0
  0
LINE
  8
F01_OUT
  5
3C0
 10
43.535626
 20
160.210308
 30
0.0
 11
43.097521
 21
160.210308
 31
0.0
1001
ACAD
1000
RTMaterial
1005
0
  0
LINE
  8
F01_OUT
  5
3C1
 10
42.397521
 20
158.010308
 30
0.0
 11
42.397521
 21
159.910308
 31
0.0
1001
ACAD
1000
RTMaterial
1005
0
  0
LINE
  8
F01_OUT
  5
3C2
 10
42.597521
 20
151.910308
 30
0.0
 11
43.597521
 21
151.910308
 31
0.0
1001
ACAD
1000
RTMaterial
1005
0
  0
LINE
  8
F01_OUT
  5
3C3
 10
44.797521
 20
151.910308
 30
0.0
 11
45.097521
 21
151.910308
 31
0.0
1001
ACAD
1000
RTMaterial
1005
0
  0
LINE
  8
F01_OUT
  5
3C4
 10
45.097521
 20
151.910308
 30
0.0
 11
45.497521
 21
151.910308
 31
0.0
1001
ACAD
1000
RTMaterial
1005
0
  0
LINE
  8
F01_OUT
  5
3C5
 10
43.597521
 20
151.910308
 30
0.0
 11
44.797521
 21
151.910308
 31
0.0
1001
ACAD
1000
RTMaterial
1005
0
  0
LINE
  8
F01_OUT
  5
3C6
 10
45.997521
 20
150.910308
 30
0.0
 11
45.997521
 21
151.410308
 31
0.0
1001
ACAD
1000
RTMaterial
1005
0
  0
LINE
  8
F01_OUT
  5
3C7
 10
44.797521
 20
151.910308
 30
0.0
 11
44.797521
 21
154.486044
 31
0.0
1001
ACAD
1000
RTMaterial
1005
0
  0
LINE
  8
F01_OUT
  5
3C8
 10
48.297521
 20
151.410308
 30
0.0
 11
48.297521
 21
154.203201
 31
0.0
1001
ACAD
1000
RTMaterial
1005
0
  0
LINE
  8
F01_OUT
  5
3C9
 10
46.997521
 20
150.910308
 30
0.0
 11
47.297521
 21
150.910308
 31
0.0
1001
ACAD
1000
RTMaterial
1005
0
  0
LINE
  8
F01_OUT
  5
3CA
 10
46.997521
 20
150.910308
 30
0.0
 11
46.497521
 21
150.910308
 31
0.0
1001
ACAD
1000
RTMaterial
1005
0
  0
LINE
  8
F01_OUT
  5
3CB
 10
47.297521
 20
150.910308
 30
0.0
 11
48.297521
 21
150.910308
 31
0.0
1001
ACAD
1000
RTMaterial
1005
0
  0
LINE
  8
F01_OUT
  5
3CC
 10
46.197521
 20
160.210308
 30
0.0
 11
46.197521
 21
160.219834
 31
0.0
1001
ACAD
1000
RTMaterial
1005
0
  0
LINE
  8
F01_OUT
  5
3CD
 10
46.997521
 20
161.610308
 30
0.0
 11
46.997521
 21
160.210308
 31
0.0
1001
ACAD
1000
RTMaterial
1005
0
  0
LINE
  8
F01_OUT
  5
3CE
 10
46.697521
 20
160.210308
 30
0.0
 11
46.622521
 21
160.210308
 31
0.0
1001
ACAD
1000
RTMaterial
1005
0
  0
LINE
  8
F01_OUT
  5
3CF
 10
46.497521
 20
151.910308
 30
0.0
 11
47.797521
 21
151.910308
 31
0.0
1001
ACAD
1000
RTMaterial
1005
0
  0
LINE
  8
F01_OUT
  5
3D0
 10
45.097521
 20
154.910308
 30
0.0
 11
46.697521
 21
154.910308
 31
0.0
1001
ACAD
1000
RTMaterial
1005
0
  0
LINE
  8
F01_OUT
  5
3D1
 10
44.847521
 20
163.710308
 30
0.0
 11
43.097521
 21
163.710308
 31
0.0
1001
ACAD
1000
RTMaterial
1005
0
  0
LINE
  8
F01_OUT
  5
3D2
 10
43.097521
 20
163.710308
 30
0.0
 11
39.347521
 21
163.710308
 31
0.0
1001
ACAD
1000
RTMaterial
1005
0
  0
LINE
  8
F01_OUT
  5
3D3
 10
48.292571
 20
157.420208
 30
0.0
 11
49.542571
 21
154.920208
 31
0.0
1001
ACAD
1000
RTMaterial
1005
0
  0
LINE
  8
F01_OUT
  5
3D4
 10
26.397521
 20
151.910308
 30
0.0
 11
28.897521
 21
151.910308
 31
0.0
1001
ACAD
1000
RTMaterial
1005
0
  0
LINE
  8
F01_OUT
  5
3D5
 10
28.397521
 20
150.910308
 30
0.0
 11
29.247521
 21
150.910308
 31
0.0
1001
ACAD
1000
RTMaterial
1005
0
  0
LINE
  8
F01_OUT
  5
3D6
 10
29.097521
 20
160.210308
 30
0.0
 11
28.872521
 21
160.210308
 31
0.0
1001
ACAD
1000
RTMaterial
1005
0
  0
LINE
  8
F01_OUT
  5
3D7
 10
20.597521
 20
150.910308
 30
0.0
 11
20.697521
 21
150.910308
 31
0.0
1001
ACAD
1000
RTMaterial
1005
0
  0
LINE
  8
F01_OUT
  5
3D8
 10
20.697521
 20
150.910308
 30
0.0
 11
20.697521
 21
150.410308
 31
0.0
1001
ACAD
1000
RTMaterial
1005
0
  0
LINE
  8
F01_OUT
  5
3D9
 10
28.397521
 20
160.210308
 30
0.0
 11
28.259416
 21
160.210308
 31
0.0
1001
ACAD
1000
RTMaterial
1005
0
  0
LINE
  8
F01_OUT
  5
3DA
 10
25.935626
 20
160.210308
 30
0.0
 11
25.497521
 21
160.210308
 31
0.0
1001
ACAD
1000
RTMaterial
1005
0
  0
LINE
  8
F01_OUT
  5
3DB
 10
25.497521
 20
163.410308
 30
0.0
 11
25.497521
 21
163.710308
 31
0.0
1001
ACAD
1000
RTMaterial
1005
0
  0
LINE
  8
F01_OUT
  5
3DC
 10
25.497521
 20
160.210308
 30
0.0
 11
25.497521
 21
163.410308
 31
0.0
1001
ACAD
1000
RTMaterial
1005
0
  0
LINE
  8
F01_OUT
  5
3DD
 10
26.397521
 20
150.910308
 30
0.0
 11
26.697521
 21
150.910308
 31
0.0
1001
ACAD
1000
RTMaterial
1005
0
  0
LINE
  8
F01_OUT
  5
3DE
 10
26.097521
 20
151.910308
 30
0.0
 11
26.397521
 21
151.910308
 31
0.0
1001
ACAD
1000
RTMaterial
1005
0
  0
LINE
  8
F01_OUT
  5
3DF
 10
26.097521
 20
150.910308
 30
0.0
 11
26.397521
 21
150.910308
 31
0.0
1001
ACAD
1000
RTMaterial
1005
0
  0
LINE
  8
F01_OUT
  5
3E0
 10
26.097521
 20
150.910308
 30
0.0
 11
26.097521
 21
151.910308
 31
0.0
1001
ACAD
1000
RTMaterial
1005
0
  0
LINE
  8
F01_OUT
  5
3E1
 10
26.697521
 20
150.910308
 30
0.0
 11
28.397521
 21
150.910308
 31
0.0
1001
ACAD
1000
RTMaterial
1005
0
  0
LINE
  8
F01_OUT
  5
3E2
 10
27.872118
 20
163.710308
 30
0.0
 11
27.872118
 21
159.910308
 31
0.0
1001
ACAD
1000
RTMaterial
1005
0
  0
LINE
  8
F01_OUT
  5
3E3
 10
26.322924
 20
163.710308
 30
0.0
 11
26.322924
 21
159.910308
 31
0.0
1001
ACAD
1000
RTMaterial
1005
0
  0
LINE
  8
F01_OUT
  5
3E4
 10
19.697521
 20
153.110308
 30
0.0
 11
19.697521
 21
151.610308
 31
0.0
1001
ACAD
1000
RTMaterial
1005
0
  0
LINE
  8
F01_OUT
  5
3E5
 10
19.697521
 20
151.610308
 30
0.0
 11
19.697521
 21
150.910308
 31
0.0
1001
ACAD
1000
RTMaterial
1005
0
  0
LINE
  8
F01_OUT
  5
3E6
 10
19.997521
 20
150.910308
 30
0.0
 11
19.697521
 21
150.910308
 31
0.0
1001
ACAD
1000
RTMaterial
1005
0
  0
LINE
  8
F01_OUT
  5
3E7
 10
20.597521
 20
150.910308
 30
0.0
 11
19.997521
 21
150.910308
 31
0.0
1001
ACAD
1000
RTMaterial
1005
0
  0
LINE
  8
F01_OUT
  5
3E8
 10
28.597521
 20
160.210308
 30
0.0
 11
28.597521
 21
160.390412
 31
0.0
1001
ACAD
1000
RTMaterial
1005
0
  0
LINE
  8
F01_OUT
  5
3E9
 10
28.597521
 20
160.210308
 30
0.0
 11
28.397521
 21
160.210308
 31
0.0
1001
ACAD
1000
RTMaterial
1005
0
  0
LINE
  8
F01_OUT
  5
3EA
 10
28.872521
 20
160.210308
 30
0.0
 11
28.597521
 21
160.210308
 31
0.0
1001
ACAD
1000
RTMaterial
1005
0
  0
LINE
  8
F01_OUT
  5
3EB
 10
19.997521
 20
153.410308
 30
0.0
 11
24.197521
 21
153.410308
 31
0.0
1001
ACAD
1000
RTMaterial
1005
0
  0
LINE
  8
F01_OUT
  5
3EC
 10
24.497521
 20
158.010308
 30
0.0
 11
24.797521
 21
158.010308
 31
0.0
1001
ACAD
1000
RTMaterial
1005
0
  0
LINE
  8
F01_OUT
  5
3ED
 10
24.797521
 20
159.910308
 30
0.0
 11
24.797521
 21
158.010308
 31
0.0
1001
ACAD
1000
RTMaterial
1005
0
  0
LINE
  8
F01_OUT
  5
3EE
 10
19.997521
 20
151.910308
 30
0.0
 11
26.097521
 21
151.910308
 31
0.0
1001
ACAD
1000
RTMaterial
1005
0
  0
LINE
  8
F01_OUT
  5
3EF
 10
25.497521
 20
160.210308
 30
0.0
 11
25.097521
 21
160.210308
 31
0.0
1001
ACAD
1000
RTMaterial
1005
0
  0
LINE
  8
F01_OUT
  5
3F0
 10
24.197521
 20
157.710308
 30
0.0
 11
24.197521
 21
153.410308
 31
0.0
1001
ACAD
1000
RTMaterial
1005
0
  0
LINE
  8
F01_OUT
  5
3F1
 10
62.397521
 20
148.410308
 30
0.0
 11
62.397521
 21
146.075632
 31
0.0
1001
ACAD
1000
RTMaterial
1005
0
  0
LINE
  8
F01_OUT
  5
3F2
 10
57.322521
 20
148.910308
 30
0.0
 11
57.397521
 21
148.910308
 31
0.0
1001
ACAD
1000
RTMaterial
1005
0
  0
LINE
  8
F01_OUT
  5
3F3
 10
57.397521
 20
148.910308
 30
0.0
 11
57.397521
 21
147.229923
 31
0.0
1001
ACAD
1000
RTMaterial
1005
0
  0
LINE
  8
F01_OUT
  5
3F4
 10
57.697521
 20
146.710308
 30
0.0
 11
57.697521
 21
146.366965
 31
0.0
1001
ACAD
1000
RTMaterial
1005
0
  0
LINE
  8
F01_OUT
  5
3F5
 10
57.322521
 20
149.110308
 30
0.0
 11
57.397521
 21
149.110308
 31
0.0
1001
ACAD
1000
RTMaterial
1005
0
  0
LINE
  8
F01_OUT
  5
3F6
 10
57.397521
 20
147.229923
 30
0.0
 11
57.697521
 21
146.710308
 31
0.0
1001
ACAD
1000
RTMaterial
1005
0
  0
LINE
  8
F01_OUT
  5
3F7
 10
57.397521
 20
149.110308
 30
0.0
 11
57.397521
 21
148.910308
 31
0.0
1001
ACAD
1000
RTMaterial
1005
0
  0
LINE
  8
F01_OUT
  5
3F8
 10
57.397521
 20
149.410308
 30
0.0
 11
57.397521
 21
149.110308
 31
0.0
1001
ACAD
1000
RTMaterial
1005
0
  0
LINE
  8
F01_OUT
  5
3F9
 10
64.197521
 20
149.410308
 30
0.0
 11
57.397521
 21
149.410308
 31
0.0
1001
ACAD
1000
RTMaterial
1005
0
  0
LINE
  8
F01_OUT
  5
3FA
 10
57.397521
 20
150.410308
 30
0.0
 11
57.397521
 21
149.410308
 31
0.0
1001
ACAD
1000
RTMaterial
1005
0
  0
LINE
  8
F01_OUT
  5
3FB
 10
56.897521
 20
150.910308
 30
0.0
 11
56.822521
 21
150.910308
 31
0.0
1001
ACAD
1000
RTMaterial
1005
0
  0
LINE
  8
F01_OUT
  5
3FC
 10
64.197521
 20
150.910308
 30
0.0
 11
56.897521
 21
150.910308
 31
0.0
1001
ACAD
1000
RTMaterial
1005
0
  0
LINE
  8
F01_OUT
  5
3FD
 10
64.497521
 20
150.786044
 30
0.0
 11
64.497521
 21
152.310308
 31
0.0
1001
ACAD
1000
RTMaterial
1005
0
  0
LINE
  8
F01_OUT
  5
3FE
 10
64.497521
 20
149.233915
 30
0.0
 11
64.497521
 21
150.786044
 31
0.0
1001
ACAD
1000
RTMaterial
1005
0
  0
LINE
  8
F01_OUT
  5
3FF
 10
64.497521
 20
148.410308
 30
0.0
 11
64.497521
 21
149.110308
 31
0.0
1001
ACAD
1000
RTMaterial
1005
0
  0
LINE
  8
F01_OUT
  5
400
 10
63.597521
 20
148.410308
 30
0.0
 11
64.497521
 21
148.410308
 31
0.0
1001
ACAD
1000
RTMaterial
1005
0
  0
LINE
  8
F01_OUT
  5
401
 10
62.472521
 20
148.410308
 30
0.0
 11
62.397521
 21
148.410308
 31
0.0
1001
ACAD
1000
RTMaterial
1005
0
  0
LINE
  8
F01_OUT
  5
402
 10
62.997521
 20
148.410308
 30
0.0
 11
63.497521
 21
148.410308
 31
0.0
1001
ACAD
1000
RTMaterial
1005
0
  0
LINE
  8
F01_OUT
  5
403
 10
63.497521
 20
148.410308
 30
0.0
 11
63.597521
 21
148.410308
 31
0.0
1001
ACAD
1000
RTMaterial
1005
0
  0
LINE
  8
F01_OUT
  5
404
 10
62.472521
 20
148.410308
 30
0.0
 11
62.997521
 21
148.410308
 31
0.0
1001
ACAD
1000
RTMaterial
1005
0
  0
LINE
  8
F01_OUT
  5
405
 10
63.497521
 20
153.486044
 30
0.0
 11
63.497521
 21
154.310308
 31
0.0
1001
ACAD
1000
RTMaterial
1005
0
  0
LINE
  8
F01_OUT
  5
406
 10
63.497521
 20
153.410308
 30
0.0
 11
64.197521
 21
153.410308
 31
0.0
1001
ACAD
1000
RTMaterial
1005
0
  0
LINE
  8
F01_OUT
  5
407
 10
64.497521
 20
152.310308
 30
0.0
 11
64.497521
 21
153.110308
 31
0.0
1001
ACAD
1000
RTMaterial
1005
0
  0
LINE
  8
F01_OUT
  5
408
 10
63.497521
 20
153.410308
 30
0.0
 11
63.497521
 21
153.486044
 31
0.0
1001
ACAD
1000
RTMaterial
1005
0
  0
LINE
  8
F01_OUT
  5
409
 10
30.897521
 20
151.910308
 30
0.0
 11
38.697521
 21
151.910308
 31
0.0
1001
ACAD
1000
RTMaterial
1005
0
  0
LINE
  8
F01_OUT
  5
40A
 10
37.197521
 20
160.210308
 30
0.0
 11
37.197521
 21
161.710308
 31
0.0
1001
ACAD
1000
RTMaterial
1005
0
  0
LINE
  8
F01_OUT
  5
40B
 10
37.197521
 20
161.710308
 30
0.0
 11
37.197521
 21
163.710308
 31
0.0
1001
ACAD
1000
RTMaterial
1005
0
  0
LINE
  8
F01_OUT
  5
40C
 10
37.197521
 20
161.710308
 30
0.0
 11
37.272521
 21
161.635308
 31
0.0
1001
ACAD
1000
RTMaterial
1005
0
  0
LINE
  8
F01_OUT
  5
40D
 10
29.747521
 20
158.010308
 30
0.0
 11
29.747521
 21
163.710308
 31
0.0
1001
ACAD
1000
RTMaterial
1005
0
  0
LINE
  8
F01_OUT
  5
40E
 10
38.197521
 20
158.010308
 30
0.0
 11
38.197521
 21
159.910308
 31
0.0
1001
ACAD
1000
RTMaterial
1005
0
  0
LINE
  8
F01_OUT
  5
40F
 10
37.897521
 20
160.210308
 30
0.0
 11
37.572521
 21
160.210308
 31
0.0
1001
ACAD
1000
RTMaterial
1005
0
  0
LINE
  8
F01_OUT
  5
410
 10
37.197521
 20
160.210308
 30
0.0
 11
37.059416
 21
160.210308
 31
0.0
1001
ACAD
1000
RTMaterial
1005
0
  0
LINE
  8
F01_OUT
  5
411
 10
37.397521
 20
160.210308
 30
0.0
 11
37.197521
 21
160.210308
 31
0.0
1001
ACAD
1000
RTMaterial
1005
0
  0
LINE
  8
F01_OUT
  5
412
 10
37.397521
 20
160.210308
 30
0.0
 11
37.397521
 21
160.266638
 31
0.0
1001
ACAD
1000
RTMaterial
1005
0
  0
LINE
  8
F01_OUT
  5
413
 10
37.572521
 20
160.210308
 30
0.0
 11
37.397521
 21
160.210308
 31
0.0
1001
ACAD
1000
RTMaterial
1005
0
  0
LINE
  8
F01_OUT
  5
414
 10
36.672118
 20
163.710308
 30
0.0
 11
36.672118
 21
159.910308
 31
0.0
1001
ACAD
1000
RTMaterial
1005
0
  0
LINE
  8
F01_OUT
  5
415
 10
33.597521
 20
159.910308
 30
0.0
 11
33.597521
 21
158.010308
 31
0.0
1001
ACAD
1000
RTMaterial
1005
0
  0
LINE
  8
F01_OUT
  5
416
 10
34.547521
 20
160.210308
 30
0.0
 11
34.297521
 21
160.210308
 31
0.0
1001
ACAD
1000
RTMaterial
1005
0
  0
LINE
  8
F01_OUT
  5
417
 10
34.297521
 20
160.210308
 30
0.0
 11
33.897521
 21
160.210308
 31
0.0
1001
ACAD
1000
RTMaterial
1005
0
  0
LINE
  8
F01_OUT
  5
418
 10
34.297521
 20
163.410308
 30
0.0
 11
34.297521
 21
160.210308
 31
0.0
1001
ACAD
1000
RTMaterial
1005
0
  0
LINE
  8
F01_OUT
  5
419
 10
34.297521
 20
163.710308
 30
0.0
 11
34.297521
 21
163.410308
 31
0.0
1001
ACAD
1000
RTMaterial
1005
0
  0
LINE
  8
F01_OUT
  5
41A
 10
35.122924
 20
163.710308
 30
0.0
 11
35.122924
 21
159.910308
 31
0.0
1001
ACAD
1000
RTMaterial
1005
0
  0
LINE
  8
F01_OUT
  5
41B
 10
34.735626
 20
160.210308
 30
0.0
 11
34.547521
 21
160.210308
 31
0.0
1001
ACAD
1000
RTMaterial
1005
0
  0
LINE
  8
F01_OUT
  5
41C
 10
38.197521
 20
150.910308
 30
0.0
 11
38.047521
 21
150.910308
 31
0.0
1001
ACAD
1000
RTMaterial
1005
0
  0
LINE
  8
F01_OUT
  5
41D
 10
37.197521
 20
150.910308
 30
0.0
 11
38.047521
 21
150.910308
 31
0.0
1001
ACAD
1000
RTMaterial
1005
0
  0
LINE
  8
F01_OUT
  5
41E
 10
29.397521
 20
150.910308
 30
0.0
 11
37.197521
 21
150.910308
 31
0.0
1001
ACAD
1000
RTMaterial
1005
0
  0
LINE
  8
F01_OUT
  5
41F
 10
29.397521
 20
151.910308
 30
0.0
 11
29.897521
 21
151.910308
 31
0.0
1001
ACAD
1000
RTMaterial
1005
0
  0
LINE
  8
F01_OUT
  5
420
 10
29.897521
 20
151.910308
 30
0.0
 11
30.897521
 21
151.910308
 31
0.0
1001
ACAD
1000
RTMaterial
1005
0
  0
LINE
  8
F01_OUT
  5
421
 10
29.397521
 20
150.910308
 30
0.0
 11
29.247521
 21
150.910308
 31
0.0
1001
ACAD
1000
RTMaterial
1005
0
  0
LINE
  8
F01_OUT
  5
422
 10
29.397521
 20
158.010308
 30
0.0
 11
33.597521
 21
158.010308
 31
0.0
1001
ACAD
1000
RTMaterial
1005
0
  0
LINE
  8
F01_OUT
  5
423
 10
29.397521
 20
158.010308
 30
0.0
 11
29.397521
 21
159.910308
 31
0.0
1001
ACAD
1000
RTMaterial
1005
0
  0
LINE
  8
F01_OUT
  5
424
 10
28.897521
 20
151.910308
 30
0.0
 11
29.397521
 21
151.910308
 31
0.0
1001
ACAD
1000
RTMaterial
1005
0
  0
ARC
  8
F01_OUT
  5
425
 10
55.947521
 20
154.910308
 30
0.0
 40
1.5
 50
180.0
 51
191.536959
1001
ACAD
1000
RTMaterial
1005
0
  0
ARC
  8
F01_OUT
  5
426
 10
46.497521
 20
151.410308
 30
0.0
 40
0.5
 50
90.0
 51
180.0
1001
ACAD
1000
RTMaterial
1005
0
  0
ARC
  8
F01_OUT
  5
427
 10
47.966051
 20
157.7071
 30
0.0
 40
0.296818
 50
269.239438
 51
288.55023
1001
ACAD
1000
RTMaterial
1005
0
  0
ARC
  8
F01_OUT
  5
428
 10
47.797521
 20
151.410308
 30
0.0
 40
0.5
 50
0.0
 51
90.0
1001
ACAD
1000
RTMaterial
1005
0
  0
ARC
  8
F01_OUT
  5
429
 10
48.147521
 20
154.910308
 30
0.0
 40
1.5
 50
353.159936
 51
0.0
1001
ACAD
1000
RTMaterial
1005
0
  0
ARC
  8
F01_OUT
  5
42A
 10
42.697521
 20
159.910308
 30
0.0
 40
0.3
 50
90.0
 51
180.0
1001
ACAD
1000
RTMaterial
1005
0
  0
ARC
  8
F01_OUT
  5
42B
 10
42.597521
 20
151.410308
 30
0.0
 40
0.5
 50
0.0
 51
90.0
1001
ACAD
1000
RTMaterial
1005
0
  0
ARC
  8
F01_OUT
  5
42C
 10
46.697521
 20
159.910308
 30
0.0
 40
0.3
 50
0.0
 51
90.0
1001
ACAD
1000
RTMaterial
1005
0
  0
ARC
  8
F01_OUT
  5
42D
 10
47.297521
 20
161.610308
 30
0.0
 40
0.3
 50
90.0
 51
180.0
1001
ACAD
1000
RTMaterial
1005
0
  0
ARC
  8
F01_OUT
  5
42E
 10
46.697521
 20
155.210308
 30
0.0
 40
0.3
 50
270.0
 51
0.0
1001
ACAD
1000
RTMaterial
1005
0
  0
ARC
  8
F01_OUT
  5
42F
 10
19.997521
 20
151.610308
 30
0.0
 40
0.3
 50
90.0
 51
180.0
1001
ACAD
1000
RTMaterial
1005
0
  0
ARC
  8
F01_OUT
  5
430
 10
19.997521
 20
153.110308
 30
0.0
 40
0.3
 50
90.0
 51
180.0
1001
ACAD
1000
RTMaterial
1005
0
  0
ARC
  8
F01_OUT
  5
431
 10
25.097521
 20
159.910308
 30
0.0
 40
0.3
 50
90.0
 51
180.0
1001
ACAD
1000
RTMaterial
1005
0
  0
ARC
  8
F01_OUT
  5
432
 10
24.497521
 20
157.710308
 30
0.0
 40
0.3
 50
90.0
 51
180.0
1001
ACAD
1000
RTMaterial
1005
0
  0
ARC
  8
F01_OUT
  5
433
 10
59.897521
 20
146.510308
 30
0.0
 40
0.5
 50
24.953021
 51
155.046979
1001
ACAD
1000
RTMaterial
1005
0
  0
ARC
  8
F01_OUT
  5
434
 10
62.097521
 20
146.075632
 30
0.0
 40
0.3
 50
221.775348
 51
0.0
1001
ACAD
1000
RTMaterial
1005
0
  0
ARC
  8
F01_OUT
  5
435
 10
59.897521
 20
144.110308
 30
0.0
 40
2.65
 50
99.84985
 51
130.095818
1001
ACAD
1000
RTMaterial
1005
0
  0
ARC
  8
F01_OUT
  5
436
 10
57.997521
 20
146.366965
 30
0.0
 40
0.3
 50
180.0
 51
310.095818
1001
ACAD
1000
RTMaterial
1005
0
  0
ARC
  8
F01_OUT
  5
437
 10
59.897521
 20
144.110308
 30
0.0
 40
2.65
 50
130.095818
 51
149.147524
1001
ACAD
1000
RTMaterial
1005
0
  0
ARC
  8
F01_OUT
  5
438
 10
64.197521
 20
149.110308
 30
0.0
 40
0.3
 50
31.366978
 51
90.0
1001
ACAD
1000
RTMaterial
1005
0
  0
ARC
  8
F01_OUT
  5
439
 10
64.197521
 20
149.110308
 30
0.0
 40
0.3
 50
0.0
 51
31.366978
1001
ACAD
1000
RTMaterial
1005
0
  0
ARC
  8
F01_OUT
  5
43A
 10
56.897521
 20
150.410308
 30
0.0
 40
0.5
 50
0.0
 51
90.0
1001
ACAD
1000
RTMaterial
1005
0
  0
ARC
  8
F01_OUT
  5
43B
 10
63.197521
 20
154.310308
 30
0.0
 40
0.3
 50
0.0
 51
90.0
1001
ACAD
1000
RTMaterial
1005
0
  0
ARC
  8
F01_OUT
  5
43C
 10
64.197521
 20
153.110308
 30
0.0
 40
0.3
 50
0.0
 51
90.0
1001
ACAD
1000
RTMaterial
1005
0
  0
ARC
  8
F01_OUT
  5
43D
 10
59.897521
 20
144.110308
 30
0.0
 40
2.65
 50
41.775348
 51
80.15015
1001
ACAD
1000
RTMaterial
1005
0
  0
ARC
  8
F01_OUT
  5
43E
 10
37.897521
 20
159.910308
 30
0.0
 40
0.3
 50
0.0
 51
90.0
1001
ACAD
1000
RTMaterial
1005
0
  0
ARC
  8
F01_OUT
  5
43F
 10
33.897521
 20
159.910308
 30
0.0
 40
0.3
 50
90.0
 51
180.0
1001
ACAD
1000
RTMaterial
1005
0
  0
ARC
  8
F01_OUT
  5
440
 10
29.097521
 20
159.910308
 30
0.0
 40
0.3
 50
0.0
 51
90.0
1001
ACAD
1000
RTMaterial
1005
0
  0
CIRCLE
  8
F01_OUT
  5
441
 10
50.797521
 20
168.710308
 30
0.0
 40
3.0
1001
ACAD
1000
RTMaterial
1005
0
  0
CIRCLE
  8
F01_OUT
  5
442
 10
50.797521
 20
199.710308
 30
0.0
 40
3.0
1001
ACAD
1000
RTMaterial
1005
0
  0
CIRCLE
  8
F01_OUT
  5
443
 10
42.097521
 20
168.710308
 30
0.0
 40
3.0
1001
ACAD
1000
RTMaterial
1005
0
  0
CIRCLE
  8
F01_OUT
  5
444
 10
24.697521
 20
168.710308
 30
0.0
 40
3.0
1001
ACAD
1000
RTMaterial
1005
0
  0
CIRCLE
  8
F01_OUT
  5
445
 10
24.697521
 20
199.710308
 30
0.0
 40
3.0
1001
ACAD
1000
RTMaterial
1005
0
  0
CIRCLE
  8
F01_OUT
  5
446
 10
33.397521
 20
199.710308
 30
0.0
 40
3.0
1001
ACAD
1000
RTMaterial
1005
0
  0
CIRCLE
  8
F01_OUT
  5
447
 10
42.097521
 20
199.710308
 30
0.0
 40
3.0
1001
ACAD
1000
RTMaterial
1005
0
  0
CIRCLE
  8
F01_OUT
  5
448
 10
59.497521
 20
199.710308
 30
0.0
 40
3.0
1001
ACAD
1000
RTMaterial
1005
0
  0
CIRCLE
  8
F01_OUT
  5
449
 10
59.497521
 20
168.710308
 30
0.0
 40
3.0
1001
ACAD
1000
RTMaterial
1005
0
  0
CIRCLE
  8
F01_OUT
  5
44A
 10
33.397521
 20
168.710308
 30
0.0
 40
3.0
1001
ACAD
1000
RTMaterial
1005
0
  0
CIRCLE
  8
F01_OUT
  5
44B
 10
33.397521
 20
199.710308
 30
0.0
 40
3.25
1001
ACAD
1000
RTMaterial
1005
0
  0
CIRCLE
  8
F01_OUT
  5
44C
 10
59.497521
 20
199.710308
 30
0.0
 40
3.25
1001
ACAD
1000
RTMaterial
1005
0
  0
CIRCLE
  8
F01_OUT
  5
44D
 10
42.097521
 20
199.710308
 30
0.0
 40
3.25
1001
ACAD
1000
RTMaterial
1005
0
  0
CIRCLE
  8
F01_OUT
  5
44E
 10
24.697521
 20
199.710308
 30
0.0
 40
3.25
1001
ACAD
1000
RTMaterial
1005
0
  0
CIRCLE
  8
F01_OUT
  5
44F
 10
50.797521
 20
199.710308
 30
0.0
 40
3.25
1001
ACAD
1000
RTMaterial
1005
0
  0
LINE
  8
F01_OUT
  5
450
 10
29.197521
 20
204.710308
 30
0.0
 11
29.197521
 21
195.710308
 31
0.0
1001
ACAD
1000
RTMaterial
1005
0
  0
LINE
  8
F01_OUT
  5
451
 10
28.897521
 20
204.710308
 30
0.0
 11
28.897521
 21
195.710308
 31
0.0
1001
ACAD
1000
RTMaterial
1005
0
  0
LINE
  8
F01_OUT
  5
452
 10
37.597521
 20
204.710308
 30
0.0
 11
37.597521
 21
195.710308
 31
0.0
1001
ACAD
1000
RTMaterial
1005
0
  0
LINE
  8
F01_OUT
  5
453
 10
35.820764
 20
204.710308
 30
0.0
 11
37.597521
 21
204.710308
 31
0.0
1001
ACAD
1000
RTMaterial
1005
0
  0
LINE
  8
F01_OUT
  5
454
 10
34.647521
 20
204.710308
 30
0.0
 11
35.597521
 21
204.710308
 31
0.0
1001
ACAD
1000
RTMaterial
1005
0
  0
LINE
  8
F01_OUT
  5
455
 10
29.197521
 20
204.710308
 30
0.0
 11
28.897521
 21
204.710308
 31
0.0
1001
ACAD
1000
RTMaterial
1005
0
  0
LINE
  8
F01_OUT
  5
456
 10
35.597521
 20
204.710308
 30
0.0
 11
35.820764
 21
204.710308
 31
0.0
1001
ACAD
1000
RTMaterial
1005
0
  0
LINE
  8
F01_OUT
  5
457
 10
64.597521
 20
203.610308
 30
0.0
 11
64.597521
 21
195.710308
 31
0.0
1001
ACAD
1000
RTMaterial
1005
0
  0
LINE
  8
F01_OUT
  5
458
 10
63.372521
 20
195.710308
 30
0.0
 11
63.497521
 21
195.710308
 31
0.0
1001
ACAD
1000
RTMaterial
1005
0
  0
LINE
  8
F01_OUT
  5
459
 10
63.197521
 20
203.610308
 30
0.0
 11
64.597521
 21
203.610308
 31
0.0
1001
ACAD
1000
RTMaterial
1005
0
  0
LINE
  8
F01_OUT
  5
45A
 10
62.457901
 20
195.710308
 30
0.0
 11
63.372521
 21
195.710308
 31
0.0
1001
ACAD
1000
RTMaterial
1005
0
  0
LINE
  8
F01_OUT
  5
45B
 10
63.372521
 20
204.710308
 30
0.0
 11
63.197521
 21
204.710308
 31
0.0
1001
ACAD
1000
RTMaterial
1005
0
  0
LINE
  8
F01_OUT
  5
45C
 10
63.197521
 20
203.710308
 30
0.0
 11
63.372521
 21
203.710308
 31
0.0
1001
ACAD
1000
RTMaterial
1005
0
  0
LINE
  8
F01_OUT
  5
45D
 10
63.197521
 20
204.710308
 30
0.0
 11
63.197521
 21
203.710308
 31
0.0
1001
ACAD
1000
RTMaterial
1005
0
  0
LINE
  8
F01_OUT
  5
45E
 10
63.197521
 20
203.710308
 30
0.0
 11
63.197521
 21
203.610308
 31
0.0
1001
ACAD
1000
RTMaterial
1005
0
  0
LINE
  8
F01_OUT
  5
45F
 10
63.497521
 20
195.710308
 30
0.0
 11
64.597521
 21
195.710308
 31
0.0
1001
ACAD
1000
RTMaterial
1005
0
  0
LINE
  8
F01_OUT
  5
460
 10
55.297521
 20
204.710308
 30
0.0
 11
55.297521
 21
195.710308
 31
0.0
1001
ACAD
1000
RTMaterial
1005
0
  0
LINE
  8
F01_OUT
  5
461
 10
55.297521
 20
204.710308
 30
0.0
 11
63.197521
 21
204.710308
 31
0.0
1001
ACAD
1000
RTMaterial
1005
0
  0
LINE
  8
F01_OUT
  5
462
 10
44.847521
 20
195.710308
 30
0.0
 11
46.297521
 21
195.710308
 31
0.0
1001
ACAD
1000
RTMaterial
1005
0
  0
LINE
  8
F01_OUT
  5
463
 10
44.347521
 20
195.710308
 30
0.0
 11
44.847521
 21
195.710308
 31
0.0
1001
ACAD
1000
RTMaterial
1005
0
  0
LINE
  8
F01_OUT
  5
464
 10
40.347521
 20
195.710308
 30
0.0
 11
43.847521
 21
195.710308
 31
0.0
1001
ACAD
1000
RTMaterial
1005
0
  0
LINE
  8
F01_OUT
  5
465
 10
43.847521
 20
195.710308
 30
0.0
 11
44.347521
 21
195.710308
 31
0.0
1001
ACAD
1000
RTMaterial
1005
0
  0
LINE
  8
F01_OUT
  5
466
 10
37.897521
 20
195.710308
 30
0.0
 11
39.347521
 21
195.710308
 31
0.0
1001
ACAD
1000
RTMaterial
1005
0
  0
LINE
  8
F01_OUT
  5
467
 10
37.897521
 20
195.710308
 30
0.0
 11
37.597521
 21
195.710308
 31
0.0
1001
ACAD
1000
RTMaterial
1005
0
  0
LINE
  8
F01_OUT
  5
468
 10
39.347521
 20
195.710308
 30
0.0
 11
39.847521
 21
195.710308
 31
0.0
1001
ACAD
1000
RTMaterial
1005
0
  0
LINE
  8
F01_OUT
  5
469
 10
39.847521
 20
195.710308
 30
0.0
 11
40.347521
 21
195.710308
 31
0.0
1001
ACAD
1000
RTMaterial
1005
0
  0
LINE
  8
F01_OUT
  5
46A
 10
43.097521
 20
204.710308
 30
0.0
 11
46.097521
 21
204.710308
 31
0.0
1001
ACAD
1000
RTMaterial
1005
0
  0
LINE
  8
F01_OUT
  5
46B
 10
38.097521
 20
204.710308
 30
0.0
 11
41.097521
 21
204.710308
 31
0.0
1001
ACAD
1000
RTMaterial
1005
0
  0
LINE
  8
F01_OUT
  5
46C
 10
37.897521
 20
204.710308
 30
0.0
 11
38.097521
 21
204.710308
 31
0.0
1001
ACAD
1000
RTMaterial
1005
0
  0
LINE
  8
F01_OUT
  5
46D
 10
41.097521
 20
204.710308
 30
0.0
 11
43.097521
 21
204.710308
 31
0.0
1001
ACAD
1000
RTMaterial
1005
0
  0
LINE
  8
F01_OUT
  5
46E
 10
37.897521
 20
204.710308
 30
0.0
 11
37.597521
 21
204.710308
 31
0.0
1001
ACAD
1000
RTMaterial
1005
0
  0
LINE
  8
F01_OUT
  5
46F
 10
37.897521
 20
204.710308
 30
0.0
 11
37.897521
 21
195.710308
 31
0.0
1001
ACAD
1000
RTMaterial
1005
0
  0
LINE
  8
F01_OUT
  5
470
 10
57.897521
 20
195.710308
 30
0.0
 11
61.097521
 21
195.710308
 31
0.0
1001
ACAD
1000
RTMaterial
1005
0
  0
LINE
  8
F01_OUT
  5
471
 10
36.147521
 20
195.710308
 30
0.0
 11
37.597521
 21
195.710308
 31
0.0
1001
ACAD
1000
RTMaterial
1005
0
  0
LINE
  8
F01_OUT
  5
472
 10
35.647521
 20
195.710308
 30
0.0
 11
36.147521
 21
195.710308
 31
0.0
1001
ACAD
1000
RTMaterial
1005
0
  0
LINE
  8
F01_OUT
  5
473
 10
33.397521
 20
195.710308
 30
0.0
 11
35.147521
 21
195.710308
 31
0.0
1001
ACAD
1000
RTMaterial
1005
0
  0
LINE
  8
F01_OUT
  5
474
 10
35.147521
 20
195.710308
 30
0.0
 11
35.647521
 21
195.710308
 31
0.0
1001
ACAD
1000
RTMaterial
1005
0
  0
LINE
  8
F01_OUT
  5
475
 10
31.647521
 20
195.710308
 30
0.0
 11
33.397521
 21
195.710308
 31
0.0
1001
ACAD
1000
RTMaterial
1005
0
  0
LINE
  8
F01_OUT
  5
476
 10
30.647521
 20
195.710308
 30
0.0
 11
31.147521
 21
195.710308
 31
0.0
1001
ACAD
1000
RTMaterial
1005
0
  0
LINE
  8
F01_OUT
  5
477
 10
31.397521
 20
195.710308
 30
0.0
 11
31.647521
 21
195.710308
 31
0.0
1001
ACAD
1000
RTMaterial
1005
0
  0
LINE
  8
F01_OUT
  5
478
 10
31.147521
 20
195.710308
 30
0.0
 11
31.397521
 21
195.710308
 31
0.0
1001
ACAD
1000
RTMaterial
1005
0
  0
LINE
  8
F01_OUT
  5
479
 10
29.197521
 20
195.710308
 30
0.0
 11
30.647521
 21
195.710308
 31
0.0
1001
ACAD
1000
RTMaterial
1005
0
  0
LINE
  8
F01_OUT
  5
47A
 10
29.197521
 20
195.710308
 30
0.0
 11
28.897521
 21
195.710308
 31
0.0
1001
ACAD
1000
RTMaterial
1005
0
  0
LINE
  8
F01_OUT
  5
47B
 10
61.097521
 20
195.710308
 30
0.0
 11
62.457901
 21
195.710308
 31
0.0
1001
ACAD
1000
RTMaterial
1005
0
  0
LINE
  8
F01_OUT
  5
47C
 10
29.197521
 20
204.710308
 30
0.0
 11
29.597521
 21
204.710308
 31
0.0
1001
ACAD
1000
RTMaterial
1005
0
  0
LINE
  8
F01_OUT
  5
47D
 10
29.597521
 20
204.710308
 30
0.0
 11
34.647521
 21
204.710308
 31
0.0
1001
ACAD
1000
RTMaterial
1005
0
  0
LINE
  8
F01_OUT
  5
47E
 10
55.297521
 20
195.710308
 30
0.0
 11
57.897521
 21
195.710308
 31
0.0
1001
ACAD
1000
RTMaterial
1005
0
  0
LINE
  8
F01_OUT
  5
47F
 10
20.697521
 20
195.710308
 30
0.0
 11
20.822521
 21
195.710308
 31
0.0
1001
ACAD
1000
RTMaterial
1005
0
  0
LINE
  8
F01_OUT
  5
480
 10
26.947521
 20
195.710308
 30
0.0
 11
27.447521
 21
195.710308
 31
0.0
1001
ACAD
1000
RTMaterial
1005
0
  0
LINE
  8
F01_OUT
  5
481
 10
26.50613
 20
195.710308
 30
0.0
 11
26.947521
 21
195.710308
 31
0.0
1001
ACAD
1000
RTMaterial
1005
0
  0
LINE
  8
F01_OUT
  5
482
 10
21.947521
 20
195.710308
 30
0.0
 11
22.447521
 21
195.710308
 31
0.0
1001
ACAD
1000
RTMaterial
1005
0
  0
LINE
  8
F01_OUT
  5
483
 10
22.947521
 20
195.710308
 30
0.0
 11
26.447521
 21
195.710308
 31
0.0
1001
ACAD
1000
RTMaterial
1005
0
  0
LINE
  8
F01_OUT
  5
484
 10
19.597521
 20
195.710308
 30
0.0
 11
20.697521
 21
195.710308
 31
0.0
1001
ACAD
1000
RTMaterial
1005
0
  0
LINE
  8
F01_OUT
  5
485
 10
20.822521
 20
195.710308
 30
0.0
 11
21.947521
 21
195.710308
 31
0.0
1001
ACAD
1000
RTMaterial
1005
0
  0
LINE
  8
F01_OUT
  5
486
 10
22.447521
 20
195.710308
 30
0.0
 11
22.947521
 21
195.710308
 31
0.0
1001
ACAD
1000
RTMaterial
1005
0
  0
LINE
  8
F01_OUT
  5
487
 10
26.447521
 20
195.710308
 30
0.0
 11
26.50613
 21
195.710308
 31
0.0
1001
ACAD
1000
RTMaterial
1005
0
  0
LINE
  8
F01_OUT
  5
488
 10
19.597521
 20
203.610308
 30
0.0
 11
20.997521
 21
203.610308
 31
0.0
1001
ACAD
1000
RTMaterial
1005
0
  0
LINE
  8
F01_OUT
  5
489
 10
20.997521
 20
204.710308
 30
0.0
 11
28.897521
 21
204.710308
 31
0.0
1001
ACAD
1000
RTMaterial
1005
0
  0
LINE
  8
F01_OUT
  5
48A
 10
20.822521
 20
203.710308
 30
0.0
 11
20.997521
 21
203.710308
 31
0.0
1001
ACAD
1000
RTMaterial
1005
0
  0
LINE
  8
F01_OUT
  5
48B
 10
27.447521
 20
195.710308
 30
0.0
 11
28.897521
 21
195.710308
 31
0.0
1001
ACAD
1000
RTMaterial
1005
0
  0
LINE
  8
F01_OUT
  5
48C
 10
20.997521
 20
204.710308
 30
0.0
 11
20.997521
 21
203.710308
 31
0.0
1001
ACAD
1000
RTMaterial
1005
0
  0
LINE
  8
F01_OUT
  5
48D
 10
20.997521
 20
203.710308
 30
0.0
 11
20.997521
 21
203.610308
 31
0.0
1001
ACAD
1000
RTMaterial
1005
0
  0
LINE
  8
F01_OUT
  5
48E
 10
20.997521
 20
204.710308
 30
0.0
 11
20.822521
 21
204.710308
 31
0.0
1001
ACAD
1000
RTMaterial
1005
0
  0
LINE
  8
F01_OUT
  5
48F
 10
19.597521
 20
203.610308
 30
0.0
 11
19.597521
 21
195.710308
 31
0.0
1001
ACAD
1000
RTMaterial
1005
0
  0
LINE
  8
F01_OUT
  5
490
 10
50.797521
 20
195.710308
 30
0.0
 11
52.547521
 21
195.710308
 31
0.0
1001
ACAD
1000
RTMaterial
1005
0
  0
LINE
  8
F01_OUT
  5
491
 10
52.547521
 20
195.710308
 30
0.0
 11
52.797521
 21
195.710308
 31
0.0
1001
ACAD
1000
RTMaterial
1005
0
  0
LINE
  8
F01_OUT
  5
492
 10
53.547521
 20
195.710308
 30
0.0
 11
54.997521
 21
195.710308
 31
0.0
1001
ACAD
1000
RTMaterial
1005
0
  0
LINE
  8
F01_OUT
  5
493
 10
52.797521
 20
195.710308
 30
0.0
 11
53.047521
 21
195.710308
 31
0.0
1001
ACAD
1000
RTMaterial
1005
0
  0
LINE
  8
F01_OUT
  5
494
 10
53.047521
 20
195.710308
 30
0.0
 11
53.547521
 21
195.710308
 31
0.0
1001
ACAD
1000
RTMaterial
1005
0
  0
LINE
  8
F01_OUT
  5
495
 10
49.547521
 20
204.710308
 30
0.0
 11
54.597521
 21
204.710308
 31
0.0
1001
ACAD
1000
RTMaterial
1005
0
  0
LINE
  8
F01_OUT
  5
496
 10
46.597521
 20
204.710308
 30
0.0
 11
46.297521
 21
204.710308
 31
0.0
1001
ACAD
1000
RTMaterial
1005
0
  0
LINE
  8
F01_OUT
  5
497
 10
46.597521
 20
204.710308
 30
0.0
 11
48.597521
 21
204.710308
 31
0.0
1001
ACAD
1000
RTMaterial
1005
0
  0
LINE
  8
F01_OUT
  5
498
 10
48.597521
 20
204.710308
 30
0.0
 11
49.547521
 21
204.710308
 31
0.0
1001
ACAD
1000
RTMaterial
1005
0
  0
LINE
  8
F01_OUT
  5
499
 10
54.597521
 20
204.710308
 30
0.0
 11
54.997521
 21
204.710308
 31
0.0
1001
ACAD
1000
RTMaterial
1005
0
  0
LINE
  8
F01_OUT
  5
49A
 10
48.047521
 20
195.710308
 30
0.0
 11
48.547521
 21
195.710308
 31
0.0
1001
ACAD
1000
RTMaterial
1005
0
  0
LINE
  8
F01_OUT
  5
49B
 10
46.597521
 20
195.710308
 30
0.0
 11
48.047521
 21
195.710308
 31
0.0
1001
ACAD
1000
RTMaterial
1005
0
  0
LINE
  8
F01_OUT
  5
49C
 10
49.047521
 20
195.710308
 30
0.0
 11
50.797521
 21
195.710308
 31
0.0
1001
ACAD
1000
RTMaterial
1005
0
  0
LINE
  8
F01_OUT
  5
49D
 10
46.597521
 20
195.710308
 30
0.0
 11
46.297521
 21
195.710308
 31
0.0
1001
ACAD
1000
RTMaterial
1005
0
  0
LINE
  8
F01_OUT
  5
49E
 10
48.547521
 20
195.710308
 30
0.0
 11
49.047521
 21
195.710308
 31
0.0
1001
ACAD
1000
RTMaterial
1005
0
  0
LINE
  8
F01_OUT
  5
49F
 10
46.597521
 20
204.710308
 30
0.0
 11
46.597521
 21
195.710308
 31
0.0
1001
ACAD
1000
RTMaterial
1005
0
  0
LINE
  8
F01_OUT
  5
4A0
 10
54.997521
 20
204.710308
 30
0.0
 11
54.997521
 21
195.710308
 31
0.0
1001
ACAD
1000
RTMaterial
1005
0
  0
LINE
  8
F01_OUT
  5
4A1
 10
46.297521
 20
204.710308
 30
0.0
 11
46.297521
 21
195.710308
 31
0.0
1001
ACAD
1000
RTMaterial
1005
0
  0
LINE
  8
F01_OUT
  5
4A2
 10
55.297521
 20
204.710308
 30
0.0
 11
54.997521
 21
204.710308
 31
0.0
1001
ACAD
1000
RTMaterial
1005
0
  0
LINE
  8
F01_OUT
  5
4A3
 10
55.297521
 20
195.710308
 30
0.0
 11
54.997521
 21
195.710308
 31
0.0
1001
ACAD
1000
RTMaterial
1005
0
  0
LINE
  8
F01_OUT
  5
4A4
 10
46.097521
 20
204.710308
 30
0.0
 11
46.297521
 21
204.710308
 31
0.0
1001
ACAD
1000
RTMaterial
1005
0
  0
CIRCLE
  8
F01_OUT
  5
4A5
 10
33.397521
 20
168.710308
 30
0.0
 40
3.25
1001
ACAD
1000
RTMaterial
1005
0
  0
CIRCLE
  8
F01_OUT
  5
4A6
 10
59.497521
 20
168.710308
 30
0.0
 40
3.25
1001
ACAD
1000
RTMaterial
1005
0
  0
CIRCLE
  8
F01_OUT
  5
4A7
 10
24.697521
 20
168.710308
 30
0.0
 40
3.25
1001
ACAD
1000
RTMaterial
1005
0
  0
CIRCLE
  8
F01_OUT
  5
4A8
 10
50.797521
 20
168.710308
 30
0.0
 40
3.25
1001
ACAD
1000
RTMaterial
1005
0
  0
CIRCLE
  8
F01_OUT
  5
4A9
 10
42.097521
 20
168.710308
 30
0.0
 40
3.25
1001
ACAD
1000
RTMaterial
1005
0
  0
LINE
  8
F01_OUT
  5
4AA
 10
29.197521
 20
163.710308
 30
0.0
 11
29.197521
 21
172.710308
 31
0.0
1001
ACAD
1000
RTMaterial
1005
0
  0
LINE
  8
F01_OUT
  5
4AB
 10
28.897521
 20
163.710308
 30
0.0
 11
28.897521
 21
172.710308
 31
0.0
1001
ACAD
1000
RTMaterial
1005
0
  0
LINE
  8
F01_OUT
  5
4AC
 10
28.897521
 20
163.710308
 30
0.0
 11
29.197521
 21
163.710308
 31
0.0
1001
ACAD
1000
RTMaterial
1005
0
  0
LINE
  8
F01_OUT
  5
4AD
 10
37.597521
 20
163.710308
 30
0.0
 11
37.597521
 21
172.710308
 31
0.0
1001
ACAD
1000
RTMaterial
1005
0
  0
LINE
  8
F01_OUT
  5
4AE
 10
37.897521
 20
163.710308
 30
0.0
 11
37.897521
 21
172.710308
 31
0.0
1001
ACAD
1000
RTMaterial
1005
0
  0
LINE
  8
F01_OUT
  5
4AF
 10
37.597521
 20
163.710308
 30
0.0
 11
29.597521
 21
163.710308
 31
0.0
1001
ACAD
1000
RTMaterial
1005
0
  0
LINE
  8
F01_OUT
  5
4B0
 10
64.597521
 20
164.810308
 30
0.0
 11
64.597521
 21
172.710308
 31
0.0
1001
ACAD
1000
RTMaterial
1005
0
  0
LINE
  8
F01_OUT
  5
4B1
 10
63.372521
 20
172.710308
 30
0.0
 11
62.457901
 21
172.710308
 31
0.0
1001
ACAD
1000
RTMaterial
1005
0
  0
LINE
  8
F01_OUT
  5
4B2
 10
64.597521
 20
172.710308
 30
0.0
 11
63.497521
 21
172.710308
 31
0.0
1001
ACAD
1000
RTMaterial
1005
0
  0
LINE
  8
F01_OUT
  5
4B3
 10
63.497521
 20
172.710308
 30
0.0
 11
63.372521
 21
172.710308
 31
0.0
1001
ACAD
1000
RTMaterial
1005
0
  0
LINE
  8
F01_OUT
  5
4B4
 10
43.847521
 20
172.710308
 30
0.0
 11
40.347521
 21
172.710308
 31
0.0
1001
ACAD
1000
RTMaterial
1005
0
  0
LINE
  8
F01_OUT
  5
4B5
 10
39.347521
 20
172.710308
 30
0.0
 11
37.897521
 21
172.710308
 31
0.0
1001
ACAD
1000
RTMaterial
1005
0
  0
LINE
  8
F01_OUT
  5
4B6
 10
39.847521
 20
172.710308
 30
0.0
 11
39.347521
 21
172.710308
 31
0.0
1001
ACAD
1000
RTMaterial
1005
0
  0
LINE
  8
F01_OUT
  5
4B7
 10
40.347521
 20
172.710308
 30
0.0
 11
39.847521
 21
172.710308
 31
0.0
1001
ACAD
1000
RTMaterial
1005
0
  0
LINE
  8
F01_OUT
  5
4B8
 10
46.297521
 20
172.710308
 30
0.0
 11
44.847521
 21
172.710308
 31
0.0
1001
ACAD
1000
RTMaterial
1005
0
  0
LINE
  8
F01_OUT
  5
4B9
 10
44.847521
 20
172.710308
 30
0.0
 11
44.347521
 21
172.710308
 31
0.0
1001
ACAD
1000
RTMaterial
1005
0
  0
LINE
  8
F01_OUT
  5
4BA
 10
44.347521
 20
172.710308
 30
0.0
 11
43.847521
 21
172.710308
 31
0.0
1001
ACAD
1000
RTMaterial
1005
0
  0
LINE
  8
F01_OUT
  5
4BB
 10
61.097521
 20
172.710308
 30
0.0
 11
57.897521
 21
172.710308
 31
0.0
1001
ACAD
1000
RTMaterial
1005
0
  0
LINE
  8
F01_OUT
  5
4BC
 10
35.147521
 20
172.710308
 30
0.0
 11
33.397521
 21
172.710308
 31
0.0
1001
ACAD
1000
RTMaterial
1005
0
  0
LINE
  8
F01_OUT
  5
4BD
 10
37.597521
 20
172.710308
 30
0.0
 11
36.147521
 21
172.710308
 31
0.0
1001
ACAD
1000
RTMaterial
1005
0
  0
LINE
  8
F01_OUT
  5
4BE
 10
35.647521
 20
172.710308
 30
0.0
 11
35.147521
 21
172.710308
 31
0.0
1001
ACAD
1000
RTMaterial
1005
0
  0
LINE
  8
F01_OUT
  5
4BF
 10
36.147521
 20
172.710308
 30
0.0
 11
35.647521
 21
172.710308
 31
0.0
1001
ACAD
1000
RTMaterial
1005
0
  0
LINE
  8
F01_OUT
  5
4C0
 10
37.597521
 20
172.710308
 30
0.0
 11
37.897521
 21
172.710308
 31
0.0
1001
ACAD
1000
RTMaterial
1005
0
  0
LINE
  8
F01_OUT
  5
4C1
 10
33.397521
 20
172.710308
 30
0.0
 11
31.647521
 21
172.710308
 31
0.0
1001
ACAD
1000
RTMaterial
1005
0
  0
LINE
  8
F01_OUT
  5
4C2
 10
31.397521
 20
172.710308
 30
0.0
 11
31.147521
 21
172.710308
 31
0.0
1001
ACAD
1000
RTMaterial
1005
0
  0
LINE
  8
F01_OUT
  5
4C3
 10
31.147521
 20
172.710308
 30
0.0
 11
30.647521
 21
172.710308
 31
0.0
1001
ACAD
1000
RTMaterial
1005
0
  0
LINE
  8
F01_OUT
  5
4C4
 10
31.647521
 20
172.710308
 30
0.0
 11
31.397521
 21
172.710308
 31
0.0
1001
ACAD
1000
RTMaterial
1005
0
  0
LINE
  8
F01_OUT
  5
4C5
 10
30.647521
 20
172.710308
 30
0.0
 11
29.197521
 21
172.710308
 31
0.0
1001
ACAD
1000
RTMaterial
1005
0
  0
LINE
  8
F01_OUT
  5
4C6
 10
28.897521
 20
172.710308
 30
0.0
 11
29.197521
 21
172.710308
 31
0.0
1001
ACAD
1000
RTMaterial
1005
0
  0
LINE
  8
F01_OUT
  5
4C7
 10
62.457901
 20
172.710308
 30
0.0
 11
61.097521
 21
172.710308
 31
0.0
1001
ACAD
1000
RTMaterial
1005
0
  0
LINE
  8
F01_OUT
  5
4C8
 10
57.897521
 20
172.710308
 30
0.0
 11
55.297521
 21
172.710308
 31
0.0
1001
ACAD
1000
RTMaterial
1005
0
  0
LINE
  8
F01_OUT
  5
4C9
 10
20.822521
 20
172.710308
 30
0.0
 11
20.697521
 21
172.710308
 31
0.0
1001
ACAD
1000
RTMaterial
1005
0
  0
LINE
  8
F01_OUT
  5
4CA
 10
27.447521
 20
172.710308
 30
0.0
 11
26.947521
 21
172.710308
 31
0.0
1001
ACAD
1000
RTMaterial
1005
0
  0
LINE
  8
F01_OUT
  5
4CB
 10
26.447521
 20
172.710308
 30
0.0
 11
22.947521
 21
172.710308
 31
0.0
1001
ACAD
1000
RTMaterial
1005
0
  0
LINE
  8
F01_OUT
  5
4CC
 10
22.947521
 20
172.710308
 30
0.0
 11
22.447521
 21
172.710308
 31
0.0
1001
ACAD
1000
RTMaterial
1005
0
  0
LINE
  8
F01_OUT
  5
4CD
 10
22.447521
 20
172.710308
 30
0.0
 11
21.947521
 21
172.710308
 31
0.0
1001
ACAD
1000
RTMaterial
1005
0
  0
LINE
  8
F01_OUT
  5
4CE
 10
26.947521
 20
172.710308
 30
0.0
 11
26.50613
 21
172.710308
 31
0.0
1001
ACAD
1000
RTMaterial
1005
0
  0
LINE
  8
F01_OUT
  5
4CF
 10
26.50613
 20
172.710308
 30
0.0
 11
26.447521
 21
172.710308
 31
0.0
1001
ACAD
1000
RTMaterial
1005
0
  0
LINE
  8
F01_OUT
  5
4D0
 10
19.597521
 20
164.810308
 30
0.0
 11
19.597521
 21
172.710308
 31
0.0
1001
ACAD
1000
RTMaterial
1005
0
  0
LINE
  8
F01_OUT
  5
4D1
 10
21.947521
 20
172.710308
 30
0.0
 11
20.822521
 21
172.710308
 31
0.0
1001
ACAD
1000
RTMaterial
1005
0
  0
LINE
  8
F01_OUT
  5
4D2
 10
28.897521
 20
172.710308
 30
0.0
 11
27.447521
 21
172.710308
 31
0.0
1001
ACAD
1000
RTMaterial
1005
0
  0
LINE
  8
F01_OUT
  5
4D3
 10
46.297521
 20
163.710308
 30
0.0
 11
46.297521
 21
172.710308
 31
0.0
1001
ACAD
1000
RTMaterial
1005
0
  0
LINE
  8
F01_OUT
  5
4D4
 10
46.597521
 20
163.710308
 30
0.0
 11
46.597521
 21
172.710308
 31
0.0
1001
ACAD
1000
RTMaterial
1005
0
  0
LINE
  8
F01_OUT
  5
4D5
 10
46.297521
 20
163.710308
 30
0.0
 11
44.847521
 21
163.710308
 31
0.0
1001
ACAD
1000
RTMaterial
1005
0
  0
LINE
  8
F01_OUT
  5
4D6
 10
43.097521
 20
163.710308
 30
0.0
 11
39.347521
 21
163.710308
 31
0.0
1001
ACAD
1000
RTMaterial
1005
0
  0
LINE
  8
F01_OUT
  5
4D7
 10
44.847521
 20
163.710308
 30
0.0
 11
43.097521
 21
163.710308
 31
0.0
1001
ACAD
1000
RTMaterial
1005
0
  0
LINE
  8
F01_OUT
  5
4D8
 10
20.997521
 20
163.710308
 30
0.0
 11
20.997521
 21
164.710308
 31
0.0
1001
ACAD
1000
RTMaterial
1005
0
  0
LINE
  8
F01_OUT
  5
4D9
 10
29.597521
 20
163.710308
 30
0.0
 11
29.197521
 21
163.710308
 31
0.0
1001
ACAD
1000
RTMaterial
1005
0
  0
LINE
  8
F01_OUT
  5
4DA
 10
28.897521
 20
163.710308
 30
0.0
 11
20.997521
 21
163.710308
 31
0.0
1001
ACAD
1000
RTMaterial
1005
0
  0
LINE
  8
F01_OUT
  5
4DB
 10
20.997521
 20
164.710308
 30
0.0
 11
20.997521
 21
164.810308
 31
0.0
1001
ACAD
1000
RTMaterial
1005
0
  0
LINE
  8
F01_OUT
  5
4DC
 10
63.197521
 20
163.710308
 30
0.0
 11
63.197521
 21
164.710308
 31
0.0
1001
ACAD
1000
RTMaterial
1005
0
  0
LINE
  8
F01_OUT
  5
4DD
 10
63.197521
 20
164.710308
 30
0.0
 11
63.197521
 21
164.810308
 31
0.0
1001
ACAD
1000
RTMaterial
1005
0
  0
LINE
  8
F01_OUT
  5
4DE
 10
63.197521
 20
163.710308
 30
0.0
 11
55.297521
 21
163.710308
 31
0.0
1001
ACAD
1000
RTMaterial
1005
0
  0
LINE
  8
F01_OUT
  5
4DF
 10
54.997521
 20
163.710308
 30
0.0
 11
55.297521
 21
163.710308
 31
0.0
1001
ACAD
1000
RTMaterial
1005
0
  0
LINE
  8
F01_OUT
  5
4E0
 10
39.347521
 20
163.710308
 30
0.0
 11
37.897521
 21
163.710308
 31
0.0
1001
ACAD
1000
RTMaterial
1005
0
  0
LINE
  8
F01_OUT
  5
4E1
 10
46.297521
 20
163.710308
 30
0.0
 11
46.597521
 21
163.710308
 31
0.0
1001
ACAD
1000
RTMaterial
1005
0
  0
LINE
  8
F01_OUT
  5
4E2
 10
37.597521
 20
163.710308
 30
0.0
 11
37.897521
 21
163.710308
 31
0.0
1001
ACAD
1000
RTMaterial
1005
0
  0
LINE
  8
F01_OUT
  5
4E3
 10
49.547521
 20
163.710308
 30
0.0
 11
46.597521
 21
163.710308
 31
0.0
1001
ACAD
1000
RTMaterial
1005
0
  0
LINE
  8
F01_OUT
  5
4E4
 10
20.822521
 20
163.710308
 30
0.0
 11
20.997521
 21
163.710308
 31
0.0
1001
ACAD
1000
RTMaterial
1005
0
  0
LINE
  8
F01_OUT
  5
4E5
 10
63.372521
 20
164.710308
 30
0.0
 11
63.197521
 21
164.710308
 31
0.0
1001
ACAD
1000
RTMaterial
1005
0
  0
LINE
  8
F01_OUT
  5
4E6
 10
64.597521
 20
164.810308
 30
0.0
 11
63.197521
 21
164.810308
 31
0.0
1001
ACAD
1000
RTMaterial
1005
0
  0
LINE
  8
F01_OUT
  5
4E7
 10
20.997521
 20
164.810308
 30
0.0
 11
19.597521
 21
164.810308
 31
0.0
1001
ACAD
1000
RTMaterial
1005
0
  0
LINE
  8
F01_OUT
  5
4E8
 10
20.997521
 20
164.710308
 30
0.0
 11
20.822521
 21
164.710308
 31
0.0
1001
ACAD
1000
RTMaterial
1005
0
  0
LINE
  8
F01_OUT
  5
4E9
 10
63.197521
 20
163.710308
 30
0.0
 11
63.372521
 21
163.710308
 31
0.0
1001
ACAD
1000
RTMaterial
1005
0
  0
LINE
  8
F01_OUT
  5
4EA
 10
20.697521
 20
172.710308
 30
0.0
 11
19.597521
 21
172.710308
 31
0.0
1001
ACAD
1000
RTMaterial
1005
0
  0
LINE
  8
F01_OUT
  5
4EB
 10
54.997521
 20
163.710308
 30
0.0
 11
54.997521
 21
172.710308
 31
0.0
1001
ACAD
1000
RTMaterial
1005
0
  0
LINE
  8
F01_OUT
  5
4EC
 10
55.297521
 20
163.710308
 30
0.0
 11
55.297521
 21
172.710308
 31
0.0
1001
ACAD
1000
RTMaterial
1005
0
  0
LINE
  8
F01_OUT
  5
4ED
 10
54.997521
 20
163.710308
 30
0.0
 11
54.597521
 21
163.710308
 31
0.0
1001
ACAD
1000
RTMaterial
1005
0
  0
LINE
  8
F01_OUT
  5
4EE
 10
54.997521
 20
172.710308
 30
0.0
 11
53.547521
 21
172.710308
 31
0.0
1001
ACAD
1000
RTMaterial
1005
0
  0
LINE
  8
F01_OUT
  5
4EF
 10
54.997521
 20
172.710308
 30
0.0
 11
55.297521
 21
172.710308
 31
0.0
1001
ACAD
1000
RTMaterial
1005
0
  0
LINE
  8
F01_OUT
  5
4F0
 10
53.547521
 20
172.710308
 30
0.0
 11
53.047521
 21
172.710308
 31
0.0
1001
ACAD
1000
RTMaterial
1005
0
  0
LINE
  8
F01_OUT
  5
4F1
 10
53.047521
 20
172.710308
 30
0.0
 11
52.797521
 21
172.710308
 31
0.0
1001
ACAD
1000
RTMaterial
1005
0
  0
LINE
  8
F01_OUT
  5
4F2
 10
52.797521
 20
172.710308
 30
0.0
 11
52.547521
 21
172.710308
 31
0.0
1001
ACAD
1000
RTMaterial
1005
0
  0
LINE
  8
F01_OUT
  5
4F3
 10
54.597521
 20
163.710308
 30
0.0
 11
49.547521
 21
163.710308
 31
0.0
1001
ACAD
1000
RTMaterial
1005
0
  0
LINE
  8
F01_OUT
  5
4F4
 10
52.547521
 20
172.710308
 30
0.0
 11
50.797521
 21
172.710308
 31
0.0
1001
ACAD
1000
RTMaterial
1005
0
  0
LINE
  8
F01_OUT
  5
4F5
 10
50.797521
 20
172.710308
 30
0.0
 11
49.047521
 21
172.710308
 31
0.0
1001
ACAD
1000
RTMaterial
1005
0
  0
LINE
  8
F01_OUT
  5
4F6
 10
48.047521
 20
172.710308
 30
0.0
 11
46.597521
 21
172.710308
 31
0.0
1001
ACAD
1000
RTMaterial
1005
0
  0
LINE
  8
F01_OUT
  5
4F7
 10
49.047521
 20
172.710308
 30
0.0
 11
48.547521
 21
172.710308
 31
0.0
1001
ACAD
1000
RTMaterial
1005
0
  0
LINE
  8
F01_OUT
  5
4F8
 10
48.547521
 20
172.710308
 30
0.0
 11
48.047521
 21
172.710308
 31
0.0
1001
ACAD
1000
RTMaterial
1005
0
  0
LINE
  8
F01_OUT
  5
4F9
 10
46.297521
 20
172.710308
 30
0.0
 11
46.597521
 21
172.710308
 31
0.0
1001
ACAD
1000
RTMaterial
1005
0
  0
ARC
  8
F01_OUT
  5
4FA
 10
42.097521
 20
206.610308
 30
0.0
 40
1.0
 50
210.0
 51
330.0
1001
ACAD
1000
RTMaterial
1005
0
  0
ARC
  8
F01_OUT
  5
4FB
 10
39.32624
 20
205.010308
 30
0.0
 40
2.2
 50
30.0
 51
36.377395
1001
ACAD
1000
RTMaterial
1005
0
  0
ARC
  8
F01_OUT
  5
4FC
 10
44.868802
 20
205.010308
 30
0.0
 40
2.2
 50
143.622605
 51
150.0
1001
ACAD
1000
RTMaterial
1005
0
  0
LINE
  8
F01_OUT
  5
4FD
 10
35.597521
 20
205.911698
 30
0.0
 11
37.272521
 21
206.568266
 31
0.0
1001
ACAD
1000
RTMaterial
1005
0
  0
LINE
  8
F01_OUT
  5
4FE
 10
35.820764
 20
204.710308
 30
0.0
 11
37.272521
 21
205.279369
 31
0.0
1001
ACAD
1000
RTMaterial
1005
0
  0
LINE
  8
F01_OUT
  5
4FF
 10
32.532604
 20
204.710308
 30
0.0
 11
34.647521
 21
205.539315
 31
0.0
1001
ACAD
1000
RTMaterial
1005
0
  0
LINE
  8
F01_OUT
  5
500
 10
46.922521
 20
206.568266
 30
0.0
 11
48.597521
 21
205.911698
 31
0.0
1001
ACAD
1000
RTMaterial
1005
0
  0
LINE
  8
F01_OUT
  5
501
 10
49.547521
 20
205.539315
 30
0.0
 11
51.662438
 21
204.710308
 31
0.0
1001
ACAD
1000
RTMaterial
1005
0
  0
LINE
  8
F01_OUT
  5
502
 10
46.922521
 20
205.279369
 30
0.0
 11
48.374278
 21
204.710308
 31
0.0
1001
ACAD
1000
RTMaterial
1005
0
  0
ARC
  8
F01_OUT
  5
503
 10
63.097521
 20
207.210308
 30
0.0
 40
1.0
 50
67.811837
 51
90.0
1001
ACAD
1000
RTMaterial
1005
0
  0
ARC
  8
F01_OUT
  5
504
 10
59.597521
 20
204.210308
 30
0.0
 40
2.25
 50
12.839588
 51
126.869898
1001
ACAD
1000
RTMaterial
1005
0
  0
ARC
  8
F01_OUT
  5
505
 10
37.497521
 20
205.310308
 30
0.0
 40
0.4
 50
193.745621
 51
235.771134
1001
ACAD
1000
RTMaterial
1005
0
  0
ARC
  8
F01_OUT
  5
506
 10
59.597521
 20
204.210308
 30
0.0
 40
2.25
 50
126.869898
 51
167.160412
1001
ACAD
1000
RTMaterial
1005
0
  0
ARC
  8
F01_OUT
  5
507
 10
24.597521
 20
204.210308
 30
0.0
 40
2.25
 50
53.130102
 51
167.160412
1001
ACAD
1000
RTMaterial
1005
0
  0
ARC
  8
F01_OUT
  5
508
 10
21.097521
 20
207.210308
 30
0.0
 40
1.0
 50
90.0
 51
112.188163
1001
ACAD
1000
RTMaterial
1005
0
  0
ARC
  8
F01_OUT
  5
509
 10
24.597521
 20
204.210308
 30
0.0
 40
2.25
 50
12.839588
 51
53.130102
1001
ACAD
1000
RTMaterial
1005
0
  0
ARC
  8
F01_OUT
  5
50A
 10
24.597521
 20
164.210308
 30
0.0
 40
2.25
 50
192.839588
 51
293.578178
1001
ACAD
1000
RTMaterial
1005
0
  0
ARC
  8
F01_OUT
  5
50B
 10
59.597521
 20
164.210308
 30
0.0
 40
2.25
 50
192.839588
 51
300.737869
1001
ACAD
1000
RTMaterial
1005
0
  0
ARC
  8
F01_OUT
  5
50C
 10
59.597521
 20
164.210308
 30
0.0
 40
2.25
 50
300.737869
 51
347.160412
1001
ACAD
1000
RTMaterial
1005
0
  0
ARC
  8
F01_OUT
  5
50D
 10
21.097521
 20
161.210308
 30
0.0
 40
1.0
 50
247.811837
 51
270.0
1001
ACAD
1000
RTMaterial
1005
0
  0
ARC
  8
F01_OUT
  5
50E
 10
63.097521
 20
161.210308
 30
0.0
 40
1.0
 50
270.0
 51
292.188163
1001
ACAD
1000
RTMaterial
1005
0
  0
ARC
  8
F01_OUT
  5
50F
 10
46.697521
 20
205.310308
 30
0.0
 40
0.4
 50
304.228866
 51
346.254379
1001
ACAD
1000
RTMaterial
1005
0
  0
LINE
  8
F01_OUT
  5
510
 10
35.820764
 20
204.710308
 30
0.0
 11
37.597521
 21
204.710308
 31
0.0
1001
ACAD
1000
RTMaterial
1005
0
  0
LINE
  8
F01_OUT
  5
511
 10
35.597521
 20
204.710308
 30
0.0
 11
35.820764
 21
204.710308
 31
0.0
1001
ACAD
1000
RTMaterial
1005
0
  0
LINE
  8
F01_OUT
  5
512
 10
34.735626
 20
160.210308
 30
0.0
 11
34.547521
 21
160.210308
 31
0.0
1001
ACAD
1000
RTMaterial
1005
0
  0
LINE
  8
F01_OUT
  5
513
 10
34.297521
 20
160.210308
 30
0.0
 11
33.897521
 21
160.210308
 31
0.0
1001
ACAD
1000
RTMaterial
1005
0
  0
LINE
  8
F01_OUT
  5
514
 10
34.547521
 20
160.210308
 30
0.0
 11
34.297521
 21
160.210308
 31
0.0
1001
ACAD
1000
RTMaterial
1005
0
  0
LINE
  8
F01_OUT
  5
515
 10
37.572521
 20
160.210308
 30
0.0
 11
37.397521
 21
160.210308
 31
0.0
1001
ACAD
1000
RTMaterial
1005
0
  0
LINE
  8
F01_OUT
  5
516
 10
37.922521
 20
160.210308
 30
0.0
 11
37.897521
 21
160.210308
 31
0.0
1001
ACAD
1000
RTMaterial
1005
0
  0
LINE
  8
F01_OUT
  5
517
 10
37.397521
 20
160.210308
 30
0.0
 11
37.197521
 21
160.210308
 31
0.0
1001
ACAD
1000
RTMaterial
1005
0
  0
LINE
  8
F01_OUT
  5
518
 10
37.197521
 20
160.210308
 30
0.0
 11
37.059416
 21
160.210308
 31
0.0
1001
ACAD
1000
RTMaterial
1005
0
  0
LINE
  8
F01_OUT
  5
519
 10
37.897521
 20
160.210308
 30
0.0
 11
37.572521
 21
160.210308
 31
0.0
1001
ACAD
1000
RTMaterial
1005
0
  0
LINE
  8
F01_OUT
  5
51A
 10
37.897521
 20
204.710308
 30
0.0
 11
38.097521
 21
204.710308
 31
0.0
1001
ACAD
1000
RTMaterial
1005
0
  0
LINE
  8
F01_OUT
  5
51B
 10
41.097521
 20
204.710308
 30
0.0
 11
43.097521
 21
204.710308
 31
0.0
1001
ACAD
1000
RTMaterial
1005
0
  0
LINE
  8
F01_OUT
  5
51C
 10
37.897521
 20
204.710308
 30
0.0
 11
37.597521
 21
204.710308
 31
0.0
1001
ACAD
1000
RTMaterial
1005
0
  0
LINE
  8
F01_OUT
  5
51D
 10
41.097521
 20
207.210308
 30
0.0
 11
43.097521
 21
207.210308
 31
0.0
1001
ACAD
1000
RTMaterial
1005
0
  0
LINE
  8
F01_OUT
  5
51E
 10
41.097521
 20
204.710308
 30
0.0
 11
41.097521
 21
207.210308
 31
0.0
1001
ACAD
1000
RTMaterial
1005
0
  0
LINE
  8
F01_OUT
  5
51F
 10
46.922521
 20
207.210308
 30
0.0
 11
48.597521
 21
207.210308
 31
0.0
1001
ACAD
1000
RTMaterial
1005
0
  0
LINE
  8
F01_OUT
  5
520
 10
48.597521
 20
207.210308
 30
0.0
 11
48.597521
 21
205.911698
 31
0.0
1001
ACAD
1000
RTMaterial
1005
0
  0
LINE
  8
F01_OUT
  5
521
 10
43.097521
 20
207.210308
 30
0.0
 11
43.097521
 21
204.710308
 31
0.0
1001
ACAD
1000
RTMaterial
1005
0
  0
LINE
  8
F01_OUT
  5
522
 10
35.597521
 20
207.210308
 30
0.0
 11
37.272521
 21
207.210308
 31
0.0
1001
ACAD
1000
RTMaterial
1005
0
  0
LINE
  8
F01_OUT
  5
523
 10
29.597521
 20
204.710308
 30
0.0
 11
29.597521
 21
206.710308
 31
0.0
1001
ACAD
1000
RTMaterial
1005
0
  0
LINE
  8
F01_OUT
  5
524
 10
34.647521
 20
206.710308
 30
0.0
 11
34.647521
 21
204.710308
 31
0.0
1001
ACAD
1000
RTMaterial
1005
0
  0
LINE
  8
F01_OUT
  5
525
 10
35.597521
 20
207.210308
 30
0.0
 11
35.597521
 21
204.710308
 31
0.0
1001
ACAD
1000
RTMaterial
1005
0
  0
LINE
  8
F01_OUT
  5
526
 10
29.597521
 20
206.710308
 30
0.0
 11
34.647521
 21
206.710308
 31
0.0
1001
ACAD
1000
RTMaterial
1005
0
  0
LINE
  8
F01_OUT
  5
527
 10
37.922521
 20
208.210308
 30
0.0
 11
46.272521
 21
208.210308
 31
0.0
1001
ACAD
1000
RTMaterial
1005
0
  0
LINE
  8
F01_OUT
  5
528
 10
28.872521
 20
208.210308
 30
0.0
 11
29.222521
 21
208.210308
 31
0.0
1001
ACAD
1000
RTMaterial
1005
0
  0
LINE
  8
F01_OUT
  5
529
 10
46.272521
 20
208.210308
 30
0.0
 11
46.622521
 21
208.210308
 31
0.0
1001
ACAD
1000
RTMaterial
1005
0
  0
LINE
  8
F01_OUT
  5
52A
 10
46.622521
 20
208.210308
 30
0.0
 11
54.972521
 21
208.210308
 31
0.0
1001
ACAD
1000
RTMaterial
1005
0
  0
LINE
  8
F01_OUT
  5
52B
 10
55.322521
 20
208.210308
 30
0.0
 11
63.097521
 21
208.210308
 31
0.0
1001
ACAD
1000
RTMaterial
1005
0
  0
LINE
  8
F01_OUT
  5
52C
 10
54.972521
 20
208.210308
 30
0.0
 11
55.322521
 21
208.210308
 31
0.0
1001
ACAD
1000
RTMaterial
1005
0
  0
LINE
  8
F01_OUT
  5
52D
 10
29.222521
 20
208.210308
 30
0.0
 11
37.572521
 21
208.210308
 31
0.0
1001
ACAD
1000
RTMaterial
1005
0
  0
LINE
  8
F01_OUT
  5
52E
 10
37.572521
 20
208.210308
 30
0.0
 11
37.922521
 21
208.210308
 31
0.0
1001
ACAD
1000
RTMaterial
1005
0
  0
LINE
  8
F01_OUT
  5
52F
 10
21.097521
 20
208.210308
 30
0.0
 11
28.872521
 21
208.210308
 31
0.0
1001
ACAD
1000
RTMaterial
1005
0
  0
LINE
  8
F01_OUT
  5
530
 10
25.497521
 20
160.210308
 30
0.0
 11
25.097521
 21
160.210308
 31
0.0
1001
ACAD
1000
RTMaterial
1005
0
  0
LINE
  8
F01_OUT
  5
531
 10
28.872521
 20
160.210308
 30
0.0
 11
28.597521
 21
160.210308
 31
0.0
1001
ACAD
1000
RTMaterial
1005
0
  0
LINE
  8
F01_OUT
  5
532
 10
28.597521
 20
160.210308
 30
0.0
 11
28.397521
 21
160.210308
 31
0.0
1001
ACAD
1000
RTMaterial
1005
0
  0
LINE
  8
F01_OUT
  5
533
 10
25.935626
 20
160.210308
 30
0.0
 11
25.497521
 21
160.210308
 31
0.0
1001
ACAD
1000
RTMaterial
1005
0
  0
LINE
  8
F01_OUT
  5
534
 10
28.397521
 20
160.210308
 30
0.0
 11
28.259416
 21
160.210308
 31
0.0
1001
ACAD
1000
RTMaterial
1005
0
  0
LINE
  8
F01_OUT
  5
535
 10
29.097521
 20
160.210308
 30
0.0
 11
28.872521
 21
160.210308
 31
0.0
1001
ACAD
1000
RTMaterial
1005
0
  0
LINE
  8
F01_OUT
  5
536
 10
46.697521
 20
160.210308
 30
0.0
 11
46.622521
 21
160.210308
 31
0.0
1001
ACAD
1000
RTMaterial
1005
0
  0
LINE
  8
F01_OUT
  5
537
 10
43.535626
 20
160.210308
 30
0.0
 11
43.097521
 21
160.210308
 31
0.0
1001
ACAD
1000
RTMaterial
1005
0
  0
LINE
  8
F01_OUT
  5
538
 10
45.997521
 20
160.210308
 30
0.0
 11
45.859416
 21
160.210308
 31
0.0
1001
ACAD
1000
RTMaterial
1005
0
  0
LINE
  8
F01_OUT
  5
539
 10
43.097521
 20
160.210308
 30
0.0
 11
42.697521
 21
160.210308
 31
0.0
1001
ACAD
1000
RTMaterial
1005
0
  0
LINE
  8
F01_OUT
  5
53A
 10
40.347521
 20
160.210308
 30
0.0
 11
39.347521
 21
160.210308
 31
0.0
1001
ACAD
1000
RTMaterial
1005
0
  0
LINE
  8
F01_OUT
  5
53B
 10
42.697521
 20
160.210308
 30
0.0
 11
40.347521
 21
160.210308
 31
0.0
1001
ACAD
1000
RTMaterial
1005
0
  0
LINE
  8
F01_OUT
  5
53C
 10
49.047521
 20
160.210308
 30
0.0
 11
47.997521
 21
160.210308
 31
0.0
1001
ACAD
1000
RTMaterial
1005
0
  0
LINE
  8
F01_OUT
  5
53D
 10
46.622521
 20
160.210308
 30
0.0
 11
46.272521
 21
160.210308
 31
0.0
1001
ACAD
1000
RTMaterial
1005
0
  0
LINE
  8
F01_OUT
  5
53E
 10
46.997521
 20
160.210308
 30
0.0
 11
46.697521
 21
160.210308
 31
0.0
1001
ACAD
1000
RTMaterial
1005
0
  0
LINE
  8
F01_OUT
  5
53F
 10
46.197521
 20
160.210308
 30
0.0
 11
45.997521
 21
160.210308
 31
0.0
1001
ACAD
1000
RTMaterial
1005
0
  0
LINE
  8
F01_OUT
  5
540
 10
46.272521
 20
160.210308
 30
0.0
 11
46.197521
 21
160.210308
 31
0.0
1001
ACAD
1000
RTMaterial
1005
0
  0
LINE
  8
F01_OUT
  5
541
 10
54.972521
 20
160.210308
 30
0.0
 11
54.447521
 21
160.210308
 31
0.0
1001
ACAD
1000
RTMaterial
1005
0
  0
LINE
  8
F01_OUT
  5
542
 10
49.047521
 20
161.210308
 30
0.0
 11
49.047521
 21
160.710308
 31
0.0
1001
ACAD
1000
RTMaterial
1005
0
  0
LINE
  8
F01_OUT
  5
543
 10
49.647521
 20
161.210308
 30
0.0
 11
49.047521
 21
161.210308
 31
0.0
1001
ACAD
1000
RTMaterial
1005
0
  0
LINE
  8
F01_OUT
  5
544
 10
49.047521
 20
160.460308
 30
0.0
 11
49.047521
 21
160.710308
 31
0.0
1001
ACAD
1000
RTMaterial
1005
0
  0
LINE
  8
F01_OUT
  5
545
 10
49.647521
 20
160.210308
 30
0.0
 11
49.047521
 21
160.210308
 31
0.0
1001
ACAD
1000
RTMaterial
1005
0
  0
LINE
  8
F01_OUT
  5
546
 10
55.097521
 20
160.210308
 30
0.0
 11
54.972521
 21
160.210308
 31
0.0
1001
ACAD
1000
RTMaterial
1005
0
  0
LINE
  8
F01_OUT
  5
547
 10
25.097521
 20
160.210308
 30
0.0
 11
21.097521
 21
160.210308
 31
0.0
1001
ACAD
1000
RTMaterial
1005
0
  0
LINE
  8
F01_OUT
  5
548
 10
49.047521
 20
160.210308
 30
0.0
 11
49.047521
 21
160.460308
 31
0.0
1001
ACAD
1000
RTMaterial
1005
0
  0
LINE
  8
F01_OUT
  5
549
 10
63.097521
 20
160.210308
 30
0.0
 11
55.322521
 21
160.210308
 31
0.0
1001
ACAD
1000
RTMaterial
1005
0
  0
LINE
  8
F01_OUT
  5
54A
 10
55.322521
 20
160.210308
 30
0.0
 11
55.097521
 21
160.210308
 31
0.0
1001
ACAD
1000
RTMaterial
1005
0
  0
LINE
  8
F01_OUT
  5
54B
 10
39.347521
 20
160.210308
 30
0.0
 11
37.922521
 21
160.210308
 31
0.0
1001
ACAD
1000
RTMaterial
1005
0
  0
LINE
  8
F01_OUT
  5
54C
 10
29.747521
 20
160.210308
 30
0.0
 11
29.222521
 21
160.210308
 31
0.0
1001
ACAD
1000
RTMaterial
1005
0
  0
LINE
  8
F01_OUT
  5
54D
 10
29.222521
 20
160.210308
 30
0.0
 11
29.097521
 21
160.210308
 31
0.0
1001
ACAD
1000
RTMaterial
1005
0
  0
LINE
  8
F01_OUT
  5
54E
 10
46.597521
 20
204.710308
 30
0.0
 11
46.297521
 21
204.710308
 31
0.0
1001
ACAD
1000
RTMaterial
1005
0
  0
LINE
  8
F01_OUT
  5
54F
 10
46.597521
 20
204.710308
 30
0.0
 11
48.597521
 21
204.710308
 31
0.0
1001
ACAD
1000
RTMaterial
1005
0
  0
LINE
  8
F01_OUT
  5
550
 10
54.597521
 20
206.710308
 30
0.0
 11
54.597521
 21
204.710308
 31
0.0
1001
ACAD
1000
RTMaterial
1005
0
  0
LINE
  8
F01_OUT
  5
551
 10
49.547521
 20
204.710308
 30
0.0
 11
49.547521
 21
206.710308
 31
0.0
1001
ACAD
1000
RTMaterial
1005
0
  0
LINE
  8
F01_OUT
  5
552
 10
46.097521
 20
204.710308
 30
0.0
 11
46.297521
 21
204.710308
 31
0.0
1001
ACAD
1000
RTMaterial
1005
0
  0
LINE
  8
F01_OUT
  5
553
 10
49.547521
 20
206.710308
 30
0.0
 11
54.597521
 21
206.710308
 31
0.0
1001
ACAD
1000
RTMaterial
1005
0
  0
LINE
  8
F01_OUT
  5
554
 10
48.597521
 20
205.911698
 30
0.0
 11
48.597521
 21
204.710308
 31
0.0
1001
ACAD
1000
RTMaterial
1005
0
  0
LINE
  8
F01_OUT
  5
555
 10
50.047521
 20
182.560308
 30
0.0
 11
50.697521
 21
182.560308
 31
0.0
1001
ACAD
1000
RTMaterial
1005
0
  0
LINE
  8
F01_OUT
  5
556
 10
49.547521
 20
185.360308
 30
0.0
 11
49.547521
 21
183.060308
 31
0.0
1001
ACAD
1000
RTMaterial
1005
0
  0
LINE
  8
F01_OUT
  5
557
 10
50.697521
 20
185.860308
 30
0.0
 11
50.047521
 21
185.860308
 31
0.0
1001
ACAD
1000
RTMaterial
1005
0
  0
LINE
  8
F01_OUT
  5
558
 10
51.197521
 20
183.060308
 30
0.0
 11
51.197521
 21
185.360308
 31
0.0
1001
ACAD
1000
RTMaterial
1005
0
  0
ARC
  8
F01_OUT
  5
559
 10
50.697521
 20
183.060308
 30
0.0
 40
0.5
 50
270.0
 51
0.0
1001
ACAD
1000
RTMaterial
1005
0
  0
ARC
  8
F01_OUT
  5
55A
 10
50.047521
 20
183.060308
 30
0.0
 40
0.5
 50
180.0
 51
270.0
1001
ACAD
1000
RTMaterial
1005
0
  0
ARC
  8
F01_OUT
  5
55B
 10
50.047521
 20
185.360308
 30
0.0
 40
0.5
 50
90.0
 51
180.0
1001
ACAD
1000
RTMaterial
1005
0
  0
ARC
  8
F01_OUT
  5
55C
 10
50.697521
 20
185.360308
 30
0.0
 40
0.5
 50
0.0
 51
90.0
1001
ACAD
1000
RTMaterial
1005
0
  0
LINE
  8
F01_OUT
  5
55D
 10
46.922521
 20
207.910308
 30
0.0
 11
46.922521
 21
204.710308
 31
0.0
1001
ACAD
1000
RTMaterial
1005
0
  0
LINE
  8
F01_OUT
  5
55E
 10
45.972521
 20
207.910308
 30
0.0
 11
45.972521
 21
204.710308
 31
0.0
1001
ACAD
1000
RTMaterial
1005
0
  0
LINE
  8
F01_OUT
  5
55F
 10
54.672521
 20
207.910308
 30
0.0
 11
54.672521
 21
204.710308
 31
0.0
1001
ACAD
1000
RTMaterial
1005
0
  0
LINE
  8
F01_OUT
  5
560
 10
20.822521
 20
160.510308
 30
0.0
 11
20.822521
 21
164.810308
 31
0.0
1001
ACAD
1000
RTMaterial
1005
0
  0
LINE
  8
F01_OUT
  5
561
 10
19.597521
 20
160.510308
 30
0.0
 11
19.597521
 21
164.810308
 31
0.0
1001
ACAD
1000
RTMaterial
1005
0
  0
LINE
  8
F01_OUT
  5
562
 10
64.597521
 20
160.510308
 30
0.0
 11
64.597521
 21
164.810308
 31
0.0
1001
ACAD
1000
RTMaterial
1005
0
  0
LINE
  8
F01_OUT
  5
563
 10
63.372521
 20
160.510308
 30
0.0
 11
63.372521
 21
164.810308
 31
0.0
1001
ACAD
1000
RTMaterial
1005
0
  0
LINE
  8
F01_OUT
  5
564
 10
64.297521
 20
160.210308
 30
0.0
 11
63.672521
 21
160.210308
 31
0.0
1001
ACAD
1000
RTMaterial
1005
0
  0
LINE
  8
F01_OUT
  5
565
 10
19.897521
 20
160.210308
 30
0.0
 11
20.522521
 21
160.210308
 31
0.0
1001
ACAD
1000
RTMaterial
1005
0
  0
LINE
  8
F01_OUT
  5
566
 10
29.222521
 20
160.210308
 30
0.0
 11
29.097521
 21
160.210308
 31
0.0
1001
ACAD
1000
RTMaterial
1005
0
  0
LINE
  8
F01_OUT
  5
567
 10
55.322521
 20
160.210308
 30
0.0
 11
55.097521
 21
160.210308
 31
0.0
1001
ACAD
1000
RTMaterial
1005
0
  0
LINE
  8
F01_OUT
  5
568
 10
55.097521
 20
160.210308
 30
0.0
 11
54.972521
 21
160.210308
 31
0.0
1001
ACAD
1000
RTMaterial
1005
0
  0
LINE
  8
F01_OUT
  5
569
 10
55.622521
 20
160.510308
 30
0.0
 11
55.622521
 21
163.710308
 31
0.0
1001
ACAD
1000
RTMaterial
1005
0
  0
LINE
  8
F01_OUT
  5
56A
 10
37.272521
 20
160.510308
 30
0.0
 11
37.272521
 21
163.710308
 31
0.0
1001
ACAD
1000
RTMaterial
1005
0
  0
LINE
  8
F01_OUT
  5
56B
 10
38.222521
 20
160.510308
 30
0.0
 11
38.222521
 21
163.710308
 31
0.0
1001
ACAD
1000
RTMaterial
1005
0
  0
LINE
  8
F01_OUT
  5
56C
 10
45.972521
 20
160.510308
 30
0.0
 11
45.972521
 21
163.710308
 31
0.0
1001
ACAD
1000
RTMaterial
1005
0
  0
LINE
  8
F01_OUT
  5
56D
 10
46.922521
 20
160.510308
 30
0.0
 11
46.922521
 21
163.710308
 31
0.0
1001
ACAD
1000
RTMaterial
1005
0
  0
LINE
  8
F01_OUT
  5
56E
 10
54.672521
 20
160.510308
 30
0.0
 11
54.672521
 21
163.710308
 31
0.0
1001
ACAD
1000
RTMaterial
1005
0
  0
LINE
  8
F01_OUT
  5
56F
 10
28.572521
 20
160.510308
 30
0.0
 11
28.572521
 21
163.710308
 31
0.0
1001
ACAD
1000
RTMaterial
1005
0
  0
LINE
  8
F01_OUT
  5
570
 10
29.522521
 20
160.510308
 30
0.0
 11
29.522521
 21
163.710308
 31
0.0
1001
ACAD
1000
RTMaterial
1005
0
  0
LINE
  8
F01_OUT
  5
571
 10
64.597521
 20
193.210308
 30
0.0
 11
64.597521
 21
193.110308
 31
0.0
1001
ACAD
1000
RTMaterial
1005
0
  0
LINE
  8
F01_OUT
  5
572
 10
64.597521
 20
175.310308
 30
0.0
 11
64.597521
 21
175.210308
 31
0.0
1001
ACAD
1000
RTMaterial
1005
0
  0
LINE
  8
F01_OUT
  5
573
 10
64.597521
 20
193.110308
 30
0.0
 11
64.597521
 21
175.310308
 31
0.0
1001
ACAD
1000
RTMaterial
1005
0
  0
LINE
  8
F01_OUT
  5
574
 10
46.622521
 20
160.210308
 30
0.0
 11
46.272521
 21
160.210308
 31
0.0
1001
ACAD
1000
RTMaterial
1005
0
  0
LINE
  8
F01_OUT
  5
575
 10
29.097521
 20
160.210308
 30
0.0
 11
28.872521
 21
160.210308
 31
0.0
1001
ACAD
1000
RTMaterial
1005
0
  0
LINE
  8
F01_OUT
  5
576
 10
20.822521
 20
207.910308
 30
0.0
 11
20.822521
 21
203.610308
 31
0.0
1001
ACAD
1000
RTMaterial
1005
0
  0
LINE
  8
F01_OUT
  5
577
 10
19.597521
 20
207.910308
 30
0.0
 11
19.597521
 21
203.610308
 31
0.0
1001
ACAD
1000
RTMaterial
1005
0
  0
LINE
  8
F01_OUT
  5
578
 10
19.897521
 20
208.210308
 30
0.0
 11
20.522521
 21
208.210308
 31
0.0
1001
ACAD
1000
RTMaterial
1005
0
  0
LINE
  8
F01_OUT
  5
579
 10
28.572521
 20
207.910308
 30
0.0
 11
28.572521
 21
204.710308
 31
0.0
1001
ACAD
1000
RTMaterial
1005
0
  0
LINE
  8
F01_OUT
  5
57A
 10
19.597521
 20
203.610308
 30
0.0
 11
19.597521
 21
195.710308
 31
0.0
1001
ACAD
1000
RTMaterial
1005
0
  0
LINE
  8
F01_OUT
  5
57B
 10
21.947521
 20
172.710308
 30
0.0
 11
20.822521
 21
172.710308
 31
0.0
1001
ACAD
1000
RTMaterial
1005
0
  0
LINE
  8
F01_OUT
  5
57C
 10
19.597521
 20
164.810308
 30
0.0
 11
19.597521
 21
172.710308
 31
0.0
1001
ACAD
1000
RTMaterial
1005
0
  0
LINE
  8
F01_OUT
  5
57D
 10
26.50613
 20
172.710308
 30
0.0
 11
26.447521
 21
172.710308
 31
0.0
1001
ACAD
1000
RTMaterial
1005
0
  0
LINE
  8
F01_OUT
  5
57E
 10
22.447521
 20
172.710308
 30
0.0
 11
21.947521
 21
172.710308
 31
0.0
1001
ACAD
1000
RTMaterial
1005
0
  0
LINE
  8
F01_OUT
  5
57F
 10
22.947521
 20
172.710308
 30
0.0
 11
22.447521
 21
172.710308
 31
0.0
1001
ACAD
1000
RTMaterial
1005
0
  0
LINE
  8
F01_OUT
  5
580
 10
26.447521
 20
172.710308
 30
0.0
 11
22.947521
 21
172.710308
 31
0.0
1001
ACAD
1000
RTMaterial
1005
0
  0
LINE
  8
F01_OUT
  5
581
 10
26.447521
 20
195.710308
 30
0.0
 11
26.50613
 21
195.710308
 31
0.0
1001
ACAD
1000
RTMaterial
1005
0
  0
LINE
  8
F01_OUT
  5
582
 10
22.447521
 20
195.710308
 30
0.0
 11
22.947521
 21
195.710308
 31
0.0
1001
ACAD
1000
RTMaterial
1005
0
  0
LINE
  8
F01_OUT
  5
583
 10
20.822521
 20
195.710308
 30
0.0
 11
21.947521
 21
195.710308
 31
0.0
1001
ACAD
1000
RTMaterial
1005
0
  0
LINE
  8
F01_OUT
  5
584
 10
22.947521
 20
195.710308
 30
0.0
 11
26.447521
 21
195.710308
 31
0.0
1001
ACAD
1000
RTMaterial
1005
0
  0
LINE
  8
F01_OUT
  5
585
 10
21.947521
 20
195.710308
 30
0.0
 11
22.447521
 21
195.710308
 31
0.0
1001
ACAD
1000
RTMaterial
1005
0
  0
LINE
  8
F01_OUT
  5
586
 10
19.597521
 20
172.710308
 30
0.0
 11
19.597521
 21
174.710308
 31
0.0
1001
ACAD
1000
RTMaterial
1005
0
  0
LINE
  8
F01_OUT
  5
587
 10
19.597521
 20
175.210308
 30
0.0
 11
19.597521
 21
174.710308
 31
0.0
1001
ACAD
1000
RTMaterial
1005
0
  0
LINE
  8
F01_OUT
  5
588
 10
19.597521
 20
193.710308
 30
0.0
 11
19.597521
 21
195.710308
 31
0.0
1001
ACAD
1000
RTMaterial
1005
0
  0
LINE
  8
F01_OUT
  5
589
 10
19.597521
 20
193.210308
 30
0.0
 11
19.597521
 21
193.710308
 31
0.0
1001
ACAD
1000
RTMaterial
1005
0
  0
LINE
  8
F01_OUT
  5
58A
 10
19.597521
 20
193.110308
 30
0.0
 11
19.597521
 21
193.210308
 31
0.0
1001
ACAD
1000
RTMaterial
1005
0
  0
LINE
  8
F01_OUT
  5
58B
 10
19.597521
 20
175.210308
 30
0.0
 11
19.597521
 21
175.310308
 31
0.0
1001
ACAD
1000
RTMaterial
1005
0
  0
LINE
  8
F01_OUT
  5
58C
 10
19.597521
 20
175.310308
 30
0.0
 11
19.597521
 21
193.110308
 31
0.0
1001
ACAD
1000
RTMaterial
1005
0
  0
LINE
  8
F01_OUT
  5
58D
 10
29.522521
 20
207.910308
 30
0.0
 11
29.522521
 21
204.710308
 31
0.0
1001
ACAD
1000
RTMaterial
1005
0
  0
LINE
  8
F01_OUT
  5
58E
 10
37.272521
 20
207.910308
 30
0.0
 11
37.272521
 21
204.710308
 31
0.0
1001
ACAD
1000
RTMaterial
1005
0
  0
LINE
  8
F01_OUT
  5
58F
 10
38.222521
 20
207.910308
 30
0.0
 11
38.222521
 21
204.710308
 31
0.0
1001
ACAD
1000
RTMaterial
1005
0
  0
LINE
  8
F01_OUT
  5
590
 10
55.622521
 20
207.910308
 30
0.0
 11
55.622521
 21
204.710308
 31
0.0
1001
ACAD
1000
RTMaterial
1005
0
  0
LINE
  8
F01_OUT
  5
591
 10
37.572521
 20
208.210308
 30
0.0
 11
37.922521
 21
208.210308
 31
0.0
1001
ACAD
1000
RTMaterial
1005
0
  0
LINE
  8
F01_OUT
  5
592
 10
54.972521
 20
208.210308
 30
0.0
 11
55.322521
 21
208.210308
 31
0.0
1001
ACAD
1000
RTMaterial
1005
0
  0
LINE
  8
F01_OUT
  5
593
 10
46.272521
 20
208.210308
 30
0.0
 11
46.622521
 21
208.210308
 31
0.0
1001
ACAD
1000
RTMaterial
1005
0
  0
LINE
  8
F01_OUT
  5
594
 10
28.872521
 20
208.210308
 30
0.0
 11
29.222521
 21
208.210308
 31
0.0
1001
ACAD
1000
RTMaterial
1005
0
  0
LINE
  8
F01_OUT
  5
595
 10
61.097521
 20
172.710308
 30
0.0
 11
57.897521
 21
172.710308
 31
0.0
1001
ACAD
1000
RTMaterial
1005
0
  0
LINE
  8
F01_OUT
  5
596
 10
57.897521
 20
195.710308
 30
0.0
 11
61.097521
 21
195.710308
 31
0.0
1001
ACAD
1000
RTMaterial
1005
0
  0
LINE
  8
F01_OUT
  5
597
 10
64.297521
 20
208.210308
 30
0.0
 11
63.672521
 21
208.210308
 31
0.0
1001
ACAD
1000
RTMaterial
1005
0
  0
LINE
  8
F01_OUT
  5
598
 10
64.597521
 20
203.610308
 30
0.0
 11
64.597521
 21
207.910308
 31
0.0
1001
ACAD
1000
RTMaterial
1005
0
  0
LINE
  8
F01_OUT
  5
599
 10
63.372521
 20
203.610308
 30
0.0
 11
63.372521
 21
207.910308
 31
0.0
1001
ACAD
1000
RTMaterial
1005
0
  0
LINE
  8
F01_OUT
  5
59A
 10
62.457901
 20
195.710308
 30
0.0
 11
63.372521
 21
195.710308
 31
0.0
1001
ACAD
1000
RTMaterial
1005
0
  0
LINE
  8
F01_OUT
  5
59B
 10
64.597521
 20
172.710308
 30
0.0
 11
64.597521
 21
174.710308
 31
0.0
1001
ACAD
1000
RTMaterial
1005
0
  0
LINE
  8
F01_OUT
  5
59C
 10
64.597521
 20
193.210308
 30
0.0
 11
64.597521
 21
193.710308
 31
0.0
1001
ACAD
1000
RTMaterial
1005
0
  0
LINE
  8
F01_OUT
  5
59D
 10
64.597521
 20
195.710308
 30
0.0
 11
64.597521
 21
193.710308
 31
0.0
1001
ACAD
1000
RTMaterial
1005
0
  0
LINE
  8
F01_OUT
  5
59E
 10
64.597521
 20
175.210308
 30
0.0
 11
64.597521
 21
174.710308
 31
0.0
1001
ACAD
1000
RTMaterial
1005
0
  0
LINE
  8
F01_OUT
  5
59F
 10
64.597521
 20
203.610308
 30
0.0
 11
64.597521
 21
195.710308
 31
0.0
1001
ACAD
1000
RTMaterial
1005
0
  0
LINE
  8
F01_OUT
  5
5A0
 10
63.372521
 20
172.710308
 30
0.0
 11
62.457901
 21
172.710308
 31
0.0
1001
ACAD
1000
RTMaterial
1005
0
  0
LINE
  8
F01_OUT
  5
5A1
 10
64.597521
 20
164.810308
 30
0.0
 11
64.597521
 21
172.710308
 31
0.0
1001
ACAD
1000
RTMaterial
1005
0
  0
LINE
  8
F01_OUT
  5
5A2
 10
37.897521
 20
160.210308
 30
0.0
 11
37.572521
 21
160.210308
 31
0.0
1001
ACAD
1000
RTMaterial
1005
0
  0
LINE
  8
F01_OUT
  5
5A3
 10
37.922521
 20
160.210308
 30
0.0
 11
37.897521
 21
160.210308
 31
0.0
1001
ACAD
1000
RTMaterial
1005
0
  0
ARC
  8
F01_OUT
  5
5A4
 10
19.897521
 20
160.510308
 30
0.0
 40
0.3
 50
180.0
 51
270.0
1001
ACAD
1000
RTMaterial
1005
0
  0
ARC
  8
F01_OUT
  5
5A5
 10
64.297521
 20
160.510308
 30
0.0
 40
0.3
 50
270.0
 51
0.0
1001
ACAD
1000
RTMaterial
1005
0
  0
ARC
  8
F01_OUT
  5
5A6
 10
46.272521
 20
160.510308
 30
0.0
 40
0.3
 50
180.0
 51
270.0
1001
ACAD
1000
RTMaterial
1005
0
  0
ARC
  8
F01_OUT
  5
5A7
 10
63.672521
 20
160.510308
 30
0.0
 40
0.3
 50
180.0
 51
270.0
1001
ACAD
1000
RTMaterial
1005
0
  0
ARC
  8
F01_OUT
  5
5A8
 10
55.322521
 20
160.510308
 30
0.0
 40
0.3
 50
270.0
 51
0.0
1001
ACAD
1000
RTMaterial
1005
0
  0
ARC
  8
F01_OUT
  5
5A9
 10
54.972521
 20
160.510308
 30
0.0
 40
0.3
 50
180.0
 51
270.0
1001
ACAD
1000
RTMaterial
1005
0
  0
ARC
  8
F01_OUT
  5
5AA
 10
29.222521
 20
160.510308
 30
0.0
 40
0.3
 50
270.0
 51
0.0
1001
ACAD
1000
RTMaterial
1005
0
  0
ARC
  8
F01_OUT
  5
5AB
 10
37.572521
 20
160.510308
 30
0.0
 40
0.3
 50
180.0
 51
270.0
1001
ACAD
1000
RTMaterial
1005
0
  0
ARC
  8
F01_OUT
  5
5AC
 10
37.922521
 20
160.510308
 30
0.0
 40
0.3
 50
270.0
 51
0.0
1001
ACAD
1000
RTMaterial
1005
0
  0
ARC
  8
F01_OUT
  5
5AD
 10
28.872521
 20
160.510308
 30
0.0
 40
0.3
 50
180.0
 51
270.0
1001
ACAD
1000
RTMaterial
1005
0
  0
ARC
  8
F01_OUT
  5
5AE
 10
46.622521
 20
160.510308
 30
0.0
 40
0.3
 50
270.0
 51
0.0
1001
ACAD
1000
RTMaterial
1005
0
  0
ARC
  8
F01_OUT
  5
5AF
 10
20.522521
 20
160.510308
 30
0.0
 40
0.3
 50
270.0
 51
0.0
1001
ACAD
1000
RTMaterial
1005
0
  0
ARC
  8
F01_OUT
  5
5B0
 10
19.897521
 20
207.910308
 30
0.0
 40
0.3
 50
90.0
 51
180.0
1001
ACAD
1000
RTMaterial
1005
0
  0
ARC
  8
F01_OUT
  5
5B1
 10
28.872521
 20
207.910308
 30
0.0
 40
0.3
 50
90.0
 51
180.0
1001
ACAD
1000
RTMaterial
1005
0
  0
ARC
  8
F01_OUT
  5
5B2
 10
20.522521
 20
207.910308
 30
0.0
 40
0.3
 50
0.0
 51
90.0
1001
ACAD
1000
RTMaterial
1005
0
  0
ARC
  8
F01_OUT
  5
5B3
 10
46.272521
 20
207.910308
 30
0.0
 40
0.3
 50
90.0
 51
180.0
1001
ACAD
1000
RTMaterial
1005
0
  0
ARC
  8
F01_OUT
  5
5B4
 10
37.922521
 20
207.910308
 30
0.0
 40
0.3
 50
0.0
 51
90.0
1001
ACAD
1000
RTMaterial
1005
0
  0
ARC
  8
F01_OUT
  5
5B5
 10
46.622521
 20
207.910308
 30
0.0
 40
0.3
 50
0.0
 51
90.0
1001
ACAD
1000
RTMaterial
1005
0
  0
ARC
  8
F01_OUT
  5
5B6
 10
55.322521
 20
207.910308
 30
0.0
 40
0.3
 50
0.0
 51
90.0
1001
ACAD
1000
RTMaterial
1005
0
  0
ARC
  8
F01_OUT
  5
5B7
 10
54.972521
 20
207.910308
 30
0.0
 40
0.3
 50
90.0
 51
180.0
1001
ACAD
1000
RTMaterial
1005
0
  0
ARC
  8
F01_OUT
  5
5B8
 10
29.222521
 20
207.910308
 30
0.0
 40
0.3
 50
0.0
 51
90.0
1001
ACAD
1000
RTMaterial
1005
0
  0
ARC
  8
F01_OUT
  5
5B9
 10
37.572521
 20
207.910308
 30
0.0
 40
0.3
 50
90.0
 51
180.0
1001
ACAD
1000
RTMaterial
1005
0
  0
ARC
  8
F01_OUT
  5
5BA
 10
64.297521
 20
207.910308
 30
0.0
 40
0.3
 50
0.0
 51
90.0
1001
ACAD
1000
RTMaterial
1005
0
  0
ARC
  8
F01_OUT
  5
5BB
 10
63.672521
 20
207.910308
 30
0.0
 40
0.3
 50
90.0
 51
180.0
1001
ACAD
1000
RTMaterial
1005
0
  0
LINE
  8
F01_OUT
  5
5BC
 10
46.297521
 20
172.710308
 30
0.0
 11
46.597521
 21
172.710308
 31
0.0
1001
ACAD
1000
RTMaterial
1005
0
  0
LINE
  8
F01_OUT
  5
5BD
 10
55.297521
 20
195.710308
 30
0.0
 11
54.997521
 21
195.710308
 31
0.0
1001
ACAD
1000
RTMaterial
1005
0
  0
LINE
  8
F01_OUT
  5
5BE
 10
46.847521
 20
175.210308
 30
0.0
 11
50.347521
 21
175.210308
 31
0.0
1001
ACAD
1000
RTMaterial
1005
0
  0
LINE
  8
F01_OUT
  5
5BF
 10
50.347521
 20
175.210308
 30
0.0
 11
50.347521
 21
178.210308
 31
0.0
1001
ACAD
1000
RTMaterial
1005
0
  0
LINE
  8
F01_OUT
  5
5C0
 10
48.547521
 20
172.710308
 30
0.0
 11
48.047521
 21
172.710308
 31
0.0
1001
ACAD
1000
RTMaterial
1005
0
  0
LINE
  8
F01_OUT
  5
5C1
 10
49.047521
 20
172.710308
 30
0.0
 11
48.547521
 21
172.710308
 31
0.0
1001
ACAD
1000
RTMaterial
1005
0
  0
LINE
  8
F01_OUT
  5
5C2
 10
50.347521
 20
178.210308
 30
0.0
 11
46.847521
 21
178.210308
 31
0.0
1001
ACAD
1000
RTMaterial
1005
0
  0
LINE
  8
F01_OUT
  5
5C3
 10
48.047521
 20
172.710308
 30
0.0
 11
46.597521
 21
172.710308
 31
0.0
1001
ACAD
1000
RTMaterial
1005
0
  0
LINE
  8
F01_OUT
  5
5C4
 10
46.847521
 20
178.210308
 30
0.0
 11
46.847521
 21
175.210308
 31
0.0
1001
ACAD
1000
RTMaterial
1005
0
  0
LINE
  8
F01_OUT
  5
5C5
 10
50.797521
 20
172.710308
 30
0.0
 11
49.047521
 21
172.710308
 31
0.0
1001
ACAD
1000
RTMaterial
1005
0
  0
LINE
  8
F01_OUT
  5
5C6
 10
52.547521
 20
172.710308
 30
0.0
 11
50.797521
 21
172.710308
 31
0.0
1001
ACAD
1000
RTMaterial
1005
0
  0
LINE
  8
F01_OUT
  5
5C7
 10
48.547521
 20
195.710308
 30
0.0
 11
49.047521
 21
195.710308
 31
0.0
1001
ACAD
1000
RTMaterial
1005
0
  0
LINE
  8
F01_OUT
  5
5C8
 10
46.597521
 20
195.710308
 30
0.0
 11
46.297521
 21
195.710308
 31
0.0
1001
ACAD
1000
RTMaterial
1005
0
  0
LINE
  8
F01_OUT
  5
5C9
 10
49.047521
 20
195.710308
 30
0.0
 11
50.797521
 21
195.710308
 31
0.0
1001
ACAD
1000
RTMaterial
1005
0
  0
LINE
  8
F01_OUT
  5
5CA
 10
46.597521
 20
195.710308
 30
0.0
 11
48.047521
 21
195.710308
 31
0.0
1001
ACAD
1000
RTMaterial
1005
0
  0
LINE
  8
F01_OUT
  5
5CB
 10
48.047521
 20
195.710308
 30
0.0
 11
48.547521
 21
195.710308
 31
0.0
1001
ACAD
1000
RTMaterial
1005
0
  0
LINE
  8
F01_OUT
  5
5CC
 10
53.047521
 20
195.710308
 30
0.0
 11
53.547521
 21
195.710308
 31
0.0
1001
ACAD
1000
RTMaterial
1005
0
  0
LINE
  8
F01_OUT
  5
5CD
 10
52.797521
 20
195.710308
 30
0.0
 11
53.047521
 21
195.710308
 31
0.0
1001
ACAD
1000
RTMaterial
1005
0
  0
LINE
  8
F01_OUT
  5
5CE
 10
53.547521
 20
195.710308
 30
0.0
 11
54.997521
 21
195.710308
 31
0.0
1001
ACAD
1000
RTMaterial
1005
0
  0
LINE
  8
F01_OUT
  5
5CF
 10
52.547521
 20
195.710308
 30
0.0
 11
52.797521
 21
195.710308
 31
0.0
1001
ACAD
1000
RTMaterial
1005
0
  0
LINE
  8
F01_OUT
  5
5D0
 10
50.797521
 20
195.710308
 30
0.0
 11
52.547521
 21
195.710308
 31
0.0
1001
ACAD
1000
RTMaterial
1005
0
  0
LINE
  8
F01_OUT
  5
5D1
 10
51.697521
 20
185.910308
 30
0.0
 11
51.697521
 21
182.510308
 31
0.0
1001
ACAD
1000
RTMaterial
1005
0
  0
LINE
  8
F01_OUT
  5
5D2
 10
53.197521
 20
181.210308
 30
0.0
 11
53.197521
 21
187.810308
 31
0.0
1001
ACAD
1000
RTMaterial
1005
0
  0
LINE
  8
F01_OUT
  5
5D3
 10
52.797521
 20
172.710308
 30
0.0
 11
52.547521
 21
172.710308
 31
0.0
1001
ACAD
1000
RTMaterial
1005
0
  0
LINE
  8
F01_OUT
  5
5D4
 10
53.047521
 20
172.710308
 30
0.0
 11
52.797521
 21
172.710308
 31
0.0
1001
ACAD
1000
RTMaterial
1005
0
  0
LINE
  8
F01_OUT
  5
5D5
 10
53.547521
 20
172.710308
 30
0.0
 11
53.047521
 21
172.710308
 31
0.0
1001
ACAD
1000
RTMaterial
1005
0
  0
LINE
  8
F01_OUT
  5
5D6
 10
54.997521
 20
172.710308
 30
0.0
 11
55.297521
 21
172.710308
 31
0.0
1001
ACAD
1000
RTMaterial
1005
0
  0
LINE
  8
F01_OUT
  5
5D7
 10
54.997521
 20
172.710308
 30
0.0
 11
53.547521
 21
172.710308
 31
0.0
1001
ACAD
1000
RTMaterial
1005
0
  0
LINE
  8
F01_OUT
  5
5D8
 10
64.597521
 20
175.310308
 30
0.0
 11
63.497521
 21
175.310308
 31
0.0
1001
ACAD
1000
RTMaterial
1005
0
  0
LINE
  8
F01_OUT
  5
5D9
 10
63.497521
 20
193.110308
 30
0.0
 11
64.597521
 21
193.110308
 31
0.0
1001
ACAD
1000
RTMaterial
1005
0
  0
LINE
  8
F01_OUT
  5
5DA
 10
64.597521
 20
193.110308
 30
0.0
 11
64.597521
 21
175.310308
 31
0.0
1001
ACAD
1000
RTMaterial
1005
0
  0
LINE
  8
F01_OUT
  5
5DB
 10
27.447521
 20
195.710308
 30
0.0
 11
28.897521
 21
195.710308
 31
0.0
1001
ACAD
1000
RTMaterial
1005
0
  0
LINE
  8
F01_OUT
  5
5DC
 10
28.897521
 20
172.710308
 30
0.0
 11
27.447521
 21
172.710308
 31
0.0
1001
ACAD
1000
RTMaterial
1005
0
  0
LINE
  8
F01_OUT
  5
5DD
 10
20.697521
 20
172.710308
 30
0.0
 11
20.697521
 21
173.810308
 31
0.0
1001
ACAD
1000
RTMaterial
1005
0
  0
LINE
  8
F01_OUT
  5
5DE
 10
21.947521
 20
172.710308
 30
0.0
 11
20.822521
 21
172.710308
 31
0.0
1001
ACAD
1000
RTMaterial
1005
0
  0
LINE
  8
F01_OUT
  5
5DF
 10
26.50613
 20
172.710308
 30
0.0
 11
26.447521
 21
172.710308
 31
0.0
1001
ACAD
1000
RTMaterial
1005
0
  0
LINE
  8
F01_OUT
  5
5E0
 10
26.947521
 20
172.710308
 30
0.0
 11
26.50613
 21
172.710308
 31
0.0
1001
ACAD
1000
RTMaterial
1005
0
  0
LINE
  8
F01_OUT
  5
5E1
 10
22.447521
 20
172.710308
 30
0.0
 11
21.947521
 21
172.710308
 31
0.0
1001
ACAD
1000
RTMaterial
1005
0
  0
LINE
  8
F01_OUT
  5
5E2
 10
22.947521
 20
172.710308
 30
0.0
 11
22.447521
 21
172.710308
 31
0.0
1001
ACAD
1000
RTMaterial
1005
0
  0
LINE
  8
F01_OUT
  5
5E3
 10
26.447521
 20
172.710308
 30
0.0
 11
22.947521
 21
172.710308
 31
0.0
1001
ACAD
1000
RTMaterial
1005
0
  0
LINE
  8
F01_OUT
  5
5E4
 10
27.447521
 20
172.710308
 30
0.0
 11
26.947521
 21
172.710308
 31
0.0
1001
ACAD
1000
RTMaterial
1005
0
  0
LINE
  8
F01_OUT
  5
5E5
 10
22.697521
 20
177.960308
 30
0.0
 11
21.397521
 21
177.960308
 31
0.0
1001
ACAD
1000
RTMaterial
1005
0
  0
LINE
  8
F01_OUT
  5
5E6
 10
22.997521
 20
180.060308
 30
0.0
 11
22.997521
 21
180.524898
 31
0.0
1001
ACAD
1000
RTMaterial
1005
0
  0
LINE
  8
F01_OUT
  5
5E7
 10
22.997521
 20
178.260308
 30
0.0
 11
22.997521
 21
180.060308
 31
0.0
1001
ACAD
1000
RTMaterial
1005
0
  0
LINE
  8
F01_OUT
  5
5E8
 10
22.997521
 20
190.160308
 30
0.0
 11
22.997521
 21
190.624898
 31
0.0
1001
ACAD
1000
RTMaterial
1005
0
  0
LINE
  8
F01_OUT
  5
5E9
 10
22.997521
 20
188.360308
 30
0.0
 11
22.997521
 21
190.160308
 31
0.0
1001
ACAD
1000
RTMaterial
1005
0
  0
LINE
  8
F01_OUT
  5
5EA
 10
26.447521
 20
195.710308
 30
0.0
 11
26.50613
 21
195.710308
 31
0.0
1001
ACAD
1000
RTMaterial
1005
0
  0
LINE
  8
F01_OUT
  5
5EB
 10
22.447521
 20
195.710308
 30
0.0
 11
22.947521
 21
195.710308
 31
0.0
1001
ACAD
1000
RTMaterial
1005
0
  0
LINE
  8
F01_OUT
  5
5EC
 10
20.822521
 20
195.710308
 30
0.0
 11
21.947521
 21
195.710308
 31
0.0
1001
ACAD
1000
RTMaterial
1005
0
  0
LINE
  8
F01_OUT
  5
5ED
 10
22.947521
 20
195.710308
 30
0.0
 11
26.447521
 21
195.710308
 31
0.0
1001
ACAD
1000
RTMaterial
1005
0
  0
LINE
  8
F01_OUT
  5
5EE
 10
21.097521
 20
180.060308
 30
0.0
 11
21.097521
 21
180.524898
 31
0.0
1001
ACAD
1000
RTMaterial
1005
0
  0
LINE
  8
F01_OUT
  5
5EF
 10
21.097521
 20
178.260308
 30
0.0
 11
21.097521
 21
180.060308
 31
0.0
1001
ACAD
1000
RTMaterial
1005
0
  0
LINE
  8
F01_OUT
  5
5F0
 10
21.397521
 20
180.860308
 30
0.0
 11
22.697521
 21
180.860308
 31
0.0
1001
ACAD
1000
RTMaterial
1005
0
  0
LINE
  8
F01_OUT
  5
5F1
 10
21.397521
 20
188.060308
 30
0.0
 11
22.697521
 21
188.060308
 31
0.0
1001
ACAD
1000
RTMaterial
1005
0
  0
LINE
  8
F01_OUT
  5
5F2
 10
21.947521
 20
195.710308
 30
0.0
 11
22.447521
 21
195.710308
 31
0.0
1001
ACAD
1000
RTMaterial
1005
0
  0
LINE
  8
F01_OUT
  5
5F3
 10
22.697521
 20
190.960308
 30
0.0
 11
21.397521
 21
190.960308
 31
0.0
1001
ACAD
1000
RTMaterial
1005
0
  0
LINE
  8
F01_OUT
  5
5F4
 10
21.097521
 20
190.160308
 30
0.0
 11
21.097521
 21
190.624898
 31
0.0
1001
ACAD
1000
RTMaterial
1005
0
  0
LINE
  8
F01_OUT
  5
5F5
 10
21.097521
 20
188.360308
 30
0.0
 11
21.097521
 21
190.160308
 31
0.0
1001
ACAD
1000
RTMaterial
1005
0
  0
LINE
  8
F01_OUT
  5
5F6
 10
26.50613
 20
195.710308
 30
0.0
 11
26.947521
 21
195.710308
 31
0.0
1001
ACAD
1000
RTMaterial
1005
0
  0
LINE
  8
F01_OUT
  5
5F7
 10
26.947521
 20
195.710308
 30
0.0
 11
27.447521
 21
195.710308
 31
0.0
1001
ACAD
1000
RTMaterial
1005
0
  0
LINE
  8
F01_OUT
  5
5F8
 10
20.822521
 20
172.710308
 30
0.0
 11
20.697521
 21
172.710308
 31
0.0
1001
ACAD
1000
RTMaterial
1005
0
  0
LINE
  8
F01_OUT
  5
5F9
 10
20.697521
 20
173.810308
 30
0.0
 11
20.697521
 21
175.010308
 31
0.0
1001
ACAD
1000
RTMaterial
1005
0
  0
LINE
  8
F01_OUT
  5
5FA
 10
20.697521
 20
193.110308
 30
0.0
 11
20.697521
 21
193.410308
 31
0.0
1001
ACAD
1000
RTMaterial
1005
0
  0
LINE
  8
F01_OUT
  5
5FB
 10
20.697521
 20
194.610308
 30
0.0
 11
20.697521
 21
195.710308
 31
0.0
1001
ACAD
1000
RTMaterial
1005
0
  0
LINE
  8
F01_OUT
  5
5FC
 10
20.697521
 20
175.310308
 30
0.0
 11
19.597521
 21
175.310308
 31
0.0
1001
ACAD
1000
RTMaterial
1005
0
  0
LINE
  8
F01_OUT
  5
5FD
 10
20.697521
 20
175.010308
 30
0.0
 11
20.697521
 21
175.310308
 31
0.0
1001
ACAD
1000
RTMaterial
1005
0
  0
LINE
  8
F01_OUT
  5
5FE
 10
19.597521
 20
193.110308
 30
0.0
 11
20.697521
 21
193.110308
 31
0.0
1001
ACAD
1000
RTMaterial
1005
0
  0
LINE
  8
F01_OUT
  5
5FF
 10
20.697521
 20
193.410308
 30
0.0
 11
20.697521
 21
194.610308
 31
0.0
1001
ACAD
1000
RTMaterial
1005
0
  0
LINE
  8
F01_OUT
  5
600
 10
20.697521
 20
195.710308
 30
0.0
 11
20.822521
 21
195.710308
 31
0.0
1001
ACAD
1000
RTMaterial
1005
0
  0
LINE
  8
F01_OUT
  5
601
 10
19.597521
 20
175.310308
 30
0.0
 11
19.597521
 21
193.110308
 31
0.0
1001
ACAD
1000
RTMaterial
1005
0
  0
LINE
  8
F01_OUT
  5
602
 10
44.697521
 20
187.810308
 30
0.0
 11
53.197521
 21
187.810308
 31
0.0
1001
ACAD
1000
RTMaterial
1005
0
  0
LINE
  8
F01_OUT
  5
603
 10
55.297521
 20
195.710308
 30
0.0
 11
57.897521
 21
195.710308
 31
0.0
1001
ACAD
1000
RTMaterial
1005
0
  0
LINE
  8
F01_OUT
  5
604
 10
44.697521
 20
181.210308
 30
0.0
 11
53.197521
 21
181.210308
 31
0.0
1001
ACAD
1000
RTMaterial
1005
0
  0
LINE
  8
F01_OUT
  5
605
 10
57.897521
 20
172.710308
 30
0.0
 11
55.297521
 21
172.710308
 31
0.0
1001
ACAD
1000
RTMaterial
1005
0
  0
LINE
  8
F01_OUT
  5
606
 10
62.457901
 20
172.710308
 30
0.0
 11
61.097521
 21
172.710308
 31
0.0
1001
ACAD
1000
RTMaterial
1005
0
  0
LINE
  8
F01_OUT
  5
607
 10
61.097521
 20
195.710308
 30
0.0
 11
62.457901
 21
195.710308
 31
0.0
1001
ACAD
1000
RTMaterial
1005
0
  0
LINE
  8
F01_OUT
  5
608
 10
61.947521
 20
191.748427
 30
0.0
 11
58.553972
 21
191.748427
 31
0.0
1001
ACAD
1000
RTMaterial
1005
0
  0
LINE
  8
F01_OUT
  5
609
 10
61.947521
 20
176.672188
 30
0.0
 11
58.547521
 21
176.672188
 31
0.0
1001
ACAD
1000
RTMaterial
1005
0
  0
LINE
  8
F01_OUT
  5
60A
 10
60.747521
 20
174.810308
 30
0.0
 11
61.647521
 21
174.810308
 31
0.0
1001
ACAD
1000
RTMaterial
1005
0
  0
LINE
  8
F01_OUT
  5
60B
 10
61.947521
 20
176.210308
 30
0.0
 11
61.947521
 21
176.672188
 31
0.0
1001
ACAD
1000
RTMaterial
1005
0
  0
LINE
  8
F01_OUT
  5
60C
 10
61.947521
 20
175.110308
 30
0.0
 11
61.947521
 21
176.210308
 31
0.0
1001
ACAD
1000
RTMaterial
1005
0
  0
LINE
  8
F01_OUT
  5
60D
 10
61.947521
 20
191.748427
 30
0.0
 11
61.947521
 21
192.210307
 31
0.0
1001
ACAD
1000
RTMaterial
1005
0
  0
LINE
  8
F01_OUT
  5
60E
 10
61.947521
 20
192.210307
 30
0.0
 11
61.947521
 21
193.310308
 31
0.0
1001
ACAD
1000
RTMaterial
1005
0
  0
LINE
  8
F01_OUT
  5
60F
 10
61.647521
 20
193.610308
 30
0.0
 11
60.747521
 21
193.610308
 31
0.0
1001
ACAD
1000
RTMaterial
1005
0
  0
LINE
  8
F01_OUT
  5
610
 10
28.897521
 20
172.710308
 30
0.0
 11
29.197521
 21
172.710308
 31
0.0
1001
ACAD
1000
RTMaterial
1005
0
  0
LINE
  8
F01_OUT
  5
611
 10
30.647521
 20
172.710308
 30
0.0
 11
29.197521
 21
172.710308
 31
0.0
1001
ACAD
1000
RTMaterial
1005
0
  0
LINE
  8
F01_OUT
  5
612
 10
29.197521
 20
195.710308
 30
0.0
 11
28.897521
 21
195.710308
 31
0.0
1001
ACAD
1000
RTMaterial
1005
0
  0
LINE
  8
F01_OUT
  5
613
 10
31.647521
 20
172.710308
 30
0.0
 11
31.397521
 21
172.710308
 31
0.0
1001
ACAD
1000
RTMaterial
1005
0
  0
LINE
  8
F01_OUT
  5
614
 10
29.847521
 20
178.210308
 30
0.0
 11
29.847521
 21
175.210308
 31
0.0
1001
ACAD
1000
RTMaterial
1005
0
  0
LINE
  8
F01_OUT
  5
615
 10
31.147521
 20
172.710308
 30
0.0
 11
30.647521
 21
172.710308
 31
0.0
1001
ACAD
1000
RTMaterial
1005
0
  0
LINE
  8
F01_OUT
  5
616
 10
31.397521
 20
172.710308
 30
0.0
 11
31.147521
 21
172.710308
 31
0.0
1001
ACAD
1000
RTMaterial
1005
0
  0
LINE
  8
F01_OUT
  5
617
 10
33.347521
 20
178.210308
 30
0.0
 11
29.847521
 21
178.210308
 31
0.0
1001
ACAD
1000
RTMaterial
1005
0
  0
LINE
  8
F01_OUT
  5
618
 10
33.347521
 20
175.210308
 30
0.0
 11
33.347521
 21
178.210308
 31
0.0
1001
ACAD
1000
RTMaterial
1005
0
  0
LINE
  8
F01_OUT
  5
619
 10
33.397521
 20
172.710308
 30
0.0
 11
31.647521
 21
172.710308
 31
0.0
1001
ACAD
1000
RTMaterial
1005
0
  0
LINE
  8
F01_OUT
  5
61A
 10
37.597521
 20
172.710308
 30
0.0
 11
37.897521
 21
172.710308
 31
0.0
1001
ACAD
1000
RTMaterial
1005
0
  0
LINE
  8
F01_OUT
  5
61B
 10
36.147521
 20
172.710308
 30
0.0
 11
35.647521
 21
172.710308
 31
0.0
1001
ACAD
1000
RTMaterial
1005
0
  0
LINE
  8
F01_OUT
  5
61C
 10
35.647521
 20
172.710308
 30
0.0
 11
35.147521
 21
172.710308
 31
0.0
1001
ACAD
1000
RTMaterial
1005
0
  0
LINE
  8
F01_OUT
  5
61D
 10
37.597521
 20
172.710308
 30
0.0
 11
36.147521
 21
172.710308
 31
0.0
1001
ACAD
1000
RTMaterial
1005
0
  0
LINE
  8
F01_OUT
  5
61E
 10
35.147521
 20
172.710308
 30
0.0
 11
33.397521
 21
172.710308
 31
0.0
1001
ACAD
1000
RTMaterial
1005
0
  0
LINE
  8
F01_OUT
  5
61F
 10
29.847521
 20
175.210308
 30
0.0
 11
33.347521
 21
175.210308
 31
0.0
1001
ACAD
1000
RTMaterial
1005
0
  0
LINE
  8
F01_OUT
  5
620
 10
29.197521
 20
195.710308
 30
0.0
 11
30.647521
 21
195.710308
 31
0.0
1001
ACAD
1000
RTMaterial
1005
0
  0
LINE
  8
F01_OUT
  5
621
 10
31.147521
 20
195.710308
 30
0.0
 11
31.397521
 21
195.710308
 31
0.0
1001
ACAD
1000
RTMaterial
1005
0
  0
LINE
  8
F01_OUT
  5
622
 10
31.397521
 20
195.710308
 30
0.0
 11
31.647521
 21
195.710308
 31
0.0
1001
ACAD
1000
RTMaterial
1005
0
  0
LINE
  8
F01_OUT
  5
623
 10
30.647521
 20
195.710308
 30
0.0
 11
31.147521
 21
195.710308
 31
0.0
1001
ACAD
1000
RTMaterial
1005
0
  0
LINE
  8
F01_OUT
  5
624
 10
31.647521
 20
195.710308
 30
0.0
 11
33.397521
 21
195.710308
 31
0.0
1001
ACAD
1000
RTMaterial
1005
0
  0
LINE
  8
F01_OUT
  5
625
 10
35.147521
 20
195.710308
 30
0.0
 11
35.647521
 21
195.710308
 31
0.0
1001
ACAD
1000
RTMaterial
1005
0
  0
LINE
  8
F01_OUT
  5
626
 10
33.397521
 20
195.710308
 30
0.0
 11
35.147521
 21
195.710308
 31
0.0
1001
ACAD
1000
RTMaterial
1005
0
  0
LINE
  8
F01_OUT
  5
627
 10
35.647521
 20
195.710308
 30
0.0
 11
36.147521
 21
195.710308
 31
0.0
1001
ACAD
1000
RTMaterial
1005
0
  0
LINE
  8
F01_OUT
  5
628
 10
36.147521
 20
195.710308
 30
0.0
 11
37.597521
 21
195.710308
 31
0.0
1001
ACAD
1000
RTMaterial
1005
0
  0
LINE
  8
F01_OUT
  5
629
 10
61.097521
 20
172.710308
 30
0.0
 11
57.897521
 21
172.710308
 31
0.0
1001
ACAD
1000
RTMaterial
1005
0
  0
LINE
  8
F01_OUT
  5
62A
 10
58.547521
 20
176.210308
 30
0.0
 11
58.547521
 21
176.672188
 31
0.0
1001
ACAD
1000
RTMaterial
1005
0
  0
LINE
  8
F01_OUT
  5
62B
 10
58.547521
 20
173.810308
 30
0.0
 11
58.547521
 21
176.210308
 31
0.0
1001
ACAD
1000
RTMaterial
1005
0
  0
LINE
  8
F01_OUT
  5
62C
 10
57.897521
 20
195.710308
 30
0.0
 11
61.097521
 21
195.710308
 31
0.0
1001
ACAD
1000
RTMaterial
1005
0
  0
LINE
  8
F01_OUT
  5
62D
 10
60.147521
 20
194.910308
 30
0.0
 11
58.847521
 21
194.910308
 31
0.0
1001
ACAD
1000
RTMaterial
1005
0
  0
LINE
  8
F01_OUT
  5
62E
 10
60.147521
 20
173.510308
 30
0.0
 11
58.847521
 21
173.510308
 31
0.0
1001
ACAD
1000
RTMaterial
1005
0
  0
LINE
  8
F01_OUT
  5
62F
 10
60.447521
 20
193.910308
 30
0.0
 11
60.447521
 21
194.610308
 31
0.0
1001
ACAD
1000
RTMaterial
1005
0
  0
LINE
  8
F01_OUT
  5
630
 10
58.547521
 20
192.210307
 30
0.0
 11
58.547521
 21
191.810307
 31
0.0
1001
ACAD
1000
RTMaterial
1005
0
  0
LINE
  8
F01_OUT
  5
631
 10
58.547521
 20
194.610308
 30
0.0
 11
58.547521
 21
192.210307
 31
0.0
1001
ACAD
1000
RTMaterial
1005
0
  0
LINE
  8
F01_OUT
  5
632
 10
60.447521
 20
174.510308
 30
0.0
 11
60.447521
 21
173.810308
 31
0.0
1001
ACAD
1000
RTMaterial
1005
0
  0
LINE
  8
F01_OUT
  5
633
 10
41.847521
 20
190.210308
 30
0.0
 11
41.847521
 21
193.210308
 31
0.0
1001
ACAD
1000
RTMaterial
1005
0
  0
LINE
  8
F01_OUT
  5
634
 10
38.347521
 20
193.210308
 30
0.0
 11
38.347521
 21
190.210308
 31
0.0
1001
ACAD
1000
RTMaterial
1005
0
  0
LINE
  8
F01_OUT
  5
635
 10
39.847521
 20
195.710308
 30
0.0
 11
40.347521
 21
195.710308
 31
0.0
1001
ACAD
1000
RTMaterial
1005
0
  0
LINE
  8
F01_OUT
  5
636
 10
39.347521
 20
195.710308
 30
0.0
 11
39.847521
 21
195.710308
 31
0.0
1001
ACAD
1000
RTMaterial
1005
0
  0
LINE
  8
F01_OUT
  5
637
 10
37.897521
 20
195.710308
 30
0.0
 11
37.597521
 21
195.710308
 31
0.0
1001
ACAD
1000
RTMaterial
1005
0
  0
LINE
  8
F01_OUT
  5
638
 10
37.897521
 20
195.710308
 30
0.0
 11
39.347521
 21
195.710308
 31
0.0
1001
ACAD
1000
RTMaterial
1005
0
  0
LINE
  8
F01_OUT
  5
639
 10
41.847521
 20
193.210308
 30
0.0
 11
38.347521
 21
193.210308
 31
0.0
1001
ACAD
1000
RTMaterial
1005
0
  0
LINE
  8
F01_OUT
  5
63A
 10
43.847521
 20
195.710308
 30
0.0
 11
44.347521
 21
195.710308
 31
0.0
1001
ACAD
1000
RTMaterial
1005
0
  0
LINE
  8
F01_OUT
  5
63B
 10
40.347521
 20
195.710308
 30
0.0
 11
43.847521
 21
195.710308
 31
0.0
1001
ACAD
1000
RTMaterial
1005
0
  0
LINE
  8
F01_OUT
  5
63C
 10
44.697521
 20
182.210308
 30
0.0
 11
44.697521
 21
181.210308
 31
0.0
1001
ACAD
1000
RTMaterial
1005
0
  0
LINE
  8
F01_OUT
  5
63D
 10
44.347521
 20
195.710308
 30
0.0
 11
44.847521
 21
195.710308
 31
0.0
1001
ACAD
1000
RTMaterial
1005
0
  0
LINE
  8
F01_OUT
  5
63E
 10
44.847521
 20
195.710308
 30
0.0
 11
46.297521
 21
195.710308
 31
0.0
1001
ACAD
1000
RTMaterial
1005
0
  0
LINE
  8
F01_OUT
  5
63F
 10
44.697521
 20
186.210308
 30
0.0
 11
44.697521
 21
182.210308
 31
0.0
1001
ACAD
1000
RTMaterial
1005
0
  0
LINE
  8
F01_OUT
  5
640
 10
38.347521
 20
190.210308
 30
0.0
 11
41.847521
 21
190.210308
 31
0.0
1001
ACAD
1000
RTMaterial
1005
0
  0
LINE
  8
F01_OUT
  5
641
 10
51.397521
 20
182.210308
 30
0.0
 11
44.697521
 21
182.210308
 31
0.0
1001
ACAD
1000
RTMaterial
1005
0
  0
LINE
  8
F01_OUT
  5
642
 10
44.697521
 20
187.810308
 30
0.0
 11
44.697521
 21
186.210308
 31
0.0
1001
ACAD
1000
RTMaterial
1005
0
  0
LINE
  8
F01_OUT
  5
643
 10
51.397521
 20
186.210308
 30
0.0
 11
44.697521
 21
186.210308
 31
0.0
1001
ACAD
1000
RTMaterial
1005
0
  0
LINE
  8
F01_OUT
  5
644
 10
44.347521
 20
172.710308
 30
0.0
 11
43.847521
 21
172.710308
 31
0.0
1001
ACAD
1000
RTMaterial
1005
0
  0
LINE
  8
F01_OUT
  5
645
 10
44.847521
 20
172.710308
 30
0.0
 11
44.347521
 21
172.710308
 31
0.0
1001
ACAD
1000
RTMaterial
1005
0
  0
LINE
  8
F01_OUT
  5
646
 10
46.297521
 20
172.710308
 30
0.0
 11
44.847521
 21
172.710308
 31
0.0
1001
ACAD
1000
RTMaterial
1005
0
  0
LINE
  8
F01_OUT
  5
647
 10
40.347521
 20
172.710308
 30
0.0
 11
39.847521
 21
172.710308
 31
0.0
1001
ACAD
1000
RTMaterial
1005
0
  0
LINE
  8
F01_OUT
  5
648
 10
39.847521
 20
172.710308
 30
0.0
 11
39.347521
 21
172.710308
 31
0.0
1001
ACAD
1000
RTMaterial
1005
0
  0
LINE
  8
F01_OUT
  5
649
 10
39.347521
 20
172.710308
 30
0.0
 11
37.897521
 21
172.710308
 31
0.0
1001
ACAD
1000
RTMaterial
1005
0
  0
LINE
  8
F01_OUT
  5
64A
 10
43.847521
 20
172.710308
 30
0.0
 11
40.347521
 21
172.710308
 31
0.0
1001
ACAD
1000
RTMaterial
1005
0
  0
LINE
  8
F01_OUT
  5
64B
 10
62.457901
 20
195.710308
 30
0.0
 11
63.372521
 21
195.710308
 31
0.0
1001
ACAD
1000
RTMaterial
1005
0
  0
LINE
  8
F01_OUT
  5
64C
 10
63.497521
 20
173.810308
 30
0.0
 11
63.497521
 21
172.710308
 31
0.0
1001
ACAD
1000
RTMaterial
1005
0
  0
LINE
  8
F01_OUT
  5
64D
 10
63.497521
 20
175.010308
 30
0.0
 11
63.497521
 21
173.810308
 31
0.0
1001
ACAD
1000
RTMaterial
1005
0
  0
LINE
  8
F01_OUT
  5
64E
 10
63.497521
 20
175.310308
 30
0.0
 11
63.497521
 21
175.010308
 31
0.0
1001
ACAD
1000
RTMaterial
1005
0
  0
LINE
  8
F01_OUT
  5
64F
 10
63.497521
 20
195.710308
 30
0.0
 11
63.497521
 21
194.610308
 31
0.0
1001
ACAD
1000
RTMaterial
1005
0
  0
LINE
  8
F01_OUT
  5
650
 10
63.497521
 20
193.410308
 30
0.0
 11
63.497521
 21
193.110308
 31
0.0
1001
ACAD
1000
RTMaterial
1005
0
  0
LINE
  8
F01_OUT
  5
651
 10
63.497521
 20
194.610308
 30
0.0
 11
63.497521
 21
193.410308
 31
0.0
1001
ACAD
1000
RTMaterial
1005
0
  0
LINE
  8
F01_OUT
  5
652
 10
63.372521
 20
195.710308
 30
0.0
 11
63.497521
 21
195.710308
 31
0.0
1001
ACAD
1000
RTMaterial
1005
0
  0
LINE
  8
F01_OUT
  5
653
 10
63.497521
 20
172.710308
 30
0.0
 11
63.372521
 21
172.710308
 31
0.0
1001
ACAD
1000
RTMaterial
1005
0
  0
LINE
  8
F01_OUT
  5
654
 10
63.372521
 20
172.710308
 30
0.0
 11
62.457901
 21
172.710308
 31
0.0
1001
ACAD
1000
RTMaterial
1005
0
  0
ARC
  8
F01_OUT
  5
655
 10
51.397521
 20
182.510308
 30
0.0
 40
0.3
 50
270.0
 51
0.0
1001
ACAD
1000
RTMaterial
1005
0
  0
ARC
  8
F01_OUT
  5
656
 10
51.397521
 20
185.910308
 30
0.0
 40
0.3
 50
0.0
 51
90.0
1001
ACAD
1000
RTMaterial
1005
0
  0
ARC
  8
F01_OUT
  5
657
 10
21.397521
 20
178.260308
 30
0.0
 40
0.3
 50
180.0
 51
270.0
1001
ACAD
1000
RTMaterial
1005
0
  0
ARC
  8
F01_OUT
  5
658
 10
22.697521
 20
178.260308
 30
0.0
 40
0.3
 50
270.0
 51
0.0
1001
ACAD
1000
RTMaterial
1005
0
  0
ARC
  8
F01_OUT
  5
659
 10
22.697521
 20
188.360308
 30
0.0
 40
0.3
 50
270.0
 51
0.0
1001
ACAD
1000
RTMaterial
1005
0
  0
ARC
  8
F01_OUT
  5
65A
 10
21.397521
 20
188.360308
 30
0.0
 40
0.3
 50
180.0
 51
270.0
1001
ACAD
1000
RTMaterial
1005
0
  0
ARC
  8
F01_OUT
  5
65B
 10
61.647521
 20
193.310308
 30
0.0
 40
0.3
 50
0.0
 51
90.0
1001
ACAD
1000
RTMaterial
1005
0
  0
ARC
  8
F01_OUT
  5
65C
 10
61.647521
 20
175.110308
 30
0.0
 40
0.3
 50
270.0
 51
0.0
1001
ACAD
1000
RTMaterial
1005
0
  0
ARC
  8
F01_OUT
  5
65D
 10
60.147521
 20
173.810308
 30
0.0
 40
0.3
 50
270.0
 51
0.0
1001
ACAD
1000
RTMaterial
1005
0
  0
ARC
  8
F01_OUT
  5
65E
 10
58.847521
 20
173.810308
 30
0.0
 40
0.3
 50
180.0
 51
270.0
1001
ACAD
1000
RTMaterial
1005
0
  0
ARC
  8
F01_OUT
  5
65F
 10
60.147521
 20
194.610308
 30
0.0
 40
0.3
 50
0.0
 51
90.0
1001
ACAD
1000
RTMaterial
1005
0
  0
ARC
  8
F01_OUT
  5
660
 10
60.747521
 20
193.910308
 30
0.0
 40
0.3
 50
180.0
 51
270.0
1001
ACAD
1000
RTMaterial
1005
0
  0
ARC
  8
F01_OUT
  5
661
 10
58.847521
 20
194.610308
 30
0.0
 40
0.3
 50
90.0
 51
180.0
1001
ACAD
1000
RTMaterial
1005
0
  0
ARC
  8
F01_OUT
  5
662
 10
58.847521
 20
191.810307
 30
0.0
 40
0.3
 50
180.0
 51
191.903701
1001
ACAD
1000
RTMaterial
1005
0
  0
ARC
  8
F01_OUT
  5
663
 10
60.747521
 20
174.510308
 30
0.0
 40
0.3
 50
90.0
 51
180.0
1001
ACAD
1000
RTMaterial
1005
0
  0
LINE
  8
F01_OUT
  5
664
 10
-113.050088
 20
140.810308
 30
0.0
 11
-113.550088
 21
140.810308
 31
0.0
1001
ACAD
1000
RTMaterial
1005
0
  0
LINE
  8
F01_OUT
  5
665
 10
-113.050088
 20
141.610308
 30
0.0
 11
-113.550088
 21
141.610308
 31
0.0
1001
ACAD
1000
RTMaterial
1005
0
  0
LINE
  8
F01_OUT
  5
666
 10
-113.550088
 20
141.610308
 30
0.0
 11
-113.550088
 21
140.810308
 31
0.0
1001
ACAD
1000
RTMaterial
1005
0
  0
LINE
  8
F01_OUT
  5
667
 10
-113.050088
 20
153.110308
 30
0.0
 11
-113.050088
 21
154.910308
 31
0.0
1001
ACAD
1000
RTMaterial
1005
0
  0
LINE
  8
F01_OUT
  5
668
 10
-105.750088
 20
163.710308
 30
0.0
 11
-105.750088
 21
154.910308
 31
0.0
1001
ACAD
1000
RTMaterial
1005
0
  0
LINE
  8
F01_OUT
  5
669
 10
-108.069626
 20
154.649835
 30
0.0
 11
-108.115555
 21
154.910308
 31
0.0
1001
ACAD
1000
RTMaterial
1005
0
  0
LINE
  8
F01_OUT
  5
66A
 10
-110.441071
 20
160.210308
 30
0.0
 11
-109.889187
 21
160.210308
 31
0.0
1001
ACAD
1000
RTMaterial
1005
0
  0
LINE
  8
F01_OUT
  5
66B
 10
-111.750088
 20
160.210308
 30
0.0
 11
-110.441071
 21
160.210308
 31
0.0
1001
ACAD
1000
RTMaterial
1005
0
  0
LINE
  8
F01_OUT
  5
66C
 10
-107.750088
 20
154.910308
 30
0.0
 11
-107.750088
 21
160.310308
 31
0.0
1001
ACAD
1000
RTMaterial
1005
0
  0
LINE
  8
F01_OUT
  5
66D
 10
-104.250088
 20
153.410308
 30
0.0
 11
-103.150088
 21
153.410308
 31
0.0
1001
ACAD
1000
RTMaterial
1005
0
  0
LINE
  8
F01_OUT
  5
66E
 10
-106.650088
 20
153.410308
 30
0.0
 11
-105.250088
 21
153.410308
 31
0.0
1001
ACAD
1000
RTMaterial
1005
0
  0
LINE
  8
F01_OUT
  5
66F
 10
-109.250088
 20
153.410308
 30
0.0
 11
-106.650088
 21
153.410308
 31
0.0
1001
ACAD
1000
RTMaterial
1005
0
  0
LINE
  8
F01_OUT
  5
670
 10
-108.115555
 20
154.910308
 30
0.0
 11
-108.904379
 21
159.383956
 31
0.0
1001
ACAD
1000
RTMaterial
1005
0
  0
LINE
  8
F01_OUT
  5
671
 10
-113.050088
 20
154.910308
 30
0.0
 11
-113.050088
 21
160.210308
 31
0.0
1001
ACAD
1000
RTMaterial
1005
0
  0
LINE
  8
F01_OUT
  5
672
 10
-112.750088
 20
153.410308
 30
0.0
 11
-109.250088
 21
153.410308
 31
0.0
1001
ACAD
1000
RTMaterial
1005
0
  0
LINE
  8
F01_OUT
  5
673
 10
-105.250088
 20
153.410308
 30
0.0
 11
-104.250088
 21
153.410308
 31
0.0
1001
ACAD
1000
RTMaterial
1005
0
  0
LINE
  8
F01_OUT
  5
674
 10
-93.064301
 20
153.410308
 30
0.0
 11
-103.150088
 21
153.410308
 31
0.0
1001
ACAD
1000
RTMaterial
1005
0
  0
LINE
  8
F01_OUT
  5
675
 10
-82.850088
 20
158.010308
 30
0.0
 11
-88.340037
 21
158.010308
 31
0.0
1001
ACAD
1000
RTMaterial
1005
0
  0
LINE
  8
F01_OUT
  5
676
 10
-112.900088
 20
128.010308
 30
0.0
 11
-113.050088
 21
128.010308
 31
0.0
1001
ACAD
1000
RTMaterial
1005
0
  0
LINE
  8
F01_OUT
  5
677
 10
-113.050088
 20
140.810308
 30
0.0
 11
-113.050088
 21
128.010308
 31
0.0
1001
ACAD
1000
RTMaterial
1005
0
  0
LINE
  8
F01_OUT
  5
678
 10
-113.050088
 20
153.110308
 30
0.0
 11
-113.050088
 21
141.610308
 31
0.0
1001
ACAD
1000
RTMaterial
1005
0
  0
LINE
  8
F01_OUT
  5
679
 10
-64.950088
 20
151.910308
 30
0.0
 11
-64.650088
 21
151.910308
 31
0.0
1001
ACAD
1000
RTMaterial
1005
0
  0
LINE
  8
F01_OUT
  5
67A
 10
-82.550088
 20
158.310308
 30
0.0
 11
-82.550088
 21
160.231577
 31
0.0
1001
ACAD
1000
RTMaterial
1005
0
  0
LINE
  8
F01_OUT
  5
67B
 10
-79.250088
 20
158.310308
 30
0.0
 11
-79.250088
 21
158.010308
 31
0.0
1001
ACAD
1000
RTMaterial
1005
0
  0
LINE
  8
F01_OUT
  5
67C
 10
-79.250088
 20
159.910308
 30
0.0
 11
-79.250088
 21
158.310308
 31
0.0
1001
ACAD
1000
RTMaterial
1005
0
  0
LINE
  8
F01_OUT
  5
67D
 10
-79.250088
 20
160.210308
 30
0.0
 11
-78.950088
 21
160.210308
 31
0.0
1001
ACAD
1000
RTMaterial
1005
0
  0
LINE
  8
F01_OUT
  5
67E
 10
-78.950088
 20
160.210308
 30
0.0
 11
-78.550088
 21
160.210308
 31
0.0
1001
ACAD
1000
RTMaterial
1005
0
  0
LINE
  8
F01_OUT
  5
67F
 10
-82.250088
 20
158.010308
 30
0.0
 11
-82.850088
 21
158.010308
 31
0.0
1001
ACAD
1000
RTMaterial
1005
0
  0
LINE
  8
F01_OUT
  5
680
 10
-78.950088
 20
158.010308
 30
0.0
 11
-79.250088
 21
158.010308
 31
0.0
1001
ACAD
1000
RTMaterial
1005
0
  0
LINE
  8
F01_OUT
  5
681
 10
-79.250088
 20
158.010308
 30
0.0
 11
-82.250088
 21
158.010308
 31
0.0
1001
ACAD
1000
RTMaterial
1005
0
  0
LINE
  8
F01_OUT
  5
682
 10
-75.850088
 20
158.010308
 30
0.0
 11
-78.950088
 21
158.010308
 31
0.0
1001
ACAD
1000
RTMaterial
1005
0
  0
LINE
  8
F01_OUT
  5
683
 10
-78.550088
 20
160.210308
 30
0.0
 11
-75.850088
 21
160.210308
 31
0.0
1001
ACAD
1000
RTMaterial
1005
0
  0
LINE
  8
F01_OUT
  5
684
 10
-75.550088
 20
151.910308
 30
0.0
 11
-75.550088
 21
153.110308
 31
0.0
1001
ACAD
1000
RTMaterial
1005
0
  0
LINE
  8
F01_OUT
  5
685
 10
-75.550088
 20
154.910308
 30
0.0
 11
-75.550088
 21
154.486044
 31
0.0
1001
ACAD
1000
RTMaterial
1005
0
  0
LINE
  8
F01_OUT
  5
686
 10
-75.550088
 20
154.486044
 30
0.0
 11
-75.550088
 21
153.110308
 31
0.0
1001
ACAD
1000
RTMaterial
1005
0
  0
LINE
  8
F01_OUT
  5
687
 10
-75.550088
 20
157.710308
 30
0.0
 11
-75.550088
 21
154.910308
 31
0.0
1001
ACAD
1000
RTMaterial
1005
0
  0
LINE
  8
F01_OUT
  5
688
 10
-72.974352
 20
151.910308
 30
0.0
 11
-72.550088
 21
151.910308
 31
0.0
1001
ACAD
1000
RTMaterial
1005
0
  0
LINE
  8
F01_OUT
  5
689
 10
-72.550088
 20
151.910308
 30
0.0
 11
-66.050088
 21
151.910308
 31
0.0
1001
ACAD
1000
RTMaterial
1005
0
  0
LINE
  8
F01_OUT
  5
68A
 10
-75.550088
 20
151.910308
 30
0.0
 11
-72.974352
 21
151.910308
 31
0.0
1001
ACAD
1000
RTMaterial
1005
0
  0
LINE
  8
F01_OUT
  5
68B
 10
-75.550088
 20
160.210308
 30
0.0
 11
-75.550088
 21
159.910308
 31
0.0
1001
ACAD
1000
RTMaterial
1005
0
  0
LINE
  8
F01_OUT
  5
68C
 10
-75.550088
 20
159.910308
 30
0.0
 11
-75.550088
 21
157.710308
 31
0.0
1001
ACAD
1000
RTMaterial
1005
0
  0
LINE
  8
F01_OUT
  5
68D
 10
-64.650088
 20
151.810308
 30
0.0
 11
-64.650088
 21
151.910308
 31
0.0
1001
ACAD
1000
RTMaterial
1005
0
  0
LINE
  8
F01_OUT
  5
68E
 10
-64.950088
 20
151.910308
 30
0.0
 11
-66.050088
 21
151.910308
 31
0.0
1001
ACAD
1000
RTMaterial
1005
0
  0
LINE
  8
F01_OUT
  5
68F
 10
-66.050088
 20
151.910308
 30
0.0
 11
-66.050088
 21
150.910308
 31
0.0
1001
ACAD
1000
RTMaterial
1005
0
  0
LINE
  8
F01_OUT
  5
690
 10
-72.550088
 20
151.910308
 30
0.0
 11
-75.550088
 21
154.910308
 31
0.0
1001
ACAD
1000
RTMaterial
1005
0
  0
LINE
  8
F01_OUT
  5
691
 10
-93.064301
 20
153.410308
 30
0.0
 11
-88.552169
 21
157.92244
 31
0.0
1001
ACAD
1000
RTMaterial
1005
0
  0
ARC
  8
F01_OUT
  5
692
 10
-109.250088
 20
154.910308
 30
0.0
 40
1.5
 50
270.0
 51
0.0
1001
ACAD
1000
RTMaterial
1005
0
  0
ARC
  8
F01_OUT
  5
693
 10
-109.889187
 20
159.210308
 30
0.0
 40
1.0
 50
10.0
 51
90.0
1001
ACAD
1000
RTMaterial
1005
0
  0
ARC
  8
F01_OUT
  5
694
 10
-104.250088
 20
154.910308
 30
0.0
 40
1.5
 50
180.0
 51
270.0
1001
ACAD
1000
RTMaterial
1005
0
  0
ARC
  8
F01_OUT
  5
695
 10
-112.750088
 20
153.110308
 30
0.0
 40
0.3
 50
90.0
 51
180.0
1001
ACAD
1000
RTMaterial
1005
0
  0
ARC
  8
F01_OUT
  5
696
 10
-106.592415
 20
154.910308
 30
0.0
 40
1.5
 50
190.0
 51
207.638635
1001
ACAD
1000
RTMaterial
1005
0
  0
ARC
  8
F01_OUT
  5
697
 10
-88.340037
 20
157.710308
 30
0.0
 40
0.3
 50
90.0
 51
135.0
1001
ACAD
1000
RTMaterial
1005
0
  0
ARC
  8
F01_OUT
  5
698
 10
-75.850088
 20
159.910308
 30
0.0
 40
0.3
 50
0.0
 51
90.0
1001
ACAD
1000
RTMaterial
1005
0
  0
ARC
  8
F01_OUT
  5
699
 10
-75.850088
 20
157.710308
 30
0.0
 40
0.3
 50
0.0
 51
90.0
1001
ACAD
1000
RTMaterial
1005
0
  0
ARC
  8
F01_OUT
  5
69A
 10
-78.950088
 20
159.910308
 30
0.0
 40
0.3
 50
90.0
 51
180.0
1001
ACAD
1000
RTMaterial
1005
0
  0
ARC
  8
F01_OUT
  5
69B
 10
-82.850088
 20
158.310308
 30
0.0
 40
0.3
 50
270.0
 51
0.0
1001
ACAD
1000
RTMaterial
1005
0
  0
LINE
  8
F01_OUT
  5
69C
 10
-89.250088
 20
110.910308
 30
0.0
 11
-87.650088
 21
110.910308
 31
0.0
1001
ACAD
1000
RTMaterial
1005
0
  0
LINE
  8
F01_OUT
  5
69D
 10
-89.250088
 20
110.910308
 30
0.0
 11
-96.542981
 21
110.910308
 31
0.0
1001
ACAD
1000
RTMaterial
1005
0
  0
LINE
  8
F01_OUT
  5
69E
 10
-97.550088
 20
112.410308
 30
0.0
 11
-97.550088
 21
112.310308
 31
0.0
1001
ACAD
1000
RTMaterial
1005
0
  0
LINE
  8
F01_OUT
  5
69F
 10
-97.550088
 20
112.010308
 30
0.0
 11
-97.550088
 21
112.310308
 31
0.0
1001
ACAD
1000
RTMaterial
1005
0
  0
LINE
  8
F01_OUT
  5
6A0
 10
-85.550088
 20
112.010308
 30
0.0
 11
-95.481841
 21
112.010308
 31
0.0
1001
ACAD
1000
RTMaterial
1005
0
  0
LINE
  8
F01_OUT
  5
6A1
 10
-97.550088
 20
112.010308
 30
0.0
 11
-95.481841
 21
112.010308
 31
0.0
1001
ACAD
1000
RTMaterial
1005
0
  0
LINE
  8
F01_OUT
  5
6A2
 10
-66.050088
 20
150.910308
 30
0.0
 11
-66.050088
 21
150.410308
 31
0.0
1001
ACAD
1000
RTMaterial
1005
0
  0
LINE
  8
F01_OUT
  5
6A3
 10
-66.050088
 20
126.110308
 30
0.0
 11
-66.050088
 21
124.610308
 31
0.0
1001
ACAD
1000
RTMaterial
1005
0
  0
LINE
  8
F01_OUT
  5
6A4
 10
-85.550088
 20
112.010308
 30
0.0
 11
-83.339682
 21
112.010308
 31
0.0
1001
ACAD
1000
RTMaterial
1005
0
  0
LINE
  8
F01_OUT
  5
6A5
 10
-84.750088
 20
114.410308
 30
0.0
 11
-84.950088
 21
114.410308
 31
0.0
1001
ACAD
1000
RTMaterial
1005
0
  0
LINE
  8
F01_OUT
  5
6A6
 10
-85.250088
 20
114.110308
 30
0.0
 11
-85.250088
 21
114.39315
 31
0.0
1001
ACAD
1000
RTMaterial
1005
0
  0
LINE
  8
F01_OUT
  5
6A7
 10
-85.250088
 20
114.710308
 30
0.0
 11
-85.250088
 21
118.410308
 31
0.0
1001
ACAD
1000
RTMaterial
1005
0
  0
LINE
  8
F01_OUT
  5
6A8
 10
-84.305608
 20
112.751489
 30
0.0
 11
-84.669703
 21
114.110308
 31
0.0
1001
ACAD
1000
RTMaterial
1005
0
  0
LINE
  8
F01_OUT
  5
6A9
 10
-96.896534
 20
111.056754
 30
0.0
 11
-97.050088
 21
111.210308
 31
0.0
1001
ACAD
1000
RTMaterial
1005
0
  0
LINE
  8
F01_OUT
  5
6AA
 10
-97.050088
 20
111.210308
 30
0.0
 11
-98.250088
 21
112.410308
 31
0.0
1001
ACAD
1000
RTMaterial
1005
0
  0
LINE
  8
F01_OUT
  5
6AB
 10
-64.589959
 20
126.610308
 30
0.0
 11
-64.589959
 21
126.110308
 31
0.0
1001
ACAD
1000
RTMaterial
1005
0
  0
LINE
  8
F01_OUT
  5
6AC
 10
-64.850088
 20
150.410308
 30
0.0
 11
-66.050088
 21
150.410308
 31
0.0
1001
ACAD
1000
RTMaterial
1005
0
  0
LINE
  8
F01_OUT
  5
6AD
 10
-64.589959
 20
150.410308
 30
0.0
 11
-64.850088
 21
150.410308
 31
0.0
1001
ACAD
1000
RTMaterial
1005
0
  0
LINE
  8
F01_OUT
  5
6AE
 10
-64.589959
 20
150.410308
 30
0.0
 11
-64.589959
 21
149.910308
 31
0.0
1001
ACAD
1000
RTMaterial
1005
0
  0
LINE
  8
F01_OUT
  5
6AF
 10
-104.550088
 20
112.710308
 30
0.0
 11
-104.550088
 21
118.710308
 31
0.0
1001
ACAD
1000
RTMaterial
1005
0
  0
LINE
  8
F01_OUT
  5
6B0
 10
-104.250088
 20
118.410308
 30
0.0
 11
-95.509222
 21
118.410308
 31
0.0
1001
ACAD
1000
RTMaterial
1005
0
  0
LINE
  8
F01_OUT
  5
6B1
 10
-95.509222
 20
118.410308
 30
0.0
 11
-85.250088
 21
118.410308
 31
0.0
1001
ACAD
1000
RTMaterial
1005
0
  0
LINE
  8
F01_OUT
  5
6B2
 10
-104.550088
 20
127.010308
 30
0.0
 11
-104.550088
 21
118.710308
 31
0.0
1001
ACAD
1000
RTMaterial
1005
0
  0
LINE
  8
F01_OUT
  5
6B3
 10
-97.550088
 20
112.410308
 30
0.0
 11
-98.250088
 21
112.410308
 31
0.0
1001
ACAD
1000
RTMaterial
1005
0
  0
LINE
  8
F01_OUT
  5
6B4
 10
-98.250088
 20
112.410308
 30
0.0
 11
-104.250088
 21
112.410308
 31
0.0
1001
ACAD
1000
RTMaterial
1005
0
  0
LINE
  8
F01_OUT
  5
6B5
 10
-104.550088
 20
127.010308
 30
0.0
 11
-111.100088
 21
127.010308
 31
0.0
1001
ACAD
1000
RTMaterial
1005
0
  0
LINE
  8
F01_OUT
  5
6B6
 10
-111.900088
 20
125.510308
 30
0.0
 11
-111.900088
 21
126.210308
 31
0.0
1001
ACAD
1000
RTMaterial
1005
0
  0
LINE
  8
F01_OUT
  5
6B7
 10
-112.900088
 20
125.510308
 30
0.0
 11
-111.900088
 21
125.510308
 31
0.0
1001
ACAD
1000
RTMaterial
1005
0
  0
LINE
  8
F01_OUT
  5
6B8
 10
-112.900088
 20
128.010308
 30
0.0
 11
-112.900088
 21
125.510308
 31
0.0
1001
ACAD
1000
RTMaterial
1005
0
  0
LINE
  8
F01_OUT
  5
6B9
 10
-111.900088
 20
126.210308
 30
0.0
 11
-111.100088
 21
127.010308
 31
0.0
1001
ACAD
1000
RTMaterial
1005
0
  0
LINE
  8
F01_OUT
  5
6BA
 10
-85.050088
 20
110.910308
 30
0.0
 11
-87.650088
 21
110.910308
 31
0.0
1001
ACAD
1000
RTMaterial
1005
0
  0
LINE
  8
F01_OUT
  5
6BB
 10
-64.550088
 20
140.610308
 30
0.0
 11
-64.550088
 21
139.234252
 31
0.0
1001
ACAD
1000
RTMaterial
1005
0
  0
LINE
  8
F01_OUT
  5
6BC
 10
-64.550088
 20
139.234252
 30
0.0
 11
-64.550088
 21
138.928919
 31
0.0
1001
ACAD
1000
RTMaterial
1005
0
  0
LINE
  8
F01_OUT
  5
6BD
 10
-64.550088
 20
144.110308
 30
0.0
 11
-64.550088
 21
141.535308
 31
0.0
1001
ACAD
1000
RTMaterial
1005
0
  0
LINE
  8
F01_OUT
  5
6BE
 10
-64.550088
 20
148.110308
 30
0.0
 11
-64.550088
 21
148.210308
 31
0.0
1001
ACAD
1000
RTMaterial
1005
0
  0
LINE
  8
F01_OUT
  5
6BF
 10
-64.550088
 20
141.535308
 30
0.0
 11
-64.550088
 21
140.610308
 31
0.0
1001
ACAD
1000
RTMaterial
1005
0
  0
LINE
  8
F01_OUT
  5
6C0
 10
-64.550088
 20
146.760308
 30
0.0
 11
-64.550088
 21
148.110308
 31
0.0
1001
ACAD
1000
RTMaterial
1005
0
  0
LINE
  8
F01_OUT
  5
6C1
 10
-64.550088
 20
144.110308
 30
0.0
 11
-64.550088
 21
146.760308
 31
0.0
1001
ACAD
1000
RTMaterial
1005
0
  0
LINE
  8
F01_OUT
  5
6C2
 10
-64.550088
 20
149.279832
 30
0.0
 11
-64.550088
 21
148.410308
 31
0.0
1001
ACAD
1000
RTMaterial
1005
0
  0
LINE
  8
F01_OUT
  5
6C3
 10
-64.550088
 20
148.329169
 30
0.0
 11
-64.550088
 21
148.410308
 31
0.0
1001
ACAD
1000
RTMaterial
1005
0
  0
LINE
  8
F01_OUT
  5
6C4
 10
-64.550088
 20
148.210308
 30
0.0
 11
-64.550088
 21
148.329169
 31
0.0
1001
ACAD
1000
RTMaterial
1005
0
  0
LINE
  8
F01_OUT
  5
6C5
 10
-64.589959
 20
126.110308
 30
0.0
 11
-64.850088
 21
126.110308
 31
0.0
1001
ACAD
1000
RTMaterial
1005
0
  0
LINE
  8
F01_OUT
  5
6C6
 10
-66.050088
 20
126.110308
 30
0.0
 11
-64.850088
 21
126.110308
 31
0.0
1001
ACAD
1000
RTMaterial
1005
0
  0
LINE
  8
F01_OUT
  5
6C7
 10
-64.550088
 20
128.191447
 30
0.0
 11
-64.550088
 21
128.148752
 31
0.0
1001
ACAD
1000
RTMaterial
1005
0
  0
LINE
  8
F01_OUT
  5
6C8
 10
-64.550088
 20
128.148752
 30
0.0
 11
-64.550088
 21
127.240784
 31
0.0
1001
ACAD
1000
RTMaterial
1005
0
  0
LINE
  8
F01_OUT
  5
6C9
 10
-64.550088
 20
128.410308
 30
0.0
 11
-64.550088
 21
128.191447
 31
0.0
1001
ACAD
1000
RTMaterial
1005
0
  0
LINE
  8
F01_OUT
  5
6CA
 10
-64.550088
 20
128.710308
 30
0.0
 11
-64.550088
 21
128.410308
 31
0.0
1001
ACAD
1000
RTMaterial
1005
0
  0
LINE
  8
F01_OUT
  5
6CB
 10
-64.550088
 20
129.610308
 30
0.0
 11
-64.550088
 21
128.710308
 31
0.0
1001
ACAD
1000
RTMaterial
1005
0
  0
LINE
  8
F01_OUT
  5
6CC
 10
-64.550088
 20
138.928919
 30
0.0
 11
-64.550088
 21
137.910308
 31
0.0
1001
ACAD
1000
RTMaterial
1005
0
  0
LINE
  8
F01_OUT
  5
6CD
 10
-64.550088
 20
137.910308
 30
0.0
 11
-64.550088
 21
129.610308
 31
0.0
1001
ACAD
1000
RTMaterial
1005
0
  0
LINE
  8
F01_OUT
  5
6CE
 10
-85.267245
 20
114.410308
 30
0.0
 11
-84.950088
 21
114.410308
 31
0.0
1001
ACAD
1000
RTMaterial
1005
0
  0
LINE
  8
F01_OUT
  5
6CF
 10
-84.669703
 20
114.110308
 30
0.0
 11
-84.750088
 21
114.410308
 31
0.0
1001
ACAD
1000
RTMaterial
1005
0
  0
LINE
  8
F01_OUT
  5
6D0
 10
-85.250088
 20
112.310308
 30
0.0
 11
-85.250088
 21
114.110308
 31
0.0
1001
ACAD
1000
RTMaterial
1005
0
  0
LINE
  8
F01_OUT
  5
6D1
 10
-83.339682
 20
112.010308
 30
0.0
 11
-66.025039
 21
112.010308
 31
0.0
1001
ACAD
1000
RTMaterial
1005
0
  0
LINE
  8
F01_OUT
  5
6D2
 10
-64.550088
 20
122.565471
 30
0.0
 11
-64.550088
 21
122.410308
 31
0.0
1001
ACAD
1000
RTMaterial
1005
0
  0
LINE
  8
F01_OUT
  5
6D3
 10
-66.050088
 20
124.610308
 30
0.0
 11
-64.850088
 21
124.610308
 31
0.0
1001
ACAD
1000
RTMaterial
1005
0
  0
LINE
  8
F01_OUT
  5
6D4
 10
-64.550088
 20
124.610308
 30
0.0
 11
-64.850088
 21
124.610308
 31
0.0
1001
ACAD
1000
RTMaterial
1005
0
  0
LINE
  8
F01_OUT
  5
6D5
 10
-64.550088
 20
123.697847
 30
0.0
 11
-64.550088
 21
123.310308
 31
0.0
1001
ACAD
1000
RTMaterial
1005
0
  0
LINE
  8
F01_OUT
  5
6D6
 10
-64.550088
 20
124.610308
 30
0.0
 11
-64.550088
 21
123.697847
 31
0.0
1001
ACAD
1000
RTMaterial
1005
0
  0
LINE
  8
F01_OUT
  5
6D7
 10
-64.550088
 20
122.901198
 30
0.0
 11
-64.550088
 21
122.565471
 31
0.0
1001
ACAD
1000
RTMaterial
1005
0
  0
LINE
  8
F01_OUT
  5
6D8
 10
-64.550088
 20
117.410308
 30
0.0
 11
-64.550088
 21
116.810308
 31
0.0
1001
ACAD
1000
RTMaterial
1005
0
  0
LINE
  8
F01_OUT
  5
6D9
 10
-64.550088
 20
123.310308
 30
0.0
 11
-64.550088
 21
122.901198
 31
0.0
1001
ACAD
1000
RTMaterial
1005
0
  0
LINE
  8
F01_OUT
  5
6DA
 10
-64.550088
 20
122.410308
 30
0.0
 11
-64.550088
 21
121.710308
 31
0.0
1001
ACAD
1000
RTMaterial
1005
0
  0
LINE
  8
F01_OUT
  5
6DB
 10
-64.550088
 20
116.810308
 30
0.0
 11
-64.550088
 21
115.510308
 31
0.0
1001
ACAD
1000
RTMaterial
1005
0
  0
LINE
  8
F01_OUT
  5
6DC
 10
-64.550088
 20
121.710308
 30
0.0
 11
-64.550088
 21
118.963883
 31
0.0
1001
ACAD
1000
RTMaterial
1005
0
  0
LINE
  8
F01_OUT
  5
6DD
 10
-64.550088
 20
118.963883
 30
0.0
 11
-64.550088
 21
117.410308
 31
0.0
1001
ACAD
1000
RTMaterial
1005
0
  0
LINE
  8
F01_OUT
  5
6DE
 10
-64.550088
 20
115.510308
 30
0.0
 11
-65.348891
 21
112.529134
 31
0.0
1001
ACAD
1000
RTMaterial
1005
0
  0
ARC
  8
F01_OUT
  5
6DF
 10
-96.542981
 20
111.410308
 30
0.0
 40
0.5
 50
225.0
 51
270.0
1001
ACAD
1000
RTMaterial
1005
0
  0
ARC
  8
F01_OUT
  5
6E0
 10
-85.550088
 20
112.310308
 30
0.0
 40
0.3
 50
270.0
 51
0.0
1001
ACAD
1000
RTMaterial
1005
0
  0
ARC
  8
F01_OUT
  5
6E1
 10
-84.950088
 20
114.710308
 30
0.0
 40
0.3
 50
180.0
 51
270.0
1001
ACAD
1000
RTMaterial
1005
0
  0
ARC
  8
F01_OUT
  5
6E2
 10
-83.339682
 20
113.010308
 30
0.0
 40
1.0
 50
195.0
 51
224.427004
1001
ACAD
1000
RTMaterial
1005
0
  0
ARC
  8
F01_OUT
  5
6E3
 10
-104.250088
 20
118.710308
 30
0.0
 40
0.3
 50
259.569918
 51
270.0
1001
ACAD
1000
RTMaterial
1005
0
  0
ARC
  8
F01_OUT
  5
6E4
 10
-104.250088
 20
118.710308
 30
0.0
 40
0.3
 50
180.0
 51
259.569918
1001
ACAD
1000
RTMaterial
1005
0
  0
ARC
  8
F01_OUT
  5
6E5
 10
-104.250088
 20
112.710308
 30
0.0
 40
0.3
 50
180.0
 51
270.0
1001
ACAD
1000
RTMaterial
1005
0
  0
ARC
  8
F01_OUT
  5
6E6
 10
-85.050088
 20
112.410308
 30
0.0
 40
1.5
 50
270.0
 51
306.869898
1001
ACAD
1000
RTMaterial
1005
0
  0
ARC
  8
F01_OUT
  5
6E7
 10
-85.050088
 20
112.410308
 30
0.0
 40
1.5
 50
306.869898
 51
344.53399
1001
ACAD
1000
RTMaterial
1005
0
  0
ARC
  8
F01_OUT
  5
6E8
 10
-66.025039
 20
112.710308
 30
0.0
 40
0.7
 50
270.0
 51
345.0
1001
ACAD
1000
RTMaterial
1005
0
  0
ARC
  8
F01_OUT
  5
6E9
 10
-83.339682
 20
113.010308
 30
0.0
 40
1.0
 50
224.427004
 51
270.0
1001
ACAD
1000
RTMaterial
1005
0
  0
ARC
  8
F01_OUT
  5
6EA
 10
-62.850088
 20
146.610308
 30
0.0
 40
0.3
 50
0.0
 51
90.0
1001
ACAD
1000
RTMaterial
1005
0
  0
ARC
  8
F01_OUT
  5
6EB
 10
-58.850088
 20
141.860818
 30
0.0
 40
0.2
 50
270.0
 51
0.0
1001
ACAD
1000
RTMaterial
1005
0
  0
LINE
  8
F01_OUT
  5
6EC
 10
-63.350088
 20
146.579058
 30
0.0
 11
-62.850088
 21
146.579058
 31
0.0
1001
ACAD
1000
RTMaterial
1005
0
  0
LINE
  8
F01_OUT
  5
6ED
 10
-63.350088
 20
146.910308
 30
0.0
 11
-62.850088
 21
146.910308
 31
0.0
1001
ACAD
1000
RTMaterial
1005
0
  0
LINE
  8
F01_OUT
  5
6EE
 10
-62.550088
 20
146.610308
 30
0.0
 11
-59.650088
 21
146.610308
 31
0.0
1001
ACAD
1000
RTMaterial
1005
0
  0
LINE
  8
F01_OUT
  5
6EF
 10
-59.650088
 20
146.610308
 30
0.0
 11
-59.650088
 21
146.501198
 31
0.0
1001
ACAD
1000
RTMaterial
1005
0
  0
LINE
  8
F01_OUT
  5
6F0
 10
-59.650088
 20
146.501198
 30
0.0
 11
-59.650088
 21
146.49171
 31
0.0
1001
ACAD
1000
RTMaterial
1005
0
  0
LINE
  8
F01_OUT
  5
6F1
 10
-63.350088
 20
144.610308
 30
0.0
 11
-59.650088
 21
144.610308
 31
0.0
1001
ACAD
1000
RTMaterial
1005
0
  0
LINE
  8
F01_OUT
  5
6F2
 10
-63.350088
 20
143.610308
 30
0.0
 11
-59.650088
 21
143.610308
 31
0.0
1001
ACAD
1000
RTMaterial
1005
0
  0
LINE
  8
F01_OUT
  5
6F3
 10
-59.650088
 20
143.610308
 30
0.0
 11
-59.650088
 21
144.610308
 31
0.0
1001
ACAD
1000
RTMaterial
1005
0
  0
LINE
  8
F01_OUT
  5
6F4
 10
-59.650088
 20
141.660818
 30
0.0
 11
-59.650088
 21
141.914725
 31
0.0
1001
ACAD
1000
RTMaterial
1005
0
  0
LINE
  8
F01_OUT
  5
6F5
 10
-63.350088
 20
141.610308
 30
0.0
 11
-61.850088
 21
141.610308
 31
0.0
1001
ACAD
1000
RTMaterial
1005
0
  0
LINE
  8
F01_OUT
  5
6F6
 10
-58.850088
 20
141.660818
 30
0.0
 11
-59.650088
 21
141.660818
 31
0.0
1001
ACAD
1000
RTMaterial
1005
0
  0
LINE
  8
F01_OUT
  5
6F7
 10
-61.850088
 20
141.914725
 30
0.0
 11
-59.650088
 21
141.914725
 31
0.0
1001
ACAD
1000
RTMaterial
1005
0
  0
LINE
  8
F01_OUT
  5
6F8
 10
-61.850088
 20
141.914725
 30
0.0
 11
-61.850088
 21
141.610308
 31
0.0
1001
ACAD
1000
RTMaterial
1005
0
  0
LINE
  8
F01_OUT
  5
6F9
 10
-59.650088
 20
146.501198
 30
0.0
 11
-58.791597
 21
146.501198
 31
0.0
1001
ACAD
1000
RTMaterial
1005
0
  0
LINE
  8
F01_OUT
  5
6FA
 10
-58.650088
 20
144.610308
 30
0.0
 11
-58.650088
 21
145.157887
 31
0.0
1001
ACAD
1000
RTMaterial
1005
0
  0
LINE
  8
F01_OUT
  5
6FB
 10
-59.650088
 20
143.610308
 30
0.0
 11
-58.650088
 21
143.610308
 31
0.0
1001
ACAD
1000
RTMaterial
1005
0
  0
LINE
  8
F01_OUT
  5
6FC
 10
-58.650088
 20
144.610308
 30
0.0
 11
-59.650088
 21
144.610308
 31
0.0
1001
ACAD
1000
RTMaterial
1005
0
  0
LINE
  8
F01_OUT
  5
6FD
 10
-58.650088
 20
146.353727
 30
0.0
 11
-58.650088
 21
145.157887
 31
0.0
1001
ACAD
1000
RTMaterial
1005
0
  0
LINE
  8
F01_OUT
  5
6FE
 10
-58.650088
 20
142.860818
 30
0.0
 11
-58.650088
 21
143.610308
 31
0.0
1001
ACAD
1000
RTMaterial
1005
0
  0
LINE
  8
F01_OUT
  5
6FF
 10
-58.650088
 20
141.860818
 30
0.0
 11
-58.650088
 21
142.160818
 31
0.0
1001
ACAD
1000
RTMaterial
1005
0
  0
LINE
  8
F01_OUT
  5
700
 10
-58.650088
 20
142.860818
 30
0.0
 11
-58.650088
 21
142.160818
 31
0.0
1001
ACAD
1000
RTMaterial
1005
0
  0
LINE
  8
F01_OUT
  5
701
 10
-63.350088
 20
141.510308
 30
0.0
 11
-62.550088
 21
141.510308
 31
0.0
1001
ACAD
1000
RTMaterial
1005
0
  0
LINE
  8
F01_OUT
  5
702
 10
-63.350088
 20
132.710308
 30
0.0
 11
-62.550088
 21
132.710308
 31
0.0
1001
ACAD
1000
RTMaterial
1005
0
  0
LINE
  8
F01_OUT
  5
703
 10
-62.550088
 20
141.510308
 30
0.0
 11
-62.550088
 21
132.710308
 31
0.0
1001
ACAD
1000
RTMaterial
1005
0
  0
LINE
  8
F01_OUT
  5
704
 10
-64.650088
 20
151.810308
 30
0.0
 11
-63.350088
 21
151.810308
 31
0.0
1001
ACAD
1000
RTMaterial
1005
0
  0
LINE
  8
F01_OUT
  5
705
 10
-63.350088
 20
150.610308
 30
0.0
 11
-63.350088
 21
151.810308
 31
0.0
1001
ACAD
1000
RTMaterial
1005
0
  0
LINE
  8
F01_OUT
  5
706
 10
-63.350088
 20
150.110308
 30
0.0
 11
-63.350088
 21
150.610308
 31
0.0
1001
ACAD
1000
RTMaterial
1005
0
  0
LINE
  8
F01_OUT
  5
707
 10
-63.350088
 20
132.710308
 30
0.0
 11
-63.350088
 21
134.110308
 31
0.0
1001
ACAD
1000
RTMaterial
1005
0
  0
LINE
  8
F01_OUT
  5
708
 10
-63.350088
 20
140.110308
 30
0.0
 11
-63.350088
 21
141.510308
 31
0.0
1001
ACAD
1000
RTMaterial
1005
0
  0
LINE
  8
F01_OUT
  5
709
 10
-63.350088
 20
141.510308
 30
0.0
 11
-63.350088
 21
148.210308
 31
0.0
1001
ACAD
1000
RTMaterial
1005
0
  0
LINE
  8
F01_OUT
  5
70A
 10
-63.350088
 20
129.247256
 30
0.0
 11
-63.350088
 21
132.710308
 31
0.0
1001
ACAD
1000
RTMaterial
1005
0
  0
LINE
  8
F01_OUT
  5
70B
 10
-63.350088
 20
150.110308
 30
0.0
 11
-63.350088
 21
149.410308
 31
0.0
1001
ACAD
1000
RTMaterial
1005
0
  0
LINE
  8
F01_OUT
  5
70C
 10
-63.350088
 20
134.110308
 30
0.0
 11
-63.350088
 21
140.110308
 31
0.0
1001
ACAD
1000
RTMaterial
1005
0
  0
LINE
  8
F01_OUT
  5
70D
 10
-63.350088
 20
148.210308
 30
0.0
 11
-63.350088
 21
149.410308
 31
0.0
1001
ACAD
1000
RTMaterial
1005
0
  0
LINE
  8
F01_OUT
  5
70E
 10
-64.550088
 20
140.610308
 30
0.0
 11
-64.550088
 21
139.234252
 31
0.0
1001
ACAD
1000
RTMaterial
1005
0
  0
LINE
  8
F01_OUT
  5
70F
 10
-64.550088
 20
139.234252
 30
0.0
 11
-64.550088
 21
138.928919
 31
0.0
1001
ACAD
1000
RTMaterial
1005
0
  0
LINE
  8
F01_OUT
  5
710
 10
-64.550088
 20
144.110308
 30
0.0
 11
-64.550088
 21
141.535308
 31
0.0
1001
ACAD
1000
RTMaterial
1005
0
  0
LINE
  8
F01_OUT
  5
711
 10
-64.550088
 20
148.110308
 30
0.0
 11
-64.550088
 21
148.210308
 31
0.0
1001
ACAD
1000
RTMaterial
1005
0
  0
LINE
  8
F01_OUT
  5
712
 10
-64.550088
 20
141.535308
 30
0.0
 11
-64.550088
 21
140.610308
 31
0.0
1001
ACAD
1000
RTMaterial
1005
0
  0
LINE
  8
F01_OUT
  5
713
 10
-64.550088
 20
146.760308
 30
0.0
 11
-64.550088
 21
148.110308
 31
0.0
1001
ACAD
1000
RTMaterial
1005
0
  0
LINE
  8
F01_OUT
  5
714
 10
-64.550088
 20
144.110308
 30
0.0
 11
-64.550088
 21
146.760308
 31
0.0
1001
ACAD
1000
RTMaterial
1005
0
  0
LINE
  8
F01_OUT
  5
715
 10
-64.550088
 20
149.279832
 30
0.0
 11
-64.550088
 21
148.410308
 31
0.0
1001
ACAD
1000
RTMaterial
1005
0
  0
LINE
  8
F01_OUT
  5
716
 10
-64.550088
 20
148.329169
 30
0.0
 11
-64.550088
 21
148.410308
 31
0.0
1001
ACAD
1000
RTMaterial
1005
0
  0
LINE
  8
F01_OUT
  5
717
 10
-64.550088
 20
148.210308
 30
0.0
 11
-64.550088
 21
148.329169
 31
0.0
1001
ACAD
1000
RTMaterial
1005
0
  0
LINE
  8
F01_OUT
  5
718
 10
-64.550088
 20
128.191447
 30
0.0
 11
-64.550088
 21
128.148752
 31
0.0
1001
ACAD
1000
RTMaterial
1005
0
  0
LINE
  8
F01_OUT
  5
719
 10
-64.550088
 20
128.148752
 30
0.0
 11
-64.550088
 21
127.240784
 31
0.0
1001
ACAD
1000
RTMaterial
1005
0
  0
LINE
  8
F01_OUT
  5
71A
 10
-64.550088
 20
128.410308
 30
0.0
 11
-64.550088
 21
128.191447
 31
0.0
1001
ACAD
1000
RTMaterial
1005
0
  0
LINE
  8
F01_OUT
  5
71B
 10
-64.550088
 20
128.710308
 30
0.0
 11
-64.550088
 21
128.410308
 31
0.0
1001
ACAD
1000
RTMaterial
1005
0
  0
LINE
  8
F01_OUT
  5
71C
 10
-64.550088
 20
129.610308
 30
0.0
 11
-64.550088
 21
128.710308
 31
0.0
1001
ACAD
1000
RTMaterial
1005
0
  0
LINE
  8
F01_OUT
  5
71D
 10
-64.550088
 20
138.928919
 30
0.0
 11
-64.550088
 21
137.910308
 31
0.0
1001
ACAD
1000
RTMaterial
1005
0
  0
LINE
  8
F01_OUT
  5
71E
 10
-64.550088
 20
137.910308
 30
0.0
 11
-64.550088
 21
129.610308
 31
0.0
1001
ACAD
1000
RTMaterial
1005
0
  0
ARC
  8
F01_OUT
  5
71F
 10
-84.050088
 20
125.710308
 30
0.0
 40
21.0
 50
353.162859
 51
9.696321
1001
ACAD
1000
RTMaterial
1005
0
  0
LINE
  8
F01_OUT
  5
720
 10
-64.550088
 20
122.410308
 30
0.0
 11
-64.550088
 21
121.710308
 31
0.0
1001
ACAD
1000
RTMaterial
1005
0
  0
LINE
  8
F01_OUT
  5
721
 10
-64.550088
 20
123.310308
 30
0.0
 11
-64.550088
 21
122.901198
 31
0.0
1001
ACAD
1000
RTMaterial
1005
0
  0
LINE
  8
F01_OUT
  5
722
 10
-64.550088
 20
122.901198
 30
0.0
 11
-64.550088
 21
122.565471
 31
0.0
1001
ACAD
1000
RTMaterial
1005
0
  0
LINE
  8
F01_OUT
  5
723
 10
-64.550088
 20
123.697847
 30
0.0
 11
-64.550088
 21
123.310308
 31
0.0
1001
ACAD
1000
RTMaterial
1005
0
  0
LINE
  8
F01_OUT
  5
724
 10
-64.550088
 20
122.565471
 30
0.0
 11
-64.550088
 21
122.410308
 31
0.0
1001
ACAD
1000
RTMaterial
1005
0
  0
LINE
  8
F01_OUT
  5
725
 10
-64.550088
 20
128.710308
 30
0.0
 11
-64.550088
 21
128.410308
 31
0.0
1001
ACAD
1000
RTMaterial
1005
0
  0
LINE
  8
F01_OUT
  5
726
 10
-64.550088
 20
128.410308
 30
0.0
 11
-64.550088
 21
128.191447
 31
0.0
1001
ACAD
1000
RTMaterial
1005
0
  0
LINE
  8
F01_OUT
  5
727
 10
-64.550088
 20
128.148752
 30
0.0
 11
-64.550088
 21
127.240784
 31
0.0
1001
ACAD
1000
RTMaterial
1005
0
  0
LINE
  8
F01_OUT
  5
728
 10
-64.550088
 20
128.191447
 30
0.0
 11
-64.550088
 21
128.148752
 31
0.0
1001
ACAD
1000
RTMaterial
1005
0
  0
ARC
  8
F01_OUT
  5
729
 10
-84.050088
 20
120.710308
 30
0.0
 40
21.0
 50
349.29722
 51
9.87089
1001
ACAD
1000
RTMaterial
1005
0
  0
ARC
  8
F01_OUT
  5
72A
 10
-84.050088
 20
120.710308
 30
0.0
 40
21.0
 50
346.225853
 51
349.29722
1001
ACAD
1000
RTMaterial
1005
0
  0
LINE
  8
F01_OUT
  5
72B
 10
-64.550088
 20
118.963883
 30
0.0
 11
-64.550088
 21
117.410308
 31
0.0
1001
ACAD
1000
RTMaterial
1005
0
  0
LINE
  8
F01_OUT
  5
72C
 10
-64.550088
 20
121.710308
 30
0.0
 11
-64.550088
 21
118.963883
 31
0.0
1001
ACAD
1000
RTMaterial
1005
0
  0
LINE
  8
F01_OUT
  5
72D
 10
-64.550088
 20
122.410308
 30
0.0
 11
-64.550088
 21
121.710308
 31
0.0
1001
ACAD
1000
RTMaterial
1005
0
  0
LINE
  8
F01_OUT
  5
72E
 10
-64.550088
 20
123.310308
 30
0.0
 11
-64.550088
 21
122.901198
 31
0.0
1001
ACAD
1000
RTMaterial
1005
0
  0
LINE
  8
F01_OUT
  5
72F
 10
-64.550088
 20
117.410308
 30
0.0
 11
-64.550088
 21
116.810308
 31
0.0
1001
ACAD
1000
RTMaterial
1005
0
  0
LINE
  8
F01_OUT
  5
730
 10
-64.550088
 20
122.901198
 30
0.0
 11
-64.550088
 21
122.565471
 31
0.0
1001
ACAD
1000
RTMaterial
1005
0
  0
LINE
  8
F01_OUT
  5
731
 10
-64.550088
 20
124.610308
 30
0.0
 11
-64.550088
 21
123.697847
 31
0.0
1001
ACAD
1000
RTMaterial
1005
0
  0
LINE
  8
F01_OUT
  5
732
 10
-64.550088
 20
123.697847
 30
0.0
 11
-64.550088
 21
123.310308
 31
0.0
1001
ACAD
1000
RTMaterial
1005
0
  0
LINE
  8
F01_OUT
  5
733
 10
-64.550088
 20
124.610308
 30
0.0
 11
-64.850088
 21
124.610308
 31
0.0
1001
ACAD
1000
RTMaterial
1005
0
  0
LINE
  8
F01_OUT
  5
734
 10
-66.050088
 20
124.610308
 30
0.0
 11
-64.850088
 21
124.610308
 31
0.0
1001
ACAD
1000
RTMaterial
1005
0
  0
LINE
  8
F01_OUT
  5
735
 10
-64.550088
 20
122.565471
 30
0.0
 11
-64.550088
 21
122.410308
 31
0.0
1001
ACAD
1000
RTMaterial
1005
0
  0
LINE
  8
F01_OUT
  5
736
 10
-63.66096
 20
124.610308
 30
0.0
 11
-64.550088
 21
124.610308
 31
0.0
1001
ACAD
1000
RTMaterial
1005
0
  0
LINE
  8
F01_OUT
  5
737
 10
-64.550088
 20
115.710308
 30
0.0
 11
-63.654009
 21
115.710308
 31
0.0
1001
ACAD
1000
RTMaterial
1005
0
  0
LINE
  8
F01_OUT
  5
738
 10
-63.66096
 20
124.610308
 30
0.0
 11
-63.36096
 21
124.310308
 31
0.0
1001
ACAD
1000
RTMaterial
1005
0
  0
ARC
  8
F01_OUT
  5
739
 10
-85.550088
 20
200.210308
 30
0.0
 40
21.0
 50
347.626375
 51
9.317473
1001
ACAD
1000
RTMaterial
1005
0
  0
ARC
  8
F01_OUT
  5
73A
 10
-85.550088
 20
200.210308
 30
0.0
 40
21.0
 50
9.317473
 51
12.373625
1001
ACAD
1000
RTMaterial
1005
0
  0
LINE
  8
F01_OUT
  5
73B
 10
-65.850088
 20
199.176333
 30
0.0
 11
-65.850088
 21
197.810308
 31
0.0
1001
ACAD
1000
RTMaterial
1005
0
  0
LINE
  8
F01_OUT
  5
73C
 10
-65.850088
 20
197.810308
 30
0.0
 11
-65.850088
 21
197.619255
 31
0.0
1001
ACAD
1000
RTMaterial
1005
0
  0
LINE
  8
F01_OUT
  5
73D
 10
-65.850088
 20
197.619255
 30
0.0
 11
-65.850088
 21
195.710308
 31
0.0
1001
ACAD
1000
RTMaterial
1005
0
  0
LINE
  8
F01_OUT
  5
73E
 10
-65.750088
 20
195.710308
 30
0.0
 11
-65.2427
 21
195.710308
 31
0.0
1001
ACAD
1000
RTMaterial
1005
0
  0
LINE
  8
F01_OUT
  5
73F
 10
-65.850088
 20
195.710308
 30
0.0
 11
-65.750088
 21
195.710308
 31
0.0
1001
ACAD
1000
RTMaterial
1005
0
  0
LINE
  8
F01_OUT
  5
740
 10
-65.037896
 20
195.710308
 30
0.0
 11
-65.2427
 21
195.710308
 31
0.0
1001
ACAD
1000
RTMaterial
1005
0
  0
LINE
  8
F01_OUT
  5
741
 10
-65.850088
 20
203.610308
 30
0.0
 11
-65.850088
 21
202.960308
 31
0.0
1001
ACAD
1000
RTMaterial
1005
0
  0
LINE
  8
F01_OUT
  5
742
 10
-65.850088
 20
201.519313
 30
0.0
 11
-65.850088
 21
199.176333
 31
0.0
1001
ACAD
1000
RTMaterial
1005
0
  0
LINE
  8
F01_OUT
  5
743
 10
-65.850088
 20
202.960308
 30
0.0
 11
-65.850088
 21
201.519313
 31
0.0
1001
ACAD
1000
RTMaterial
1005
0
  0
LINE
  8
F01_OUT
  5
744
 10
-65.037896
 20
204.710308
 30
0.0
 11
-65.858792
 21
204.710308
 31
0.0
1001
ACAD
1000
RTMaterial
1005
0
  0
LINE
  8
F01_OUT
  5
745
 10
-65.850088
 20
203.610308
 30
0.0
 11
-64.827153
 21
203.610308
 31
0.0
1001
ACAD
1000
RTMaterial
1005
0
  0
ARC
  8
F01_OUT
  5
746
 10
-85.550088
 20
168.210308
 30
0.0
 40
21.0
 50
350.682527
 51
12.373625
1001
ACAD
1000
RTMaterial
1005
0
  0
ARC
  8
F01_OUT
  5
747
 10
-85.550088
 20
168.210308
 30
0.0
 40
21.0
 50
347.626375
 51
350.682527
1001
ACAD
1000
RTMaterial
1005
0
  0
LINE
  8
F01_OUT
  5
748
 10
-65.850088
 20
172.710308
 30
0.0
 11
-65.850088
 21
172.460308
 31
0.0
1001
ACAD
1000
RTMaterial
1005
0
  0
LINE
  8
F01_OUT
  5
749
 10
-65.037896
 20
172.710308
 30
0.0
 11
-65.2427
 21
172.710308
 31
0.0
1001
ACAD
1000
RTMaterial
1005
0
  0
LINE
  8
F01_OUT
  5
74A
 10
-65.750088
 20
172.710308
 30
0.0
 11
-65.2427
 21
172.710308
 31
0.0
1001
ACAD
1000
RTMaterial
1005
0
  0
LINE
  8
F01_OUT
  5
74B
 10
-65.850088
 20
172.710308
 30
0.0
 11
-65.750088
 21
172.710308
 31
0.0
1001
ACAD
1000
RTMaterial
1005
0
  0
LINE
  8
F01_OUT
  5
74C
 10
-65.850088
 20
173.410308
 30
0.0
 11
-65.850088
 21
172.710308
 31
0.0
1001
ACAD
1000
RTMaterial
1005
0
  0
LINE
  8
F01_OUT
  5
74D
 10
-65.850088
 20
172.460308
 30
0.0
 11
-65.850088
 21
170.80136
 31
0.0
1001
ACAD
1000
RTMaterial
1005
0
  0
LINE
  8
F01_OUT
  5
74E
 10
-65.850088
 20
169.244282
 30
0.0
 11
-65.850088
 21
166.901302
 31
0.0
1001
ACAD
1000
RTMaterial
1005
0
  0
LINE
  8
F01_OUT
  5
74F
 10
-65.850088
 20
170.610308
 30
0.0
 11
-65.850088
 21
169.244282
 31
0.0
1001
ACAD
1000
RTMaterial
1005
0
  0
LINE
  8
F01_OUT
  5
750
 10
-65.850088
 20
170.80136
 30
0.0
 11
-65.850088
 21
170.610308
 31
0.0
1001
ACAD
1000
RTMaterial
1005
0
  0
LINE
  8
F01_OUT
  5
751
 10
-65.850088
 20
166.901302
 30
0.0
 11
-65.850088
 21
165.460308
 31
0.0
1001
ACAD
1000
RTMaterial
1005
0
  0
LINE
  8
F01_OUT
  5
752
 10
-65.850088
 20
165.460308
 30
0.0
 11
-65.850088
 21
164.810308
 31
0.0
1001
ACAD
1000
RTMaterial
1005
0
  0
LINE
  8
F01_OUT
  5
753
 10
-65.858792
 20
163.710308
 30
0.0
 11
-65.037896
 21
163.710308
 31
0.0
1001
ACAD
1000
RTMaterial
1005
0
  0
LINE
  8
F01_OUT
  5
754
 10
-65.850088
 20
164.810308
 30
0.0
 11
-64.827153
 21
164.810308
 31
0.0
1001
ACAD
1000
RTMaterial
1005
0
  0
LINE
  8
F01_OUT
  5
755
 10
-69.350088
 20
175.210308
 30
0.0
 11
-69.550088
 21
175.210308
 31
0.0
1001
ACAD
1000
RTMaterial
1005
0
  0
LINE
  8
F01_OUT
  5
756
 10
-69.550088
 20
193.210308
 30
0.0
 11
-69.350088
 21
193.210308
 31
0.0
1001
ACAD
1000
RTMaterial
1005
0
  0
LINE
  8
F01_OUT
  5
757
 10
-75.850088
 20
160.210308
 30
0.0
 11
-67.555237
 21
160.210308
 31
0.0
1001
ACAD
1000
RTMaterial
1005
0
  0
LINE
  8
F01_OUT
  5
758
 10
-65.884162
 20
163.583141
 30
0.0
 11
-66.589311
 21
160.951489
 31
0.0
1001
ACAD
1000
RTMaterial
1005
0
  0
LINE
  8
F01_OUT
  5
759
 10
-85.550088
 20
163.710308
 30
0.0
 11
-86.550088
 21
163.710308
 31
0.0
1001
ACAD
1000
RTMaterial
1005
0
  0
LINE
  8
F01_OUT
  5
75A
 10
-84.050088
 20
163.710308
 30
0.0
 11
-85.550088
 21
163.710308
 31
0.0
1001
ACAD
1000
RTMaterial
1005
0
  0
LINE
  8
F01_OUT
  5
75B
 10
-65.850088
 20
163.84196
 30
0.0
 11
-65.850088
 21
164.810308
 31
0.0
1001
ACAD
1000
RTMaterial
1005
0
  0
LINE
  8
F01_OUT
  5
75C
 10
-84.050088
 20
163.710308
 30
0.0
 11
-83.310864
 21
160.951489
 31
0.0
1001
ACAD
1000
RTMaterial
1005
0
  0
LINE
  8
F01_OUT
  5
75D
 10
-82.344938
 20
208.210308
 30
0.0
 11
-67.555237
 21
208.210308
 31
0.0
1001
ACAD
1000
RTMaterial
1005
0
  0
LINE
  8
F01_OUT
  5
75E
 10
-66.589311
 20
207.469127
 30
0.0
 11
-65.884162
 21
204.837474
 31
0.0
1001
ACAD
1000
RTMaterial
1005
0
  0
LINE
  8
F01_OUT
  5
75F
 10
-85.550088
 20
204.710308
 30
0.0
 11
-84.050088
 21
204.710308
 31
0.0
1001
ACAD
1000
RTMaterial
1005
0
  0
LINE
  8
F01_OUT
  5
760
 10
-85.550088
 20
204.710308
 30
0.0
 11
-86.550088
 21
204.710308
 31
0.0
1001
ACAD
1000
RTMaterial
1005
0
  0
LINE
  8
F01_OUT
  5
761
 10
-83.310864
 20
207.469127
 30
0.0
 11
-84.050088
 21
204.710308
 31
0.0
1001
ACAD
1000
RTMaterial
1005
0
  0
LINE
  8
F01_OUT
  5
762
 10
-65.850088
 20
202.960308
 30
0.0
 11
-65.850088
 21
201.519313
 31
0.0
1001
ACAD
1000
RTMaterial
1005
0
  0
LINE
  8
F01_OUT
  5
763
 10
-65.850088
 20
201.519313
 30
0.0
 11
-65.850088
 21
199.176333
 31
0.0
1001
ACAD
1000
RTMaterial
1005
0
  0
LINE
  8
F01_OUT
  5
764
 10
-65.850088
 20
203.610308
 30
0.0
 11
-65.850088
 21
204.578655
 31
0.0
1001
ACAD
1000
RTMaterial
1005
0
  0
LINE
  8
F01_OUT
  5
765
 10
-65.850088
 20
203.610308
 30
0.0
 11
-65.850088
 21
202.960308
 31
0.0
1001
ACAD
1000
RTMaterial
1005
0
  0
LINE
  8
F01_OUT
  5
766
 10
-65.850088
 20
165.460308
 30
0.0
 11
-65.850088
 21
164.810308
 31
0.0
1001
ACAD
1000
RTMaterial
1005
0
  0
LINE
  8
F01_OUT
  5
767
 10
-79.250088
 20
160.210308
 30
0.0
 11
-78.950088
 21
160.210308
 31
0.0
1001
ACAD
1000
RTMaterial
1005
0
  0
LINE
  8
F01_OUT
  5
768
 10
-78.950088
 20
160.210308
 30
0.0
 11
-78.550088
 21
160.210308
 31
0.0
1001
ACAD
1000
RTMaterial
1005
0
  0
LINE
  8
F01_OUT
  5
769
 10
-82.344938
 20
160.210308
 30
0.0
 11
-79.250088
 21
160.210308
 31
0.0
1001
ACAD
1000
RTMaterial
1005
0
  0
LINE
  8
F01_OUT
  5
76A
 10
-65.850088
 20
166.901302
 30
0.0
 11
-65.850088
 21
165.460308
 31
0.0
1001
ACAD
1000
RTMaterial
1005
0
  0
LINE
  8
F01_OUT
  5
76B
 10
-65.850088
 20
170.80136
 30
0.0
 11
-65.850088
 21
170.610308
 31
0.0
1001
ACAD
1000
RTMaterial
1005
0
  0
LINE
  8
F01_OUT
  5
76C
 10
-65.850088
 20
170.610308
 30
0.0
 11
-65.850088
 21
169.244282
 31
0.0
1001
ACAD
1000
RTMaterial
1005
0
  0
LINE
  8
F01_OUT
  5
76D
 10
-65.850088
 20
169.244282
 30
0.0
 11
-65.850088
 21
166.901302
 31
0.0
1001
ACAD
1000
RTMaterial
1005
0
  0
LINE
  8
F01_OUT
  5
76E
 10
-65.850088
 20
172.460308
 30
0.0
 11
-65.850088
 21
170.80136
 31
0.0
1001
ACAD
1000
RTMaterial
1005
0
  0
LINE
  8
F01_OUT
  5
76F
 10
-78.550088
 20
160.210308
 30
0.0
 11
-75.850088
 21
160.210308
 31
0.0
1001
ACAD
1000
RTMaterial
1005
0
  0
LINE
  8
F01_OUT
  5
770
 10
-69.550088
 20
181.160308
 30
0.0
 11
-69.550088
 21
180.660308
 31
0.0
1001
ACAD
1000
RTMaterial
1005
0
  0
LINE
  8
F01_OUT
  5
771
 10
-69.550088
 20
181.460308
 30
0.0
 11
-69.550088
 21
181.160308
 31
0.0
1001
ACAD
1000
RTMaterial
1005
0
  0
LINE
  8
F01_OUT
  5
772
 10
-69.550088
 20
187.260308
 30
0.0
 11
-69.550088
 21
186.960308
 31
0.0
1001
ACAD
1000
RTMaterial
1005
0
  0
LINE
  8
F01_OUT
  5
773
 10
-69.550088
 20
186.960308
 30
0.0
 11
-69.550088
 21
185.760308
 31
0.0
1001
ACAD
1000
RTMaterial
1005
0
  0
LINE
  8
F01_OUT
  5
774
 10
-69.550088
 20
177.660308
 30
0.0
 11
-69.550088
 21
177.160308
 31
0.0
1001
ACAD
1000
RTMaterial
1005
0
  0
LINE
  8
F01_OUT
  5
775
 10
-69.550088
 20
180.660308
 30
0.0
 11
-69.550088
 21
177.660308
 31
0.0
1001
ACAD
1000
RTMaterial
1005
0
  0
LINE
  8
F01_OUT
  5
776
 10
-69.550088
 20
176.910308
 30
0.0
 11
-69.550088
 21
176.710308
 31
0.0
1001
ACAD
1000
RTMaterial
1005
0
  0
LINE
  8
F01_OUT
  5
777
 10
-69.550088
 20
177.160308
 30
0.0
 11
-69.550088
 21
176.910308
 31
0.0
1001
ACAD
1000
RTMaterial
1005
0
  0
LINE
  8
F01_OUT
  5
778
 10
-69.550088
 20
185.760308
 30
0.0
 11
-69.550088
 21
182.660308
 31
0.0
1001
ACAD
1000
RTMaterial
1005
0
  0
LINE
  8
F01_OUT
  5
779
 10
-69.550088
 20
182.660308
 30
0.0
 11
-69.550088
 21
181.460308
 31
0.0
1001
ACAD
1000
RTMaterial
1005
0
  0
LINE
  8
F01_OUT
  5
77A
 10
-69.350088
 20
175.210308
 30
0.0
 11
-69.550088
 21
175.210308
 31
0.0
1001
ACAD
1000
RTMaterial
1005
0
  0
LINE
  8
F01_OUT
  5
77B
 10
-69.350088
 20
175.210308
 30
0.0
 11
-66.350088
 21
175.210308
 31
0.0
1001
ACAD
1000
RTMaterial
1005
0
  0
LINE
  8
F01_OUT
  5
77C
 10
-65.850088
 20
173.410308
 30
0.0
 11
-65.850088
 21
174.710308
 31
0.0
1001
ACAD
1000
RTMaterial
1005
0
  0
LINE
  8
F01_OUT
  5
77D
 10
-69.550088
 20
175.710308
 30
0.0
 11
-69.550088
 21
175.310308
 31
0.0
1001
ACAD
1000
RTMaterial
1005
0
  0
LINE
  8
F01_OUT
  5
77E
 10
-69.550088
 20
175.310308
 30
0.0
 11
-69.550088
 21
175.210308
 31
0.0
1001
ACAD
1000
RTMaterial
1005
0
  0
LINE
  8
F01_OUT
  5
77F
 10
-69.550088
 20
176.710308
 30
0.0
 11
-69.550088
 21
175.710308
 31
0.0
1001
ACAD
1000
RTMaterial
1005
0
  0
LINE
  8
F01_OUT
  5
780
 10
-65.850088
 20
173.410308
 30
0.0
 11
-65.850088
 21
172.710308
 31
0.0
1001
ACAD
1000
RTMaterial
1005
0
  0
LINE
  8
F01_OUT
  5
781
 10
-65.850088
 20
172.710308
 30
0.0
 11
-65.850088
 21
172.460308
 31
0.0
1001
ACAD
1000
RTMaterial
1005
0
  0
LINE
  8
F01_OUT
  5
782
 10
-69.550088
 20
187.760308
 30
0.0
 11
-69.550088
 21
187.260308
 31
0.0
1001
ACAD
1000
RTMaterial
1005
0
  0
LINE
  8
F01_OUT
  5
783
 10
-69.550088
 20
190.760308
 30
0.0
 11
-69.550088
 21
187.760308
 31
0.0
1001
ACAD
1000
RTMaterial
1005
0
  0
LINE
  8
F01_OUT
  5
784
 10
-65.850088
 20
193.710308
 30
0.0
 11
-65.850088
 21
195.710308
 31
0.0
1001
ACAD
1000
RTMaterial
1005
0
  0
LINE
  8
F01_OUT
  5
785
 10
-69.550088
 20
193.210308
 30
0.0
 11
-69.350088
 21
193.210308
 31
0.0
1001
ACAD
1000
RTMaterial
1005
0
  0
LINE
  8
F01_OUT
  5
786
 10
-69.350088
 20
193.210308
 30
0.0
 11
-66.350088
 21
193.210308
 31
0.0
1001
ACAD
1000
RTMaterial
1005
0
  0
LINE
  8
F01_OUT
  5
787
 10
-65.850088
 20
197.619255
 30
0.0
 11
-65.850088
 21
195.710308
 31
0.0
1001
ACAD
1000
RTMaterial
1005
0
  0
LINE
  8
F01_OUT
  5
788
 10
-69.550088
 20
191.710307
 30
0.0
 11
-69.550088
 21
191.510307
 31
0.0
1001
ACAD
1000
RTMaterial
1005
0
  0
LINE
  8
F01_OUT
  5
789
 10
-69.550088
 20
191.510307
 30
0.0
 11
-69.550088
 21
191.260308
 31
0.0
1001
ACAD
1000
RTMaterial
1005
0
  0
LINE
  8
F01_OUT
  5
78A
 10
-69.550088
 20
191.260308
 30
0.0
 11
-69.550088
 21
190.760308
 31
0.0
1001
ACAD
1000
RTMaterial
1005
0
  0
LINE
  8
F01_OUT
  5
78B
 10
-69.550088
 20
193.210308
 30
0.0
 11
-69.550088
 21
193.110308
 31
0.0
1001
ACAD
1000
RTMaterial
1005
0
  0
LINE
  8
F01_OUT
  5
78C
 10
-69.550088
 20
193.110308
 30
0.0
 11
-69.550088
 21
191.710307
 31
0.0
1001
ACAD
1000
RTMaterial
1005
0
  0
LINE
  8
F01_OUT
  5
78D
 10
-65.850088
 20
197.810308
 30
0.0
 11
-65.850088
 21
197.619255
 31
0.0
1001
ACAD
1000
RTMaterial
1005
0
  0
LINE
  8
F01_OUT
  5
78E
 10
-65.850088
 20
199.176333
 30
0.0
 11
-65.850088
 21
197.810308
 31
0.0
1001
ACAD
1000
RTMaterial
1005
0
  0
ARC
  8
F01_OUT
  5
78F
 10
-82.344938
 20
161.210308
 30
0.0
 40
1.0
 50
224.427004
 51
270.0
1001
ACAD
1000
RTMaterial
1005
0
  0
ARC
  8
F01_OUT
  5
790
 10
-67.555237
 20
161.210308
 30
0.0
 40
1.0
 50
270.0
 51
315.572996
1001
ACAD
1000
RTMaterial
1005
0
  0
ARC
  8
F01_OUT
  5
791
 10
-82.344938
 20
161.210308
 30
0.0
 40
1.0
 50
195.0
 51
224.427004
1001
ACAD
1000
RTMaterial
1005
0
  0
ARC
  8
F01_OUT
  5
792
 10
-66.850088
 20
163.84196
 30
0.0
 40
1.0
 50
345.0
 51
0.0
1001
ACAD
1000
RTMaterial
1005
0
  0
ARC
  8
F01_OUT
  5
793
 10
-67.555237
 20
161.210308
 30
0.0
 40
1.0
 50
315.572996
 51
345.0
1001
ACAD
1000
RTMaterial
1005
0
  0
ARC
  8
F01_OUT
  5
794
 10
-67.555237
 20
207.210308
 30
0.0
 40
1.0
 50
15.0
 51
44.427004
1001
ACAD
1000
RTMaterial
1005
0
  0
ARC
  8
F01_OUT
  5
795
 10
-67.555237
 20
207.210308
 30
0.0
 40
1.0
 50
44.427004
 51
90.0
1001
ACAD
1000
RTMaterial
1005
0
  0
ARC
  8
F01_OUT
  5
796
 10
-66.850088
 20
204.578655
 30
0.0
 40
1.0
 50
7.565094
 51
15.0
1001
ACAD
1000
RTMaterial
1005
0
  0
ARC
  8
F01_OUT
  5
797
 10
-82.344938
 20
207.210308
 30
0.0
 40
1.0
 50
135.572996
 51
165.0
1001
ACAD
1000
RTMaterial
1005
0
  0
ARC
  8
F01_OUT
  5
798
 10
-82.344938
 20
207.210308
 30
0.0
 40
1.0
 50
90.0
 51
135.572996
1001
ACAD
1000
RTMaterial
1005
0
  0
ARC
  8
F01_OUT
  5
799
 10
-66.850088
 20
204.578655
 30
0.0
 40
1.0
 50
0.0
 51
7.565094
1001
ACAD
1000
RTMaterial
1005
0
  0
ARC
  8
F01_OUT
  5
79A
 10
-66.350088
 20
174.710308
 30
0.0
 40
0.5
 50
0.0
 51
90.0
1001
ACAD
1000
RTMaterial
1005
0
  0
ARC
  8
F01_OUT
  5
79B
 10
-66.350088
 20
193.710308
 30
0.0
 40
0.5
 50
270.0
 51
0.0
1001
ACAD
1000
RTMaterial
1005
0
  0
LINE
  8
F01_OUT
  5
79C
 10
-64.550088
 20
193.110308
 30
0.0
 11
-64.550088
 21
195.710308
 31
0.0
1001
ACAD
1000
RTMaterial
1005
0
  0
LINE
  8
F01_OUT
  5
79D
 10
-64.550088
 20
172.710308
 30
0.0
 11
-64.550088
 21
175.310308
 31
0.0
1001
ACAD
1000
RTMaterial
1005
0
  0
LINE
  8
F01_OUT
  5
79E
 10
-64.550088
 20
172.710308
 30
0.0
 11
-65.037896
 21
172.710308
 31
0.0
1001
ACAD
1000
RTMaterial
1005
0
  0
LINE
  8
F01_OUT
  5
79F
 10
-64.550088
 20
175.310308
 30
0.0
 11
-64.550088
 21
193.110308
 31
0.0
1001
ACAD
1000
RTMaterial
1005
0
  0
LINE
  8
F01_OUT
  5
7A0
 10
-64.550088
 20
195.710308
 30
0.0
 11
-65.037896
 21
195.710308
 31
0.0
1001
ACAD
1000
RTMaterial
1005
0
  0
LINE
  8
F01_OUT
  5
7A1
 10
-69.550088
 20
193.110308
 30
0.0
 11
-64.550088
 21
193.110308
 31
0.0
1001
ACAD
1000
RTMaterial
1005
0
  0
LINE
  8
F01_OUT
  5
7A2
 10
-64.550088
 20
175.310308
 30
0.0
 11
-69.550088
 21
175.310308
 31
0.0
1001
ACAD
1000
RTMaterial
1005
0
  0
LINE
  8
F01_OUT
  5
7A3
 10
-65.037896
 20
195.710308
 30
0.0
 11
-65.2427
 21
195.710308
 31
0.0
1001
ACAD
1000
RTMaterial
1005
0
  0
LINE
  8
F01_OUT
  5
7A4
 10
-65.750088
 20
194.610308
 30
0.0
 11
-65.850088
 21
194.610308
 31
0.0
1001
ACAD
1000
RTMaterial
1005
0
  0
LINE
  8
F01_OUT
  5
7A5
 10
-65.750088
 20
194.810308
 30
0.0
 11
-65.750088
 21
194.610308
 31
0.0
1001
ACAD
1000
RTMaterial
1005
0
  0
LINE
  8
F01_OUT
  5
7A6
 10
-65.850088
 20
195.710308
 30
0.0
 11
-65.750088
 21
195.710308
 31
0.0
1001
ACAD
1000
RTMaterial
1005
0
  0
LINE
  8
F01_OUT
  5
7A7
 10
-65.750088
 20
194.810308
 30
0.0
 11
-65.850088
 21
194.810308
 31
0.0
1001
ACAD
1000
RTMaterial
1005
0
  0
LINE
  8
F01_OUT
  5
7A8
 10
-65.750088
 20
195.710308
 30
0.0
 11
-65.2427
 21
195.710308
 31
0.0
1001
ACAD
1000
RTMaterial
1005
0
  0
LINE
  8
F01_OUT
  5
7A9
 10
-65.750088
 20
195.710308
 30
0.0
 11
-65.750088
 21
194.810308
 31
0.0
1001
ACAD
1000
RTMaterial
1005
0
  0
LINE
  8
F01_OUT
  5
7AA
 10
-69.550088
 20
181.160308
 30
0.0
 11
-69.550088
 21
180.660308
 31
0.0
1001
ACAD
1000
RTMaterial
1005
0
  0
LINE
  8
F01_OUT
  5
7AB
 10
-69.550088
 20
181.460308
 30
0.0
 11
-69.550088
 21
181.160308
 31
0.0
1001
ACAD
1000
RTMaterial
1005
0
  0
LINE
  8
F01_OUT
  5
7AC
 10
-69.550088
 20
187.260308
 30
0.0
 11
-69.550088
 21
186.960308
 31
0.0
1001
ACAD
1000
RTMaterial
1005
0
  0
LINE
  8
F01_OUT
  5
7AD
 10
-69.550088
 20
186.960308
 30
0.0
 11
-69.550088
 21
185.760308
 31
0.0
1001
ACAD
1000
RTMaterial
1005
0
  0
LINE
  8
F01_OUT
  5
7AE
 10
-69.550088
 20
177.660308
 30
0.0
 11
-69.550088
 21
177.160308
 31
0.0
1001
ACAD
1000
RTMaterial
1005
0
  0
LINE
  8
F01_OUT
  5
7AF
 10
-69.550088
 20
180.660308
 30
0.0
 11
-69.550088
 21
177.660308
 31
0.0
1001
ACAD
1000
RTMaterial
1005
0
  0
LINE
  8
F01_OUT
  5
7B0
 10
-69.550088
 20
176.910308
 30
0.0
 11
-69.550088
 21
176.710308
 31
0.0
1001
ACAD
1000
RTMaterial
1005
0
  0
LINE
  8
F01_OUT
  5
7B1
 10
-69.550088
 20
177.160308
 30
0.0
 11
-69.550088
 21
176.910308
 31
0.0
1001
ACAD
1000
RTMaterial
1005
0
  0
LINE
  8
F01_OUT
  5
7B2
 10
-69.550088
 20
182.660308
 30
0.0
 11
-69.550088
 21
181.460308
 31
0.0
1001
ACAD
1000
RTMaterial
1005
0
  0
LINE
  8
F01_OUT
  5
7B3
 10
-65.750088
 20
173.610308
 30
0.0
 11
-65.750088
 21
173.810308
 31
0.0
1001
ACAD
1000
RTMaterial
1005
0
  0
LINE
  8
F01_OUT
  5
7B4
 10
-65.750088
 20
173.810308
 30
0.0
 11
-65.850088
 21
173.810308
 31
0.0
1001
ACAD
1000
RTMaterial
1005
0
  0
LINE
  8
F01_OUT
  5
7B5
 10
-69.550088
 20
175.710308
 30
0.0
 11
-69.550088
 21
175.310308
 31
0.0
1001
ACAD
1000
RTMaterial
1005
0
  0
LINE
  8
F01_OUT
  5
7B6
 10
-69.550088
 20
175.310308
 30
0.0
 11
-69.550088
 21
175.210308
 31
0.0
1001
ACAD
1000
RTMaterial
1005
0
  0
LINE
  8
F01_OUT
  5
7B7
 10
-69.550088
 20
176.710308
 30
0.0
 11
-69.550088
 21
175.710308
 31
0.0
1001
ACAD
1000
RTMaterial
1005
0
  0
LINE
  8
F01_OUT
  5
7B8
 10
-65.750088
 20
173.610308
 30
0.0
 11
-65.850088
 21
173.610308
 31
0.0
1001
ACAD
1000
RTMaterial
1005
0
  0
LINE
  8
F01_OUT
  5
7B9
 10
-65.750088
 20
172.710308
 30
0.0
 11
-65.750088
 21
173.610308
 31
0.0
1001
ACAD
1000
RTMaterial
1005
0
  0
LINE
  8
F01_OUT
  5
7BA
 10
-65.850088
 20
172.710308
 30
0.0
 11
-65.750088
 21
172.710308
 31
0.0
1001
ACAD
1000
RTMaterial
1005
0
  0
LINE
  8
F01_OUT
  5
7BB
 10
-65.750088
 20
172.710308
 30
0.0
 11
-65.2427
 21
172.710308
 31
0.0
1001
ACAD
1000
RTMaterial
1005
0
  0
LINE
  8
F01_OUT
  5
7BC
 10
-65.037896
 20
172.710308
 30
0.0
 11
-65.2427
 21
172.710308
 31
0.0
1001
ACAD
1000
RTMaterial
1005
0
  0
LINE
  8
F01_OUT
  5
7BD
 10
-69.550088
 20
187.760308
 30
0.0
 11
-69.550088
 21
187.260308
 31
0.0
1001
ACAD
1000
RTMaterial
1005
0
  0
LINE
  8
F01_OUT
  5
7BE
 10
-69.550088
 20
190.760308
 30
0.0
 11
-69.550088
 21
187.760308
 31
0.0
1001
ACAD
1000
RTMaterial
1005
0
  0
LINE
  8
F01_OUT
  5
7BF
 10
-69.550088
 20
191.710307
 30
0.0
 11
-69.550088
 21
191.510307
 31
0.0
1001
ACAD
1000
RTMaterial
1005
0
  0
LINE
  8
F01_OUT
  5
7C0
 10
-69.550088
 20
191.510307
 30
0.0
 11
-69.550088
 21
191.260308
 31
0.0
1001
ACAD
1000
RTMaterial
1005
0
  0
LINE
  8
F01_OUT
  5
7C1
 10
-69.550088
 20
191.260308
 30
0.0
 11
-69.550088
 21
190.760308
 31
0.0
1001
ACAD
1000
RTMaterial
1005
0
  0
LINE
  8
F01_OUT
  5
7C2
 10
-69.550088
 20
193.210308
 30
0.0
 11
-69.550088
 21
193.110308
 31
0.0
1001
ACAD
1000
RTMaterial
1005
0
  0
LINE
  8
F01_OUT
  5
7C3
 10
-69.550088
 20
193.110308
 30
0.0
 11
-69.550088
 21
191.710307
 31
0.0
1001
ACAD
1000
RTMaterial
1005
0
  0
ARC
  8
F01_OUT
  5
7C4
 10
-111.000088
 20
201.010308
 30
0.0
 40
0.6
 50
180.0
 51
0.0
1001
ACAD
1000
RTMaterial
1005
0
  0
ARC
  8
F01_OUT
  5
7C5
 10
-111.000088
 20
201.010308
 30
0.0
 40
0.6
 50
0.0
 51
90.0
1001
ACAD
1000
RTMaterial
1005
0
  0
ARC
  8
F01_OUT
  5
7C6
 10
-111.000088
 20
201.010308
 30
0.0
 40
0.6
 50
90.0
 51
180.0
1001
ACAD
1000
RTMaterial
1005
0
  0
LINE
  8
F01_OUT
  5
7C7
 10
-110.400088
 20
201.010308
 30
0.0
 11
-110.400088
 21
201.120662
 31
0.0
1001
ACAD
1000
RTMaterial
1005
0
  0
LINE
  8
F01_OUT
  5
7C8
 10
-111.600088
 20
201.010308
 30
0.0
 11
-111.600088
 21
201.120662
 31
0.0
1001
ACAD
1000
RTMaterial
1005
0
  0
LINE
  8
F01_OUT
  5
7C9
 10
-110.400088
 20
203.210308
 30
0.0
 11
-110.400088
 21
201.120662
 31
0.0
1001
ACAD
1000
RTMaterial
1005
0
  0
LINE
  8
F01_OUT
  5
7CA
 10
-111.600088
 20
203.142595
 30
0.0
 11
-111.600088
 21
201.120662
 31
0.0
1001
ACAD
1000
RTMaterial
1005
0
  0
ARC
  8
F01_OUT
  5
7CB
 10
-92.507009
 20
167.610308
 30
0.0
 40
0.4
 50
270.0
 51
60.0
1001
ACAD
1000
RTMaterial
1005
0
  0
ARC
  8
F01_OUT
  5
7CC
 10
-92.507009
 20
200.810308
 30
0.0
 40
0.4
 50
300.0
 51
90.0
1001
ACAD
1000
RTMaterial
1005
0
  0
ARC
  8
F01_OUT
  5
7CD
 10
-108.050088
 20
207.710308
 30
0.0
 40
0.5
 50
0.0
 51
90.0
1001
ACAD
1000
RTMaterial
1005
0
  0
ARC
  8
F01_OUT
  5
7CE
 10
-110.900088
 20
203.210308
 30
0.0
 40
0.75
 50
0.0
 51
180.0
1001
ACAD
1000
RTMaterial
1005
0
  0
ARC
  8
F01_OUT
  5
7CF
 10
-110.350088
 20
203.010308
 30
0.0
 40
0.2
 50
0.0
 51
90.0
1001
ACAD
1000
RTMaterial
1005
0
  0
ARC
  8
F01_OUT
  5
7D0
 10
-111.450088
 20
203.010308
 30
0.0
 40
0.2
 50
90.0
 51
180.0
1001
ACAD
1000
RTMaterial
1005
0
  0
ARC
  8
F01_OUT
  5
7D1
 10
-108.050088
 20
160.710308
 30
0.0
 40
0.5
 50
270.0
 51
0.0
1001
ACAD
1000
RTMaterial
1005
0
  0
LINE
  8
F01_OUT
  5
7D2
 10
-86.550088
 20
204.710308
 30
0.0
 11
-86.550088
 21
163.710308
 31
0.0
1001
ACAD
1000
RTMaterial
1005
0
  0
LINE
  8
F01_OUT
  5
7D3
 10
-107.550088
 20
200.210308
 30
0.0
 11
-94.050088
 21
200.210308
 31
0.0
1001
ACAD
1000
RTMaterial
1005
0
  0
LINE
  8
F01_OUT
  5
7D4
 10
-93.050088
 20
200.210308
 30
0.0
 11
-92.74624
 21
200.210308
 31
0.0
1001
ACAD
1000
RTMaterial
1005
0
  0
LINE
  8
F01_OUT
  5
7D5
 10
-94.050088
 20
200.210308
 30
0.0
 11
-93.050088
 21
200.210308
 31
0.0
1001
ACAD
1000
RTMaterial
1005
0
  0
LINE
  8
F01_OUT
  5
7D6
 10
-92.74624
 20
200.210308
 30
0.0
 11
-92.307009
 21
200.463898
 31
0.0
1001
ACAD
1000
RTMaterial
1005
0
  0
LINE
  8
F01_OUT
  5
7D7
 10
-92.307009
 20
167.956718
 30
0.0
 11
-92.74624
 21
168.210308
 31
0.0
1001
ACAD
1000
RTMaterial
1005
0
  0
LINE
  8
F01_OUT
  5
7D8
 10
-107.550088
 20
168.210308
 30
0.0
 11
-94.050088
 21
168.210308
 31
0.0
1001
ACAD
1000
RTMaterial
1005
0
  0
LINE
  8
F01_OUT
  5
7D9
 10
-93.050088
 20
168.210308
 30
0.0
 11
-92.74624
 21
168.210308
 31
0.0
1001
ACAD
1000
RTMaterial
1005
0
  0
LINE
  8
F01_OUT
  5
7DA
 10
-94.050088
 20
168.210308
 30
0.0
 11
-93.050088
 21
168.210308
 31
0.0
1001
ACAD
1000
RTMaterial
1005
0
  0
LINE
  8
F01_OUT
  5
7DB
 10
-94.050088
 20
168.210308
 30
0.0
 11
-94.050088
 21
167.210308
 31
0.0
1001
ACAD
1000
RTMaterial
1005
0
  0
LINE
  8
F01_OUT
  5
7DC
 10
-93.050088
 20
167.210308
 30
0.0
 11
-94.050088
 21
167.210308
 31
0.0
1001
ACAD
1000
RTMaterial
1005
0
  0
LINE
  8
F01_OUT
  5
7DD
 10
-92.507009
 20
167.210308
 30
0.0
 11
-93.050088
 21
167.210308
 31
0.0
1001
ACAD
1000
RTMaterial
1005
0
  0
LINE
  8
F01_OUT
  5
7DE
 10
-111.850088
 20
167.160308
 30
0.0
 11
-110.550088
 21
167.160308
 31
0.0
1001
ACAD
1000
RTMaterial
1005
0
  0
LINE
  8
F01_OUT
  5
7DF
 10
-111.950088
 20
167.760308
 30
0.0
 11
-111.850088
 21
167.160308
 31
0.0
1001
ACAD
1000
RTMaterial
1005
0
  0
LINE
  8
F01_OUT
  5
7E0
 10
-112.750088
 20
167.760308
 30
0.0
 11
-111.950088
 21
167.760308
 31
0.0
1001
ACAD
1000
RTMaterial
1005
0
  0
LINE
  8
F01_OUT
  5
7E1
 10
-113.550088
 20
166.560308
 30
0.0
 11
-112.750088
 21
167.760308
 31
0.0
1001
ACAD
1000
RTMaterial
1005
0
  0
LINE
  8
F01_OUT
  5
7E2
 10
-93.550088
 20
166.210308
 30
0.0
 11
-94.050088
 21
166.710308
 31
0.0
1001
ACAD
1000
RTMaterial
1005
0
  0
LINE
  8
F01_OUT
  5
7E3
 10
-111.750088
 20
166.560308
 30
0.0
 11
-111.850088
 21
167.160308
 31
0.0
1001
ACAD
1000
RTMaterial
1005
0
  0
LINE
  8
F01_OUT
  5
7E4
 10
-110.550088
 20
167.160308
 30
0.0
 11
-110.550088
 21
166.560308
 31
0.0
1001
ACAD
1000
RTMaterial
1005
0
  0
LINE
  8
F01_OUT
  5
7E5
 10
-111.750088
 20
166.560308
 30
0.0
 11
-110.550088
 21
166.560308
 31
0.0
1001
ACAD
1000
RTMaterial
1005
0
  0
LINE
  8
F01_OUT
  5
7E6
 10
-89.282138
 20
166.210308
 30
0.0
 11
-93.550088
 21
166.210308
 31
0.0
1001
ACAD
1000
RTMaterial
1005
0
  0
LINE
  8
F01_OUT
  5
7E7
 10
-94.050088
 20
167.210308
 30
0.0
 11
-94.050088
 21
166.710308
 31
0.0
1001
ACAD
1000
RTMaterial
1005
0
  0
LINE
  8
F01_OUT
  5
7E8
 10
-110.550088
 20
199.910307
 30
0.0
 11
-110.550088
 21
167.160308
 31
0.0
1001
ACAD
1000
RTMaterial
1005
0
  0
LINE
  8
F01_OUT
  5
7E9
 10
-89.282138
 20
166.210308
 30
0.0
 11
-87.550088
 21
165.210308
 31
0.0
1001
ACAD
1000
RTMaterial
1005
0
  0
LINE
  8
F01_OUT
  5
7EA
 10
-86.550088
 20
165.210308
 30
0.0
 11
-87.550088
 21
165.210308
 31
0.0
1001
ACAD
1000
RTMaterial
1005
0
  0
LINE
  8
F01_OUT
  5
7EB
 10
-107.550088
 20
164.417415
 30
0.0
 11
-107.550088
 21
168.210308
 31
0.0
1001
ACAD
1000
RTMaterial
1005
0
  0
LINE
  8
F01_OUT
  5
7EC
 10
-111.750088
 20
160.210308
 30
0.0
 11
-110.441071
 21
160.210308
 31
0.0
1001
ACAD
1000
RTMaterial
1005
0
  0
LINE
  8
F01_OUT
  5
7ED
 10
-110.441071
 20
160.210308
 30
0.0
 11
-109.889187
 21
160.210308
 31
0.0
1001
ACAD
1000
RTMaterial
1005
0
  0
LINE
  8
F01_OUT
  5
7EE
 10
-113.550088
 20
160.210308
 30
0.0
 11
-111.750088
 21
160.210308
 31
0.0
1001
ACAD
1000
RTMaterial
1005
0
  0
LINE
  8
F01_OUT
  5
7EF
 10
-87.550088
 20
203.210308
 30
0.0
 11
-89.282138
 21
202.210308
 31
0.0
1001
ACAD
1000
RTMaterial
1005
0
  0
LINE
  8
F01_OUT
  5
7F0
 10
-107.550088
 20
207.210308
 30
0.0
 11
-107.550088
 21
207.710308
 31
0.0
1001
ACAD
1000
RTMaterial
1005
0
  0
LINE
  8
F01_OUT
  5
7F1
 10
-107.550088
 20
204.710308
 30
0.0
 11
-107.550088
 21
204.503201
 31
0.0
1001
ACAD
1000
RTMaterial
1005
0
  0
LINE
  8
F01_OUT
  5
7F2
 10
-107.550088
 20
207.210308
 30
0.0
 11
-107.550088
 21
204.710308
 31
0.0
1001
ACAD
1000
RTMaterial
1005
0
  0
LINE
  8
F01_OUT
  5
7F3
 10
-107.550088
 20
204.503201
 30
0.0
 11
-107.550088
 21
204.003201
 31
0.0
1001
ACAD
1000
RTMaterial
1005
0
  0
LINE
  8
F01_OUT
  5
7F4
 10
-87.550088
 20
204.710308
 30
0.0
 11
-86.550088
 21
204.710308
 31
0.0
1001
ACAD
1000
RTMaterial
1005
0
  0
LINE
  8
F01_OUT
  5
7F5
 10
-85.550088
 20
204.710308
 30
0.0
 11
-86.550088
 21
204.710308
 31
0.0
1001
ACAD
1000
RTMaterial
1005
0
  0
LINE
  8
F01_OUT
  5
7F6
 10
-107.550088
 20
200.210308
 30
0.0
 11
-107.550088
 21
204.003201
 31
0.0
1001
ACAD
1000
RTMaterial
1005
0
  0
LINE
  8
F01_OUT
  5
7F7
 10
-94.050088
 20
201.710308
 30
0.0
 11
-93.550088
 21
202.210308
 31
0.0
1001
ACAD
1000
RTMaterial
1005
0
  0
LINE
  8
F01_OUT
  5
7F8
 10
-86.550088
 20
203.210308
 30
0.0
 11
-87.550088
 21
203.210308
 31
0.0
1001
ACAD
1000
RTMaterial
1005
0
  0
LINE
  8
F01_OUT
  5
7F9
 10
-85.550088
 20
204.710308
 30
0.0
 11
-84.050088
 21
204.710308
 31
0.0
1001
ACAD
1000
RTMaterial
1005
0
  0
LINE
  8
F01_OUT
  5
7FA
 10
-93.050088
 20
201.210308
 30
0.0
 11
-92.507009
 21
201.210308
 31
0.0
1001
ACAD
1000
RTMaterial
1005
0
  0
LINE
  8
F01_OUT
  5
7FB
 10
-94.050088
 20
201.210308
 30
0.0
 11
-94.050088
 21
200.210308
 31
0.0
1001
ACAD
1000
RTMaterial
1005
0
  0
LINE
  8
F01_OUT
  5
7FC
 10
-93.550088
 20
202.210308
 30
0.0
 11
-89.282138
 21
202.210308
 31
0.0
1001
ACAD
1000
RTMaterial
1005
0
  0
LINE
  8
F01_OUT
  5
7FD
 10
-94.050088
 20
201.710308
 30
0.0
 11
-94.050088
 21
201.210308
 31
0.0
1001
ACAD
1000
RTMaterial
1005
0
  0
LINE
  8
F01_OUT
  5
7FE
 10
-94.050088
 20
201.210308
 30
0.0
 11
-93.050088
 21
201.210308
 31
0.0
1001
ACAD
1000
RTMaterial
1005
0
  0
LINE
  8
F01_OUT
  5
7FF
 10
-111.650088
 20
201.310308
 30
0.0
 11
-112.630378
 21
199.910308
 31
0.0
1001
ACAD
1000
RTMaterial
1005
0
  0
LINE
  8
F01_OUT
  5
800
 10
-110.550088
 20
199.910307
 30
0.0
 11
-110.150088
 21
201.403128
 31
0.0
1001
ACAD
1000
RTMaterial
1005
0
  0
LINE
  8
F01_OUT
  5
801
 10
-110.150088
 20
203.010308
 30
0.0
 11
-110.150088
 21
203.210308
 31
0.0
1001
ACAD
1000
RTMaterial
1005
0
  0
LINE
  8
F01_OUT
  5
802
 10
-110.350088
 20
203.210308
 30
0.0
 11
-110.400088
 21
203.210308
 31
0.0
1001
ACAD
1000
RTMaterial
1005
0
  0
LINE
  8
F01_OUT
  5
803
 10
-110.150088
 20
201.403128
 30
0.0
 11
-110.150088
 21
203.010308
 31
0.0
1001
ACAD
1000
RTMaterial
1005
0
  0
LINE
  8
F01_OUT
  5
804
 10
-107.550088
 20
204.710308
 30
0.0
 11
-87.550088
 21
204.710308
 31
0.0
1001
ACAD
1000
RTMaterial
1005
0
  0
LINE
  8
F01_OUT
  5
805
 10
-87.550088
 20
203.210308
 30
0.0
 11
-87.550088
 21
204.710308
 31
0.0
1001
ACAD
1000
RTMaterial
1005
0
  0
LINE
  8
F01_OUT
  5
806
 10
-110.400088
 20
203.210308
 30
0.0
 11
-111.450088
 21
203.210308
 31
0.0
1001
ACAD
1000
RTMaterial
1005
0
  0
LINE
  8
F01_OUT
  5
807
 10
-111.650088
 20
203.010308
 30
0.0
 11
-111.650088
 21
201.310308
 31
0.0
1001
ACAD
1000
RTMaterial
1005
0
  0
LINE
  8
F01_OUT
  5
808
 10
-111.650088
 20
203.210308
 30
0.0
 11
-111.650088
 21
203.010308
 31
0.0
1001
ACAD
1000
RTMaterial
1005
0
  0
LINE
  8
F01_OUT
  5
809
 10
-113.550088
 20
199.910308
 30
0.0
 11
-112.630378
 21
199.910308
 31
0.0
1001
ACAD
1000
RTMaterial
1005
0
  0
LINE
  8
F01_OUT
  5
80A
 10
-113.550088
 20
208.210308
 30
0.0
 11
-113.550088
 21
199.910308
 31
0.0
1001
ACAD
1000
RTMaterial
1005
0
  0
LINE
  8
F01_OUT
  5
80D
 10
-108.050088
 20
208.210308
 30
0.0
 11
-113.550088
 21
208.210308
 31
0.0
1001
ACAD
1000
RTMaterial
1005
0
  0
LINE
  8
F01_OUT
  5
80F
 10
-87.550088
 20
163.710308
 30
0.0
 11
-107.550088
 21
163.710308
 31
0.0
1001
ACAD
1000
RTMaterial
1005
0
  0
LINE
  8
F01_OUT
  5
810
 10
-107.550088
 20
163.917415
 30
0.0
 11
-107.550088
 21
163.710308
 31
0.0
1001
ACAD
1000
RTMaterial
1005
0
  0
LINE
  8
F01_OUT
  5
811
 10
-87.550088
 20
163.710308
 30
0.0
 11
-87.550088
 21
165.210308
 31
0.0
1001
ACAD
1000
RTMaterial
1005
0
  0
LINE
  8
F01_OUT
  5
812
 10
-86.550088
 20
163.710308
 30
0.0
 11
-87.550088
 21
163.710308
 31
0.0
1001
ACAD
1000
RTMaterial
1005
0
  0
LINE
  8
F01_OUT
  5
813
 10
-107.550088
 20
164.417415
 30
0.0
 11
-107.550088
 21
163.917415
 31
0.0
1001
ACAD
1000
RTMaterial
1005
0
  0
LINE
  8
F01_OUT
  5
814
 10
-84.050088
 20
163.710308
 30
0.0
 11
-85.550088
 21
163.710308
 31
0.0
1001
ACAD
1000
RTMaterial
1005
0
  0
LINE
  8
F01_OUT
  5
815
 10
-85.550088
 20
163.710308
 30
0.0
 11
-86.550088
 21
163.710308
 31
0.0
1001
ACAD
1000
RTMaterial
1005
0
  0
LINE
  8
F01_OUT
  5
816
 10
-107.550088
 20
163.710308
 30
0.0
 11
-107.550088
 21
161.210308
 31
0.0
1001
ACAD
1000
RTMaterial
1005
0
  0
LINE
  8
F01_OUT
  5
817
 10
-107.550088
 20
161.210308
 30
0.0
 11
-107.550088
 21
160.710308
 31
0.0
1001
ACAD
1000
RTMaterial
1005
0
  0
LINE
  8
F01_OUT
  5
818
 10
-113.550088
 20
161.210308
 30
0.0
 11
-113.550088
 21
160.210308
 31
0.0
1001
ACAD
1000
RTMaterial
1005
0
  0
LINE
  8
F01_OUT
  5
819
 10
-109.889187
 20
160.210308
 30
0.0
 11
-108.050088
 21
160.210308
 31
0.0
1001
ACAD
1000
RTMaterial
1005
0
  0
LINE
  8
F01_OUT
  5
81A
 10
-113.550088
 20
164.210308
 30
0.0
 11
-113.550088
 21
163.710308
 31
0.0
1001
ACAD
1000
RTMaterial
1005
0
  0
LINE
  8
F01_OUT
  5
81B
 10
-113.550088
 20
163.710308
 30
0.0
 11
-113.550088
 21
161.210308
 31
0.0
1001
ACAD
1000
RTMaterial
1005
0
  0
LINE
  8
F01_OUT
  5
81C
 10
-113.550088
 20
166.560308
 30
0.0
 11
-113.550088
 21
164.210308
 31
0.0
1001
ACAD
1000
RTMaterial
1005
0
  0
LINE
  8
F01_OUT
  5
81D
 10
22.887873
 20
197.90066
 30
0.0
 11
26.426716
 21
201.439503
 31
0.0
1001
ACAD
1000
RTMaterial
1005
0
  0
LINE
  8
F01_OUT
  5
81E
 10
25.935076
 20
198.472753
 30
0.0
 11
23.351159
 21
201.05667
 31
0.0
1001
ACAD
1000
RTMaterial
1005
0
  0
LINE
  8
F01_OUT
  5
81F
 10
31.587873
 20
197.90066
 30
0.0
 11
35.126716
 21
201.439503
 31
0.0
1001
ACAD
1000
RTMaterial
1005
0
  0
LINE
  8
F01_OUT
  5
820
 10
34.635076
 20
198.472753
 30
0.0
 11
32.051159
 21
201.05667
 31
0.0
1001
ACAD
1000
RTMaterial
1005
0
  0
LINE
  8
F01_OUT
  5
821
 10
40.287873
 20
197.90066
 30
0.0
 11
43.826716
 21
201.439503
 31
0.0
1001
ACAD
1000
RTMaterial
1005
0
  0
LINE
  8
F01_OUT
  5
822
 10
43.335076
 20
198.472753
 30
0.0
 11
40.751159
 21
201.05667
 31
0.0
1001
ACAD
1000
RTMaterial
1005
0
  0
LINE
  8
F01_OUT
  5
823
 10
48.987873
 20
197.90066
 30
0.0
 11
52.526716
 21
201.439503
 31
0.0
1001
ACAD
1000
RTMaterial
1005
0
  0
LINE
  8
F01_OUT
  5
824
 10
52.035076
 20
198.472753
 30
0.0
 11
49.451159
 21
201.05667
 31
0.0
1001
ACAD
1000
RTMaterial
1005
0
  0
LINE
  8
F01_OUT
  5
825
 10
57.687873
 20
197.90066
 30
0.0
 11
61.226716
 21
201.439503
 31
0.0
1001
ACAD
1000
RTMaterial
1005
0
  0
LINE
  8
F01_OUT
  5
826
 10
60.735076
 20
198.472753
 30
0.0
 11
58.151159
 21
201.05667
 31
0.0
1001
ACAD
1000
RTMaterial
1005
0
  0
LINE
  8
F01_OUT
  5
827
 10
22.887873
 20
166.90066
 30
0.0
 11
26.426716
 21
170.439503
 31
0.0
1001
ACAD
1000
RTMaterial
1005
0
  0
LINE
  8
F01_OUT
  5
828
 10
25.935076
 20
167.472753
 30
0.0
 11
23.351159
 21
170.05667
 31
0.0
1001
ACAD
1000
RTMaterial
1005
0
  0
LINE
  8
F01_OUT
  5
829
 10
31.587873
 20
166.90066
 30
0.0
 11
35.126716
 21
170.439503
 31
0.0
1001
ACAD
1000
RTMaterial
1005
0
  0
LINE
  8
F01_OUT
  5
82A
 10
34.635076
 20
167.472753
 30
0.0
 11
32.051159
 21
170.05667
 31
0.0
1001
ACAD
1000
RTMaterial
1005
0
  0
LINE
  8
F01_OUT
  5
82B
 10
40.287873
 20
166.90066
 30
0.0
 11
43.826716
 21
170.439503
 31
0.0
1001
ACAD
1000
RTMaterial
1005
0
  0
LINE
  8
F01_OUT
  5
82C
 10
43.335076
 20
167.472753
 30
0.0
 11
40.751159
 21
170.05667
 31
0.0
1001
ACAD
1000
RTMaterial
1005
0
  0
LINE
  8
F01_OUT
  5
82D
 10
48.987873
 20
166.90066
 30
0.0
 11
52.526716
 21
170.439503
 31
0.0
1001
ACAD
1000
RTMaterial
1005
0
  0
LINE
  8
F01_OUT
  5
82E
 10
52.035076
 20
167.472753
 30
0.0
 11
49.451159
 21
170.05667
 31
0.0
1001
ACAD
1000
RTMaterial
1005
0
  0
LINE
  8
F01_OUT
  5
82F
 10
57.687873
 20
166.90066
 30
0.0
 11
61.226716
 21
170.439503
 31
0.0
1001
ACAD
1000
RTMaterial
1005
0
  0
LINE
  8
F01_OUT
  5
830
 10
60.735076
 20
167.472753
 30
0.0
 11
58.151159
 21
170.05667
 31
0.0
1001
ACAD
1000
RTMaterial
1005
0
  0
LINE
  8
F01_OUT
  5
831
 10
22.687873
 20
118.90066
 30
0.0
 11
26.226716
 21
122.439503
 31
0.0
1001
ACAD
1000
RTMaterial
1005
0
  0
LINE
  8
F01_OUT
  5
832
 10
25.735076
 20
119.472753
 30
0.0
 11
23.151159
 21
122.05667
 31
0.0
1001
ACAD
1000
RTMaterial
1005
0
  0
LINE
  8
F01_OUT
  5
833
 10
31.487873
 20
118.90066
 30
0.0
 11
35.026716
 21
122.439503
 31
0.0
1001
ACAD
1000
RTMaterial
1005
0
  0
LINE
  8
F01_OUT
  5
834
 10
34.535076
 20
119.472753
 30
0.0
 11
31.951159
 21
122.05667
 31
0.0
1001
ACAD
1000
RTMaterial
1005
0
  0
LINE
  8
F01_OUT
  5
835
 10
40.287873
 20
118.90066
 30
0.0
 11
43.826716
 21
122.439503
 31
0.0
1001
ACAD
1000
RTMaterial
1005
0
  0
LINE
  8
F01_OUT
  5
836
 10
43.335076
 20
119.472753
 30
0.0
 11
40.751159
 21
122.05667
 31
0.0
1001
ACAD
1000
RTMaterial
1005
0
  0
LINE
  8
F01_OUT
  5
837
 10
49.087873
 20
123.90066
 30
0.0
 11
52.626716
 21
127.439503
 31
0.0
1001
ACAD
1000
RTMaterial
1005
0
  0
LINE
  8
F01_OUT
  5
838
 10
52.135076
 20
124.472753
 30
0.0
 11
49.551159
 21
127.05667
 31
0.0
1001
ACAD
1000
RTMaterial
1005
0
  0
LINE
  8
F01_OUT
  5
839
 10
57.887873
 20
123.90066
 30
0.0
 11
61.426716
 21
127.439503
 31
0.0
1001
ACAD
1000
RTMaterial
1005
0
  0
LINE
  8
F01_OUT
  5
83A
 10
60.935076
 20
124.472753
 30
0.0
 11
58.351159
 21
127.05667
 31
0.0
1001
ACAD
1000
RTMaterial
1005
0
  0
LINE
  8
F01_OUT
  5
83B
 10
49.087873
 20
115.30066
 30
0.0
 11
52.626716
 21
118.839503
 31
0.0
1001
ACAD
1000
RTMaterial
1005
0
  0
LINE
  8
F01_OUT
  5
83C
 10
52.135076
 20
115.872753
 30
0.0
 11
49.551159
 21
118.45667
 31
0.0
1001
ACAD
1000
RTMaterial
1005
0
  0
LINE
  8
F01_OUT
  5
83D
 10
57.887873
 20
115.30066
 30
0.0
 11
61.426716
 21
118.839503
 31
0.0
1001
ACAD
1000
RTMaterial
1005
0
  0
LINE
  8
F01_OUT
  5
83E
 10
60.935076
 20
115.872753
 30
0.0
 11
58.351159
 21
118.45667
 31
0.0
1001
ACAD
1000
RTMaterial
1005
0
  0
LINE
  8
F10_IMG3
  5
993
 10
-56.750088
 20
195.335308
 30
0.0
 11
-56.750088
 21
172.335308
 31
0.0
1001
ACAD
1000
RTMaterial
1005
0
  0
LINE
  8
F10_IMG3
  5
994
 10
-32.350088
 20
194.835308
 30
0.0
 11
-31.837896
 21
194.835308
 31
0.0
1001
ACAD
1000
RTMaterial
1005
0
  0
LINE
  8
F10_IMG3
  5
995
 10
-31.550088
 20
186.235308
 30
0.0
 11
-31.550088
 21
185.935308
 31
0.0
1001
ACAD
1000
RTMaterial
1005
0
  0
LINE
  8
F10_IMG3
  5
996
 10
-31.754214
 20
186.235308
 30
0.0
 11
-31.550088
 21
186.235308
 31
0.0
1001
ACAD
1000
RTMaterial
1005
0
  0
LINE
  8
F10_IMG3
  5
997
 10
-31.550088
 20
185.935308
 30
0.0
 11
-31.350088
 21
185.935308
 31
0.0
1001
ACAD
1000
RTMaterial
1005
0
  0
LINE
  8
F10_IMG3
  5
998
 10
-31.350088
 20
185.935308
 30
0.0
 11
-31.350088
 21
181.735308
 31
0.0
1001
ACAD
1000
RTMaterial
1005
0
  0
LINE
  8
F10_IMG3
  5
999
 10
-31.550088
 20
181.435308
 30
0.0
 11
-31.754214
 21
181.435308
 31
0.0
1001
ACAD
1000
RTMaterial
1005
0
  0
LINE
  8
F10_IMG3
  5
99A
 10
-31.350088
 20
181.735308
 30
0.0
 11
-31.550088
 21
181.735308
 31
0.0
1001
ACAD
1000
RTMaterial
1005
0
  0
LINE
  8
F10_IMG3
  5
99B
 10
-31.550088
 20
181.735308
 30
0.0
 11
-31.550088
 21
181.435308
 31
0.0
1001
ACAD
1000
RTMaterial
1005
0
  0
LINE
  8
F10_IMG3
  5
99C
 10
-32.350088
 20
172.835308
 30
0.0
 11
-31.837896
 21
172.835308
 31
0.0
1001
ACAD
1000
RTMaterial
1005
0
  0
ARC
  8
F10_IMG3
  5
99D
 10
-52.350088
 20
190.335308
 30
0.0
 40
21.0
 50
8.764932
 51
12.373625
1001
ACAD
1000
RTMaterial
1005
0
  0
ARC
  8
F10_IMG3
  5
99E
 10
-52.350088
 20
177.335308
 30
0.0
 40
21.0
 50
351.235068
 51
11.258633
1001
ACAD
1000
RTMaterial
1005
0
  0
ARC
  8
F10_IMG3
  5
99F
 10
-52.350088
 20
177.335308
 30
0.0
 40
21.0
 50
347.626375
 51
351.235068
1001
ACAD
1000
RTMaterial
1005
0
  0
ARC
  8
F10_IMG3
  5
9A0
 10
-52.350088
 20
190.335308
 30
0.0
 40
21.0
 50
348.741367
 51
8.764932
1001
ACAD
1000
RTMaterial
1005
0
  0
LINE
  8
F10_IMG3
  5
9A1
 10
-56.250088
 20
196.701333
 30
0.0
 11
-56.010864
 21
197.594127
 31
0.0
1001
ACAD
1000
RTMaterial
1005
0
  0
LINE
  8
F10_IMG3
  5
9A2
 10
-55.044938
 20
198.335308
 30
0.0
 11
-34.055237
 21
198.335308
 31
0.0
1001
ACAD
1000
RTMaterial
1005
0
  0
LINE
  8
F10_IMG3
  5
9A3
 10
-56.750088
 20
195.635308
 30
0.0
 11
-56.750088
 21
195.835308
 31
0.0
1001
ACAD
1000
RTMaterial
1005
0
  0
LINE
  8
F10_IMG3
  5
9A4
 10
-56.750088
 20
195.448556
 30
0.0
 11
-56.750088
 21
195.635308
 31
0.0
1001
ACAD
1000
RTMaterial
1005
0
  0
LINE
  8
F10_IMG3
  5
9A5
 10
-56.750088
 20
195.135308
 30
0.0
 11
-56.750088
 21
195.448556
 31
0.0
1001
ACAD
1000
RTMaterial
1005
0
  0
LINE
  8
F10_IMG3
  5
9A6
 10
-56.750088
 20
194.835308
 30
0.0
 11
-56.750088
 21
194.635308
 31
0.0
1001
ACAD
1000
RTMaterial
1005
0
  0
LINE
  8
F10_IMG3
  5
9A7
 10
-56.750088
 20
195.135308
 30
0.0
 11
-56.750088
 21
194.835308
 31
0.0
1001
ACAD
1000
RTMaterial
1005
0
  0
LINE
  8
F10_IMG3
  5
9A8
 10
-56.750088
 20
194.535308
 30
0.0
 11
-56.750088
 21
173.135308
 31
0.0
1001
ACAD
1000
RTMaterial
1005
0
  0
LINE
  8
F10_IMG3
  5
9A9
 10
-56.750088
 20
194.635308
 30
0.0
 11
-56.750088
 21
194.535308
 31
0.0
1001
ACAD
1000
RTMaterial
1005
0
  0
LINE
  8
F10_IMG3
  5
9AA
 10
-32.850088
 20
196.701333
 30
0.0
 11
-33.089311
 21
197.594127
 31
0.0
1001
ACAD
1000
RTMaterial
1005
0
  0
LINE
  8
F10_IMG3
  5
9AB
 10
-32.350088
 20
194.835308
 30
0.0
 11
-32.350088
 21
195.835308
 31
0.0
1001
ACAD
1000
RTMaterial
1005
0
  0
LINE
  8
F10_IMG3
  5
9AC
 10
-33.089311
 20
170.076489
 30
0.0
 11
-32.850088
 21
170.969282
 31
0.0
1001
ACAD
1000
RTMaterial
1005
0
  0
LINE
  8
F10_IMG3
  5
9AD
 10
-56.250088
 20
170.969282
 30
0.0
 11
-56.010864
 21
170.076489
 31
0.0
1001
ACAD
1000
RTMaterial
1005
0
  0
LINE
  8
F10_IMG3
  5
9AE
 10
-34.055237
 20
169.335308
 30
0.0
 11
-55.044938
 21
169.335308
 31
0.0
1001
ACAD
1000
RTMaterial
1005
0
  0
LINE
  8
F10_IMG3
  5
9AF
 10
-56.750088
 20
172.035308
 30
0.0
 11
-56.750088
 21
171.835308
 31
0.0
1001
ACAD
1000
RTMaterial
1005
0
  0
LINE
  8
F10_IMG3
  5
9B0
 10
-56.750088
 20
172.835308
 30
0.0
 11
-56.750088
 21
172.535308
 31
0.0
1001
ACAD
1000
RTMaterial
1005
0
  0
LINE
  8
F10_IMG3
  5
9B1
 10
-56.750088
 20
172.035308
 30
0.0
 11
-56.750088
 21
172.535308
 31
0.0
1001
ACAD
1000
RTMaterial
1005
0
  0
LINE
  8
F10_IMG3
  5
9B2
 10
-32.350088
 20
171.835308
 30
0.0
 11
-32.350088
 21
172.835308
 31
0.0
1001
ACAD
1000
RTMaterial
1005
0
  0
LINE
  8
F10_IMG3
  5
9B3
 10
-56.750088
 20
173.035308
 30
0.0
 11
-56.750088
 21
172.835308
 31
0.0
1001
ACAD
1000
RTMaterial
1005
0
  0
LINE
  8
F10_IMG3
  5
9B4
 10
-56.750088
 20
173.135308
 30
0.0
 11
-56.750088
 21
173.035308
 31
0.0
1001
ACAD
1000
RTMaterial
1005
0
  0
ARC
  8
F10_IMG3
  5
9B5
 10
-55.044938
 20
197.335308
 30
0.0
 40
1.0
 50
135.572996
 51
165.0
1001
ACAD
1000
RTMaterial
1005
0
  0
ARC
  8
F10_IMG3
  5
9B6
 10
-55.044938
 20
197.335308
 30
0.0
 40
1.0
 50
90.0
 51
135.572996
1001
ACAD
1000
RTMaterial
1005
0
  0
ARC
  8
F10_IMG3
  5
9B7
 10
-55.750088
 20
195.835308
 30
0.0
 40
1.0
 50
120.0
 51
135.572996
1001
ACAD
1000
RTMaterial
1005
0
  0
ARC
  8
F10_IMG3
  5
9B8
 10
-55.750088
 20
195.835308
 30
0.0
 40
1.0
 50
135.572996
 51
180.0
1001
ACAD
1000
RTMaterial
1005
0
  0
ARC
  8
F10_IMG3
  5
9B9
 10
-33.350088
 20
195.835308
 30
0.0
 40
1.0
 50
0.0
 51
44.427004
1001
ACAD
1000
RTMaterial
1005
0
  0
ARC
  8
F10_IMG3
  5
9BA
 10
-33.350088
 20
195.835308
 30
0.0
 40
1.0
 50
44.427004
 51
60.0
1001
ACAD
1000
RTMaterial
1005
0
  0
ARC
  8
F10_IMG3
  5
9BB
 10
-34.055237
 20
197.335308
 30
0.0
 40
1.0
 50
15.0
 51
44.427004
1001
ACAD
1000
RTMaterial
1005
0
  0
ARC
  8
F10_IMG3
  5
9BC
 10
-34.055237
 20
197.335308
 30
0.0
 40
1.0
 50
44.427004
 51
90.0
1001
ACAD
1000
RTMaterial
1005
0
  0
ARC
  8
F10_IMG3
  5
9BD
 10
-34.055237
 20
170.335308
 30
0.0
 40
1.0
 50
315.572996
 51
345.0
1001
ACAD
1000
RTMaterial
1005
0
  0
ARC
  8
F10_IMG3
  5
9BE
 10
-55.044938
 20
170.335308
 30
0.0
 40
1.0
 50
195.0
 51
224.427004
1001
ACAD
1000
RTMaterial
1005
0
  0
ARC
  8
F10_IMG3
  5
9BF
 10
-55.044938
 20
170.335308
 30
0.0
 40
1.0
 50
224.427004
 51
270.0
1001
ACAD
1000
RTMaterial
1005
0
  0
ARC
  8
F10_IMG3
  5
9C0
 10
-34.055237
 20
170.335308
 30
0.0
 40
1.0
 50
270.0
 51
315.572996
1001
ACAD
1000
RTMaterial
1005
0
  0
ARC
  8
F10_IMG3
  5
9C1
 10
-33.350088
 20
171.835308
 30
0.0
 40
1.0
 50
300.0
 51
0.0
1001
ACAD
1000
RTMaterial
1005
0
  0
ARC
  8
F10_IMG3
  5
9C2
 10
-55.750088
 20
171.835308
 30
0.0
 40
1.0
 50
180.0
 51
240.0
1001
ACAD
1000
RTMaterial
1005
0
  0
LINE
  8
F10_IMG3
  5
9C3
 10
-64.550088
 20
176.776699
 30
0.0
 11
-64.550088
 21
177.335308
 31
0.0
1001
ACAD
1000
RTMaterial
1005
0
  0
LINE
  8
F10_IMG3
  5
9C4
 10
-64.550088
 20
177.335308
 30
0.0
 11
-64.550088
 21
177.835308
 31
0.0
1001
ACAD
1000
RTMaterial
1005
0
  0
LINE
  8
F10_IMG3
  5
9C5
 10
-56.750088
 20
173.135308
 30
0.0
 11
-56.750088
 21
173.035308
 31
0.0
1001
ACAD
1000
RTMaterial
1005
0
  0
LINE
  8
F10_IMG3
  5
9C6
 10
-56.750088
 20
173.035308
 30
0.0
 11
-56.750088
 21
172.835308
 31
0.0
1001
ACAD
1000
RTMaterial
1005
0
  0
LINE
  8
F10_IMG3
  5
9C7
 10
-63.850088
 20
174.835308
 30
0.0
 11
-64.550088
 21
175.535308
 31
0.0
1001
ACAD
1000
RTMaterial
1005
0
  0
LINE
  8
F10_IMG3
  5
9C8
 10
-64.550088
 20
188.085308
 30
0.0
 11
-64.550088
 21
189.585308
 31
0.0
1001
ACAD
1000
RTMaterial
1005
0
  0
LINE
  8
F10_IMG3
  5
9C9
 10
-64.550088
 20
187.335308
 30
0.0
 11
-64.550088
 21
188.085308
 31
0.0
1001
ACAD
1000
RTMaterial
1005
0
  0
LINE
  8
F10_IMG3
  5
9CA
 10
-64.550088
 20
177.835308
 30
0.0
 11
-64.550088
 21
177.985308
 31
0.0
1001
ACAD
1000
RTMaterial
1005
0
  0
LINE
  8
F10_IMG3
  5
9CB
 10
-64.550088
 20
177.985308
 30
0.0
 11
-64.550088
 21
179.485308
 31
0.0
1001
ACAD
1000
RTMaterial
1005
0
  0
LINE
  8
F10_IMG3
  5
9CC
 10
-64.550088
 20
179.485308
 30
0.0
 11
-64.550088
 21
186.585308
 31
0.0
1001
ACAD
1000
RTMaterial
1005
0
  0
LINE
  8
F10_IMG3
  5
9CD
 10
-64.550088
 20
186.585308
 30
0.0
 11
-64.550088
 21
187.335308
 31
0.0
1001
ACAD
1000
RTMaterial
1005
0
  0
LINE
  8
F10_IMG3
  5
9CE
 10
-64.550088
 20
175.535308
 30
0.0
 11
-64.550088
 21
176.776699
 31
0.0
1001
ACAD
1000
RTMaterial
1005
0
  0
LINE
  8
F10_IMG3
  5
9CF
 10
-56.750088
 20
172.035308
 30
0.0
 11
-61.050088
 21
172.035308
 31
0.0
1001
ACAD
1000
RTMaterial
1005
0
  0
LINE
  8
F10_IMG3
  5
9D0
 10
-56.750088
 20
172.035308
 30
0.0
 11
-56.750088
 21
172.535308
 31
0.0
1001
ACAD
1000
RTMaterial
1005
0
  0
LINE
  8
F10_IMG3
  5
9D1
 10
-56.750088
 20
172.835308
 30
0.0
 11
-56.750088
 21
172.535308
 31
0.0
1001
ACAD
1000
RTMaterial
1005
0
  0
LINE
  8
F10_IMG3
  5
9D2
 10
-64.550088
 20
193.035308
 30
0.0
 11
-64.550088
 21
193.535308
 31
0.0
1001
ACAD
1000
RTMaterial
1005
0
  0
LINE
  8
F10_IMG3
  5
9D3
 10
-64.550088
 20
189.585308
 30
0.0
 11
-64.550088
 21
192.135308
 31
0.0
1001
ACAD
1000
RTMaterial
1005
0
  0
LINE
  8
F10_IMG3
  5
9D4
 10
-64.526874
 20
193.035308
 30
0.0
 11
-64.526874
 21
192.158521
 31
0.0
1001
ACAD
1000
RTMaterial
1005
0
  0
LINE
  8
F10_IMG3
  5
9D5
 10
-64.526874
 20
192.158521
 30
0.0
 11
-64.550088
 21
192.135308
 31
0.0
1001
ACAD
1000
RTMaterial
1005
0
  0
LINE
  8
F10_IMG3
  5
9D6
 10
-64.526874
 20
193.035308
 30
0.0
 11
-64.550088
 21
193.035308
 31
0.0
1001
ACAD
1000
RTMaterial
1005
0
  0
LINE
  8
F10_IMG3
  5
9D7
 10
-56.750088
 20
194.635308
 30
0.0
 11
-56.750088
 21
194.535308
 31
0.0
1001
ACAD
1000
RTMaterial
1005
0
  0
LINE
  8
F10_IMG3
  5
9D8
 10
-63.850088
 20
174.835308
 30
0.0
 11
-61.050088
 21
172.035308
 31
0.0
1001
ACAD
1000
RTMaterial
1005
0
  0
LINE
  8
F10_IMG3
  5
9D9
 10
-63.550088
 20
194.535308
 30
0.0
 11
-64.550088
 21
193.535308
 31
0.0
1001
ACAD
1000
RTMaterial
1005
0
  0
LINE
  8
F10_IMG3
  5
9DA
 10
-63.250088
 20
194.535308
 30
0.0
 11
-63.550088
 21
194.535308
 31
0.0
1001
ACAD
1000
RTMaterial
1005
0
  0
LINE
  8
F10_IMG3
  5
9DB
 10
-62.050088
 20
194.635308
 30
0.0
 11
-62.150088
 21
194.535308
 31
0.0
1001
ACAD
1000
RTMaterial
1005
0
  0
LINE
  8
F10_IMG3
  5
9DC
 10
-56.750088
 20
194.535308
 30
0.0
 11
-56.750088
 21
173.135308
 31
0.0
1001
ACAD
1000
RTMaterial
1005
0
  0
LINE
  8
F10_IMG3
  5
9DD
 10
-62.150088
 20
194.535308
 30
0.0
 11
-64.526874
 21
192.158521
 31
0.0
1001
ACAD
1000
RTMaterial
1005
0
  0
LINE
  8
F10_IMG3
  5
9DE
 10
-61.050088
 20
195.635308
 30
0.0
 11
-62.050088
 21
194.635308
 31
0.0
1001
ACAD
1000
RTMaterial
1005
0
  0
LINE
  8
F10_IMG3
  5
9DF
 10
-56.750088
 20
195.135308
 30
0.0
 11
-56.750088
 21
194.835308
 31
0.0
1001
ACAD
1000
RTMaterial
1005
0
  0
LINE
  8
F10_IMG3
  5
9E0
 10
-56.750088
 20
194.835308
 30
0.0
 11
-56.750088
 21
194.635308
 31
0.0
1001
ACAD
1000
RTMaterial
1005
0
  0
LINE
  8
F10_IMG3
  5
9E1
 10
-56.750088
 20
195.135308
 30
0.0
 11
-56.750088
 21
195.448556
 31
0.0
1001
ACAD
1000
RTMaterial
1005
0
  0
LINE
  8
F10_IMG3
  5
9E2
 10
-56.750088
 20
195.448556
 30
0.0
 11
-56.750088
 21
195.635308
 31
0.0
1001
ACAD
1000
RTMaterial
1005
0
  0
LINE
  8
F10_IMG3
  5
9E3
 10
-56.750088
 20
195.635308
 30
0.0
 11
-61.050088
 21
195.635308
 31
0.0
1001
ACAD
1000
RTMaterial
1005
0
  0
LINE
  8
F10_IMG3
  5
9E4
 10
-63.250088
 20
194.535308
 30
0.0
 11
-63.250088
 21
194.635308
 31
0.0
1001
ACAD
1000
RTMaterial
1005
0
  0
LINE
  8
F10_IMG3
  5
9E5
 10
-62.050088
 20
194.635308
 30
0.0
 11
-63.250088
 21
194.635308
 31
0.0
1001
ACAD
1000
RTMaterial
1005
0
  0
LINE
  8
F10_IMG3
  5
9E6
 10
-31.350088
 20
183.035308
 30
0.0
 11
-30.550088
 21
183.035308
 31
0.0
1001
ACAD
1000
RTMaterial
1005
0
  0
LINE
  8
F10_IMG3
  5
9E7
 10
-30.550088
 20
184.635308
 30
0.0
 11
-31.350088
 21
184.635308
 31
0.0
1001
ACAD
1000
RTMaterial
1005
0
  0
LINE
  8
F10_IMG3
  5
9E8
 10
-30.550088
 20
183.035308
 30
0.0
 11
-30.550088
 21
184.635308
 31
0.0
1001
ACAD
1000
RTMaterial
1005
0
  0
LINE
  8
F09_IMG2
  5
9E9
 10
-64.550088
 20
192.835308
 30
0.0
 11
-64.550088
 21
174.835308
 31
0.0
1001
ACAD
1000
RTMaterial
1005
0
  0
LINE
  8
F09_IMG2
  5
9EA
 10
-48.264165
 20
196.335308
 30
0.0
 11
-48.764165
 21
196.335308
 31
0.0
1001
ACAD
1000
RTMaterial
1005
0
  0
LINE
  8
F09_IMG2
  5
9EB
 10
-48.764165
 20
195.902204
 30
0.0
 11
-48.764165
 21
196.335308
 31
0.0
1001
ACAD
1000
RTMaterial
1005
0
  0
LINE
  8
F09_IMG2
  5
9EC
 10
-48.264165
 20
195.190668
 30
0.0
 11
-48.264165
 21
196.335308
 31
0.0
1001
ACAD
1000
RTMaterial
1005
0
  0
LINE
  8
F09_IMG2
  5
9ED
 10
-48.764165
 20
171.335308
 30
0.0
 11
-48.764165
 21
171.768411
 31
0.0
1001
ACAD
1000
RTMaterial
1005
0
  0
LINE
  8
F09_IMG2
  5
9EE
 10
-48.264165
 20
171.335308
 30
0.0
 11
-48.764165
 21
171.335308
 31
0.0
1001
ACAD
1000
RTMaterial
1005
0
  0
LINE
  8
F09_IMG2
  5
9EF
 10
-48.264165
 20
171.335308
 30
0.0
 11
-48.264165
 21
172.479947
 31
0.0
1001
ACAD
1000
RTMaterial
1005
0
  0
ARC
  8
F09_IMG2
  5
9F0
 10
-47.850088
 20
173.335308
 30
0.0
 40
0.3
 50
0.0
 51
90.0
1001
ACAD
1000
RTMaterial
1005
0
  0
ARC
  8
F09_IMG2
  5
9F1
 10
-47.850088
 20
194.335308
 30
0.0
 40
0.3
 50
270.0
 51
0.0
1001
ACAD
1000
RTMaterial
1005
0
  0
ARC
  8
F09_IMG2
  5
9F2
 10
-50.317415
 20
169.835308
 30
0.0
 40
1.0
 50
270.0
 51
345.0
1001
ACAD
1000
RTMaterial
1005
0
  0
ARC
  8
F09_IMG2
  5
9F3
 10
-57.782761
 20
169.835308
 30
0.0
 40
1.0
 50
195.0
 51
270.0
1001
ACAD
1000
RTMaterial
1005
0
  0
ARC
  8
F09_IMG2
  5
9F4
 10
-57.782761
 20
197.835308
 30
0.0
 40
1.0
 50
90.0
 51
165.0
1001
ACAD
1000
RTMaterial
1005
0
  0
ARC
  8
F09_IMG2
  5
9F5
 10
-50.317415
 20
197.835308
 30
0.0
 40
1.0
 50
15.0
 51
90.0
1001
ACAD
1000
RTMaterial
1005
0
  0
LINE
  8
F09_IMG2
  5
9F6
 10
-49.351489
 20
198.094127
 30
0.0
 11
-48.764165
 21
195.902204
 31
0.0
1001
ACAD
1000
RTMaterial
1005
0
  0
LINE
  8
F09_IMG2
  5
9F7
 10
-48.050088
 20
195.435308
 30
0.0
 11
-47.850088
 21
195.235308
 31
0.0
1001
ACAD
1000
RTMaterial
1005
0
  0
LINE
  8
F09_IMG2
  5
9F8
 10
-47.850088
 20
182.435308
 30
0.0
 11
-47.850088
 21
185.235308
 31
0.0
1001
ACAD
1000
RTMaterial
1005
0
  0
LINE
  8
F09_IMG2
  5
9F9
 10
-48.264165
 20
195.190668
 30
0.0
 11
-48.150088
 21
195.435308
 31
0.0
1001
ACAD
1000
RTMaterial
1005
0
  0
LINE
  8
F09_IMG2
  5
9FA
 10
-47.850088
 20
185.235308
 30
0.0
 11
-47.850088
 21
194.035308
 31
0.0
1001
ACAD
1000
RTMaterial
1005
0
  0
LINE
  8
F09_IMG2
  5
9FB
 10
-48.150088
 20
195.435308
 30
0.0
 11
-48.050088
 21
195.435308
 31
0.0
1001
ACAD
1000
RTMaterial
1005
0
  0
LINE
  8
F09_IMG2
  5
9FC
 10
-47.850088
 20
182.435308
 30
0.0
 11
-47.850088
 21
173.635308
 31
0.0
1001
ACAD
1000
RTMaterial
1005
0
  0
LINE
  8
F09_IMG2
  5
9FD
 10
-47.550088
 20
173.335308
 30
0.0
 11
-47.550088
 21
172.735308
 31
0.0
1001
ACAD
1000
RTMaterial
1005
0
  0
LINE
  8
F09_IMG2
  5
9FE
 10
-47.550088
 20
172.735308
 30
0.0
 11
-47.850088
 21
172.435308
 31
0.0
1001
ACAD
1000
RTMaterial
1005
0
  0
LINE
  8
F09_IMG2
  5
9FF
 10
-47.550088
 20
194.335308
 30
0.0
 11
-47.550088
 21
194.935308
 31
0.0
1001
ACAD
1000
RTMaterial
1005
0
  0
LINE
  8
F09_IMG2
  5
A00
 10
-47.850088
 20
195.235308
 30
0.0
 11
-47.550088
 21
194.935308
 31
0.0
1001
ACAD
1000
RTMaterial
1005
0
  0
LINE
  8
F09_IMG2
  5
A01
 10
-49.351489
 20
169.576489
 30
0.0
 11
-48.764165
 21
171.768411
 31
0.0
1001
ACAD
1000
RTMaterial
1005
0
  0
LINE
  8
F09_IMG2
  5
A02
 10
-47.850088
 20
172.435308
 30
0.0
 11
-48.050088
 21
172.235308
 31
0.0
1001
ACAD
1000
RTMaterial
1005
0
  0
LINE
  8
F09_IMG2
  5
A03
 10
-48.264165
 20
172.479947
 30
0.0
 11
-48.150088
 21
172.235308
 31
0.0
1001
ACAD
1000
RTMaterial
1005
0
  0
LINE
  8
F09_IMG2
  5
A04
 10
-48.050088
 20
172.235308
 30
0.0
 11
-48.150088
 21
172.235308
 31
0.0
1001
ACAD
1000
RTMaterial
1005
0
  0
LINE
  8
F09_IMG2
  5
A05
 10
-58.748686
 20
169.576489
 30
0.0
 11
-59.353935
 21
171.835308
 31
0.0
1001
ACAD
1000
RTMaterial
1005
0
  0
LINE
  8
F09_IMG2
  5
A06
 10
-59.353935
 20
171.835308
 30
0.0
 11
-64.550088
 21
174.835308
 31
0.0
1001
ACAD
1000
RTMaterial
1005
0
  0
LINE
  8
F09_IMG2
  5
A07
 10
-50.317415
 20
168.835308
 30
0.0
 11
-57.782761
 21
168.835308
 31
0.0
1001
ACAD
1000
RTMaterial
1005
0
  0
LINE
  8
F09_IMG2
  5
A08
 10
-59.353935
 20
195.835308
 30
0.0
 11
-58.748686
 21
198.094127
 31
0.0
1001
ACAD
1000
RTMaterial
1005
0
  0
LINE
  8
F09_IMG2
  5
A09
 10
-59.353935
 20
195.835308
 30
0.0
 11
-64.550088
 21
192.835308
 31
0.0
1001
ACAD
1000
RTMaterial
1005
0
  0
LINE
  8
F09_IMG2
  5
A0A
 10
-57.782761
 20
198.835308
 30
0.0
 11
-50.317415
 21
198.835308
 31
0.0
1001
ACAD
1000
RTMaterial
1005
0
  0
LINE
  8
F09_IMG2
  5
A0B
 10
-47.750088
 20
184.935308
 30
0.0
 11
-47.750088
 21
185.235308
 31
0.0
1001
ACAD
1000
RTMaterial
1005
0
  0
LINE
  8
F09_IMG2
  5
A0C
 10
-47.750088
 20
185.235308
 30
0.0
 11
-47.850088
 21
185.235308
 31
0.0
1001
ACAD
1000
RTMaterial
1005
0
  0
LINE
  8
F09_IMG2
  5
A0D
 10
-47.750088
 20
184.935308
 30
0.0
 11
-47.750088
 21
182.735308
 31
0.0
1001
ACAD
1000
RTMaterial
1005
0
  0
LINE
  8
F09_IMG2
  5
A0E
 10
-47.750088
 20
182.735308
 30
0.0
 11
-47.750088
 21
182.435308
 31
0.0
1001
ACAD
1000
RTMaterial
1005
0
  0
LINE
  8
F09_IMG2
  5
A0F
 10
-47.850088
 20
182.435308
 30
0.0
 11
-47.750088
 21
182.435308
 31
0.0
1001
ACAD
1000
RTMaterial
1005
0
  0
LINE
  8
F03_CNT
  5
A11
 10
219.81594
 20
210.92624
 30
0.0
 11
219.81594
 21
158.714962
 31
0.0
1001
ACAD
1000
RTMaterial
1005
0
  0
LINE
  8
F03_CNT
  5
A12
 10
245.431243
 20
183.835308
 30
0.0
 11
193.842764
 21
183.835308
 31
0.0
1001
ACAD
1000
RTMaterial
1005
0
  0
LINE
  8
F03_CNT
  5
A13
 10
199.333823
 20
203.835308
 30
0.0
 11
205.500104
 21
203.835308
 31
0.0
1001
ACAD
1000
RTMaterial
1005
0
  0
LINE
  8
F03_CNT
  5
A14
 10
202.31594
 20
207.051833
 30
0.0
 11
202.31594
 21
200.673073
 31
0.0
1001
ACAD
1000
RTMaterial
1005
0
  0
LINE
  8
F03_CNT
  5
A15
 10
234.333823
 20
203.835308
 30
0.0
 11
240.500104
 21
203.835308
 31
0.0
1001
ACAD
1000
RTMaterial
1005
0
  0
LINE
  8
F03_CNT
  5
A16
 10
237.31594
 20
207.051833
 30
0.0
 11
237.31594
 21
200.673073
 31
0.0
1001
ACAD
1000
RTMaterial
1005
0
  0
LINE
  8
F03_CNT
  5
A17
 10
199.333823
 20
163.835308
 30
0.0
 11
205.500104
 21
163.835308
 31
0.0
1001
ACAD
1000
RTMaterial
1005
0
  0
LINE
  8
F03_CNT
  5
A18
 10
202.31594
 20
167.051833
 30
0.0
 11
202.31594
 21
160.673073
 31
0.0
1001
ACAD
1000
RTMaterial
1005
0
  0
LINE
  8
F03_CNT
  5
A19
 10
234.333823
 20
163.835308
 30
0.0
 11
240.500104
 21
163.835308
 31
0.0
1001
ACAD
1000
RTMaterial
1005
0
  0
LINE
  8
F03_CNT
  5
A1A
 10
237.31594
 20
167.051833
 30
0.0
 11
237.31594
 21
160.673073
 31
0.0
1001
ACAD
1000
RTMaterial
1005
0
  0
LINE
  8
F03_CNT
  5
A1B
 10
59.697521
 20
112.767884
 30
0.0
 11
59.697521
 21
130.09922
 31
0.0
1001
ACAD
1000
RTMaterial
1005
0
  0
LINE
  8
F03_CNT
  5
A1C
 10
50.897521
 20
112.767884
 30
0.0
 11
50.897521
 21
130.09922
 31
0.0
1001
ACAD
1000
RTMaterial
1005
0
  0
LINE
  8
F03_CNT
  5
A1D
 10
42.097521
 20
115.748995
 30
0.0
 11
42.097521
 21
125.09922
 31
0.0
1001
ACAD
1000
RTMaterial
1005
0
  0
LINE
  8
F03_CNT
  5
A1E
 10
33.297521
 20
115.748995
 30
0.0
 11
33.297521
 21
125.09922
 31
0.0
1001
ACAD
1000
RTMaterial
1005
0
  0
LINE
  8
F03_CNT
  5
A1F
 10
24.497521
 20
115.748995
 30
0.0
 11
24.497521
 21
125.09922
 31
0.0
1001
ACAD
1000
RTMaterial
1005
0
  0
LINE
  8
F03_CNT
  5
A20
 10
47.097521
 20
117.110308
 30
0.0
 11
63.626996
 21
117.110308
 31
0.0
1001
ACAD
1000
RTMaterial
1005
0
  0
LINE
  8
F03_CNT
  5
A21
 10
46.558899
 20
125.710308
 30
0.0
 11
63.999662
 21
125.710308
 31
0.0
1001
ACAD
1000
RTMaterial
1005
0
  0
LINE
  8
F03_CNT
  5
A22
 10
20.025089
 20
120.710308
 30
0.0
 11
46.3353
 21
120.710308
 31
0.0
1001
ACAD
1000
RTMaterial
1005
0
  0
LINE
  8
F03_CNT
  5
A23
 10
59.497521
 20
163.748995
 30
0.0
 11
59.497521
 21
173.09922
 31
0.0
1001
ACAD
1000
RTMaterial
1005
0
  0
LINE
  8
F03_CNT
  5
A24
 10
50.797521
 20
163.748995
 30
0.0
 11
50.797521
 21
173.09922
 31
0.0
1001
ACAD
1000
RTMaterial
1005
0
  0
LINE
  8
F03_CNT
  5
A25
 10
33.397521
 20
163.748995
 30
0.0
 11
33.397521
 21
173.09922
 31
0.0
1001
ACAD
1000
RTMaterial
1005
0
  0
LINE
  8
F03_CNT
  5
A26
 10
24.697521
 20
163.748995
 30
0.0
 11
24.697521
 21
173.09922
 31
0.0
1001
ACAD
1000
RTMaterial
1005
0
  0
LINE
  8
F03_CNT
  5
A27
 10
59.497521
 20
194.748995
 30
0.0
 11
59.497521
 21
204.09922
 31
0.0
1001
ACAD
1000
RTMaterial
1005
0
  0
LINE
  8
F03_CNT
  5
A28
 10
50.797521
 20
194.748995
 30
0.0
 11
50.797521
 21
204.09922
 31
0.0
1001
ACAD
1000
RTMaterial
1005
0
  0
LINE
  8
F03_CNT
  5
A29
 10
33.397521
 20
194.748995
 30
0.0
 11
33.397521
 21
204.09922
 31
0.0
1001
ACAD
1000
RTMaterial
1005
0
  0
LINE
  8
F03_CNT
  5
A2A
 10
24.697521
 20
194.748995
 30
0.0
 11
24.697521
 21
204.09922
 31
0.0
1001
ACAD
1000
RTMaterial
1005
0
  0
LINE
  8
F03_CNT
  5
A2B
 10
18.785508
 20
168.710308
 30
0.0
 11
65.800017
 21
168.710308
 31
0.0
1001
ACAD
1000
RTMaterial
1005
0
  0
LINE
  8
F03_CNT
  5
A2C
 10
18.785508
 20
199.710308
 30
0.0
 11
65.800017
 21
199.710308
 31
0.0
1001
ACAD
1000
RTMaterial
1005
0
  0
LINE
  8
F03_CNT
  5
A2D
 10
59.897521
 20
140.711271
 30
0.0
 11
59.897521
 21
147.694301
 31
0.0
1001
ACAD
1000
RTMaterial
1005
0
  0
LINE
  8
F03_CNT
  5
A2E
 10
56.497712
 20
144.110308
 30
0.0
 11
63.228148
 21
144.110308
 31
0.0
1001
ACAD
1000
RTMaterial
1005
0
  0
LINE
  8
F03_CNT
  5
A2F
 10
42.097521
 20
157.767739
 30
0.0
 11
42.097521
 21
211.210192
 31
0.0
1001
ACAD
1000
RTMaterial
1005
0
  0
LINE
  8
F03_CNT
  5
A30
 10
17.502826
 20
183.835308
 30
0.0
 11
66.738276
 21
183.835308
 31
0.0
1001
ACAD
1000
RTMaterial
1005
0
  0
LINE
  8
F03_CNT
  5
A31
 10
-128.623982
 20
183.835308
 30
0.0
 11
-25.786047
 21
183.835308
 31
0.0
1001
ACAD
1000
RTMaterial
1005
0
  0
LINE
  8
F03_CNT
  5
A32
 10
-72.854568
 20
199.710308
 30
0.0
 11
-81.796567
 21
199.710308
 31
0.0
1001
ACAD
1000
RTMaterial
1005
0
  0
LINE
  8
F03_CNT
  5
A33
 10
-72.403309
 20
120.710308
 30
0.0
 11
-81.307229
 21
120.710308
 31
0.0
1001
ACAD
1000
RTMaterial
1005
0
  0
LINE
  8
F08_IMG
  5
A5D
 10
-111.550088
 20
170.335308
 30
0.0
 11
-111.550088
 21
167.160308
 31
0.0
1001
ACAD
1000
RTMaterial
1005
0
  0
LINE
  8
F08_IMG
  5
A5E
 10
-111.550088
 20
200.835308
 30
0.0
 11
-111.550088
 21
197.335308
 31
0.0
1001
ACAD
1000
RTMaterial
1005
0
  0
LINE
  8
F08_IMG
  5
A5F
 10
-125.550088
 20
170.335308
 30
0.0
 11
-111.550088
 21
170.335308
 31
0.0
1001
ACAD
1000
RTMaterial
1005
0
  0
LINE
  8
F08_IMG
  5
A60
 10
-124.550088
 20
171.335308
 30
0.0
 11
-110.550088
 21
171.335308
 31
0.0
1001
ACAD
1000
RTMaterial
1005
0
  0
LINE
  8
F08_IMG
  5
A61
 10
-125.550088
 20
197.335308
 30
0.0
 11
-111.550088
 21
197.335308
 31
0.0
1001
ACAD
1000
RTMaterial
1005
0
  0
LINE
  8
F08_IMG
  5
A62
 10
-125.550088
 20
197.335308
 30
0.0
 11
-125.550088
 21
170.335308
 31
0.0
1001
ACAD
1000
RTMaterial
1005
0
  0
LINE
  8
F08_IMG
  5
A63
 10
-124.550088
 20
196.335308
 30
0.0
 11
-110.550088
 21
196.335308
 31
0.0
1001
ACAD
1000
RTMaterial
1005
0
  0
LINE
  8
F08_IMG
  5
A64
 10
-124.550088
 20
196.335308
 30
0.0
 11
-124.550088
 21
171.335308
 31
0.0
1001
ACAD
1000
RTMaterial
1005
0
  0
INSERT
  8
F05_PRO
  5
144A
  2
_DOTSMALL
 10
40.47518
 20
203.061875
 30
0.0
 41
4.64
 42
4.64
 50
329.603074
 43
4.64
1001
ACAD
1000
DSTYLE
1002
{
1070
     6
1000
DOTSMALL
1070
    41
1040
2.32
1070
   341
1005
C00DBB0300000F4F
1070
   344
1005
C83FBB0300000F4F
1002
}
  0
LINE
  8
F05_PRO
  5
18F5
 10
40.47518
 20
203.061875
 30
0.0
 11
6.508983
 21
222.987275
 31
0.0
1001
ACAD
1000
R13OBJECT
1002
{
1005
144A
1002
}
  0
INSERT
  8
F05_PRO
  5
144B
  2
_DOTSMALL
 10
32.259009
 20
202.969558
 30
0.0
 41
4.64
 42
4.64
 50
322.138995
 43
4.64
1001
ACAD
1000
DSTYLE
1002
{
1070
     6
1000
DOTSMALL
1070
    41
1040
2.32
1070
   341
1005
D425BB0300000F4F
1070
   344
1005
4008BB0300000F4F
1002
}
  0
LINE
  8
F05_PRO
  5
18F6
 10
32.259009
 20
202.969558
 30
0.0
 11
6.508983
 21
222.987275
 31
0.0
1001
ACAD
1000
R13OBJECT
1002
{
1005
144B
1002
}
  0
INSERT
  8
F05_PRO
  5
144C
  2
_DOTSMALL
 10
60.875364
 20
200.637909
 30
0.0
 41
4.64
 42
4.64
 50
234.252962
 43
4.64
1001
ACAD
1000
DSTYLE
1002
{
1070
     6
1000
DOTSMALL
1070
    41
1040
2.32
1070
   341
1005
FC2BBB0300000F4F
1070
   344
1005
9003BB0300000F4F
1002
}
  0
POLYLINE
  8
F05_PRO
  5
18F7
 66
     1
 10
0.0
 20
0.0
 30
0.0
 70
   128
1001
ACAD
1000
R13OBJECT
1002
{
1005
144C
1002
}
  0
VERTEX
  8
F05_PRO
  5
18F8
 10
60.875364
 20
200.637909
 30
0.0
  0
VERTEX
  8
F05_PRO
  5
18F9
 10
74.975833
 20
220.226831
 30
0.0
  0
VERTEX
  8
F05_PRO
  5
18FA
 10
90.220108
 20
220.226831
 30
0.0
  0
SEQEND
  8
F05_PRO
  5
18FB
  0
INSERT
  8
F05_PRO
  5
144D
  2
_DOTSMALL
 10
51.792399
 20
201.660675
 30
0.0
 41
4.64
 42
4.64
 50
241.762128
 43
4.64
1001
ACAD
1000
DSTYLE
1002
{
1070
     6
1000
DOTSMALL
1070
    41
1040
2.32
1070
   341
1005
503CBB0300000F4F
1070
   344
1005
F02BBB0300000F4F
1002
}
  0
POLYLINE
  8
F05_PRO
  5
18FC
 66
     1
 10
0.0
 20
0.0
 30
0.0
 70
   128
1001
ACAD
1000
R13OBJECT
1002
{
1005
144D
1002
}
  0
VERTEX
  8
F05_PRO
  5
18FD
 10
51.792399
 20
201.660675
 30
0.0
  0
VERTEX
  8
F05_PRO
  5
18FE
 10
72.554747
 20
240.320907
 30
0.0
  0
VERTEX
  8
F05_PRO
  5
18FF
 10
88.372894
 20
240.320907
 30
0.0
  0
SEQEND
  8
F05_PRO
  5
1900
  0
INSERT
  8
F05_PRO
  5
144E
  2
_DOTSMALL
 10
22.886612
 20
202.770048
 30
0.0
 41
4.64
 42
4.64
 50
309.010339
 43
4.64
1001
ACAD
1000
DSTYLE
1002
{
1070
     6
1000
DOTSMALL
1070
    41
1040
2.32
1070
   341
1005
4807BB0300000F4F
1070
   344
1005
443CBB0300000F4F
1002
}
  0
POLYLINE
  8
F05_PRO
  5
1901
 66
     1
 10
0.0
 20
0.0
 30
0.0
 70
   128
1001
ACAD
1000
R13OBJECT
1002
{
1005
144E
1002
}
  0
VERTEX
  8
F05_PRO
  5
1902
 10
22.886612
 20
202.770048
 30
0.0
  0
VERTEX
  8
F05_PRO
  5
1903
 10
6.508983
 20
222.987275
 30
0.0
  0
VERTEX
  8
F05_PRO
  5
1904
 10
-7.541263
 20
222.987275
 30
0.0
  0
SEQEND
  8
F05_PRO
  5
1905
  0
ARC
  8
F05_PRO
  5
145C
 10
-96.167972
 20
5.987138
 30
0.0
 40
7.56
 50
182.729155
 51
279.960292
1001
ACAD
1000
ASC_BOUNDS
1002
{
1070
    19
1002
}
  0
ARC
  8
F05_PRO
  5
145D
 10
-111.102622
 20
13.637171
 30
0.0
 40
3.15
 50
90.0
 51
168.003101
  0
LINE
  8
F05_PRO
  5
145E
 10
-112.050018
 20
-1.212829
 30
0.0
 11
-110.596518
 21
5.627171
 31
0.0
  0
LINE
  8
F05_PRO
  5
145F
 10
-117.478583
 20
-1.212829
 30
0.0
 11
-114.183822
 21
14.291926
 31
0.0
  0
LINE
  8
F05_PRO
  5
1460
 10
-117.478583
 20
-1.212829
 30
0.0
 11
-112.050018
 21
-1.212829
 31
0.0
  0
ARC
  8
F05_PRO
  5
1461
 10
-93.136048
 20
9.581347
 30
0.0
 40
6.383113
 50
2.961866
 51
93.426847
  0
ARC
  8
F05_PRO
  5
1462
 10
-93.106954
 20
9.656208
 30
0.0
 40
7.490936
 50
1.499529
 51
100.57959
1001
ACAD
1000
ASC_BOUNDS
1002
{
1070
    19
1002
}
  0
LINE
  8
F05_PRO
  5
1463
 10
-109.686168
 20
9.911171
 30
0.0
 11
-109.355715
 21
11.466244
 31
0.0
  0
ARC
  8
F05_PRO
  5
1464
 10
-92.792117
 20
5.855519
 30
0.0
 40
10.898671
 50
144.533818
 51
158.153358
  0
POLYLINE
  8
F05_PRO
  5
1465
 66
     1
 10
0.0
 20
0.0
 30
0.0
 70
   128
  0
VERTEX
  8
F05_PRO
  5
1906
 10
-93.517593
 20
15.953047
 30
0.0
  0
VERTEX
  8
F05_PRO
  5
1907
 10
-95.066719
 20
15.729942
 30
0.0
  0
VERTEX
  8
F05_PRO
  5
1908
 10
-96.587874
 20
15.189174
 30
0.0
  0
VERTEX
  8
F05_PRO
  5
1909
 10
-98.031841
 20
14.348241
 30
0.0
  0
VERTEX
  8
F05_PRO
  5
190A
 10
-99.351903
 20
13.23435
 30
0.0
  0
VERTEX
  8
F05_PRO
  5
190B
 10
-100.505347
 20
11.883541
 30
0.0
  0
VERTEX
  8
F05_PRO
  5
190C
 10
-101.454857
 20
10.339517
 30
0.0
  0
VERTEX
  8
F05_PRO
  5
190D
 10
-102.169709
 20
8.652237
 30
0.0
  0
SEQEND
  8
F05_PRO
  5
190E
  0
LINE
  8
F05_PRO
  5
1466
 10
-100.072278
 20
8.615171
 30
0.0
 11
-85.618583
 21
8.615171
 31
0.0
  0
LINE
  8
F05_PRO
  5
1467
 10
-99.797401
 20
9.911171
 30
0.0
 11
-86.761462
 21
9.911171
 31
0.0
  0
ARC
  8
F05_PRO
  5
1468
 10
-96.907166
 20
9.553065
 30
0.0
 40
10.103488
 50
280.279158
 51
339.332945
1001
ACAD
1000
ASC_BOUNDS
1002
{
1070
    19
1002
}
  0
ARC
  8
F05_PRO
  5
1469
 10
-96.590327
 20
9.26992
 30
0.0
 40
10.867416
 50
279.159834
 51
342.417868
1001
ACAD
1000
ASC_BOUNDS
1002
{
1070
    19
1002
}
  0
LINE
  8
F05_PRO
  5
146A
 10
-99.797401
 20
9.911171
 30
0.0
 11
-100.072278
 21
8.615171
 31
0.0
  0
LINE
  8
F05_PRO
  5
146B
 10
-109.686168
 20
9.911171
 30
0.0
 11
-102.90808
 21
9.911171
 31
0.0
  0
POLYLINE
  8
F05_PRO
  5
146C
 66
     1
 10
0.0
 20
0.0
 30
0.0
 70
   128
  0
VERTEX
  8
F05_PRO
  5
190F
 10
-102.169709
 20
8.652237
 30
0.0
  0
VERTEX
  8
F05_PRO
  5
1910
 10
-102.508678
 20
7.110243
 30
0.0
  0
VERTEX
  8
F05_PRO
  5
1911
 10
-102.581276
 20
5.604355
 30
0.0
  0
SEQEND
  8
F05_PRO
  5
1912
  0
LINE
  8
F05_PRO
  5
146D
 10
-110.596518
 20
5.627171
 30
0.0
 11
-103.719398
 21
5.627171
 31
0.0
  0
ARC
  8
F05_PRO
  5
146E
 10
-95.859139
 20
6.328645
 30
0.0
 40
6.759194
 50
186.002385
 51
276.412304
1001
ACAD
1000
ASC_BOUNDS
1002
{
1070
    19
1002
}
  0
LINE
  8
F05_PRO
  5
146F
 10
-86.230583
 20
5.987171
 30
0.0
 11
-87.453866
 21
5.987171
 31
0.0
  0
LINE
  8
F05_PRO
  5
1470
 10
-85.618583
 20
8.615171
 30
0.0
 11
-85.618583
 21
9.852236
 31
0.0
  0
LINE
  8
F05_PRO
  5
1471
 10
-99.793583
 20
16.787171
 30
0.0
 11
-100.387583
 21
13.894065
 31
0.0
  0
ARC
  8
F05_PRO
  5
1472
 10
-93.006974
 20
7.090682
 30
0.0
 40
10.037899
 50
98.442625
 51
137.3304
1001
ACAD
1000
ASC_BOUNDS
1002
{
1070
    19
1002
}
  0
LINE
  8
F05_PRO
  5
1473
 10
-108.475372
 20
12.179171
 30
0.0
 11
-101.668628
 21
12.179171
 31
0.0
  0
ARC
  8
F05_PRO
  5
1474
 10
-108.475372
 20
11.279171
 30
0.0
 40
0.9
 50
90.0
 51
168.003101
  0
LINE
  8
F05_PRO
  5
1475
 10
-111.102622
 20
16.787171
 30
0.0
 11
-99.793583
 21
16.787171
 31
0.0
  0
TEXT
  8
F05_PRO
  5
1476
 10
-31.159478
 20
-1.547323
 30
0.0
 40
6.0
  1
SK06AW, SK06GW, SK06LW
 41
0.8
  7
FSTD1
  0
TEXT
  8
F05_PRO
  5
1477
 10
-67.611215
 20
-1.547323
 30
0.0
 40
6.0
  1
Type
  7
FSTD1
  0
TEXT
  8
F05_PRO
  5
1478
 10
217.434808
 20
-24.788252
 30
0.0
 40
4.0
  1
図面番号
  7
FSTD1
  0
LINE
  8
F05_PRO
  5
1479
 10
115.570261
 20
-18.678349
 30
0.0
 11
267.555061
 21
-18.678349
 31
0.0
  0
LINE
  8
F05_PRO
  5
147A
 10
115.570261
 20
-26.677549
 30
0.0
 11
267.555061
 21
-26.677549
 31
0.0
  0
LINE
  8
F05_PRO
  5
147B
 10
115.570261
 20
-34.676749
 30
0.0
 11
267.555061
 21
-34.676749
 31
0.0
  0
LINE
  8
F05_PRO
  5
147C
 10
115.570261
 20
-42.675949
 30
0.0
 11
267.555061
 21
-42.675949
 31
0.0
  0
LINE
  8
F05_PRO
  5
147D
 10
115.570261
 20
-50.675149
 30
0.0
 11
267.555061
 21
-50.675149
 31
0.0
  0
LINE
  8
F05_PRO
  5
147E
 10
163.565461
 20
-18.678349
 30
0.0
 11
163.565461
 21
-50.675149
 31
0.0
  0
LINE
  8
F05_PRO
  5
147F
 10
203.561461
 20
-18.678349
 30
0.0
 11
203.561461
 21
-50.675149
 31
0.0
  0
LINE
  8
F05_PRO
  5
1480
 10
115.570261
 20
-18.678349
 30
0.0
 11
115.570261
 21
-50.675149
 31
0.0
  0
LINE
  8
F05_PRO
  5
1481
 10
131.568661
 20
-18.678349
 30
0.0
 11
131.568661
 21
-50.675149
 31
0.0
  0
TEXT
  8
F05_PRO
  5
1482
 10
119.464894
 20
-40.465077
 30
0.0
 40
4.0
  1
変更
  7
FSTD1
  0
TEXT
  8
F05_PRO
  5
1483
 10
119.464894
 20
-32.908834
 30
0.0
 40
4.0
  1
作成
  7
FSTD1
  0
TEXT
  8
F05_PRO
  5
1484
 10
166.294377
 20
-32.908834
 30
0.0
 40
4.0
  1
SK06AW
  7
FSTD1
  0
TEXT
  8
F05_PRO
  5
1485
 10
177.342527
 20
-24.788252
 30
0.0
 40
4.0
  1
ﾌｧｲﾙ名
  7
FSTD1
  0
TEXT
  8
F05_PRO
  5
1486
 10
135.718157
 20
-32.908834
 30
0.0
 40
4.0
  1
2011-10
  7
FSTD1
  0
TEXT
  8
F05_PRO
  5
1487
 10
142.711548
 20
-24.788252
 30
0.0
 40
4.0
  1
日付
  7
FSTD1
  0
LINE
  8
F05_PRO
  5
1488
 10
267.555061
 20
-18.678349
 30
0.0
 11
267.555061
 21
-50.675149
 31
0.0
  0
LINE
  8
F05_PRO
  5
1489
 10
251.556661
 20
-18.678349
 30
0.0
 11
251.556661
 21
-50.675149
 31
0.0
  0
TEXT
  8
F05_PRO
  5
148A
 10
255.730608
 20
-24.788252
 30
0.0
 40
4.0
  1
変更
  7
FSTD1
  0
TEXT
  8
F05_PRO
  5
148B
 10
-113.219787
 20
47.938823
 30
0.0
 40
4.0
  1
※1 : 補助接点ユニット(SZ1KA□)(ヘッドオン)を取り付けた場合
  7
FSTD1
  0
TEXT
  8
F05_PRO
  5
148C
 10
-113.219787
 20
41.470809
 30
0.0
 40
4.0
  1
※2 : 補助接点ユニット(SZ1FA□)(ヘッドオン)を取り付けた場合
  7
FSTD1
  0
TEXT
  8
F05_PRO
  5
149D
 10
-7.146767
 20
229.1931
 30
0.0
 40
4.0
  1
主端子
  7
FSTD1
  0
TEXT
  8
F05_PRO
  5
149E
 10
-6.738651
 20
223.949151
 30
0.0
 40
4.0
  1
M3.5
  7
FSTD1
  0
TEXT
  8
F05_PRO
  5
149F
 10
73.890411
 20
247.053251
 30
0.0
 40
4.0
  1
補助端子
  7
FSTD1
  0
TEXT
  8
F05_PRO
  5
14A0
 10
74.370497
 20
242.18148
 30
0.0
 40
4.0
  1
M3.5
  7
FSTD1
  0
TEXT
  8
F05_PRO
  5
14A1
 10
74.902535
 20
226.130913
 30
0.0
 40
4.0
  1
コイル端子
  7
FSTD1
  0
TEXT
  8
F05_PRO
  5
14A2
 10
75.494999
 20
221.465112
 30
0.0
 40
4.0
  1
M3.5
  7
FSTD1
  0
TEXT
  8
F05_PRO
  5
14A9
 10
176.244094
 20
86.678341
 30
0.0
 40
4.0
  1
対角線の取付穴2ヵ所で取付けてください。
  7
FSTD1
  0
TEXT
  8
F05_PRO
  5
14AC
 10
-31.159478
 20
-11.186989
 30
0.0
 40
6.0
  1
SK09AW, SK09GW, SK09LW
 41
0.8
  7
FSTD1
  0
TEXT
  8
F05_PRO
  5
14AD
 10
-31.159478
 20
-20.667888
 30
0.0
 40
6.0
  1
SK12AW, SK12GW, SK12LW
 41
0.8
  7
FSTD1
  0
TEXT
  8
F05_PRO
  5
14AE
 10
206.290377
 20
-32.908834
 30
0.0
 40
4.0
  1
F0A0 03 22(5)
  7
FSTD1
  0
TEXT
  8
F05_PRO
  5
1546
 10
-79.476632
 20
76.385694
 30
0.0
 40
4.0
  1
A寸法
  7
FSTD1
  0
TEXT
  8
F05_PRO
  5
1547
 10
-79.476632
 20
70.396067
 30
0.0
 40
4.0
  1
・手動リセット状態 : 5mm
  7
FSTD1
  0
TEXT
  8
F05_PRO
  5
1548
 10
-79.476632
 20
64.491413
 30
0.0
 40
4.0
  1
・自動リセット状態 : 2mm
  7
FSTD1
  0
DIMENSION
  8
F02_DIM
  5
15EC
  2
*D2
 10
-107.550088
 20
216.311492
 30
0.0
 11
-110.550088
 21
219.311492
 31
0.0
 13
-113.550088
 23
208.210308
 33
0.0
 14
-107.550088
 24
207.710308
 34
0.0
  3
FSTD1
1001
ACAD
1000
DSTYLE
1002
{
1070
    40
1040
1.0
1002
}
  0
DIMENSION
  8
F02_DIM
  5
15F9
  2
*D3
 10
-77.550088
 20
225.616077
 30
0.0
 11
-95.550088
 21
228.616077
 31
0.0
 13
-113.550088
 23
208.210308
 33
0.0
 14
-77.550088
 24
204.710308
 34
0.0
  3
FSTD1
1001
ACAD
1000
DSTYLE
1002
{
1070
    40
1040
1.0
1002
}
  0
DIMENSION
  8
F02_DIM
  5
1606
  2
*D4
 10
-64.550088
 20
235.348866
 30
0.0
 11
-89.050088
 21
238.348866
 31
0.0
 13
-113.550088
 23
208.210308
 33
0.0
 14
-64.550088
 24
195.710308
 34
0.0
  3
FSTD1
1001
ACAD
1000
DSTYLE
1002
{
1070
    40
1040
1.0
1002
}
  0
DIMENSION
  8
F02_DIM
  5
1613
  2
*D5
 10
-64.550088
 20
245.67471
 30
0.0
 11
-107.536247
 21
245.67471
 31
0.0
 70
   128
 13
-125.550088
 23
197.335308
 33
0.0
 14
-64.550088
 24
195.710308
 34
0.0
  3
FSTD1
1001
ACAD
1000
DSTYLE
1002
{
1070
    40
1040
1.0
1002
}
  0
DIMENSION
  8
F02_DIM
  5
1620
  2
*D6
 10
-47.550088
 20
235.348866
 30
0.0
 11
-56.050088
 21
238.348866
 31
0.0
  1
(<>)
 13
-64.550088
 23
195.710308
 33
0.0
 14
-47.550088
 24
194.935308
 34
0.0
  3
FSTD1
1001
ACAD
1000
DSTYLE
1002
{
1070
    40
1040
1.0
1002
}
  0
DIMENSION
  8
F02_DIM
  5
162D
  2
*D7
 10
-30.550088
 20
245.713655
 30
0.0
 11
-47.550088
 21
248.713655
 31
0.0
  1
(<>)
 13
-64.550088
 23
195.710308
 33
0.0
 14
-30.550088
 24
184.635308
 34
0.0
  3
FSTD1
1001
ACAD
1000
DSTYLE
1002
{
1070
    40
1040
1.0
1002
}
  0
DIMENSION
  8
F02_DIM
  5
1650
  2
*D8
 10
-76.250088
 20
98.225411
 30
0.0
 11
-94.900088
 21
101.225411
 31
0.0
  1
37
 13
-113.550088
 23
160.210308
 33
0.0
 14
-76.250088
 24
115.710308
 34
0.0
  3
FSTD1
1001
ACAD
1000
DSTYLE
1002
{
1070
    40
1040
1.0
1002
}
  0
DIMENSION
  8
F02_DIM
  5
1668
  2
*D9
 10
-63.050088
 20
86.658395
 30
0.0
 11
-88.300088
 21
89.658395
 31
0.0
  1
50
 13
-113.550088
 23
160.210308
 33
0.0
 14
-63.050088
 24
120.710308
 34
0.0
  3
FSTD1
1001
ACAD
1000
DSTYLE
1002
{
1070
    40
1040
1.0
1002
}
  0
DIMENSION
  8
F02_DIM
  5
1682
  2
*D10
 10
-58.650088
 20
86.658395
 30
0.0
 11
-50.316755
 21
89.658395
 31
0.0
  1
A
 13
-63.050088
 23
119.710308
 33
0.0
 14
-58.650088
 24
141.860818
 34
0.0
  3
FSTD1
1001
ACAD
1000
DSTYLE
1002
{
1070
    40
1040
1.0
1002
}
  0
TEXT
  8
F02_DIM
  5
1690
 10
-39.664896
 20
247.342442
 30
0.0
 40
4.0
  1
※1
 41
0.8
  7
FSTD2
  0
DIMENSION
  8
F02_DIM
  5
169E
  2
*D11
 10
42.097521
 20
103.817282
 30
0.0
 11
37.84029
 21
103.817282
 31
0.0
 70
   128
  1
8.7
 13
33.297521
 23
111.137044
 33
0.0
 14
42.097521
 24
111.260311
 34
0.0
  3
FSTD2
1001
ACAD
1000
DSTYLE
1002
{
1070
    40
1040
1.0
1002
}
  0
DIMENSION
  8
F02_DIM
  5
16C4
  2
*D12
 10
55.797521
 20
95.107113
 30
0.0
 11
45.597521
 21
95.107113
 31
0.0
 12
-21.752392
 22
0.0
 32
0.0
 70
   128
  1
7.7
 13
63.597521
 23
111.210308
 33
0.0
 14
55.797521
 24
111.210308
 34
0.0
  3
FSTD2
1001
ACAD
1000
DSTYLE
1002
{
1070
    40
1040
1.0
1002
}
  0
DIMENSION
  8
F02_DIM
  5
171D
  2
*D13
 10
33.397521
 20
226.82492
 30
0.0
 11
29.047521
 21
229.82492
 31
0.0
 12
-21.752392
 22
0.0
 32
0.0
 13
24.697521
 23
204.09922
 33
0.0
 14
33.397521
 24
204.09922
 34
0.0
  3
FSTD2
1001
ACAD
1000
DSTYLE
1002
{
1070
    40
1040
1.0
1002
}
  0
DIMENSION
  8
F02_DIM
  5
172C
  2
*D14
 10
45.972521
 20
218.895573
 30
0.0
 11
42.097521
 21
218.895573
 31
0.0
 12
-21.752392
 22
0.0
 32
0.0
 70
   128
  1
7.7
 13
38.222521
 23
207.910308
 33
0.0
 14
45.972521
 24
207.910308
 34
0.0
  3
FSTD2
1001
ACAD
1000
DSTYLE
1002
{
1070
    40
1040
1.0
1002
}
  0
DIMENSION
  8
F02_DIM
  5
1753
  2
*D15
 10
64.597521
 20
235.348866
 30
0.0
 11
42.097521
 21
238.348866
 31
0.0
 12
-21.752392
 22
0.0
 32
0.0
 13
19.597521
 23
207.910308
 33
0.0
 14
64.597521
 24
207.910308
 34
0.0
  3
FSTD1
1001
ACAD
1000
DSTYLE
1002
{
1070
    40
1040
1.0
1002
}
  0
DIMENSION
  8
F02_DIM
  5
1760
  2
*D16
 10
59.897521
 20
86.658395
 30
0.0
 11
39.747521
 21
89.658395
 31
0.0
  1
40.5
 13
19.597521
 23
112.310308
 33
0.0
 14
59.897521
 24
140.711271
 34
0.0
  3
FSTD1
1001
ACAD
1000
DSTYLE
1002
{
1070
    40
1040
1.0
1002
}
  0
DIMENSION
  8
F02_DIM
  5
1785
  2
*D17
 10
11.4725
 20
120.710308
 30
0.0
 11
8.4725
 21
160.210308
 31
0.0
 12
-21.752392
 22
0.0
 32
0.0
 13
18.785508
 23
199.710308
 33
0.0
 14
20.025089
 24
120.710308
 34
0.0
 50
90.0
  3
FSTD1
1001
ACAD
1000
DSTYLE
1002
{
1070
    40
1040
1.0
1002
}
  0
DIMENSION
  8
F02_DIM
  5
1792
  2
*D18
 10
82.159339
 20
199.710308
 30
0.0
 11
79.159339
 21
203.960308
 31
0.0
 13
64.297521
 23
208.210308
 33
0.0
 14
65.800017
 24
199.710308
 34
0.0
 50
90.0
  3
FSTD2
1001
ACAD
1000
DSTYLE
1002
{
1070
    40
1040
1.0
1002
}
  0
DIMENSION
  8
F02_DIM
  5
179F
  2
*D19
 10
82.159339
 20
168.710308
 30
0.0
 11
79.159339
 21
184.210308
 31
0.0
 13
65.800017
 23
199.710308
 33
0.0
 14
65.800017
 24
168.710308
 34
0.0
 50
90.0
  3
FSTD1
1001
ACAD
1000
DSTYLE
1002
{
1070
    40
1040
1.0
1002
}
  0
DIMENSION
  8
F02_DIM
  5
17AC
  2
*D20
 10
91.482909
 20
160.210308
 30
0.0
 11
88.482909
 21
184.210308
 31
0.0
 13
64.297521
 23
208.210308
 33
0.0
 14
64.297521
 24
160.210308
 34
0.0
 50
90.0
  3
FSTD1
1001
ACAD
1000
DSTYLE
1002
{
1070
    40
1040
1.0
1002
}
  0
DIMENSION
  8
F02_DIM
  5
17B9
  2
*D21
 10
100.682165
 20
144.110308
 30
0.0
 11
97.682165
 21
176.160308
 31
0.0
  1
64
 13
64.297521
 23
208.210308
 33
0.0
 14
63.228148
 24
144.110308
 34
0.0
 50
90.0
  3
FSTD1
1001
ACAD
1000
DSTYLE
1002
{
1070
    40
1040
1.0
1002
}
  0
DIMENSION
  8
F02_DIM
  5
17D1
  2
*D22
 10
110.254365
 20
110.910308
 30
0.0
 11
107.254365
 21
159.560308
 31
0.0
  1
97.5
 13
64.297521
 23
208.210308
 33
0.0
 14
64.297521
 24
110.910308
 34
0.0
 50
90.0
  3
FSTD1
1001
ACAD
1000
DSTYLE
1002
{
1070
    40
1040
1.0
1002
}
  0
TEXT
  8
F05_PRO
  5
17DE
 10
-6.859901
 20
106.023066
 30
0.0
 40
4.0
  1
主端子
 50
360.0
  7
FSTD1
  0
TEXT
  8
F05_PRO
  5
17DF
 10
-6.451785
 20
100.779118
 30
0.0
 40
4.0
  1
M3.5
 50
360.0
  7
FSTD1
  0
INSERT
  8
F05_PRO
  5
17E0
  2
_DOTSMALL
 10
22.804669
 20
122.148998
 30
0.0
 41
4.64
 42
4.64
 50
57.107945
 43
4.64
1001
ACAD
1000
DSTYLE
1002
{
1070
     6
1000
DOTSMALL
1070
    41
1040
2.32
1070
   341
1005
B03FBB0300000F4F
1070
   344
1005
3C07BB0300000F4F
1002
}
  0
POLYLINE
  8
F05_PRO
  5
1913
 66
     1
 10
0.0
 20
0.0
 30
0.0
 70
   128
1001
ACAD
1000
R13OBJECT
1002
{
1005
17E0
1002
}
  0
VERTEX
  8
F05_PRO
  5
1914
 10
22.804669
 20
122.148998
 30
0.0
  0
VERTEX
  8
F05_PRO
  5
1915
 10
8.362
 20
99.817242
 30
0.0
  0
VERTEX
  8
F05_PRO
  5
1916
 10
-8.616942
 20
99.817242
 30
0.0
  0
SEQEND
  8
F05_PRO
  5
1917
  0
INSERT
  8
F05_PRO
  5
17E1
  2
_DOTSMALL
 10
31.353839
 20
122.313355
 30
0.0
 41
4.64
 42
4.64
 50
44.375618
 43
4.64
1001
ACAD
1000
DSTYLE
1002
{
1070
     6
1000
DOTSMALL
1070
    41
1040
2.32
1070
   341
1005
A80DBB0300000F4F
1070
   344
1005
A43FBB0300000F4F
1002
}
  0
LINE
  8
F05_PRO
  5
1918
 10
31.353839
 20
122.313355
 30
0.0
 11
8.362
 21
99.817242
 31
0.0
1001
ACAD
1000
R13OBJECT
1002
{
1005
17E1
1002
}
  0
INSERT
  8
F05_PRO
  5
17E2
  2
_DOTSMALL
 10
40.848352
 20
119.313831
 30
0.0
 41
4.64
 42
4.64
 50
30.969952
 43
4.64
1001
ACAD
1000
DSTYLE
1002
{
1070
     6
1000
DOTSMALL
1070
    41
1040
2.32
1070
   341
1005
5C16BB0300000F4F
1070
   344
1005
9C0DBB0300000F4F
1002
}
  0
LINE
  8
F05_PRO
  5
1919
 10
40.848352
 20
119.313831
 30
0.0
 11
8.362
 21
99.817242
 31
0.0
1001
ACAD
1000
R13OBJECT
1002
{
1005
17E2
1002
}
  0
INSERT
  8
F05_PRO
  5
17E3
  2
_DOTSMALL
 10
60.600349
 20
118.436788
 30
0.0
 41
4.64
 42
4.64
 50
143.097771
 43
4.64
1001
ACAD
1000
DSTYLE
1002
{
1070
     6
1000
DOTSMALL
1070
    41
1040
2.32
1070
   341
1005
1C07BB0300000F4F
1070
   344
1005
1C08BB0300000F4F
1002
}
  0
POLYLINE
  8
F05_PRO
  5
191A
 66
     1
 10
0.0
 20
0.0
 30
0.0
 70
   128
1001
ACAD
1000
R13OBJECT
1002
{
1005
17E3
1002
}
  0
VERTEX
  8
F05_PRO
  5
191B
 10
60.600349
 20
118.436788
 30
0.0
  0
VERTEX
  8
F05_PRO
  5
191C
 10
111.130408
 20
80.494672
 30
0.0
  0
VERTEX
  8
F05_PRO
  5
191D
 10
140.224926
 20
80.494672
 30
0.0
  0
SEQEND
  8
F05_PRO
  5
191E
  0
TEXT
  8
F05_PRO
  5
17E4
 10
112.828911
 20
83.430499
 30
0.0
 40
4.0
  1
M3.5(NO)
  7
FSTD1
  0
TEXT
  8
F05_PRO
  5
17E5
 10
112.348825
 20
88.302271
 30
0.0
 40
4.0
  1
補助端子
  7
FSTD1
  0
TEXT
  8
F05_PRO
  5
17E6
 10
112.53414
 20
105.160885
 30
0.0
 40
4.0
  1
補助端子
  7
FSTD1
  0
TEXT
  8
F05_PRO
  5
17E7
 10
113.014226
 20
100.289113
 30
0.0
 40
4.0
  1
M3.5(NC)
  7
FSTD1
  0
INSERT
  8
F02_DIM
  5
17F5
  2
_DOT
 10
51.387419
 20
116.695612
 30
0.0
 50
148.78646
1001
ACAD
1000
DSTYLE
1002
{
1070
    40
1040
1.0
1002
}
  0
LINE
  8
F02_DIM
  5
191F
 10
52.242661
 20
116.177383
 30
0.0
 11
111.130408
 21
80.494672
 31
0.0
1001
ACAD
1000
R13OBJECT
1002
{
1005
17F5
1002
}
  0
INSERT
  8
F02_DIM
  5
17F6
  2
_DOT
 10
51.78407
 20
124.682315
 30
0.0
 50
155.994132
1001
ACAD
1000
DSTYLE
1002
{
1070
    40
1040
1.0
1002
}
  0
LINE
  8
F02_DIM
  5
1920
 10
52.697574
 20
124.275485
 30
0.0
 11
111.27675
 21
98.187166
 31
0.0
1001
ACAD
1000
R13OBJECT
1002
{
1005
17F6
1002
}
  0
INSERT
  8
F02_DIM
  5
17F7
  2
_DOT
 10
61.592572
 20
126.953415
 30
0.0
 50
149.929928
1001
ACAD
1000
DSTYLE
1002
{
1070
    40
1040
1.0
1002
}
  0
LINE
  8
F02_DIM
  5
1921
 10
62.457985
 20
126.452356
 30
0.0
 11
111.27675
 21
98.187166
 31
0.0
1001
ACAD
1000
R13OBJECT
1002
{
1005
17F7
1002
}
  0
LINE
  8
F02_DIM
  5
17F8
 10
111.27675
 20
98.187166
 30
0.0
 11
140.578616
 21
98.187166
 31
0.0
  0
TEXT
  8
F05_PRO
  5
1806
 10
116.391199
 20
132.0229
 30
0.0
 40
4.0
  1
トリップ表示
  7
FSTD1
  0
TEXT
  8
F05_PRO
  5
1807
 10
116.019927
 20
126.109419
 30
0.0
 40
4.0
  1
（シーケンスチェック）
 41
0.8
  7
FSTD2
  0
INSERT
  8
F05_PRO
  5
1809
  2
_DOT
 10
61.314184
 20
133.071593
 30
0.0
 50
169.603062
1001
ACAD
1000
DSTYLE
1002
{
1070
    40
1040
1.0
1002
}
  0
LINE
  8
F05_PRO
  5
1922
 10
62.297765
 20
132.891127
 30
0.0
 11
115.647492
 21
123.102567
 31
0.0
1001
ACAD
1000
R13OBJECT
1002
{
1005
1809
1002
}
  0
LINE
  8
F05_PRO
  5
180A
 10
115.647492
 20
123.102567
 30
0.0
 11
159.439966
 21
123.102567
 31
0.0
  0
DIMENSION
  8
F02_DIM
  5
182D
  2
*D25
 10
237.31594
 20
217.585834
 30
0.0
 11
219.81594
 21
221.585834
 31
0.0
 12
-58.604126
 22
0.0
 32
0.0
 13
202.31594
 23
207.051833
 33
0.0
 14
237.31594
 24
167.051833
 34
0.0
  3
FSTD4
1001
ACAD
1000
DSTYLE
1002
{
1070
    40
1040
1.0
1002
}
  0
DIMENSION
  8
F02_DIM
  5
183E
  2
*D26
 10
257.941954
 20
163.835308
 30
0.0
 11
253.941954
 21
183.835308
 31
0.0
 12
-58.604126
 22
0.0
 32
0.0
 13
240.500104
 23
203.835308
 33
0.0
 14
205.500104
 24
163.835308
 34
0.0
 50
90.0
  3
FSTD4
1001
ACAD
1000
DSTYLE
1002
{
1070
    40
1040
1.0
1002
}
  0
TEXT
  8
F02_DIM
  5
183F
 10
251.428925
 20
224.529539
 30
0.0
 40
4.0
  1
取付穴
  7
FSTD1
  0
TEXT
  8
F02_DIM
  5
1840
 10
251.428925
 20
218.907127
 30
0.0
 40
4.0
  1
2xM4
  7
FSTD1
  0
INSERT
  8
F02_DIM
  5
1841
  2
_OPEN30
 10
238.676419
 20
205.214268
 30
0.0
 41
3.0
 42
3.0
 50
229.412231
 43
3.0
1001
ACAD
1000
DSTYLE
1002
{
1070
    40
1040
1.0
1002
}
  0
LINE
  8
F02_DIM
  5
1923
 10
240.628256
 20
207.492499
 30
0.0
 11
249.014344
 21
217.280944
 31
0.0
1001
ACAD
1000
R13OBJECT
1002
{
1005
1841
1002
}
  0
LINE
  8
F02_DIM
  5
1842
 10
249.014344
 20
217.280944
 30
0.0
 11
268.821031
 21
217.280944
 31
0.0
  0
TEXT
  8
F02_DIM
  5
184E
 10
-102.730387
 20
247.218921
 30
0.0
 40
3.0
  1
（レール高さ15の場合）
 41
0.8
  7
FSTD2
  0
TEXT
  8
F02_DIM
  5
185A
 10
-48.615961
 20
238.394076
 30
0.0
 40
4.0
  1
※2
 41
0.8
  7
FSTD2
  0
TEXT
  8
F05_PRO
  5
185B
 10
-36.616394
 20
131.540394
 30
0.0
 40
4.0
  1
リセット棒
  7
FSTD1
  0
INSERT
  8
F05_PRO
  5
185C
  2
_OPEN30
 10
-58.655551
 20
141.721725
 30
0.0
 41
3.0
 42
3.0
 50
150.942093
 43
3.0
1001
ACAD
1000
DSTYLE
1002
{
1070
    40
1040
1.0
1002
}
  0
LINE
  8
F05_PRO
  5
1924
 10
-56.033163
 20
140.264645
 30
0.0
 11
-37.14195
 21
129.768102
 31
0.0
1001
ACAD
1000
R13OBJECT
1002
{
1005
185C
1002
}
  0
LINE
  8
F05_PRO
  5
185D
 10
-37.14195
 20
129.768102
 30
0.0
 11
-8.771038
 21
129.768102
 31
0.0
  0
INSERT
  8
F05_PRO
  5
185E
  2
_OPEN30
 10
57.448031
 20
142.160818
 30
0.0
 41
3.0
 42
3.0
 50
10.600129
 43
3.0
1001
ACAD
1000
DSTYLE
1002
{
1070
    40
1040
1.0
1002
}
  0
LINE
  8
F05_PRO
  5
1925
 10
54.499226
 20
141.608957
 30
0.0
 11
-8.771038
 21
129.768102
 31
0.0
1001
ACAD
1000
R13OBJECT
1002
{
1005
185E
1002
}
  0
TEXT
  8
F05_PRO
  5
185F
 10
203.066279
 20
235.873679
 30
0.0
 40
5.0
  1
取付穴寸法図
  7
FSTD1
 72
     1
 11
220.232946
 21
235.873679
 31
0.0
  0
TEXT
  8
F05_PRO
  5
186C
 10
22.045594
 20
193.618648
 30
0.0
 40
1.8
  1
1
 41
0.7
  7
FSTD2
  0
TEXT
  8
F05_PRO
  5
186D
 10
25.636565
 20
193.591896
 30
0.0
 40
1.8
  1
L1
 41
0.7
  7
FSTD2
  0
TEXT
  8
F05_PRO
  5
186E
 10
30.574884
 20
193.590513
 30
0.0
 40
1.8
  1
3
 41
0.7
  7
FSTD2
  0
TEXT
  8
F05_PRO
  5
186F
 10
34.118505
 20
193.620127
 30
0.0
 40
1.8
  1
L2
 41
0.7
  7
FSTD2
  0
TEXT
  8
F05_PRO
  5
1870
 10
39.282943
 20
193.587887
 30
0.0
 40
1.8
  1
5
 41
0.7
  7
FSTD2
  0
TEXT
  8
F05_PRO
  5
1871
 10
42.849346
 20
193.592367
 30
0.0
 40
1.8
  1
L3
 41
0.7
  7
FSTD2
  0
TEXT
  8
F05_PRO
  5
1872
 10
48.172181
 20
193.590975
 30
0.0
 40
1.8
  1
13
 41
0.7
  7
FSTD2
  0
TEXT
  8
F05_PRO
  5
1873
 10
51.503685
 20
193.598986
 30
0.0
 40
1.8
  1
NO
 41
0.7
  7
FSTD2
  0
TEXT
  8
F05_PRO
  5
1874
 10
56.351574
 20
193.617136
 30
0.0
 40
1.8
  1
A1
 41
0.7
  7
FSTD2
  0
TEXT
  8
F05_PRO
  5
1875
 10
61.882913
 20
193.629763
 30
0.0
 40
1.8
  1
+
 41
0.7
  7
FSTD2
  0
TEXT
  8
F05_PRO
  5
1876
 10
21.930231
 20
173.25249
 30
0.0
 40
1.8
  1
2
 41
0.7
  7
FSTD2
  0
TEXT
  8
F05_PRO
  5
1877
 10
22.979112
 20
111.280397
 30
0.0
 40
1.8
  1
2T1
 41
0.7
  7
FSTD2
  0
TEXT
  8
F05_PRO
  5
1878
 10
30.622726
 20
173.20683
 30
0.0
 40
1.8
  1
4
 41
0.7
  7
FSTD2
  0
TEXT
  8
F05_PRO
  5
1879
 10
34.133
 20
173.246145
 30
0.0
 40
1.8
  1
T2
 41
0.7
  7
FSTD2
  0
TEXT
  8
F05_PRO
  5
187A
 10
39.282024
 20
173.209285
 30
0.0
 40
1.8
  1
6
 41
0.7
  7
FSTD2
  0
TEXT
  8
F05_PRO
  5
187B
 10
42.786385
 20
173.266039
 30
0.0
 40
1.8
  1
T3
 41
0.7
  7
FSTD2
  0
TEXT
  8
F05_PRO
  5
187C
 10
48.18856
 20
173.222927
 30
0.0
 40
1.8
  1
14
 41
0.7
  7
FSTD2
  0
TEXT
  8
F05_PRO
  5
187D
 10
56.13316
 20
173.305021
 30
0.0
 40
1.8
  1
A2
 41
0.7
  7
FSTD2
  0
TEXT
  8
F05_PRO
  5
187E
 10
61.882167
 20
173.296372
 30
0.0
 40
1.8
  1
-
 41
0.7
  7
FSTD2
  0
TEXT
  8
F05_PRO
  5
188E
 10
-31.159478
 20
-49.999872
 30
0.0
 40
6.0
  1
SK12AHW, SK12GHW, SK12LHW
 41
0.8
  7
FSTD1
  0
TEXT
  8
F05_PRO
  5
188F
 10
-31.159478
 20
-40.518972
 30
0.0
 40
6.0
  1
SK09AHW, SK09GHW, SK09LHW
 41
0.8
  7
FSTD1
  0
TEXT
  8
F05_PRO
  5
1890
 10
-31.159478
 20
-30.879306
 30
0.0
 40
6.0
  1
SK06AHW, SK06GHW, SK06LHW
 41
0.8
  7
FSTD1
  0
TEXT
  8
F05_PRO
  5
1891
 10
-113.219787
 20
35.221881
 30
0.0
 40
4.0
  1
※3 : DC操作器の場合
  7
FSTD1
  0
TEXT
  8
F05_PRO
  5
1892
 10
52.304835
 20
121.0527
 30
0.0
 40
1.8
  1
95
 41
0.7
  7
FSTD2
  0
TEXT
  8
F05_PRO
  5
1893
 10
61.223337
 20
121.0527
 30
0.0
 40
1.8
  1
96
 41
0.7
  7
FSTD2
  0
TEXT
  8
F05_PRO
  5
1894
 10
52.304835
 20
112.383792
 30
0.0
 40
1.8
  1
97
 41
0.7
  7
FSTD2
  0
TEXT
  8
F05_PRO
  5
1895
 10
61.223337
 20
112.383792
 30
0.0
 40
1.8
  1
98
 41
0.7
  7
FSTD2
  0
TEXT
  8
F05_PRO
  5
18AC
 10
31.779112
 20
111.280397
 30
0.0
 40
1.8
  1
4T2
 41
0.7
  7
FSTD2
  0
TEXT
  8
F05_PRO
  5
18AD
 10
40.579112
 20
111.280397
 30
0.0
 40
1.8
  1
6T3
 41
0.7
  7
FSTD2
  0
TEXT
  8
F02_DIM
  5
18AE
 10
68.248032
 20
188.109543
 30
0.0
 40
4.0
  1
※3
 41
0.8
  7
FSTD2
  0
TEXT
  8
F02_DIM
  5
18AF
 10
68.248032
 20
177.048911
 30
0.0
 40
4.0
  1
※3
 41
0.8
  7
FSTD2
  0
LINE
  8
F05_PRO
  5
18ED
 10
62.930325
 20
193.759902
 30
0.0
 11
67.55552
 21
190.438582
 31
0.0
  0
LINE
  8
F05_PRO
  5
18EE
 10
62.865182
 20
175.069335
 30
0.0
 11
67.620663
 21
179.30239
 31
0.0
  0
ENDSEC
  0
EOF
