  0
SECTION
  2
HEADER
  9
$ACADVER
  1
AC1009
  9
$INSBASE
 10
0.0
 20
0.0
 30
0.0
  9
$EXTMIN
 10
-79.036195
 20
72.365065
 30
0.0
  9
$EXTMAX
 10
167.630065
 20
229.047672
 30
0.0
  9
$LIMMIN
 10
-105.0
 20
-148.5
  9
$LIMMAX
 10
105.0
 20
148.5
  9
$ORTHOMODE
 70
     1
  9
$REGENMODE
 70
     1
  9
$FILLMODE
 70
     1
  9
$QTEXTMODE
 70
     0
  9
$MIRRTEXT
 70
     1
  9
$DRAGMODE
 70
     2
  9
$LTSCALE
 40
0.2
  9
$OSMODE
 70
    37
  9
$ATTMODE
 70
     1
  9
$TEXTSIZE
 40
4.1656
  9
$TRACEWID
 40
0.05
  9
$TEXTSTYLE
  7
FSTD1
  9
$CLAYER
  8
0
  9
$CELTYPE
  6
BYLAYER
  9
$CECOLOR
 62
   256
  9
$DIMSCALE
 40
0.0
  9
$DIMASZ
 40
3.0
  9
$DIMEXO
 40
1.0
  9
$DIMDLI
 40
0.38
  9
$DIMRND
 40
0.0
  9
$DIMDLE
 40
0.0
  9
$DIMEXE
 40
1.0
  9
$DIMTP
 40
0.2
  9
$DIMTM
 40
0.0
  9
$DIMTXT
 40
3.0
  9
$DIMCEN
 40
0.09
  9
$DIMTSZ
 40
0.0
  9
$DIMTOL
 70
     0
  9
$DIMLIM
 70
     0
  9
$DIMTIH
 70
     0
  9
$DIMTOH
 70
     0
  9
$DIMSE1
 70
     0
  9
$DIMSE2
 70
     0
  9
$DIMTAD
 70
     1
  9
$DIMZIN
 70
     8
  9
$DIMBLK
  1

  9
$DIMASO
 70
     1
  9
$DIMSHO
 70
     1
  9
$DIMPOST
  1

  9
$DIMAPOST
  1

  9
$DIMALT
 70
     0
  9
$DIMALTD
 70
     4
  9
$DIMALTF
 40
0.0394
  9
$DIMLFAC
 40
1.0
  9
$DIMTOFL
 70
     1
  9
$DIMTVP
 40
0.0
  9
$DIMTIX
 70
     0
  9
$DIMSOXD
 70
     0
  9
$DIMSAH
 70
     1
  9
$DIMBLK1
  1
_OPEN30
  9
$DIMBLK2
  1
_OPEN30
  9
$DIMSTYLE
  2
FSTD1
  9
$DIMCLRD
 70
     0
  9
$DIMCLRE
 70
     0
  9
$DIMCLRT
 70
     0
  9
$DIMTFAC
 40
0.7
  9
$DIMGAP
 40
1.0
  9
$LUNITS
 70
     2
  9
$LUPREC
 70
     4
  9
$SKETCHINC
 40
0.1
  9
$FILLETRAD
 40
0.0
  9
$AUNITS
 70
     0
  9
$AUPREC
 70
     0
  9
$MENU
  1
acad
  9
$ELEVATION
 40
0.0
  9
$PELEVATION
 40
0.0
  9
$THICKNESS
 40
0.0
  9
$LIMCHECK
 70
     0
  9
$BLIPMODE
 70
     0
  9
$CHAMFERA
 40
0.0
  9
$CHAMFERB
 40
0.0
  9
$SKPOLY
 70
     0
  9
$TDCREATE
 40
2455839.738057176
  9
$TDUPDATE
 40
2455843.622989178
  9
$TDINDWG
 40
0.0287995370
  9
$TDUSRTIMER
 40
0.0287995370
  9
$USRTIMER
 70
     1
  9
$ANGBASE
 50
0.0
  9
$ANGDIR
 70
     0
  9
$PDMODE
 70
     0
  9
$PDSIZE
 40
0.0
  9
$PLINEWID
 40
0.0
  9
$COORDS
 70
     1
  9
$SPLFRAME
 70
     0
  9
$SPLINETYPE
 70
     6
  9
$SPLINESEGS
 70
     8
  9
$ATTDIA
 70
     0
  9
$ATTREQ
 70
     1
  9
$HANDLING
 70
     1
  9
$HANDSEED
  5
118F
  9
$SURFTAB1
 70
     6
  9
$SURFTAB2
 70
     6
  9
$SURFTYPE
 70
     6
  9
$SURFU
 70
     6
  9
$SURFV
 70
     6
  9
$UCSNAME
  2

  9
$UCSORG
 10
0.0
 20
0.0
 30
0.0
  9
$UCSXDIR
 10
1.0
 20
0.0
 30
0.0
  9
$UCSYDIR
 10
0.0
 20
1.0
 30
0.0
  9
$PUCSNAME
  2

  9
$PUCSORG
 10
0.0
 20
0.0
 30
0.0
  9
$PUCSXDIR
 10
1.0
 20
0.0
 30
0.0
  9
$PUCSYDIR
 10
0.0
 20
1.0
 30
0.0
  9
$USERI1
 70
     0
  9
$USERI2
 70
     0
  9
$USERI3
 70
     0
  9
$USERI4
 70
     0
  9
$USERI5
 70
     0
  9
$USERR1
 40
0.0
  9
$USERR2
 40
0.0
  9
$USERR3
 40
0.0
  9
$USERR4
 40
0.0
  9
$USERR5
 40
0.0
  9
$WORLDVIEW
 70
     1
  9
$SHADEDGE
 70
     3
  9
$SHADEDIF
 70
    70
  9
$TILEMODE
 70
     1
  9
$MAXACTVP
 70
    16
  9
$PINSBASE
 10
0.0
 20
0.0
 30
0.0
  9
$PLIMCHECK
 70
     0
  9
$PEXTMIN
 10
1.000000E+20
 20
1.000000E+20
 30
1.000000E+20
  9
$PEXTMAX
 10
-1.000000E+20
 20
-1.000000E+20
 30
-1.000000E+20
  9
$PLIMMIN
 10
0.0
 20
0.0
  9
$PLIMMAX
 10
12.0
 20
9.0
  9
$UNITMODE
 70
     0
  9
$VISRETAIN
 70
     0
  9
$PLINEGEN
 70
     1
  9
$PSLTSCALE
 70
     0
  9
$TREEDEPTH
 70
  3020
  9
$DWGCODEPAGE
  3
dos932
  0
ENDSEC
  0
SECTION
  2
TABLES
  0
TABLE
  2
VPORT
 70
     2
  0
VPORT
  2
*ACTIVE
 70
     0
 10
0.0
 20
0.0
 11
1.0
 21
1.0
 12
69.887414
 22
156.748276
 13
0.0
 23
0.0
 14
1.0
 24
1.0
 15
0.0
 25
0.0
 16
0.0
 26
0.0
 36
1.0
 17
0.0
 27
0.0
 37
0.0
 40
200.536415
 41
1.492415
 42
50.0
 43
0.0
 44
0.0
 50
0.0
 51
0.0
 71
     0
 72
   100
 73
     1
 74
     1
 75
     0
 76
     0
 77
     0
 78
     0
  0
ENDTAB
  0
TABLE
  2
LTYPE
 70
     4
  0
LTYPE
  2
CONTINUOUS
 70
    64
  3
Solid line
 72
    65
 73
     0
 40
0.0
  0
LTYPE
  2
PHANTOM
 70
    64
  3
Phantom ______  __  __  ______  __  __  ______
 72
    65
 73
     6
 40
63.5
 49
31.75
 49
-6.35
 49
6.35
 49
-6.35
 49
6.35
 49
-6.35
  0
LTYPE
  2
CENTER
 70
    64
  3
Center ____ _ ____ _ ____ _ ____ _ ____ _ ____
 72
    65
 73
     4
 40
50.8
 49
31.75
 49
-6.35
 49
6.35
 49
-6.35
  0
LTYPE
  2
DASHED
 70
    64
  3
Dashed __ __ __ __ __ __ __ __ __ __ __ __ __ _
 72
    65
 73
     2
 40
19.05
 49
12.7
 49
-6.35
  0
ENDTAB
  0
TABLE
  2
LAYER
 70
    12
  0
LAYER
  2
0
 70
    64
 62
     7
  6
CONTINUOUS
  0
LAYER
  2
DEFPOINTS
 70
    64
 62
     7
  6
CONTINUOUS
  0
LAYER
  2
F03_CNT
 70
    64
 62
     1
  6
CENTER
  0
LAYER
  2
F02_DIM
 70
    64
 62
     4
  6
CONTINUOUS
  0
LAYER
  2
F05_PRO
 70
    64
 62
     4
  6
CONTINUOUS
  0
LAYER
  2
F01_OUT
 70
    64
 62
     6
  6
CONTINUOUS
  0
LAYER
  2
F06_CUT
 70
    64
 62
     6
  6
CONTINUOUS
  0
LAYER
  2
F04_HID
 70
    64
 62
     3
  6
DASHED
  0
LAYER
  2
F07_COO
 70
    64
 62
     3
  6
PHANTOM
  0
LAYER
  2
F08_IMG
 70
    64
 62
     2
  6
PHANTOM
  0
LAYER
  2
F09_IMG2
 70
    64
 62
     2
  6
PHANTOM
  0
LAYER
  2
F10_IMG3
 70
    64
 62
     2
  6
PHANTOM
  0
ENDTAB
  0
TABLE
  2
STYLE
 70
     4
  0
STYLE
  2
MX_NOTE_STANDARD
 70
     0
 40
0.0
 41
1.0
 50
0.0
 71
     0
 42
4.1656
  3
txt.shx
  4
extfont.shx
  0
STYLE
  2
STANDARD
 70
     0
 40
0.0
 41
1.0
 50
0.0
 71
     0
 42
0.2
  3

  4

  0
STYLE
  2
FSTD1
 70
    64
 40
0.0
 41
1.0
 50
0.0
 71
     0
 42
2.5
  3
txt.shx
  4
bigfont.shx
  0
STYLE
  2
FSTD2
 70
    64
 40
0.0
 41
0.7
 50
0.0
 71
     0
 42
1.8
  3
txt.shx
  4
bigfont.shx
  0
ENDTAB
  0
TABLE
  2
VIEW
 70
     0
  0
ENDTAB
  0
TABLE
  2
UCS
 70
     0
  0
ENDTAB
  0
TABLE
  2
APPID
 70
     3
  0
APPID
  2
ACAD
 70
    64
  0
ENDTAB
  0
TABLE
  2
DIMSTYLE
 70
     2
  0
DIMSTYLE
  2
MXDIMSTYLE
 70
     0
  3

  4

  5

  6
OPEN30
  7
OPEN30
 40
1.0
 41
2.5
 42
0.5
 43
3.75
 44
1.0
 45
0.0
 46
0.0
 47
0.0
 48
0.0
140
4.1656
141
2.5
142
0.0
143
0.03937
144
1.0
145
0.0
146
1.0
147
1.0
 71
     0
 72
     0
 73
     0
 74
     0
 75
     0
 76
     0
 77
     1
 78
     8
170
     0
171
     4
172
     1
173
     1
174
     0
175
     0
176
     0
177
     0
178
     0
  0
DIMSTYLE
  2
FSTD1
 70
    64
  3

  4

  5

  6
_OPEN30
  7
_OPEN30
 40
0.0
 41
3.0
 42
1.0
 43
0.38
 44
1.0
 45
0.0
 46
0.0
 47
0.2
 48
0.0
140
3.0
141
0.09
142
0.0
143
0.0394
144
1.0
145
0.0
146
0.7
147
1.0
 71
     0
 72
     0
 73
     0
 74
     0
 75
     0
 76
     0
 77
     1
 78
     8
170
     0
171
     4
172
     1
173
     1
174
     0
175
     0
176
     0
177
     0
178
     0
  0
ENDTAB
  0
ENDSEC
  0
SECTION
  2
BLOCKS
  0
BLOCK
  8
0
  5
13B
  2
_OPEN30
 70
    66
 10
0.0
 20
0.0
 30
0.0
  3
_OPEN30
1001
ACAD
1000
RTLwPs
1070
   158
1000
RTMaterial
1005
0
  0
LINE
  8
0
  6
BYBLOCK
 62
     0
  5
13C
 10
-1.0
 20
0.267949
 30
0.0
 11
0.0
 21
0.0
 31
0.0
1001
ACAD
1000
RTLwPs
1070
   158
1000
RTMaterial
1005
0
  0
LINE
  8
0
  6
BYBLOCK
 62
     0
  5
13D
 10
0.0
 20
0.0
 30
0.0
 11
-1.0
 21
-0.267949
 31
0.0
1001
ACAD
1000
RTLwPs
1070
   158
1000
RTMaterial
1005
0
  0
LINE
  8
0
  6
BYBLOCK
 62
     0
  5
13E
 10
0.0
 20
0.0
 30
0.0
 11
-1.0
 21
0.0
 31
0.0
1001
ACAD
1000
RTLwPs
1070
   158
1000
RTMaterial
1005
0
  0
ENDBLK
  8
0
  5
13F
1001
ACAD
1000
RTLwPs
1070
   158
1000
RTMaterial
1005
0
  0
BLOCK
  8
0
  5
5E0
  2
_DOTSMALL
 70
    66
 10
0.0
 20
0.0
 30
0.0
  3
_DOTSMALL
1001
ACAD
1000
RTLwPs
1070
   158
1000
RTMaterial
1005
0
  0
POLYLINE
  8
0
  6
BYBLOCK
 62
     0
  5
5E1
 66
     1
 10
0.0
 20
0.0
 30
0.0
 70
     1
1001
ACAD
1000
RTLwPs
1070
   158
1000
RTMaterial
1005
3025BB0300000000
  0
VERTEX
  8
0
  6
BYBLOCK
 62
     0
  5
118C
 10
-0.0625
 20
0.0
 30
0.0
 40
0.5
 41
0.5
 42
1.0
  0
VERTEX
  8
0
  6
BYBLOCK
 62
     0
  5
118D
 10
0.0625
 20
0.0
 30
0.0
 40
0.5
 41
0.5
 42
1.0
  0
SEQEND
  8
0
  6
BYBLOCK
 62
     0
  5
118E
  0
ENDBLK
  8
0
  5
5E2
1001
ACAD
1000
RTLwPs
1070
   158
1000
RTMaterial
1005
0
  0
BLOCK
  8
0
  5
10AD
  2
*D2
 70
    65
 10
0.0
 20
0.0
 30
0.0
  3
*D2
  0
LINE
  8
0
  6
BYBLOCK
 62
     0
  5
10AE
 10
385.301106
 20
100.328564
 30
0.0
 11
385.301106
 21
104.714523
 31
0.0
  0
LINE
  8
0
  6
BYBLOCK
 62
     0
  5
10AF
 10
391.301106
 20
99.828564
 30
0.0
 11
391.301106
 21
104.714523
 31
0.0
  0
LINE
  8
0
  6
BYBLOCK
 62
     0
  5
10B0
 10
382.301106
 20
103.714523
 30
0.0
 11
379.301106
 21
103.714523
 31
0.0
  0
LINE
  8
0
  6
BYBLOCK
 62
     0
  5
10B1
 10
394.301106
 20
103.714523
 30
0.0
 11
397.301106
 21
103.714523
 31
0.0
  0
LINE
  8
0
  6
BYBLOCK
 62
     0
  5
10B2
 10
385.301106
 20
103.714523
 30
0.0
 11
391.301106
 21
103.714523
 31
0.0
  0
INSERT
  8
0
  6
BYBLOCK
 62
     0
  5
10B3
  2
_OPEN30
 10
385.301106
 20
103.714523
 30
0.0
 41
3.0
 42
3.0
 43
3.0
  0
INSERT
  8
0
  6
BYBLOCK
 62
     0
  5
10B4
  2
_OPEN30
 10
391.301106
 20
103.714523
 30
0.0
 41
3.0
 42
3.0
 50
180.0
 43
3.0
  0
TEXT
  8
0
  6
BYBLOCK
 62
     0
  5
10B5
 10
387.301106
 20
104.714523
 30
0.0
 40
3.0
  1
6
  7
FSTD1
  0
POINT
  8
DEFPOINTS
  6
BYBLOCK
 62
     0
  5
10B6
 10
385.301106
 20
99.328564
 30
0.0
  0
POINT
  8
DEFPOINTS
  6
BYBLOCK
 62
     0
  5
10B7
 10
391.301106
 20
98.828564
 30
0.0
  0
POINT
  8
DEFPOINTS
  6
BYBLOCK
 62
     0
  5
10B8
 10
391.301106
 20
103.714523
 30
0.0
  0
ENDBLK
  8
0
  5
10B9
  0
BLOCK
  8
0
  5
10BA
  2
*D3
 70
    65
 10
0.0
 20
0.0
 30
0.0
  3
*D3
  0
LINE
  8
0
  6
BYBLOCK
 62
     0
  5
10BB
 10
385.301106
 20
100.328564
 30
0.0
 11
385.301106
 21
111.245318
 31
0.0
  0
LINE
  8
0
  6
BYBLOCK
 62
     0
  5
10BC
 10
421.301106
 20
95.528564
 30
0.0
 11
421.301106
 21
111.245318
 31
0.0
  0
LINE
  8
0
  6
BYBLOCK
 62
     0
  5
10BD
 10
388.301106
 20
110.245318
 30
0.0
 11
418.301106
 21
110.245318
 31
0.0
  0
INSERT
  8
0
  6
BYBLOCK
 62
     0
  5
10BE
  2
_OPEN30
 10
385.301106
 20
110.245318
 30
0.0
 41
3.0
 42
3.0
 50
180.0
 43
3.0
  0
INSERT
  8
0
  6
BYBLOCK
 62
     0
  5
10BF
  2
_OPEN30
 10
421.301106
 20
110.245318
 30
0.0
 41
3.0
 42
3.0
 43
3.0
  0
TEXT
  8
0
  6
BYBLOCK
 62
     0
  5
10C0
 10
400.801106
 20
111.245318
 30
0.0
 40
3.0
  1
36
  7
FSTD1
  0
POINT
  8
DEFPOINTS
  6
BYBLOCK
 62
     0
  5
10C1
 10
385.301106
 20
99.328564
 30
0.0
  0
POINT
  8
DEFPOINTS
  6
BYBLOCK
 62
     0
  5
10C2
 10
421.301106
 20
94.528564
 30
0.0
  0
POINT
  8
DEFPOINTS
  6
BYBLOCK
 62
     0
  5
10C3
 10
421.301106
 20
110.245318
 30
0.0
  0
ENDBLK
  8
0
  5
10C4
  0
BLOCK
  8
0
  5
10C5
  2
*D4
 70
    65
 10
0.0
 20
0.0
 30
0.0
  3
*D4
  0
LINE
  8
0
  6
BYBLOCK
 62
     0
  5
10C6
 10
385.301106
 20
100.328564
 30
0.0
 11
385.301106
 21
118.124245
 31
0.0
  0
LINE
  8
0
  6
BYBLOCK
 62
     0
  5
10C7
 10
434.301106
 20
87.828564
 30
0.0
 11
434.301106
 21
118.124245
 31
0.0
  0
LINE
  8
0
  6
BYBLOCK
 62
     0
  5
10C8
 10
388.301106
 20
117.124245
 30
0.0
 11
431.301106
 21
117.124245
 31
0.0
  0
INSERT
  8
0
  6
BYBLOCK
 62
     0
  5
10C9
  2
_OPEN30
 10
385.301106
 20
117.124245
 30
0.0
 41
3.0
 42
3.0
 50
180.0
 43
3.0
  0
INSERT
  8
0
  6
BYBLOCK
 62
     0
  5
10CA
  2
_OPEN30
 10
434.301106
 20
117.124245
 30
0.0
 41
3.0
 42
3.0
 43
3.0
  0
TEXT
  8
0
  6
BYBLOCK
 62
     0
  5
10CB
 10
407.301106
 20
118.124245
 30
0.0
 40
3.0
  1
49
  7
FSTD1
  0
POINT
  8
DEFPOINTS
  6
BYBLOCK
 62
     0
  5
10CC
 10
385.301106
 20
99.328564
 30
0.0
  0
POINT
  8
DEFPOINTS
  6
BYBLOCK
 62
     0
  5
10CD
 10
434.301106
 20
86.828564
 30
0.0
  0
POINT
  8
DEFPOINTS
  6
BYBLOCK
 62
     0
  5
10CE
 10
434.301106
 20
117.124245
 30
0.0
  0
ENDBLK
  8
0
  5
10CF
  0
BLOCK
  8
0
  5
10D0
  2
*D5
 70
    65
 10
0.0
 20
0.0
 30
0.0
  3
*D5
  0
LINE
  8
0
  6
BYBLOCK
 62
     0
  5
10D1
 10
434.301106
 20
87.828564
 30
0.0
 11
434.301106
 21
124.760847
 31
0.0
  0
LINE
  8
0
  6
BYBLOCK
 62
     0
  5
10D2
 10
373.301106
 20
90.128564
 30
0.0
 11
373.301106
 21
124.760847
 31
0.0
  0
LINE
  8
0
  6
BYBLOCK
 62
     0
  5
10D3
 10
431.301106
 20
123.760847
 30
0.0
 11
376.301106
 21
123.760847
 31
0.0
  0
INSERT
  8
0
  6
BYBLOCK
 62
     0
  5
10D4
  2
_OPEN30
 10
434.301106
 20
123.760847
 30
0.0
 41
3.0
 42
3.0
 43
3.0
  0
INSERT
  8
0
  6
BYBLOCK
 62
     0
  5
10D5
  2
_OPEN30
 10
373.301106
 20
123.760847
 30
0.0
 41
3.0
 42
3.0
 50
180.0
 43
3.0
  0
TEXT
  8
0
  6
BYBLOCK
 62
     0
  5
10D6
 10
401.801106
 20
124.760847
 30
0.0
 40
3.0
  1
61
  7
FSTD1
  0
POINT
  8
DEFPOINTS
  6
BYBLOCK
 62
     0
  5
10D7
 10
434.301106
 20
86.828564
 30
0.0
  0
POINT
  8
DEFPOINTS
  6
BYBLOCK
 62
     0
  5
10D8
 10
373.301106
 20
89.128564
 30
0.0
  0
POINT
  8
DEFPOINTS
  6
BYBLOCK
 62
     0
  5
10D9
 10
373.301106
 20
123.760847
 30
0.0
  0
ENDBLK
  8
0
  5
10DA
  0
BLOCK
  8
0
  5
10DB
  2
*D6
 70
    65
 10
0.0
 20
0.0
 30
0.0
  3
*D6
  0
LINE
  8
0
  6
BYBLOCK
 62
     0
  5
10DC
 10
434.301106
 20
87.828564
 30
0.0
 11
434.301106
 21
118.124245
 31
0.0
  0
LINE
  8
0
  6
BYBLOCK
 62
     0
  5
10DD
 10
451.301106
 20
87.428564
 30
0.0
 11
451.301106
 21
118.124245
 31
0.0
  0
LINE
  8
0
  6
BYBLOCK
 62
     0
  5
10DE
 10
437.301106
 20
117.124245
 30
0.0
 11
448.301106
 21
117.124245
 31
0.0
  0
INSERT
  8
0
  6
BYBLOCK
 62
     0
  5
10DF
  2
_OPEN30
 10
434.301106
 20
117.124245
 30
0.0
 41
3.0
 42
3.0
 50
180.0
 43
3.0
  0
INSERT
  8
0
  6
BYBLOCK
 62
     0
  5
10E0
  2
_OPEN30
 10
451.301106
 20
117.124245
 30
0.0
 41
3.0
 42
3.0
 43
3.0
  0
TEXT
  8
0
  6
BYBLOCK
 62
     0
  5
10E1
 10
438.801106
 20
118.124245
 30
0.0
 40
3.0
  1
(17)
  7
FSTD1
  0
POINT
  8
DEFPOINTS
  6
BYBLOCK
 62
     0
  5
10E2
 10
434.301106
 20
86.828564
 30
0.0
  0
POINT
  8
DEFPOINTS
  6
BYBLOCK
 62
     0
  5
10E3
 10
451.301106
 20
86.428564
 30
0.0
  0
POINT
  8
DEFPOINTS
  6
BYBLOCK
 62
     0
  5
10E4
 10
451.301106
 20
117.124245
 30
0.0
  0
ENDBLK
  8
0
  5
10E5
  0
BLOCK
  8
0
  5
10E6
  2
*D7
 70
    65
 10
0.0
 20
0.0
 30
0.0
  3
*D7
  0
LINE
  8
0
  6
BYBLOCK
 62
     0
  5
10E7
 10
434.301106
 20
87.828564
 30
0.0
 11
434.301106
 21
124.760847
 31
0.0
  0
LINE
  8
0
  6
BYBLOCK
 62
     0
  5
10E8
 10
468.301106
 20
77.128564
 30
0.0
 11
468.301106
 21
124.760847
 31
0.0
  0
LINE
  8
0
  6
BYBLOCK
 62
     0
  5
10E9
 10
437.301106
 20
123.760847
 30
0.0
 11
465.301106
 21
123.760847
 31
0.0
  0
INSERT
  8
0
  6
BYBLOCK
 62
     0
  5
10EA
  2
_OPEN30
 10
434.301106
 20
123.760847
 30
0.0
 41
3.0
 42
3.0
 50
180.0
 43
3.0
  0
INSERT
  8
0
  6
BYBLOCK
 62
     0
  5
10EB
  2
_OPEN30
 10
468.301106
 20
123.760847
 30
0.0
 41
3.0
 42
3.0
 43
3.0
  0
TEXT
  8
0
  6
BYBLOCK
 62
     0
  5
10EC
 10
446.801106
 20
124.760847
 30
0.0
 40
3.0
  1
(34)
  7
FSTD1
  0
POINT
  8
DEFPOINTS
  6
BYBLOCK
 62
     0
  5
10ED
 10
434.301106
 20
86.828564
 30
0.0
  0
POINT
  8
DEFPOINTS
  6
BYBLOCK
 62
     0
  5
10EE
 10
468.301106
 20
76.128564
 30
0.0
  0
POINT
  8
DEFPOINTS
  6
BYBLOCK
 62
     0
  5
10EF
 10
468.301106
 20
123.760847
 30
0.0
  0
ENDBLK
  8
0
  5
10F0
  0
BLOCK
  8
0
  5
10F1
  2
*D8
 70
    65
 10
0.0
 20
0.0
 30
0.0
  3
*D8
  0
LINE
  8
0
  6
BYBLOCK
 62
     0
  5
10F2
 10
493.565534
 20
97.078564
 30
0.0
 11
493.565534
 21
113.552947
 31
0.0
  0
LINE
  8
0
  6
BYBLOCK
 62
     0
  5
10F3
 10
502.265534
 20
97.078564
 30
0.0
 11
502.265534
 21
113.552947
 31
0.0
  0
LINE
  8
0
  6
BYBLOCK
 62
     0
  5
10F4
 10
496.565534
 20
112.552947
 30
0.0
 11
499.265534
 21
112.552947
 31
0.0
  0
INSERT
  8
0
  6
BYBLOCK
 62
     0
  5
10F5
  2
_OPEN30
 10
493.565534
 20
112.552947
 30
0.0
 41
3.0
 42
3.0
 50
180.0
 43
3.0
  0
INSERT
  8
0
  6
BYBLOCK
 62
     0
  5
10F6
  2
_OPEN30
 10
502.265534
 20
112.552947
 30
0.0
 41
3.0
 42
3.0
 43
3.0
  0
TEXT
  8
0
  6
BYBLOCK
 62
     0
  5
10F7
 10
494.915534
 20
113.552947
 30
0.0
 40
3.0
  1
8.7
  7
FSTD1
  0
POINT
  8
DEFPOINTS
  6
BYBLOCK
 62
     0
  5
10F8
 10
493.565534
 20
96.078564
 30
0.0
  0
POINT
  8
DEFPOINTS
  6
BYBLOCK
 62
     0
  5
10F9
 10
502.265534
 20
96.078564
 30
0.0
  0
POINT
  8
DEFPOINTS
  6
BYBLOCK
 62
     0
  5
10FA
 10
502.265534
 20
112.552947
 30
0.0
  0
ENDBLK
  8
0
  5
10FB
  0
BLOCK
  8
0
  5
10FC
  2
*D9
 70
    65
 10
0.0
 20
0.0
 30
0.0
  3
*D9
  0
LINE
  8
0
  6
BYBLOCK
 62
     0
  5
10FD
 10
507.090534
 20
100.028564
 30
0.0
 11
507.090534
 21
106.672443
 31
0.0
  0
LINE
  8
0
  6
BYBLOCK
 62
     0
  5
10FE
 10
514.840534
 20
100.028564
 30
0.0
 11
514.840534
 21
106.672443
 31
0.0
  0
LINE
  8
0
  6
BYBLOCK
 62
     0
  5
10FF
 10
504.090534
 20
105.672443
 30
0.0
 11
501.090534
 21
105.672443
 31
0.0
  0
LINE
  8
0
  6
BYBLOCK
 62
     0
  5
1100
 10
517.840534
 20
105.672443
 30
0.0
 11
520.840534
 21
105.672443
 31
0.0
  0
LINE
  8
0
  6
BYBLOCK
 62
     0
  5
1101
 10
507.090534
 20
105.672443
 30
0.0
 11
514.840534
 21
105.672443
 31
0.0
  0
INSERT
  8
0
  6
BYBLOCK
 62
     0
  5
1102
  2
_OPEN30
 10
507.090534
 20
105.672443
 30
0.0
 41
3.0
 42
3.0
 43
3.0
  0
INSERT
  8
0
  6
BYBLOCK
 62
     0
  5
1103
  2
_OPEN30
 10
514.840534
 20
105.672443
 30
0.0
 41
3.0
 42
3.0
 50
180.0
 43
3.0
  0
TEXT
  8
0
  6
BYBLOCK
 62
     0
  5
1104
 10
507.965534
 20
106.672443
 30
0.0
 40
3.0
  1
7.7
  7
FSTD1
  0
POINT
  8
DEFPOINTS
  6
BYBLOCK
 62
     0
  5
1105
 10
507.090534
 20
99.028564
 30
0.0
  0
POINT
  8
DEFPOINTS
  6
BYBLOCK
 62
     0
  5
1106
 10
514.840534
 20
99.028564
 30
0.0
  0
POINT
  8
DEFPOINTS
  6
BYBLOCK
 62
     0
  5
1107
 10
514.840534
 20
105.672443
 30
0.0
  0
ENDBLK
  8
0
  5
1108
  0
BLOCK
  8
0
  5
1109
  2
*D10
 70
    65
 10
0.0
 20
0.0
 30
0.0
  3
*D10
  0
LINE
  8
0
  6
BYBLOCK
 62
     0
  5
110A
 10
488.465534
 20
100.028564
 30
0.0
 11
488.465534
 21
121.454125
 31
0.0
  0
LINE
  8
0
  6
BYBLOCK
 62
     0
  5
110B
 10
533.465534
 20
100.028564
 30
0.0
 11
533.465534
 21
121.454125
 31
0.0
  0
LINE
  8
0
  6
BYBLOCK
 62
     0
  5
110C
 10
491.465534
 20
120.454125
 30
0.0
 11
530.465534
 21
120.454125
 31
0.0
  0
INSERT
  8
0
  6
BYBLOCK
 62
     0
  5
110D
  2
_OPEN30
 10
488.465534
 20
120.454125
 30
0.0
 41
3.0
 42
3.0
 50
180.0
 43
3.0
  0
INSERT
  8
0
  6
BYBLOCK
 62
     0
  5
110E
  2
_OPEN30
 10
533.465534
 20
120.454125
 30
0.0
 41
3.0
 42
3.0
 43
3.0
  0
TEXT
  8
0
  6
BYBLOCK
 62
     0
  5
110F
 10
508.465534
 20
121.454125
 30
0.0
 40
3.0
  1
45
  7
FSTD1
  0
POINT
  8
DEFPOINTS
  6
BYBLOCK
 62
     0
  5
1110
 10
488.465534
 20
99.028564
 30
0.0
  0
POINT
  8
DEFPOINTS
  6
BYBLOCK
 62
     0
  5
1111
 10
533.465534
 20
99.028564
 30
0.0
  0
POINT
  8
DEFPOINTS
  6
BYBLOCK
 62
     0
  5
1112
 10
533.465534
 20
120.454125
 30
0.0
  0
ENDBLK
  8
0
  5
1113
  0
BLOCK
  8
0
  5
1114
  2
*D11
 70
    65
 10
0.0
 20
0.0
 30
0.0
  3
*D11
  0
LINE
  8
0
  6
BYBLOCK
 62
     0
  5
1115
 10
487.315534
 20
90.828564
 30
0.0
 11
483.253329
 21
90.828564
 31
0.0
  0
LINE
  8
0
  6
BYBLOCK
 62
     0
  5
1116
 10
487.315534
 20
59.828564
 30
0.0
 11
483.253329
 21
59.828564
 31
0.0
  0
LINE
  8
0
  6
BYBLOCK
 62
     0
  5
1117
 10
484.253329
 20
87.828564
 30
0.0
 11
484.253329
 21
62.828564
 31
0.0
  0
INSERT
  8
0
  6
BYBLOCK
 62
     0
  5
1118
  2
_OPEN30
 10
484.253329
 20
90.828564
 30
0.0
 41
3.0
 42
3.0
 50
90.0
 43
3.0
  0
INSERT
  8
0
  6
BYBLOCK
 62
     0
  5
1119
  2
_OPEN30
 10
484.253329
 20
59.828564
 30
0.0
 41
3.0
 42
3.0
 50
270.0
 43
3.0
  0
TEXT
  8
0
  6
BYBLOCK
 62
     0
  5
111A
 10
483.253329
 20
73.328564
 30
0.0
 40
3.0
  1
31
 50
90.0
  7
FSTD1
  0
POINT
  8
DEFPOINTS
  6
BYBLOCK
 62
     0
  5
111B
 10
488.315534
 20
90.828564
 30
0.0
  0
POINT
  8
DEFPOINTS
  6
BYBLOCK
 62
     0
  5
111C
 10
488.315534
 20
59.828564
 30
0.0
  0
POINT
  8
DEFPOINTS
  6
BYBLOCK
 62
     0
  5
111D
 10
484.253329
 20
59.828564
 30
0.0
  0
ENDBLK
  8
0
  5
111E
  0
BLOCK
  8
0
  5
111F
  2
*D12
 70
    65
 10
0.0
 20
0.0
 30
0.0
  3
*D12
  0
LINE
  8
0
  6
BYBLOCK
 62
     0
  5
1120
 10
487.765534
 20
99.328564
 30
0.0
 11
476.822647
 21
99.328564
 31
0.0
  0
LINE
  8
0
  6
BYBLOCK
 62
     0
  5
1121
 10
487.765534
 20
51.328564
 30
0.0
 11
476.822647
 21
51.328564
 31
0.0
  0
LINE
  8
0
  6
BYBLOCK
 62
     0
  5
1122
 10
477.822647
 20
96.328564
 30
0.0
 11
477.822647
 21
54.328564
 31
0.0
  0
INSERT
  8
0
  6
BYBLOCK
 62
     0
  5
1123
  2
_OPEN30
 10
477.822647
 20
99.328564
 30
0.0
 41
3.0
 42
3.0
 50
90.0
 43
3.0
  0
INSERT
  8
0
  6
BYBLOCK
 62
     0
  5
1124
  2
_OPEN30
 10
477.822647
 20
51.328564
 30
0.0
 41
3.0
 42
3.0
 50
270.0
 43
3.0
  0
TEXT
  8
0
  6
BYBLOCK
 62
     0
  5
1125
 10
476.822647
 20
72.828564
 30
0.0
 40
3.0
  1
48
 50
90.0
  7
FSTD1
  0
POINT
  8
DEFPOINTS
  6
BYBLOCK
 62
     0
  5
1126
 10
488.765534
 20
99.328564
 30
0.0
  0
POINT
  8
DEFPOINTS
  6
BYBLOCK
 62
     0
  5
1127
 10
488.765534
 20
51.328564
 30
0.0
  0
POINT
  8
DEFPOINTS
  6
BYBLOCK
 62
     0
  5
1128
 10
477.822647
 20
51.328564
 30
0.0
  0
ENDBLK
  8
0
  5
1129
  0
BLOCK
  8
0
  5
112A
  2
*D13
 70
    65
 10
0.0
 20
0.0
 30
0.0
  3
*D13
  0
LINE
  8
0
  6
BYBLOCK
 62
     0
  5
112B
 10
563.400911
 20
101.578564
 30
0.0
 11
563.400911
 21
107.203682
 31
0.0
  0
LINE
  8
0
  6
BYBLOCK
 62
     0
  5
112C
 10
598.400911
 20
61.578564
 30
0.0
 11
598.400911
 21
107.203682
 31
0.0
  0
LINE
  8
0
  6
BYBLOCK
 62
     0
  5
112D
 10
566.400911
 20
106.203682
 30
0.0
 11
595.400911
 21
106.203682
 31
0.0
  0
INSERT
  8
0
  6
BYBLOCK
 62
     0
  5
112E
  2
_OPEN30
 10
563.400911
 20
106.203682
 30
0.0
 41
3.0
 42
3.0
 50
180.0
 43
3.0
  0
INSERT
  8
0
  6
BYBLOCK
 62
     0
  5
112F
  2
_OPEN30
 10
598.400911
 20
106.203682
 30
0.0
 41
3.0
 42
3.0
 43
3.0
  0
TEXT
  8
0
  6
BYBLOCK
 62
     0
  5
1130
 10
578.400911
 20
107.203682
 30
0.0
 40
3.0
  1
35
  7
FSTD1
  0
POINT
  8
DEFPOINTS
  6
BYBLOCK
 62
     0
  5
1131
 10
563.400911
 20
100.578564
 30
0.0
  0
POINT
  8
DEFPOINTS
  6
BYBLOCK
 62
     0
  5
1132
 10
598.400911
 20
60.578564
 30
0.0
  0
POINT
  8
DEFPOINTS
  6
BYBLOCK
 62
     0
  5
1133
 10
598.400911
 20
106.203682
 30
0.0
  0
ENDBLK
  8
0
  5
1134
  0
BLOCK
  8
0
  5
1135
  2
*D14
 70
    65
 10
0.0
 20
0.0
 30
0.0
  3
*D14
  0
LINE
  8
0
  6
BYBLOCK
 62
     0
  5
1136
 10
604.650911
 20
95.328564
 30
0.0
 11
614.957222
 21
95.328564
 31
0.0
  0
LINE
  8
0
  6
BYBLOCK
 62
     0
  5
1137
 10
569.650911
 20
55.328564
 30
0.0
 11
614.957222
 21
55.328564
 31
0.0
  0
LINE
  8
0
  6
BYBLOCK
 62
     0
  5
1138
 10
613.957222
 20
92.328564
 30
0.0
 11
613.957222
 21
58.328564
 31
0.0
  0
INSERT
  8
0
  6
BYBLOCK
 62
     0
  5
1139
  2
_OPEN30
 10
613.957222
 20
95.328564
 30
0.0
 41
3.0
 42
3.0
 50
90.0
 43
3.0
  0
INSERT
  8
0
  6
BYBLOCK
 62
     0
  5
113A
  2
_OPEN30
 10
613.957222
 20
55.328564
 30
0.0
 41
3.0
 42
3.0
 50
270.0
 43
3.0
  0
TEXT
  8
0
  6
BYBLOCK
 62
     0
  5
113B
 10
612.957222
 20
73.078564
 30
0.0
 40
3.0
  1
40
 50
90.0
  7
FSTD1
  0
POINT
  8
DEFPOINTS
  6
BYBLOCK
 62
     0
  5
113C
 10
603.650911
 20
95.328564
 30
0.0
  0
POINT
  8
DEFPOINTS
  6
BYBLOCK
 62
     0
  5
113D
 10
568.650911
 20
55.328564
 30
0.0
  0
POINT
  8
DEFPOINTS
  6
BYBLOCK
 62
     0
  5
113E
 10
613.957222
 20
55.328564
 30
0.0
  0
ENDBLK
  8
0
  5
113F
  0
ENDSEC
  0
SECTION
  2
ENTITIES
  0
LINE
  8
F01_OUT
  5
BFD
 10
42.390943
 20
159.977427
 30
0.0
 11
44.512263
 21
162.098748
 31
0.0
1001
ACAD
1000
RTMaterial
1005
0
  0
LINE
  8
F01_OUT
  5
BFE
 10
41.330283
 20
163.159408
 30
0.0
 11
45.572923
 21
158.916767
 31
0.0
1001
ACAD
1000
RTMaterial
1005
0
  0
CIRCLE
  8
F01_OUT
  5
BFF
 10
43.451603
 20
161.038088
 30
0.0
 40
3.0
1001
ACAD
1000
RTMaterial
1005
0
  0
LINE
  8
F01_OUT
  5
C00
 10
51.090943
 20
159.977427
 30
0.0
 11
53.212263
 21
162.098748
 31
0.0
1001
ACAD
1000
RTMaterial
1005
0
  0
LINE
  8
F01_OUT
  5
C01
 10
50.030283
 20
163.159408
 30
0.0
 11
54.272923
 21
158.916767
 31
0.0
1001
ACAD
1000
RTMaterial
1005
0
  0
CIRCLE
  8
F01_OUT
  5
C02
 10
52.151603
 20
161.038088
 30
0.0
 40
3.0
1001
ACAD
1000
RTMaterial
1005
0
  0
LINE
  8
F01_OUT
  5
C03
 10
59.790943
 20
159.977427
 30
0.0
 11
61.912263
 21
162.098748
 31
0.0
1001
ACAD
1000
RTMaterial
1005
0
  0
LINE
  8
F01_OUT
  5
C04
 10
58.730283
 20
163.159408
 30
0.0
 11
62.972923
 21
158.916767
 31
0.0
1001
ACAD
1000
RTMaterial
1005
0
  0
CIRCLE
  8
F01_OUT
  5
C05
 10
60.851603
 20
161.038088
 30
0.0
 40
3.0
1001
ACAD
1000
RTMaterial
1005
0
  0
LINE
  8
F01_OUT
  5
C06
 10
68.490943
 20
159.977427
 30
0.0
 11
70.612263
 21
162.098748
 31
0.0
1001
ACAD
1000
RTMaterial
1005
0
  0
LINE
  8
F01_OUT
  5
C07
 10
67.430283
 20
163.159408
 30
0.0
 11
71.672923
 21
158.916767
 31
0.0
1001
ACAD
1000
RTMaterial
1005
0
  0
CIRCLE
  8
F01_OUT
  5
C08
 10
69.551603
 20
161.038088
 30
0.0
 40
3.0
1001
ACAD
1000
RTMaterial
1005
0
  0
LINE
  8
F01_OUT
  5
C09
 10
77.190943
 20
159.977427
 30
0.0
 11
79.312263
 21
162.098748
 31
0.0
1001
ACAD
1000
RTMaterial
1005
0
  0
LINE
  8
F01_OUT
  5
C0A
 10
76.130283
 20
163.159408
 30
0.0
 11
80.372923
 21
158.916767
 31
0.0
1001
ACAD
1000
RTMaterial
1005
0
  0
CIRCLE
  8
F01_OUT
  5
C0B
 10
78.251603
 20
161.038088
 30
0.0
 40
3.0
1001
ACAD
1000
RTMaterial
1005
0
  0
LINE
  8
F01_OUT
  5
C0C
 10
77.190943
 20
190.977427
 30
0.0
 11
79.312263
 21
193.098748
 31
0.0
1001
ACAD
1000
RTMaterial
1005
0
  0
LINE
  8
F01_OUT
  5
C0D
 10
76.130283
 20
194.159408
 30
0.0
 11
80.372923
 21
189.916767
 31
0.0
1001
ACAD
1000
RTMaterial
1005
0
  0
CIRCLE
  8
F01_OUT
  5
C0E
 10
78.251603
 20
192.038088
 30
0.0
 40
3.0
1001
ACAD
1000
RTMaterial
1005
0
  0
LINE
  8
F01_OUT
  5
C0F
 10
68.490943
 20
190.977427
 30
0.0
 11
70.612263
 21
193.098748
 31
0.0
1001
ACAD
1000
RTMaterial
1005
0
  0
LINE
  8
F01_OUT
  5
C10
 10
67.430283
 20
194.159408
 30
0.0
 11
71.672923
 21
189.916767
 31
0.0
1001
ACAD
1000
RTMaterial
1005
0
  0
CIRCLE
  8
F01_OUT
  5
C11
 10
69.551603
 20
192.038088
 30
0.0
 40
3.0
1001
ACAD
1000
RTMaterial
1005
0
  0
LINE
  8
F01_OUT
  5
C12
 10
59.790943
 20
190.977427
 30
0.0
 11
61.912263
 21
193.098748
 31
0.0
1001
ACAD
1000
RTMaterial
1005
0
  0
LINE
  8
F01_OUT
  5
C13
 10
58.730283
 20
194.159408
 30
0.0
 11
62.972923
 21
189.916767
 31
0.0
1001
ACAD
1000
RTMaterial
1005
0
  0
CIRCLE
  8
F01_OUT
  5
C14
 10
60.851603
 20
192.038088
 30
0.0
 40
3.0
1001
ACAD
1000
RTMaterial
1005
0
  0
LINE
  8
F01_OUT
  5
C15
 10
51.090943
 20
190.977427
 30
0.0
 11
53.212263
 21
193.098748
 31
0.0
1001
ACAD
1000
RTMaterial
1005
0
  0
LINE
  8
F01_OUT
  5
C16
 10
50.030283
 20
194.159408
 30
0.0
 11
54.272923
 21
189.916767
 31
0.0
1001
ACAD
1000
RTMaterial
1005
0
  0
CIRCLE
  8
F01_OUT
  5
C17
 10
52.151603
 20
192.038088
 30
0.0
 40
3.0
1001
ACAD
1000
RTMaterial
1005
0
  0
LINE
  8
F01_OUT
  5
C18
 10
42.390943
 20
190.977427
 30
0.0
 11
44.512263
 21
193.098748
 31
0.0
1001
ACAD
1000
RTMaterial
1005
0
  0
LINE
  8
F01_OUT
  5
C19
 10
41.330283
 20
194.159408
 30
0.0
 11
45.572923
 21
189.916767
 31
0.0
1001
ACAD
1000
RTMaterial
1005
0
  0
LINE
  8
F01_OUT
  5
C1A
 10
77.401603
 20
166.038088
 30
0.0
 11
77.401603
 21
168.538088
 31
0.0
1001
ACAD
1000
RTMaterial
1005
0
  0
LINE
  8
F01_OUT
  5
C1B
 10
79.101603
 20
166.038088
 30
0.0
 11
77.401603
 21
166.038088
 31
0.0
1001
ACAD
1000
RTMaterial
1005
0
  0
LINE
  8
F01_OUT
  5
C1C
 10
80.101603
 20
167.338088
 30
0.0
 11
80.101603
 21
168.538088
 31
0.0
1001
ACAD
1000
RTMaterial
1005
0
  0
LINE
  8
F01_OUT
  5
C1D
 10
79.101603
 20
166.038088
 30
0.0
 11
79.101603
 21
167.338088
 31
0.0
1001
ACAD
1000
RTMaterial
1005
0
  0
LINE
  8
F01_OUT
  5
C1E
 10
80.101603
 20
167.338088
 30
0.0
 11
79.101603
 21
167.338088
 31
0.0
1001
ACAD
1000
RTMaterial
1005
0
  0
LINE
  8
F01_OUT
  5
C1F
 10
80.101603
 20
168.538088
 30
0.0
 11
77.401603
 21
168.538088
 31
0.0
1001
ACAD
1000
RTMaterial
1005
0
  0
CIRCLE
  8
F06_CUT
  5
C20
 10
113.28698
 20
156.538088
 30
0.0
 40
2.25
1001
ACAD
1000
RTMaterial
1005
0
  0
CIRCLE
  8
F06_CUT
  5
C21
 10
148.28698
 20
156.538088
 30
0.0
 40
2.25
1001
ACAD
1000
RTMaterial
1005
0
  0
CIRCLE
  8
F06_CUT
  5
C22
 10
148.28698
 20
196.538088
 30
0.0
 40
2.25
1001
ACAD
1000
RTMaterial
1005
0
  0
CIRCLE
  8
F06_CUT
  5
C23
 10
113.28698
 20
196.538088
 30
0.0
 40
2.25
1001
ACAD
1000
RTMaterial
1005
0
  0
ARC
  8
F07_COO
  5
C24
 10
108.58698
 20
200.238088
 30
0.0
 40
0.3
 50
90.0
 51
180.0
1001
ACAD
1000
RTMaterial
1005
0
  0
ARC
  8
F07_COO
  5
C25
 10
152.98698
 20
200.238088
 30
0.0
 40
0.3
 50
0.0
 51
90.0
1001
ACAD
1000
RTMaterial
1005
0
  0
ARC
  8
F07_COO
  5
C26
 10
152.98698
 20
152.838088
 30
0.0
 40
0.3
 50
270.0
 51
0.0
1001
ACAD
1000
RTMaterial
1005
0
  0
ARC
  8
F07_COO
  5
C27
 10
108.58698
 20
152.838088
 30
0.0
 40
0.3
 50
180.0
 51
270.0
1001
ACAD
1000
RTMaterial
1005
0
  0
LINE
  8
F07_COO
  5
C28
 10
152.98698
 20
152.538088
 30
0.0
 11
108.58698
 21
152.538088
 31
0.0
1001
ACAD
1000
RTMaterial
1005
0
  0
LINE
  8
F07_COO
  5
C29
 10
108.58698
 20
200.538088
 30
0.0
 11
152.98698
 21
200.538088
 31
0.0
1001
ACAD
1000
RTMaterial
1005
0
  0
LINE
  8
F07_COO
  5
C2A
 10
153.28698
 20
152.838088
 30
0.0
 11
153.28698
 21
200.238088
 31
0.0
1001
ACAD
1000
RTMaterial
1005
0
  0
LINE
  8
F07_COO
  5
C2B
 10
108.28698
 20
152.838088
 30
0.0
 11
108.28698
 21
200.238088
 31
0.0
1001
ACAD
1000
RTMaterial
1005
0
  0
LINE
  8
F01_OUT
  5
C2C
 10
82.251603
 20
188.038088
 30
0.0
 11
83.351603
 21
188.038088
 31
0.0
1001
ACAD
1000
RTMaterial
1005
0
  0
LINE
  8
F01_OUT
  5
C2D
 10
82.126603
 20
188.038088
 30
0.0
 11
82.251603
 21
188.038088
 31
0.0
1001
ACAD
1000
RTMaterial
1005
0
  0
LINE
  8
F01_OUT
  5
C2E
 10
39.576603
 20
196.038088
 30
0.0
 11
39.751603
 21
196.038088
 31
0.0
1001
ACAD
1000
RTMaterial
1005
0
  0
LINE
  8
F01_OUT
  5
C2F
 10
39.751603
 20
197.038088
 30
0.0
 11
39.576603
 21
197.038088
 31
0.0
1001
ACAD
1000
RTMaterial
1005
0
  0
LINE
  8
F01_OUT
  5
C30
 10
38.351603
 20
195.938088
 30
0.0
 11
39.751603
 21
195.938088
 31
0.0
1001
ACAD
1000
RTMaterial
1005
0
  0
LINE
  8
F01_OUT
  5
C31
 10
44.86425
 20
197.038088
 30
0.0
 11
46.474102
 21
197.038088
 31
0.0
1001
ACAD
1000
RTMaterial
1005
0
  0
LINE
  8
F01_OUT
  5
C32
 10
39.751603
 20
197.038088
 30
0.0
 11
41.838956
 21
197.038088
 31
0.0
1001
ACAD
1000
RTMaterial
1005
0
  0
LINE
  8
F01_OUT
  5
C33
 10
47.326603
 20
197.038088
 30
0.0
 11
47.651603
 21
197.038088
 31
0.0
1001
ACAD
1000
RTMaterial
1005
0
  0
LINE
  8
F01_OUT
  5
C34
 10
46.474102
 20
197.038088
 30
0.0
 11
47.326603
 21
197.038088
 31
0.0
1001
ACAD
1000
RTMaterial
1005
0
  0
LINE
  8
F01_OUT
  5
C35
 10
41.838956
 20
197.038088
 30
0.0
 11
44.86425
 21
197.038088
 31
0.0
1001
ACAD
1000
RTMaterial
1005
0
  0
LINE
  8
F01_OUT
  5
C36
 10
39.751603
 20
196.038088
 30
0.0
 11
39.751603
 21
195.938088
 31
0.0
1001
ACAD
1000
RTMaterial
1005
0
  0
LINE
  8
F01_OUT
  5
C37
 10
39.751603
 20
197.038088
 30
0.0
 11
39.751603
 21
196.038088
 31
0.0
1001
ACAD
1000
RTMaterial
1005
0
  0
LINE
  8
F01_OUT
  5
C38
 10
81.951603
 20
196.038088
 30
0.0
 11
82.126603
 21
196.038088
 31
0.0
1001
ACAD
1000
RTMaterial
1005
0
  0
LINE
  8
F01_OUT
  5
C39
 10
82.126603
 20
197.038088
 30
0.0
 11
81.951603
 21
197.038088
 31
0.0
1001
ACAD
1000
RTMaterial
1005
0
  0
LINE
  8
F01_OUT
  5
C3A
 10
73.851603
 20
197.038088
 30
0.0
 11
73.751603
 21
197.038088
 31
0.0
1001
ACAD
1000
RTMaterial
1005
0
  0
LINE
  8
F01_OUT
  5
C3B
 10
73.426603
 20
197.038088
 30
0.0
 11
73.751603
 21
197.038088
 31
0.0
1001
ACAD
1000
RTMaterial
1005
0
  0
LINE
  8
F01_OUT
  5
C3C
 10
74.051603
 20
197.038088
 30
0.0
 11
74.051603
 21
188.038088
 31
0.0
1001
ACAD
1000
RTMaterial
1005
0
  0
LINE
  8
F01_OUT
  5
C3D
 10
64.726603
 20
197.038088
 30
0.0
 11
64.751603
 21
197.038088
 31
0.0
1001
ACAD
1000
RTMaterial
1005
0
  0
LINE
  8
F01_OUT
  5
C3E
 10
81.951603
 20
196.038088
 30
0.0
 11
81.951603
 21
195.938088
 31
0.0
1001
ACAD
1000
RTMaterial
1005
0
  0
LINE
  8
F01_OUT
  5
C3F
 10
81.951603
 20
197.038088
 30
0.0
 11
81.951603
 21
196.038088
 31
0.0
1001
ACAD
1000
RTMaterial
1005
0
  0
LINE
  8
F01_OUT
  5
C40
 10
75.229104
 20
197.038088
 30
0.0
 11
76.838956
 21
197.038088
 31
0.0
1001
ACAD
1000
RTMaterial
1005
0
  0
LINE
  8
F01_OUT
  5
C41
 10
79.86425
 20
197.038088
 30
0.0
 11
81.951603
 21
197.038088
 31
0.0
1001
ACAD
1000
RTMaterial
1005
0
  0
LINE
  8
F01_OUT
  5
C42
 10
74.051603
 20
197.038088
 30
0.0
 11
74.376603
 21
197.038088
 31
0.0
1001
ACAD
1000
RTMaterial
1005
0
  0
LINE
  8
F01_OUT
  5
C43
 10
74.376603
 20
197.038088
 30
0.0
 11
75.229104
 21
197.038088
 31
0.0
1001
ACAD
1000
RTMaterial
1005
0
  0
LINE
  8
F01_OUT
  5
C44
 10
76.838956
 20
197.038088
 30
0.0
 11
79.86425
 21
197.038088
 31
0.0
1001
ACAD
1000
RTMaterial
1005
0
  0
LINE
  8
F01_OUT
  5
C45
 10
83.351603
 20
195.938088
 30
0.0
 11
83.351603
 21
195.038088
 31
0.0
1001
ACAD
1000
RTMaterial
1005
0
  0
LINE
  8
F01_OUT
  5
C46
 10
81.951603
 20
195.938088
 30
0.0
 11
83.351603
 21
195.938088
 31
0.0
1001
ACAD
1000
RTMaterial
1005
0
  0
LINE
  8
F01_OUT
  5
C47
 10
81.211983
 20
188.038088
 30
0.0
 11
82.126603
 21
188.038088
 31
0.0
1001
ACAD
1000
RTMaterial
1005
0
  0
LINE
  8
F01_OUT
  5
C48
 10
83.351603
 20
195.038088
 30
0.0
 11
83.351603
 21
188.038088
 31
0.0
1001
ACAD
1000
RTMaterial
1005
0
  0
LINE
  8
F01_OUT
  5
C49
 10
76.651603
 20
188.038088
 30
0.0
 11
79.851603
 21
188.038088
 31
0.0
1001
ACAD
1000
RTMaterial
1005
0
  0
LINE
  8
F01_OUT
  5
C4A
 10
74.051603
 20
188.038088
 30
0.0
 11
76.651603
 21
188.038088
 31
0.0
1001
ACAD
1000
RTMaterial
1005
0
  0
LINE
  8
F01_OUT
  5
C4B
 10
79.851603
 20
188.038088
 30
0.0
 11
81.211983
 21
188.038088
 31
0.0
1001
ACAD
1000
RTMaterial
1005
0
  0
LINE
  8
F01_OUT
  5
C4C
 10
47.951603
 20
197.038088
 30
0.0
 11
47.851603
 21
197.038088
 31
0.0
1001
ACAD
1000
RTMaterial
1005
0
  0
LINE
  8
F01_OUT
  5
C4D
 10
47.851603
 20
197.038088
 30
0.0
 11
47.651603
 21
197.038088
 31
0.0
1001
ACAD
1000
RTMaterial
1005
0
  0
LINE
  8
F01_OUT
  5
C4E
 10
48.276603
 20
197.038088
 30
0.0
 11
48.351603
 21
197.038088
 31
0.0
1001
ACAD
1000
RTMaterial
1005
0
  0
LINE
  8
F01_OUT
  5
C4F
 10
48.351603
 20
197.038088
 30
0.0
 11
48.651603
 21
197.038088
 31
0.0
1001
ACAD
1000
RTMaterial
1005
0
  0
LINE
  8
F01_OUT
  5
C50
 10
47.951603
 20
197.038088
 30
0.0
 11
48.276603
 21
197.038088
 31
0.0
1001
ACAD
1000
RTMaterial
1005
0
  0
LINE
  8
F01_OUT
  5
C51
 10
48.651603
 20
197.038088
 30
0.0
 11
49.651603
 21
197.038088
 31
0.0
1001
ACAD
1000
RTMaterial
1005
0
  0
LINE
  8
F01_OUT
  5
C52
 10
47.651603
 20
197.038088
 30
0.0
 11
47.651603
 21
188.038088
 31
0.0
1001
ACAD
1000
RTMaterial
1005
0
  0
LINE
  8
F01_OUT
  5
C53
 10
47.951603
 20
197.038088
 30
0.0
 11
47.951603
 21
188.038088
 31
0.0
1001
ACAD
1000
RTMaterial
1005
0
  0
LINE
  8
F01_OUT
  5
C54
 10
56.951603
 20
197.038088
 30
0.0
 11
56.976603
 21
197.038088
 31
0.0
1001
ACAD
1000
RTMaterial
1005
0
  0
LINE
  8
F01_OUT
  5
C55
 10
56.651603
 20
197.038088
 30
0.0
 11
56.351603
 21
197.038088
 31
0.0
1001
ACAD
1000
RTMaterial
1005
0
  0
LINE
  8
F01_OUT
  5
C56
 10
56.851603
 20
197.038088
 30
0.0
 11
56.951603
 21
197.038088
 31
0.0
1001
ACAD
1000
RTMaterial
1005
0
  0
LINE
  8
F01_OUT
  5
C57
 10
56.651603
 20
197.038088
 30
0.0
 11
56.651603
 21
188.038088
 31
0.0
1001
ACAD
1000
RTMaterial
1005
0
  0
LINE
  8
F01_OUT
  5
C58
 10
56.651603
 20
197.038088
 30
0.0
 11
56.851603
 21
197.038088
 31
0.0
1001
ACAD
1000
RTMaterial
1005
0
  0
LINE
  8
F01_OUT
  5
C59
 10
56.976603
 20
197.038088
 30
0.0
 11
59.851603
 21
197.038088
 31
0.0
1001
ACAD
1000
RTMaterial
1005
0
  0
LINE
  8
F01_OUT
  5
C5A
 10
73.351603
 20
197.038088
 30
0.0
 11
73.426603
 21
197.038088
 31
0.0
1001
ACAD
1000
RTMaterial
1005
0
  0
LINE
  8
F01_OUT
  5
C5B
 10
73.051603
 20
197.038088
 30
0.0
 11
73.351603
 21
197.038088
 31
0.0
1001
ACAD
1000
RTMaterial
1005
0
  0
LINE
  8
F01_OUT
  5
C5C
 10
72.051603
 20
197.038088
 30
0.0
 11
73.051603
 21
197.038088
 31
0.0
1001
ACAD
1000
RTMaterial
1005
0
  0
LINE
  8
F01_OUT
  5
C5D
 10
73.751603
 20
197.038088
 30
0.0
 11
73.751603
 21
188.038088
 31
0.0
1001
ACAD
1000
RTMaterial
1005
0
  0
LINE
  8
F01_OUT
  5
C5E
 10
68.301603
 20
197.038088
 30
0.0
 11
72.051603
 21
197.038088
 31
0.0
1001
ACAD
1000
RTMaterial
1005
0
  0
LINE
  8
F01_OUT
  5
C5F
 10
67.351603
 20
197.038088
 30
0.0
 11
68.301603
 21
197.038088
 31
0.0
1001
ACAD
1000
RTMaterial
1005
0
  0
LINE
  8
F01_OUT
  5
C60
 10
66.751603
 20
197.038088
 30
0.0
 11
67.351603
 21
197.038088
 31
0.0
1001
ACAD
1000
RTMaterial
1005
0
  0
LINE
  8
F01_OUT
  5
C61
 10
65.676603
 20
197.038088
 30
0.0
 11
65.751603
 21
197.038088
 31
0.0
1001
ACAD
1000
RTMaterial
1005
0
  0
LINE
  8
F01_OUT
  5
C62
 10
65.351603
 20
197.038088
 30
0.0
 11
65.676603
 21
197.038088
 31
0.0
1001
ACAD
1000
RTMaterial
1005
0
  0
LINE
  8
F01_OUT
  5
C63
 10
65.351603
 20
197.038088
 30
0.0
 11
65.051603
 21
197.038088
 31
0.0
1001
ACAD
1000
RTMaterial
1005
0
  0
LINE
  8
F01_OUT
  5
C64
 10
65.351603
 20
197.038088
 30
0.0
 11
65.351603
 21
188.038088
 31
0.0
1001
ACAD
1000
RTMaterial
1005
0
  0
LINE
  8
F01_OUT
  5
C65
 10
65.751603
 20
197.038088
 30
0.0
 11
66.751603
 21
197.038088
 31
0.0
1001
ACAD
1000
RTMaterial
1005
0
  0
LINE
  8
F01_OUT
  5
C66
 10
53.401603
 20
197.038088
 30
0.0
 11
54.351603
 21
197.038088
 31
0.0
1001
ACAD
1000
RTMaterial
1005
0
  0
LINE
  8
F01_OUT
  5
C67
 10
54.351603
 20
197.038088
 30
0.0
 11
54.951603
 21
197.038088
 31
0.0
1001
ACAD
1000
RTMaterial
1005
0
  0
LINE
  8
F01_OUT
  5
C68
 10
55.951603
 20
197.038088
 30
0.0
 11
56.026603
 21
197.038088
 31
0.0
1001
ACAD
1000
RTMaterial
1005
0
  0
LINE
  8
F01_OUT
  5
C69
 10
56.026603
 20
197.038088
 30
0.0
 11
56.351603
 21
197.038088
 31
0.0
1001
ACAD
1000
RTMaterial
1005
0
  0
LINE
  8
F01_OUT
  5
C6A
 10
56.351603
 20
197.038088
 30
0.0
 11
56.351603
 21
188.038088
 31
0.0
1001
ACAD
1000
RTMaterial
1005
0
  0
LINE
  8
F01_OUT
  5
C6B
 10
54.951603
 20
197.038088
 30
0.0
 11
55.951603
 21
197.038088
 31
0.0
1001
ACAD
1000
RTMaterial
1005
0
  0
LINE
  8
F01_OUT
  5
C6C
 10
49.651603
 20
197.038088
 30
0.0
 11
53.401603
 21
197.038088
 31
0.0
1001
ACAD
1000
RTMaterial
1005
0
  0
LINE
  8
F01_OUT
  5
C6D
 10
74.051603
 20
188.038088
 30
0.0
 11
73.751603
 21
188.038088
 31
0.0
1001
ACAD
1000
RTMaterial
1005
0
  0
LINE
  8
F01_OUT
  5
C6E
 10
72.301603
 20
188.038088
 30
0.0
 11
73.751603
 21
188.038088
 31
0.0
1001
ACAD
1000
RTMaterial
1005
0
  0
LINE
  8
F01_OUT
  5
C6F
 10
74.051603
 20
197.038088
 30
0.0
 11
73.851603
 21
197.038088
 31
0.0
1001
ACAD
1000
RTMaterial
1005
0
  0
LINE
  8
F01_OUT
  5
C70
 10
59.851603
 20
197.038088
 30
0.0
 11
61.851603
 21
197.038088
 31
0.0
1001
ACAD
1000
RTMaterial
1005
0
  0
LINE
  8
F01_OUT
  5
C71
 10
64.751603
 20
197.038088
 30
0.0
 11
64.851603
 21
197.038088
 31
0.0
1001
ACAD
1000
RTMaterial
1005
0
  0
LINE
  8
F01_OUT
  5
C72
 10
65.051603
 20
197.038088
 30
0.0
 11
65.051603
 21
188.038088
 31
0.0
1001
ACAD
1000
RTMaterial
1005
0
  0
LINE
  8
F01_OUT
  5
C73
 10
64.851603
 20
197.038088
 30
0.0
 11
65.051603
 21
197.038088
 31
0.0
1001
ACAD
1000
RTMaterial
1005
0
  0
LINE
  8
F01_OUT
  5
C74
 10
61.851603
 20
197.038088
 30
0.0
 11
64.726603
 21
197.038088
 31
0.0
1001
ACAD
1000
RTMaterial
1005
0
  0
LINE
  8
F01_OUT
  5
C75
 10
71.801603
 20
188.038088
 30
0.0
 11
72.301603
 21
188.038088
 31
0.0
1001
ACAD
1000
RTMaterial
1005
0
  0
LINE
  8
F01_OUT
  5
C76
 10
71.551603
 20
188.038088
 30
0.0
 11
71.801603
 21
188.038088
 31
0.0
1001
ACAD
1000
RTMaterial
1005
0
  0
LINE
  8
F01_OUT
  5
C77
 10
71.301603
 20
188.038088
 30
0.0
 11
71.551603
 21
188.038088
 31
0.0
1001
ACAD
1000
RTMaterial
1005
0
  0
LINE
  8
F01_OUT
  5
C78
 10
69.551603
 20
188.038088
 30
0.0
 11
71.301603
 21
188.038088
 31
0.0
1001
ACAD
1000
RTMaterial
1005
0
  0
LINE
  8
F01_OUT
  5
C79
 10
58.101603
 20
188.038088
 30
0.0
 11
58.601603
 21
188.038088
 31
0.0
1001
ACAD
1000
RTMaterial
1005
0
  0
LINE
  8
F01_OUT
  5
C7A
 10
58.601603
 20
188.038088
 30
0.0
 11
59.101603
 21
188.038088
 31
0.0
1001
ACAD
1000
RTMaterial
1005
0
  0
LINE
  8
F01_OUT
  5
C7B
 10
62.601603
 20
188.038088
 30
0.0
 11
63.101603
 21
188.038088
 31
0.0
1001
ACAD
1000
RTMaterial
1005
0
  0
LINE
  8
F01_OUT
  5
C7C
 10
63.101603
 20
188.038088
 30
0.0
 11
63.601603
 21
188.038088
 31
0.0
1001
ACAD
1000
RTMaterial
1005
0
  0
LINE
  8
F01_OUT
  5
C7D
 10
63.601603
 20
188.038088
 30
0.0
 11
65.051603
 21
188.038088
 31
0.0
1001
ACAD
1000
RTMaterial
1005
0
  0
LINE
  8
F01_OUT
  5
C7E
 10
53.901603
 20
188.038088
 30
0.0
 11
54.401603
 21
188.038088
 31
0.0
1001
ACAD
1000
RTMaterial
1005
0
  0
LINE
  8
F01_OUT
  5
C7F
 10
54.401603
 20
188.038088
 30
0.0
 11
54.901603
 21
188.038088
 31
0.0
1001
ACAD
1000
RTMaterial
1005
0
  0
LINE
  8
F01_OUT
  5
C80
 10
54.901603
 20
188.038088
 30
0.0
 11
56.351603
 21
188.038088
 31
0.0
1001
ACAD
1000
RTMaterial
1005
0
  0
LINE
  8
F01_OUT
  5
C81
 10
56.651603
 20
188.038088
 30
0.0
 11
56.351603
 21
188.038088
 31
0.0
1001
ACAD
1000
RTMaterial
1005
0
  0
LINE
  8
F01_OUT
  5
C82
 10
52.151603
 20
188.038088
 30
0.0
 11
53.901603
 21
188.038088
 31
0.0
1001
ACAD
1000
RTMaterial
1005
0
  0
LINE
  8
F01_OUT
  5
C83
 10
59.101603
 20
188.038088
 30
0.0
 11
62.601603
 21
188.038088
 31
0.0
1001
ACAD
1000
RTMaterial
1005
0
  0
LINE
  8
F01_OUT
  5
C84
 10
56.651603
 20
188.038088
 30
0.0
 11
58.101603
 21
188.038088
 31
0.0
1001
ACAD
1000
RTMaterial
1005
0
  0
LINE
  8
F01_OUT
  5
C85
 10
66.801603
 20
188.038088
 30
0.0
 11
67.301603
 21
188.038088
 31
0.0
1001
ACAD
1000
RTMaterial
1005
0
  0
LINE
  8
F01_OUT
  5
C86
 10
67.301603
 20
188.038088
 30
0.0
 11
67.801603
 21
188.038088
 31
0.0
1001
ACAD
1000
RTMaterial
1005
0
  0
LINE
  8
F01_OUT
  5
C87
 10
65.351603
 20
188.038088
 30
0.0
 11
65.051603
 21
188.038088
 31
0.0
1001
ACAD
1000
RTMaterial
1005
0
  0
LINE
  8
F01_OUT
  5
C88
 10
67.801603
 20
188.038088
 30
0.0
 11
69.551603
 21
188.038088
 31
0.0
1001
ACAD
1000
RTMaterial
1005
0
  0
LINE
  8
F01_OUT
  5
C89
 10
65.351603
 20
188.038088
 30
0.0
 11
66.801603
 21
188.038088
 31
0.0
1001
ACAD
1000
RTMaterial
1005
0
  0
LINE
  8
F01_OUT
  5
C8A
 10
45.701603
 20
188.038088
 30
0.0
 11
46.201603
 21
188.038088
 31
0.0
1001
ACAD
1000
RTMaterial
1005
0
  0
LINE
  8
F01_OUT
  5
C8B
 10
45.201603
 20
188.038088
 30
0.0
 11
45.260212
 21
188.038088
 31
0.0
1001
ACAD
1000
RTMaterial
1005
0
  0
LINE
  8
F01_OUT
  5
C8C
 10
45.260212
 20
188.038088
 30
0.0
 11
45.701603
 21
188.038088
 31
0.0
1001
ACAD
1000
RTMaterial
1005
0
  0
LINE
  8
F01_OUT
  5
C8D
 10
46.201603
 20
188.038088
 30
0.0
 11
47.651603
 21
188.038088
 31
0.0
1001
ACAD
1000
RTMaterial
1005
0
  0
LINE
  8
F01_OUT
  5
C8E
 10
41.201603
 20
188.038088
 30
0.0
 11
41.701603
 21
188.038088
 31
0.0
1001
ACAD
1000
RTMaterial
1005
0
  0
LINE
  8
F01_OUT
  5
C8F
 10
49.401603
 20
188.038088
 30
0.0
 11
49.901603
 21
188.038088
 31
0.0
1001
ACAD
1000
RTMaterial
1005
0
  0
LINE
  8
F01_OUT
  5
C90
 10
49.901603
 20
188.038088
 30
0.0
 11
50.151603
 21
188.038088
 31
0.0
1001
ACAD
1000
RTMaterial
1005
0
  0
LINE
  8
F01_OUT
  5
C91
 10
47.951603
 20
188.038088
 30
0.0
 11
47.651603
 21
188.038088
 31
0.0
1001
ACAD
1000
RTMaterial
1005
0
  0
LINE
  8
F01_OUT
  5
C92
 10
47.951603
 20
188.038088
 30
0.0
 11
49.401603
 21
188.038088
 31
0.0
1001
ACAD
1000
RTMaterial
1005
0
  0
LINE
  8
F01_OUT
  5
C93
 10
41.701603
 20
188.038088
 30
0.0
 11
45.201603
 21
188.038088
 31
0.0
1001
ACAD
1000
RTMaterial
1005
0
  0
LINE
  8
F01_OUT
  5
C94
 10
50.151603
 20
188.038088
 30
0.0
 11
50.401603
 21
188.038088
 31
0.0
1001
ACAD
1000
RTMaterial
1005
0
  0
LINE
  8
F01_OUT
  5
C95
 10
50.401603
 20
188.038088
 30
0.0
 11
52.151603
 21
188.038088
 31
0.0
1001
ACAD
1000
RTMaterial
1005
0
  0
LINE
  8
F01_OUT
  5
C96
 10
38.351603
 20
195.938088
 30
0.0
 11
38.351603
 21
195.038088
 31
0.0
1001
ACAD
1000
RTMaterial
1005
0
  0
LINE
  8
F01_OUT
  5
C97
 10
38.351603
 20
195.038088
 30
0.0
 11
38.351603
 21
188.038088
 31
0.0
1001
ACAD
1000
RTMaterial
1005
0
  0
LINE
  8
F01_OUT
  5
C98
 10
40.701603
 20
188.038088
 30
0.0
 11
41.201603
 21
188.038088
 31
0.0
1001
ACAD
1000
RTMaterial
1005
0
  0
LINE
  8
F01_OUT
  5
C99
 10
39.451603
 20
188.038088
 30
0.0
 11
39.576603
 21
188.038088
 31
0.0
1001
ACAD
1000
RTMaterial
1005
0
  0
LINE
  8
F01_OUT
  5
C9A
 10
39.576603
 20
188.038088
 30
0.0
 11
40.701603
 21
188.038088
 31
0.0
1001
ACAD
1000
RTMaterial
1005
0
  0
LINE
  8
F01_OUT
  5
C9B
 10
38.351603
 20
188.038088
 30
0.0
 11
39.451603
 21
188.038088
 31
0.0
1001
ACAD
1000
RTMaterial
1005
0
  0
ARC
  8
F01_OUT
  5
C9C
 10
70.151603
 20
178.238088
 30
0.0
 40
0.3
 50
0.0
 51
90.0
1001
ACAD
1000
RTMaterial
1005
0
  0
ARC
  8
F01_OUT
  5
C9D
 10
70.151603
 20
174.838088
 30
0.0
 40
0.3
 50
270.0
 51
0.0
1001
ACAD
1000
RTMaterial
1005
0
  0
LINE
  8
F01_OUT
  5
C9E
 10
39.576603
 20
188.038088
 30
0.0
 11
40.701603
 21
188.038088
 31
0.0
1001
ACAD
1000
RTMaterial
1005
0
  0
LINE
  8
F01_OUT
  5
C9F
 10
39.451603
 20
188.038088
 30
0.0
 11
39.576603
 21
188.038088
 31
0.0
1001
ACAD
1000
RTMaterial
1005
0
  0
LINE
  8
F01_OUT
  5
CA0
 10
40.701603
 20
188.038088
 30
0.0
 11
41.201603
 21
188.038088
 31
0.0
1001
ACAD
1000
RTMaterial
1005
0
  0
LINE
  8
F01_OUT
  5
CA1
 10
50.401603
 20
188.038088
 30
0.0
 11
52.151603
 21
188.038088
 31
0.0
1001
ACAD
1000
RTMaterial
1005
0
  0
LINE
  8
F01_OUT
  5
CA2
 10
50.151603
 20
188.038088
 30
0.0
 11
50.401603
 21
188.038088
 31
0.0
1001
ACAD
1000
RTMaterial
1005
0
  0
LINE
  8
F01_OUT
  5
CA3
 10
41.701603
 20
188.038088
 30
0.0
 11
45.201603
 21
188.038088
 31
0.0
1001
ACAD
1000
RTMaterial
1005
0
  0
LINE
  8
F01_OUT
  5
CA4
 10
47.951603
 20
188.038088
 30
0.0
 11
49.401603
 21
188.038088
 31
0.0
1001
ACAD
1000
RTMaterial
1005
0
  0
LINE
  8
F01_OUT
  5
CA5
 10
47.951603
 20
188.038088
 30
0.0
 11
47.651603
 21
188.038088
 31
0.0
1001
ACAD
1000
RTMaterial
1005
0
  0
LINE
  8
F01_OUT
  5
CA6
 10
49.901603
 20
188.038088
 30
0.0
 11
50.151603
 21
188.038088
 31
0.0
1001
ACAD
1000
RTMaterial
1005
0
  0
LINE
  8
F01_OUT
  5
CA7
 10
49.401603
 20
188.038088
 30
0.0
 11
49.901603
 21
188.038088
 31
0.0
1001
ACAD
1000
RTMaterial
1005
0
  0
LINE
  8
F01_OUT
  5
CA8
 10
41.201603
 20
188.038088
 30
0.0
 11
41.701603
 21
188.038088
 31
0.0
1001
ACAD
1000
RTMaterial
1005
0
  0
LINE
  8
F01_OUT
  5
CA9
 10
46.201603
 20
188.038088
 30
0.0
 11
47.651603
 21
188.038088
 31
0.0
1001
ACAD
1000
RTMaterial
1005
0
  0
LINE
  8
F01_OUT
  5
CAA
 10
45.260212
 20
188.038088
 30
0.0
 11
45.701603
 21
188.038088
 31
0.0
1001
ACAD
1000
RTMaterial
1005
0
  0
LINE
  8
F01_OUT
  5
CAB
 10
45.201603
 20
188.038088
 30
0.0
 11
45.260212
 21
188.038088
 31
0.0
1001
ACAD
1000
RTMaterial
1005
0
  0
LINE
  8
F01_OUT
  5
CAC
 10
45.701603
 20
188.038088
 30
0.0
 11
46.201603
 21
188.038088
 31
0.0
1001
ACAD
1000
RTMaterial
1005
0
  0
LINE
  8
F01_OUT
  5
CAD
 10
65.351603
 20
188.038088
 30
0.0
 11
66.801603
 21
188.038088
 31
0.0
1001
ACAD
1000
RTMaterial
1005
0
  0
LINE
  8
F01_OUT
  5
CAE
 10
67.801603
 20
188.038088
 30
0.0
 11
69.551603
 21
188.038088
 31
0.0
1001
ACAD
1000
RTMaterial
1005
0
  0
LINE
  8
F01_OUT
  5
CAF
 10
65.351603
 20
188.038088
 30
0.0
 11
65.051603
 21
188.038088
 31
0.0
1001
ACAD
1000
RTMaterial
1005
0
  0
LINE
  8
F01_OUT
  5
CB0
 10
67.301603
 20
188.038088
 30
0.0
 11
67.801603
 21
188.038088
 31
0.0
1001
ACAD
1000
RTMaterial
1005
0
  0
LINE
  8
F01_OUT
  5
CB1
 10
66.801603
 20
188.038088
 30
0.0
 11
67.301603
 21
188.038088
 31
0.0
1001
ACAD
1000
RTMaterial
1005
0
  0
LINE
  8
F01_OUT
  5
CB2
 10
56.651603
 20
188.038088
 30
0.0
 11
58.101603
 21
188.038088
 31
0.0
1001
ACAD
1000
RTMaterial
1005
0
  0
LINE
  8
F01_OUT
  5
CB3
 10
59.101603
 20
188.038088
 30
0.0
 11
62.601603
 21
188.038088
 31
0.0
1001
ACAD
1000
RTMaterial
1005
0
  0
LINE
  8
F01_OUT
  5
CB4
 10
52.151603
 20
188.038088
 30
0.0
 11
53.901603
 21
188.038088
 31
0.0
1001
ACAD
1000
RTMaterial
1005
0
  0
LINE
  8
F01_OUT
  5
CB5
 10
56.651603
 20
188.038088
 30
0.0
 11
56.351603
 21
188.038088
 31
0.0
1001
ACAD
1000
RTMaterial
1005
0
  0
LINE
  8
F01_OUT
  5
CB6
 10
54.901603
 20
188.038088
 30
0.0
 11
56.351603
 21
188.038088
 31
0.0
1001
ACAD
1000
RTMaterial
1005
0
  0
LINE
  8
F01_OUT
  5
CB7
 10
54.401603
 20
188.038088
 30
0.0
 11
54.901603
 21
188.038088
 31
0.0
1001
ACAD
1000
RTMaterial
1005
0
  0
LINE
  8
F01_OUT
  5
CB8
 10
53.901603
 20
188.038088
 30
0.0
 11
54.401603
 21
188.038088
 31
0.0
1001
ACAD
1000
RTMaterial
1005
0
  0
LINE
  8
F01_OUT
  5
CB9
 10
63.601603
 20
188.038088
 30
0.0
 11
65.051603
 21
188.038088
 31
0.0
1001
ACAD
1000
RTMaterial
1005
0
  0
LINE
  8
F01_OUT
  5
CBA
 10
63.101603
 20
188.038088
 30
0.0
 11
63.601603
 21
188.038088
 31
0.0
1001
ACAD
1000
RTMaterial
1005
0
  0
LINE
  8
F01_OUT
  5
CBB
 10
62.601603
 20
188.038088
 30
0.0
 11
63.101603
 21
188.038088
 31
0.0
1001
ACAD
1000
RTMaterial
1005
0
  0
LINE
  8
F01_OUT
  5
CBC
 10
58.601603
 20
188.038088
 30
0.0
 11
59.101603
 21
188.038088
 31
0.0
1001
ACAD
1000
RTMaterial
1005
0
  0
LINE
  8
F01_OUT
  5
CBD
 10
58.101603
 20
188.038088
 30
0.0
 11
58.601603
 21
188.038088
 31
0.0
1001
ACAD
1000
RTMaterial
1005
0
  0
LINE
  8
F01_OUT
  5
CBE
 10
69.551603
 20
188.038088
 30
0.0
 11
71.301603
 21
188.038088
 31
0.0
1001
ACAD
1000
RTMaterial
1005
0
  0
LINE
  8
F01_OUT
  5
CBF
 10
71.301603
 20
188.038088
 30
0.0
 11
71.551603
 21
188.038088
 31
0.0
1001
ACAD
1000
RTMaterial
1005
0
  0
LINE
  8
F01_OUT
  5
CC0
 10
71.551603
 20
188.038088
 30
0.0
 11
71.801603
 21
188.038088
 31
0.0
1001
ACAD
1000
RTMaterial
1005
0
  0
LINE
  8
F01_OUT
  5
CC1
 10
71.801603
 20
188.038088
 30
0.0
 11
72.301603
 21
188.038088
 31
0.0
1001
ACAD
1000
RTMaterial
1005
0
  0
LINE
  8
F01_OUT
  5
CC2
 10
72.301603
 20
188.038088
 30
0.0
 11
73.751603
 21
188.038088
 31
0.0
1001
ACAD
1000
RTMaterial
1005
0
  0
LINE
  8
F01_OUT
  5
CC3
 10
74.051603
 20
188.038088
 30
0.0
 11
73.751603
 21
188.038088
 31
0.0
1001
ACAD
1000
RTMaterial
1005
0
  0
LINE
  8
F01_OUT
  5
CC4
 10
52.151603
 20
165.038088
 30
0.0
 11
50.401603
 21
165.038088
 31
0.0
1001
ACAD
1000
RTMaterial
1005
0
  0
LINE
  8
F01_OUT
  5
CC5
 10
56.351603
 20
165.038088
 30
0.0
 11
54.901603
 21
165.038088
 31
0.0
1001
ACAD
1000
RTMaterial
1005
0
  0
LINE
  8
F01_OUT
  5
CC6
 10
54.901603
 20
165.038088
 30
0.0
 11
54.401603
 21
165.038088
 31
0.0
1001
ACAD
1000
RTMaterial
1005
0
  0
LINE
  8
F01_OUT
  5
CC7
 10
54.401603
 20
165.038088
 30
0.0
 11
53.901603
 21
165.038088
 31
0.0
1001
ACAD
1000
RTMaterial
1005
0
  0
LINE
  8
F01_OUT
  5
CC8
 10
58.601603
 20
165.038088
 30
0.0
 11
58.101603
 21
165.038088
 31
0.0
1001
ACAD
1000
RTMaterial
1005
0
  0
LINE
  8
F01_OUT
  5
CC9
 10
49.901603
 20
165.038088
 30
0.0
 11
49.401603
 21
165.038088
 31
0.0
1001
ACAD
1000
RTMaterial
1005
0
  0
LINE
  8
F01_OUT
  5
CCA
 10
63.101603
 20
165.038088
 30
0.0
 11
62.601603
 21
165.038088
 31
0.0
1001
ACAD
1000
RTMaterial
1005
0
  0
LINE
  8
F01_OUT
  5
CCB
 10
50.151603
 20
165.038088
 30
0.0
 11
49.901603
 21
165.038088
 31
0.0
1001
ACAD
1000
RTMaterial
1005
0
  0
LINE
  8
F01_OUT
  5
CCC
 10
49.401603
 20
165.038088
 30
0.0
 11
47.951603
 21
165.038088
 31
0.0
1001
ACAD
1000
RTMaterial
1005
0
  0
LINE
  8
F01_OUT
  5
CCD
 10
71.301603
 20
165.038088
 30
0.0
 11
69.551603
 21
165.038088
 31
0.0
1001
ACAD
1000
RTMaterial
1005
0
  0
LINE
  8
F01_OUT
  5
CCE
 10
67.301603
 20
165.038088
 30
0.0
 11
66.801603
 21
165.038088
 31
0.0
1001
ACAD
1000
RTMaterial
1005
0
  0
LINE
  8
F01_OUT
  5
CCF
 10
65.601603
 20
167.538088
 30
0.0
 11
69.101603
 21
167.538088
 31
0.0
1001
ACAD
1000
RTMaterial
1005
0
  0
LINE
  8
F01_OUT
  5
CD0
 10
69.101603
 20
170.538088
 30
0.0
 11
65.601603
 21
170.538088
 31
0.0
1001
ACAD
1000
RTMaterial
1005
0
  0
LINE
  8
F01_OUT
  5
CD1
 10
70.151603
 20
174.538088
 30
0.0
 11
63.451603
 21
174.538088
 31
0.0
1001
ACAD
1000
RTMaterial
1005
0
  0
LINE
  8
F01_OUT
  5
CD2
 10
63.451603
 20
173.538088
 30
0.0
 11
71.951603
 21
173.538088
 31
0.0
1001
ACAD
1000
RTMaterial
1005
0
  0
LINE
  8
F01_OUT
  5
CD3
 10
65.051603
 20
165.038088
 30
0.0
 11
63.601603
 21
165.038088
 31
0.0
1001
ACAD
1000
RTMaterial
1005
0
  0
LINE
  8
F01_OUT
  5
CD4
 10
70.151603
 20
178.538088
 30
0.0
 11
63.451603
 21
178.538088
 31
0.0
1001
ACAD
1000
RTMaterial
1005
0
  0
LINE
  8
F01_OUT
  5
CD5
 10
63.451603
 20
180.138088
 30
0.0
 11
71.951603
 21
180.138088
 31
0.0
1001
ACAD
1000
RTMaterial
1005
0
  0
LINE
  8
F01_OUT
  5
CD6
 10
65.051603
 20
165.038088
 30
0.0
 11
65.351603
 21
165.038088
 31
0.0
1001
ACAD
1000
RTMaterial
1005
0
  0
LINE
  8
F01_OUT
  5
CD7
 10
65.601603
 20
170.538088
 30
0.0
 11
65.601603
 21
167.538088
 31
0.0
1001
ACAD
1000
RTMaterial
1005
0
  0
LINE
  8
F01_OUT
  5
CD8
 10
66.801603
 20
165.038088
 30
0.0
 11
65.351603
 21
165.038088
 31
0.0
1001
ACAD
1000
RTMaterial
1005
0
  0
LINE
  8
F01_OUT
  5
CD9
 10
69.551603
 20
165.038088
 30
0.0
 11
67.801603
 21
165.038088
 31
0.0
1001
ACAD
1000
RTMaterial
1005
0
  0
LINE
  8
F01_OUT
  5
CDA
 10
67.801603
 20
165.038088
 30
0.0
 11
67.301603
 21
165.038088
 31
0.0
1001
ACAD
1000
RTMaterial
1005
0
  0
LINE
  8
F01_OUT
  5
CDB
 10
63.601603
 20
165.038088
 30
0.0
 11
63.101603
 21
165.038088
 31
0.0
1001
ACAD
1000
RTMaterial
1005
0
  0
LINE
  8
F01_OUT
  5
CDC
 10
70.451603
 20
178.238088
 30
0.0
 11
70.451603
 21
174.838088
 31
0.0
1001
ACAD
1000
RTMaterial
1005
0
  0
LINE
  8
F01_OUT
  5
CDD
 10
69.101603
 20
167.538088
 30
0.0
 11
69.101603
 21
170.538088
 31
0.0
1001
ACAD
1000
RTMaterial
1005
0
  0
LINE
  8
F01_OUT
  5
CDE
 10
71.951603
 20
173.538088
 30
0.0
 11
71.951603
 21
180.138088
 31
0.0
1001
ACAD
1000
RTMaterial
1005
0
  0
LINE
  8
F01_OUT
  5
CDF
 10
71.551603
 20
165.038088
 30
0.0
 11
71.301603
 21
165.038088
 31
0.0
1001
ACAD
1000
RTMaterial
1005
0
  0
LINE
  8
F01_OUT
  5
CE0
 10
79.851603
 20
188.038088
 30
0.0
 11
81.211983
 21
188.038088
 31
0.0
1001
ACAD
1000
RTMaterial
1005
0
  0
LINE
  8
F01_OUT
  5
CE1
 10
81.211983
 20
165.038088
 30
0.0
 11
79.851603
 21
165.038088
 31
0.0
1001
ACAD
1000
RTMaterial
1005
0
  0
LINE
  8
F01_OUT
  5
CE2
 10
74.051603
 20
188.038088
 30
0.0
 11
76.651603
 21
188.038088
 31
0.0
1001
ACAD
1000
RTMaterial
1005
0
  0
LINE
  8
F01_OUT
  5
CE3
 10
73.751603
 20
165.038088
 30
0.0
 11
74.051603
 21
165.038088
 31
0.0
1001
ACAD
1000
RTMaterial
1005
0
  0
LINE
  8
F01_OUT
  5
CE4
 10
79.851603
 20
165.038088
 30
0.0
 11
76.651603
 21
165.038088
 31
0.0
1001
ACAD
1000
RTMaterial
1005
0
  0
LINE
  8
F01_OUT
  5
CE5
 10
80.101603
 20
184.538087
 30
0.0
 11
77.401603
 21
184.538087
 31
0.0
1001
ACAD
1000
RTMaterial
1005
0
  0
LINE
  8
F01_OUT
  5
CE6
 10
76.651603
 20
188.038088
 30
0.0
 11
79.851603
 21
188.038088
 31
0.0
1001
ACAD
1000
RTMaterial
1005
0
  0
LINE
  8
F01_OUT
  5
CE7
 10
73.751603
 20
165.038088
 30
0.0
 11
72.301603
 21
165.038088
 31
0.0
1001
ACAD
1000
RTMaterial
1005
0
  0
LINE
  8
F01_OUT
  5
CE8
 10
71.801603
 20
165.038088
 30
0.0
 11
71.551603
 21
165.038088
 31
0.0
1001
ACAD
1000
RTMaterial
1005
0
  0
LINE
  8
F01_OUT
  5
CE9
 10
72.301603
 20
165.038088
 30
0.0
 11
71.801603
 21
165.038088
 31
0.0
1001
ACAD
1000
RTMaterial
1005
0
  0
LINE
  8
F01_OUT
  5
CEA
 10
83.351603
 20
167.638088
 30
0.0
 11
83.351603
 21
185.438088
 31
0.0
1001
ACAD
1000
RTMaterial
1005
0
  0
LINE
  8
F01_OUT
  5
CEB
 10
82.251603
 20
165.038088
 30
0.0
 11
82.126603
 21
165.038088
 31
0.0
1001
ACAD
1000
RTMaterial
1005
0
  0
LINE
  8
F01_OUT
  5
CEC
 10
76.651603
 20
165.038088
 30
0.0
 11
74.051603
 21
165.038088
 31
0.0
1001
ACAD
1000
RTMaterial
1005
0
  0
LINE
  8
F01_OUT
  5
CED
 10
82.126603
 20
165.038088
 30
0.0
 11
81.211983
 21
165.038088
 31
0.0
1001
ACAD
1000
RTMaterial
1005
0
  0
LINE
  8
F01_OUT
  5
CEE
 10
82.251603
 20
188.038088
 30
0.0
 11
82.251603
 21
186.938088
 31
0.0
1001
ACAD
1000
RTMaterial
1005
0
  0
LINE
  8
F01_OUT
  5
CEF
 10
82.251603
 20
186.938088
 30
0.0
 11
82.251603
 21
185.738088
 31
0.0
1001
ACAD
1000
RTMaterial
1005
0
  0
LINE
  8
F01_OUT
  5
CF0
 10
82.251603
 20
167.338088
 30
0.0
 11
82.251603
 21
166.138088
 31
0.0
1001
ACAD
1000
RTMaterial
1005
0
  0
LINE
  8
F01_OUT
  5
CF1
 10
82.251603
 20
167.638088
 30
0.0
 11
82.251603
 21
167.338088
 31
0.0
1001
ACAD
1000
RTMaterial
1005
0
  0
LINE
  8
F01_OUT
  5
CF2
 10
82.251603
 20
185.738088
 30
0.0
 11
82.251603
 21
185.438088
 31
0.0
1001
ACAD
1000
RTMaterial
1005
0
  0
LINE
  8
F01_OUT
  5
CF3
 10
81.211983
 20
188.038088
 30
0.0
 11
82.126603
 21
188.038088
 31
0.0
1001
ACAD
1000
RTMaterial
1005
0
  0
LINE
  8
F01_OUT
  5
CF4
 10
82.251603
 20
185.438088
 30
0.0
 11
83.351603
 21
185.438088
 31
0.0
1001
ACAD
1000
RTMaterial
1005
0
  0
LINE
  8
F01_OUT
  5
CF5
 10
83.351603
 20
167.638088
 30
0.0
 11
82.251603
 21
167.638088
 31
0.0
1001
ACAD
1000
RTMaterial
1005
0
  0
LINE
  8
F01_OUT
  5
CF6
 10
82.251603
 20
166.138088
 30
0.0
 11
82.251603
 21
165.038088
 31
0.0
1001
ACAD
1000
RTMaterial
1005
0
  0
LINE
  8
F01_OUT
  5
CF7
 10
45.701603
 20
165.038088
 30
0.0
 11
45.260212
 21
165.038088
 31
0.0
1001
ACAD
1000
RTMaterial
1005
0
  0
LINE
  8
F01_OUT
  5
CF8
 10
45.260212
 20
165.038088
 30
0.0
 11
45.201603
 21
165.038088
 31
0.0
1001
ACAD
1000
RTMaterial
1005
0
  0
LINE
  8
F01_OUT
  5
CF9
 10
47.651603
 20
165.038088
 30
0.0
 11
46.201603
 21
165.038088
 31
0.0
1001
ACAD
1000
RTMaterial
1005
0
  0
LINE
  8
F01_OUT
  5
CFA
 10
47.651603
 20
165.038088
 30
0.0
 11
47.951603
 21
165.038088
 31
0.0
1001
ACAD
1000
RTMaterial
1005
0
  0
LINE
  8
F01_OUT
  5
CFB
 10
46.201603
 20
165.038088
 30
0.0
 11
45.701603
 21
165.038088
 31
0.0
1001
ACAD
1000
RTMaterial
1005
0
  0
LINE
  8
F01_OUT
  5
CFC
 10
45.201603
 20
165.038088
 30
0.0
 11
41.701603
 21
165.038088
 31
0.0
1001
ACAD
1000
RTMaterial
1005
0
  0
LINE
  8
F01_OUT
  5
CFD
 10
48.601603
 20
170.538088
 30
0.0
 11
48.601603
 21
167.538088
 31
0.0
1001
ACAD
1000
RTMaterial
1005
0
  0
LINE
  8
F01_OUT
  5
CFE
 10
41.201603
 20
165.038088
 30
0.0
 11
40.701603
 21
165.038088
 31
0.0
1001
ACAD
1000
RTMaterial
1005
0
  0
LINE
  8
F01_OUT
  5
CFF
 10
41.701603
 20
165.038088
 30
0.0
 11
41.201603
 21
165.038088
 31
0.0
1001
ACAD
1000
RTMaterial
1005
0
  0
LINE
  8
F01_OUT
  5
D00
 10
82.126603
 20
188.038088
 30
0.0
 11
82.251603
 21
188.038088
 31
0.0
1001
ACAD
1000
RTMaterial
1005
0
  0
LINE
  8
F01_OUT
  5
D01
 10
38.351603
 20
167.638088
 30
0.0
 11
38.351603
 21
185.438088
 31
0.0
1001
ACAD
1000
RTMaterial
1005
0
  0
LINE
  8
F01_OUT
  5
D02
 10
40.701603
 20
165.038088
 30
0.0
 11
39.576603
 21
165.038088
 31
0.0
1001
ACAD
1000
RTMaterial
1005
0
  0
LINE
  8
F01_OUT
  5
D03
 10
39.451603
 20
185.738088
 30
0.0
 11
39.451603
 21
186.938088
 31
0.0
1001
ACAD
1000
RTMaterial
1005
0
  0
LINE
  8
F01_OUT
  5
D04
 10
39.451603
 20
185.438088
 30
0.0
 11
39.451603
 21
185.738088
 31
0.0
1001
ACAD
1000
RTMaterial
1005
0
  0
LINE
  8
F01_OUT
  5
D05
 10
39.451603
 20
166.138088
 30
0.0
 11
39.451603
 21
167.338088
 31
0.0
1001
ACAD
1000
RTMaterial
1005
0
  0
LINE
  8
F01_OUT
  5
D06
 10
39.451603
 20
167.338088
 30
0.0
 11
39.451603
 21
167.638088
 31
0.0
1001
ACAD
1000
RTMaterial
1005
0
  0
LINE
  8
F01_OUT
  5
D07
 10
39.451603
 20
186.938088
 30
0.0
 11
39.451603
 21
188.038088
 31
0.0
1001
ACAD
1000
RTMaterial
1005
0
  0
LINE
  8
F01_OUT
  5
D08
 10
38.351603
 20
185.438088
 30
0.0
 11
39.451603
 21
185.438088
 31
0.0
1001
ACAD
1000
RTMaterial
1005
0
  0
LINE
  8
F01_OUT
  5
D09
 10
39.451603
 20
165.038088
 30
0.0
 11
39.451603
 21
166.138088
 31
0.0
1001
ACAD
1000
RTMaterial
1005
0
  0
LINE
  8
F01_OUT
  5
D0A
 10
39.451603
 20
167.638088
 30
0.0
 11
38.351603
 21
167.638088
 31
0.0
1001
ACAD
1000
RTMaterial
1005
0
  0
LINE
  8
F01_OUT
  5
D0B
 10
39.576603
 20
165.038088
 30
0.0
 11
39.451603
 21
165.038088
 31
0.0
1001
ACAD
1000
RTMaterial
1005
0
  0
LINE
  8
F01_OUT
  5
D0C
 10
53.901603
 20
165.038088
 30
0.0
 11
52.151603
 21
165.038088
 31
0.0
1001
ACAD
1000
RTMaterial
1005
0
  0
LINE
  8
F01_OUT
  5
D0D
 10
48.601603
 20
167.538088
 30
0.0
 11
52.101603
 21
167.538088
 31
0.0
1001
ACAD
1000
RTMaterial
1005
0
  0
LINE
  8
F01_OUT
  5
D0E
 10
52.101603
 20
170.538088
 30
0.0
 11
48.601603
 21
170.538088
 31
0.0
1001
ACAD
1000
RTMaterial
1005
0
  0
LINE
  8
F01_OUT
  5
D0F
 10
52.101603
 20
167.538088
 30
0.0
 11
52.101603
 21
170.538088
 31
0.0
1001
ACAD
1000
RTMaterial
1005
0
  0
LINE
  8
F01_OUT
  5
D10
 10
50.401603
 20
165.038088
 30
0.0
 11
50.151603
 21
165.038088
 31
0.0
1001
ACAD
1000
RTMaterial
1005
0
  0
LINE
  8
F01_OUT
  5
D11
 10
57.101603
 20
185.538088
 30
0.0
 11
57.101603
 21
182.538088
 31
0.0
1001
ACAD
1000
RTMaterial
1005
0
  0
LINE
  8
F01_OUT
  5
D12
 10
56.351603
 20
165.038088
 30
0.0
 11
56.651603
 21
165.038088
 31
0.0
1001
ACAD
1000
RTMaterial
1005
0
  0
LINE
  8
F01_OUT
  5
D13
 10
62.601603
 20
165.038088
 30
0.0
 11
59.101603
 21
165.038088
 31
0.0
1001
ACAD
1000
RTMaterial
1005
0
  0
LINE
  8
F01_OUT
  5
D14
 10
58.101603
 20
165.038088
 30
0.0
 11
56.651603
 21
165.038088
 31
0.0
1001
ACAD
1000
RTMaterial
1005
0
  0
LINE
  8
F01_OUT
  5
D15
 10
59.101603
 20
165.038088
 30
0.0
 11
58.601603
 21
165.038088
 31
0.0
1001
ACAD
1000
RTMaterial
1005
0
  0
LINE
  8
F01_OUT
  5
D16
 10
63.451603
 20
178.538088
 30
0.0
 11
63.451603
 21
174.538088
 31
0.0
1001
ACAD
1000
RTMaterial
1005
0
  0
LINE
  8
F01_OUT
  5
D17
 10
63.451603
 20
174.538088
 30
0.0
 11
63.451603
 21
173.538088
 31
0.0
1001
ACAD
1000
RTMaterial
1005
0
  0
LINE
  8
F01_OUT
  5
D18
 10
63.451603
 20
180.138088
 30
0.0
 11
63.451603
 21
178.538088
 31
0.0
1001
ACAD
1000
RTMaterial
1005
0
  0
LINE
  8
F01_OUT
  5
D19
 10
60.601603
 20
185.538088
 30
0.0
 11
57.101603
 21
185.538088
 31
0.0
1001
ACAD
1000
RTMaterial
1005
0
  0
LINE
  8
F01_OUT
  5
D1A
 10
60.601603
 20
182.538088
 30
0.0
 11
60.601603
 21
185.538088
 31
0.0
1001
ACAD
1000
RTMaterial
1005
0
  0
LINE
  8
F01_OUT
  5
D1B
 10
57.101603
 20
182.538088
 30
0.0
 11
60.601603
 21
182.538088
 31
0.0
1001
ACAD
1000
RTMaterial
1005
0
  0
ARC
  8
F01_OUT
  5
D1C
 10
82.426603
 20
152.838088
 30
0.0
 40
0.3
 50
180.0
 51
270.0
1001
ACAD
1000
RTMaterial
1005
0
  0
ARC
  8
F01_OUT
  5
D1D
 10
83.051603
 20
152.838088
 30
0.0
 40
0.3
 50
270.0
 51
0.0
1001
ACAD
1000
RTMaterial
1005
0
  0
ARC
  8
F01_OUT
  5
D1E
 10
73.726603
 20
152.838088
 30
0.0
 40
0.3
 50
180.0
 51
270.0
1001
ACAD
1000
RTMaterial
1005
0
  0
ARC
  8
F01_OUT
  5
D1F
 10
74.076603
 20
152.838088
 30
0.0
 40
0.3
 50
270.0
 51
0.0
1001
ACAD
1000
RTMaterial
1005
0
  0
ARC
  8
F01_OUT
  5
D20
 10
65.026603
 20
152.838088
 30
0.0
 40
0.3
 50
180.0
 51
270.0
1001
ACAD
1000
RTMaterial
1005
0
  0
ARC
  8
F01_OUT
  5
D21
 10
65.376603
 20
152.838088
 30
0.0
 40
0.3
 50
270.0
 51
0.0
1001
ACAD
1000
RTMaterial
1005
0
  0
ARC
  8
F01_OUT
  5
D22
 10
39.276603
 20
200.238088
 30
0.0
 40
0.3
 50
0.0
 51
90.0
1001
ACAD
1000
RTMaterial
1005
0
  0
ARC
  8
F01_OUT
  5
D23
 10
73.726603
 20
200.238088
 30
0.0
 40
0.3
 50
90.0
 51
180.0
1001
ACAD
1000
RTMaterial
1005
0
  0
ARC
  8
F01_OUT
  5
D24
 10
65.376603
 20
200.238088
 30
0.0
 40
0.3
 50
0.0
 51
90.0
1001
ACAD
1000
RTMaterial
1005
0
  0
ARC
  8
F01_OUT
  5
D25
 10
65.026603
 20
200.238088
 30
0.0
 40
0.3
 50
90.0
 51
180.0
1001
ACAD
1000
RTMaterial
1005
0
  0
ARC
  8
F01_OUT
  5
D26
 10
74.076603
 20
200.238088
 30
0.0
 40
0.3
 50
0.0
 51
90.0
1001
ACAD
1000
RTMaterial
1005
0
  0
ARC
  8
F01_OUT
  5
D27
 10
56.326603
 20
200.238088
 30
0.0
 40
0.3
 50
90.0
 51
180.0
1001
ACAD
1000
RTMaterial
1005
0
  0
ARC
  8
F01_OUT
  5
D28
 10
83.051603
 20
200.238088
 30
0.0
 40
0.3
 50
0.0
 51
90.0
1001
ACAD
1000
RTMaterial
1005
0
  0
ARC
  8
F01_OUT
  5
D29
 10
82.426603
 20
200.238088
 30
0.0
 40
0.3
 50
90.0
 51
180.0
1001
ACAD
1000
RTMaterial
1005
0
  0
ARC
  8
F01_OUT
  5
D2A
 10
38.651603
 20
200.238088
 30
0.0
 40
0.3
 50
90.0
 51
180.0
1001
ACAD
1000
RTMaterial
1005
0
  0
ARC
  8
F01_OUT
  5
D2B
 10
56.676603
 20
200.238088
 30
0.0
 40
0.3
 50
0.0
 51
90.0
1001
ACAD
1000
RTMaterial
1005
0
  0
ARC
  8
F01_OUT
  5
D2C
 10
47.626603
 20
200.238088
 30
0.0
 40
0.3
 50
90.0
 51
180.0
1001
ACAD
1000
RTMaterial
1005
0
  0
ARC
  8
F01_OUT
  5
D2D
 10
47.976603
 20
200.238088
 30
0.0
 40
0.3
 50
0.0
 51
90.0
1001
ACAD
1000
RTMaterial
1005
0
  0
ARC
  8
F01_OUT
  5
D2E
 10
47.626603
 20
152.838088
 30
0.0
 40
0.3
 50
180.0
 51
270.0
1001
ACAD
1000
RTMaterial
1005
0
  0
ARC
  8
F01_OUT
  5
D2F
 10
39.276603
 20
152.838088
 30
0.0
 40
0.3
 50
270.0
 51
0.0
1001
ACAD
1000
RTMaterial
1005
0
  0
ARC
  8
F01_OUT
  5
D30
 10
38.651603
 20
152.838088
 30
0.0
 40
0.3
 50
180.0
 51
270.0
1001
ACAD
1000
RTMaterial
1005
0
  0
ARC
  8
F01_OUT
  5
D31
 10
47.976603
 20
152.838088
 30
0.0
 40
0.3
 50
270.0
 51
0.0
1001
ACAD
1000
RTMaterial
1005
0
  0
ARC
  8
F01_OUT
  5
D32
 10
56.326603
 20
152.838088
 30
0.0
 40
0.3
 50
180.0
 51
270.0
1001
ACAD
1000
RTMaterial
1005
0
  0
ARC
  8
F01_OUT
  5
D33
 10
56.676603
 20
152.838088
 30
0.0
 40
0.3
 50
270.0
 51
0.0
1001
ACAD
1000
RTMaterial
1005
0
  0
LINE
  8
F01_OUT
  5
D34
 10
39.576603
 20
188.038088
 30
0.0
 11
40.701603
 21
188.038088
 31
0.0
1001
ACAD
1000
RTMaterial
1005
0
  0
LINE
  8
F01_OUT
  5
D35
 10
40.701603
 20
188.038088
 30
0.0
 11
41.201603
 21
188.038088
 31
0.0
1001
ACAD
1000
RTMaterial
1005
0
  0
LINE
  8
F01_OUT
  5
D36
 10
38.351603
 20
195.038088
 30
0.0
 11
38.351603
 21
188.038088
 31
0.0
1001
ACAD
1000
RTMaterial
1005
0
  0
LINE
  8
F01_OUT
  5
D37
 10
38.351603
 20
195.938088
 30
0.0
 11
38.351603
 21
195.038088
 31
0.0
1001
ACAD
1000
RTMaterial
1005
0
  0
LINE
  8
F01_OUT
  5
D38
 10
41.701603
 20
188.038088
 30
0.0
 11
45.201603
 21
188.038088
 31
0.0
1001
ACAD
1000
RTMaterial
1005
0
  0
LINE
  8
F01_OUT
  5
D39
 10
41.201603
 20
188.038088
 30
0.0
 11
41.701603
 21
188.038088
 31
0.0
1001
ACAD
1000
RTMaterial
1005
0
  0
LINE
  8
F01_OUT
  5
D3A
 10
45.201603
 20
188.038088
 30
0.0
 11
45.260212
 21
188.038088
 31
0.0
1001
ACAD
1000
RTMaterial
1005
0
  0
LINE
  8
F01_OUT
  5
D3B
 10
61.851603
 20
197.038088
 30
0.0
 11
64.726603
 21
197.038088
 31
0.0
1001
ACAD
1000
RTMaterial
1005
0
  0
LINE
  8
F01_OUT
  5
D3C
 10
59.851603
 20
197.038088
 30
0.0
 11
61.851603
 21
197.038088
 31
0.0
1001
ACAD
1000
RTMaterial
1005
0
  0
LINE
  8
F01_OUT
  5
D3D
 10
49.651603
 20
197.038088
 30
0.0
 11
53.401603
 21
197.038088
 31
0.0
1001
ACAD
1000
RTMaterial
1005
0
  0
LINE
  8
F01_OUT
  5
D3E
 10
54.951603
 20
197.038088
 30
0.0
 11
55.951603
 21
197.038088
 31
0.0
1001
ACAD
1000
RTMaterial
1005
0
  0
LINE
  8
F01_OUT
  5
D3F
 10
55.951603
 20
197.038088
 30
0.0
 11
56.026603
 21
197.038088
 31
0.0
1001
ACAD
1000
RTMaterial
1005
0
  0
LINE
  8
F01_OUT
  5
D40
 10
54.351603
 20
197.038088
 30
0.0
 11
54.951603
 21
197.038088
 31
0.0
1001
ACAD
1000
RTMaterial
1005
0
  0
LINE
  8
F01_OUT
  5
D41
 10
53.401603
 20
197.038088
 30
0.0
 11
54.351603
 21
197.038088
 31
0.0
1001
ACAD
1000
RTMaterial
1005
0
  0
LINE
  8
F01_OUT
  5
D42
 10
65.751603
 20
197.038088
 30
0.0
 11
66.751603
 21
197.038088
 31
0.0
1001
ACAD
1000
RTMaterial
1005
0
  0
LINE
  8
F01_OUT
  5
D43
 10
65.676603
 20
197.038088
 30
0.0
 11
65.751603
 21
197.038088
 31
0.0
1001
ACAD
1000
RTMaterial
1005
0
  0
LINE
  8
F01_OUT
  5
D44
 10
66.751603
 20
197.038088
 30
0.0
 11
67.351603
 21
197.038088
 31
0.0
1001
ACAD
1000
RTMaterial
1005
0
  0
LINE
  8
F01_OUT
  5
D45
 10
67.351603
 20
197.038088
 30
0.0
 11
68.301603
 21
197.038088
 31
0.0
1001
ACAD
1000
RTMaterial
1005
0
  0
LINE
  8
F01_OUT
  5
D46
 10
68.301603
 20
197.038088
 30
0.0
 11
72.051603
 21
197.038088
 31
0.0
1001
ACAD
1000
RTMaterial
1005
0
  0
LINE
  8
F01_OUT
  5
D47
 10
72.051603
 20
197.038088
 30
0.0
 11
73.051603
 21
197.038088
 31
0.0
1001
ACAD
1000
RTMaterial
1005
0
  0
LINE
  8
F01_OUT
  5
D48
 10
73.051603
 20
197.038088
 30
0.0
 11
73.351603
 21
197.038088
 31
0.0
1001
ACAD
1000
RTMaterial
1005
0
  0
LINE
  8
F01_OUT
  5
D49
 10
73.351603
 20
197.038088
 30
0.0
 11
73.426603
 21
197.038088
 31
0.0
1001
ACAD
1000
RTMaterial
1005
0
  0
LINE
  8
F01_OUT
  5
D4A
 10
56.976603
 20
197.038088
 30
0.0
 11
59.851603
 21
197.038088
 31
0.0
1001
ACAD
1000
RTMaterial
1005
0
  0
LINE
  8
F01_OUT
  5
D4B
 10
48.651603
 20
197.038088
 30
0.0
 11
49.651603
 21
197.038088
 31
0.0
1001
ACAD
1000
RTMaterial
1005
0
  0
LINE
  8
F01_OUT
  5
D4C
 10
48.351603
 20
197.038088
 30
0.0
 11
48.651603
 21
197.038088
 31
0.0
1001
ACAD
1000
RTMaterial
1005
0
  0
LINE
  8
F01_OUT
  5
D4D
 10
48.276603
 20
197.038088
 30
0.0
 11
48.351603
 21
197.038088
 31
0.0
1001
ACAD
1000
RTMaterial
1005
0
  0
LINE
  8
F01_OUT
  5
D4E
 10
55.951603
 20
156.038088
 30
0.0
 11
54.951603
 21
156.038088
 31
0.0
1001
ACAD
1000
RTMaterial
1005
0
  0
LINE
  8
F01_OUT
  5
D4F
 10
56.026603
 20
156.038088
 30
0.0
 11
55.951603
 21
156.038088
 31
0.0
1001
ACAD
1000
RTMaterial
1005
0
  0
LINE
  8
F01_OUT
  5
D50
 10
54.951603
 20
156.038088
 30
0.0
 11
53.401603
 21
156.038088
 31
0.0
1001
ACAD
1000
RTMaterial
1005
0
  0
LINE
  8
F01_OUT
  5
D51
 10
53.401603
 20
156.038088
 30
0.0
 11
49.651603
 21
156.038088
 31
0.0
1001
ACAD
1000
RTMaterial
1005
0
  0
LINE
  8
F01_OUT
  5
D52
 10
48.351603
 20
156.038088
 30
0.0
 11
48.276603
 21
156.038088
 31
0.0
1001
ACAD
1000
RTMaterial
1005
0
  0
LINE
  8
F01_OUT
  5
D53
 10
48.651603
 20
156.038088
 30
0.0
 11
48.351603
 21
156.038088
 31
0.0
1001
ACAD
1000
RTMaterial
1005
0
  0
LINE
  8
F01_OUT
  5
D54
 10
49.651603
 20
156.038088
 30
0.0
 11
48.651603
 21
156.038088
 31
0.0
1001
ACAD
1000
RTMaterial
1005
0
  0
LINE
  8
F01_OUT
  5
D55
 10
80.101603
 20
185.738088
 30
0.0
 11
79.101603
 21
185.738088
 31
0.0
1001
ACAD
1000
RTMaterial
1005
0
  0
LINE
  8
F01_OUT
  5
D56
 10
79.101603
 20
187.038088
 30
0.0
 11
79.101603
 21
185.738088
 31
0.0
1001
ACAD
1000
RTMaterial
1005
0
  0
LINE
  8
F01_OUT
  5
D57
 10
80.101603
 20
185.738088
 30
0.0
 11
80.101603
 21
184.538087
 31
0.0
1001
ACAD
1000
RTMaterial
1005
0
  0
LINE
  8
F01_OUT
  5
D58
 10
79.101603
 20
187.038088
 30
0.0
 11
77.401603
 21
187.038088
 31
0.0
1001
ACAD
1000
RTMaterial
1005
0
  0
LINE
  8
F01_OUT
  5
D59
 10
77.401603
 20
187.038088
 30
0.0
 11
77.401603
 21
184.538087
 31
0.0
1001
ACAD
1000
RTMaterial
1005
0
  0
LINE
  8
F01_OUT
  5
D5A
 10
79.851603
 20
165.038088
 30
0.0
 11
76.651603
 21
165.038088
 31
0.0
1001
ACAD
1000
RTMaterial
1005
0
  0
LINE
  8
F01_OUT
  5
D5B
 10
76.651603
 20
188.038088
 30
0.0
 11
79.851603
 21
188.038088
 31
0.0
1001
ACAD
1000
RTMaterial
1005
0
  0
LINE
  8
F01_OUT
  5
D5C
 10
75.229104
 20
156.038088
 30
0.0
 11
74.376603
 21
156.038088
 31
0.0
1001
ACAD
1000
RTMaterial
1005
0
  0
LINE
  8
F01_OUT
  5
D5D
 10
76.838956
 20
156.038088
 30
0.0
 11
75.229104
 21
156.038088
 31
0.0
1001
ACAD
1000
RTMaterial
1005
0
  0
LINE
  8
F01_OUT
  5
D5E
 10
72.051603
 20
156.038088
 30
0.0
 11
68.301603
 21
156.038088
 31
0.0
1001
ACAD
1000
RTMaterial
1005
0
  0
LINE
  8
F01_OUT
  5
D5F
 10
73.051603
 20
156.038088
 30
0.0
 11
72.051603
 21
156.038088
 31
0.0
1001
ACAD
1000
RTMaterial
1005
0
  0
LINE
  8
F01_OUT
  5
D60
 10
66.751603
 20
156.038088
 30
0.0
 11
65.751603
 21
156.038088
 31
0.0
1001
ACAD
1000
RTMaterial
1005
0
  0
LINE
  8
F01_OUT
  5
D61
 10
65.751603
 20
156.038088
 30
0.0
 11
65.676603
 21
156.038088
 31
0.0
1001
ACAD
1000
RTMaterial
1005
0
  0
LINE
  8
F01_OUT
  5
D62
 10
73.426603
 20
156.038088
 30
0.0
 11
73.351603
 21
156.038088
 31
0.0
1001
ACAD
1000
RTMaterial
1005
0
  0
LINE
  8
F01_OUT
  5
D63
 10
73.351603
 20
156.038088
 30
0.0
 11
73.051603
 21
156.038088
 31
0.0
1001
ACAD
1000
RTMaterial
1005
0
  0
LINE
  8
F01_OUT
  5
D64
 10
68.301603
 20
156.038088
 30
0.0
 11
66.751603
 21
156.038088
 31
0.0
1001
ACAD
1000
RTMaterial
1005
0
  0
LINE
  8
F01_OUT
  5
D65
 10
81.951603
 20
156.038088
 30
0.0
 11
79.86425
 21
156.038088
 31
0.0
1001
ACAD
1000
RTMaterial
1005
0
  0
LINE
  8
F01_OUT
  5
D66
 10
83.351603
 20
167.638088
 30
0.0
 11
83.351603
 21
185.438088
 31
0.0
1001
ACAD
1000
RTMaterial
1005
0
  0
LINE
  8
F01_OUT
  5
D67
 10
83.351603
 20
158.038088
 30
0.0
 11
83.351603
 21
165.038088
 31
0.0
1001
ACAD
1000
RTMaterial
1005
0
  0
LINE
  8
F01_OUT
  5
D68
 10
83.351603
 20
167.638088
 30
0.0
 11
83.351603
 21
167.538088
 31
0.0
1001
ACAD
1000
RTMaterial
1005
0
  0
LINE
  8
F01_OUT
  5
D69
 10
83.351603
 20
157.138088
 30
0.0
 11
83.351603
 21
158.038088
 31
0.0
1001
ACAD
1000
RTMaterial
1005
0
  0
LINE
  8
F01_OUT
  5
D6A
 10
83.351603
 20
166.238088
 30
0.0
 11
83.351603
 21
165.038088
 31
0.0
1001
ACAD
1000
RTMaterial
1005
0
  0
LINE
  8
F01_OUT
  5
D6B
 10
83.351603
 20
167.538088
 30
0.0
 11
83.351603
 21
167.038088
 31
0.0
1001
ACAD
1000
RTMaterial
1005
0
  0
LINE
  8
F01_OUT
  5
D6C
 10
83.351603
 20
166.238088
 30
0.0
 11
83.351603
 21
167.038088
 31
0.0
1001
ACAD
1000
RTMaterial
1005
0
  0
LINE
  8
F01_OUT
  5
D6D
 10
83.351603
 20
185.538088
 30
0.0
 11
83.351603
 21
186.038088
 31
0.0
1001
ACAD
1000
RTMaterial
1005
0
  0
LINE
  8
F01_OUT
  5
D6E
 10
83.351603
 20
188.038088
 30
0.0
 11
83.351603
 21
186.838088
 31
0.0
1001
ACAD
1000
RTMaterial
1005
0
  0
LINE
  8
F01_OUT
  5
D6F
 10
83.351603
 20
185.538088
 30
0.0
 11
83.351603
 21
185.438088
 31
0.0
1001
ACAD
1000
RTMaterial
1005
0
  0
LINE
  8
F01_OUT
  5
D70
 10
83.351603
 20
186.838088
 30
0.0
 11
83.351603
 21
186.038088
 31
0.0
1001
ACAD
1000
RTMaterial
1005
0
  0
LINE
  8
F01_OUT
  5
D71
 10
83.351603
 20
195.038088
 30
0.0
 11
83.351603
 21
188.038088
 31
0.0
1001
ACAD
1000
RTMaterial
1005
0
  0
LINE
  8
F01_OUT
  5
D72
 10
82.126603
 20
165.038088
 30
0.0
 11
81.211983
 21
165.038088
 31
0.0
1001
ACAD
1000
RTMaterial
1005
0
  0
LINE
  8
F01_OUT
  5
D73
 10
81.211983
 20
188.038088
 30
0.0
 11
82.126603
 21
188.038088
 31
0.0
1001
ACAD
1000
RTMaterial
1005
0
  0
LINE
  8
F01_OUT
  5
D74
 10
81.951603
 20
156.038088
 30
0.0
 11
82.126603
 21
156.038088
 31
0.0
1001
ACAD
1000
RTMaterial
1005
0
  0
LINE
  8
F01_OUT
  5
D75
 10
82.126603
 20
156.038088
 30
0.0
 11
82.126603
 21
157.138088
 31
0.0
1001
ACAD
1000
RTMaterial
1005
0
  0
LINE
  8
F01_OUT
  5
D76
 10
74.376603
 20
152.838088
 30
0.0
 11
74.376603
 21
156.038088
 31
0.0
1001
ACAD
1000
RTMaterial
1005
0
  0
LINE
  8
F01_OUT
  5
D77
 10
82.126603
 20
156.038088
 30
0.0
 11
82.126603
 21
152.838088
 31
0.0
1001
ACAD
1000
RTMaterial
1005
0
  0
LINE
  8
F01_OUT
  5
D78
 10
83.351603
 20
152.838088
 30
0.0
 11
83.351603
 21
157.138088
 31
0.0
1001
ACAD
1000
RTMaterial
1005
0
  0
LINE
  8
F01_OUT
  5
D79
 10
65.676603
 20
152.838088
 30
0.0
 11
65.676603
 21
156.038088
 31
0.0
1001
ACAD
1000
RTMaterial
1005
0
  0
LINE
  8
F01_OUT
  5
D7A
 10
64.726603
 20
152.838088
 30
0.0
 11
64.726603
 21
156.038088
 31
0.0
1001
ACAD
1000
RTMaterial
1005
0
  0
LINE
  8
F01_OUT
  5
D7B
 10
73.426603
 20
152.838088
 30
0.0
 11
73.426603
 21
156.038088
 31
0.0
1001
ACAD
1000
RTMaterial
1005
0
  0
LINE
  8
F01_OUT
  5
D7C
 10
74.076603
 20
152.538088
 30
0.0
 11
73.851603
 21
152.538088
 31
0.0
1001
ACAD
1000
RTMaterial
1005
0
  0
LINE
  8
F01_OUT
  5
D7D
 10
73.726603
 20
152.538088
 30
0.0
 11
73.851603
 21
152.538088
 31
0.0
1001
ACAD
1000
RTMaterial
1005
0
  0
LINE
  8
F01_OUT
  5
D7E
 10
65.376603
 20
152.538088
 30
0.0
 11
65.026603
 21
152.538088
 31
0.0
1001
ACAD
1000
RTMaterial
1005
0
  0
LINE
  8
F01_OUT
  5
D7F
 10
83.051603
 20
152.538088
 30
0.0
 11
82.426603
 21
152.538088
 31
0.0
1001
ACAD
1000
RTMaterial
1005
0
  0
LINE
  8
F01_OUT
  5
D80
 10
83.351603
 20
195.938088
 30
0.0
 11
83.351603
 21
195.038088
 31
0.0
1001
ACAD
1000
RTMaterial
1005
0
  0
LINE
  8
F01_OUT
  5
D81
 10
74.376603
 20
197.038088
 30
0.0
 11
75.229104
 21
197.038088
 31
0.0
1001
ACAD
1000
RTMaterial
1005
0
  0
LINE
  8
F01_OUT
  5
D82
 10
79.86425
 20
197.038088
 30
0.0
 11
81.951603
 21
197.038088
 31
0.0
1001
ACAD
1000
RTMaterial
1005
0
  0
LINE
  8
F01_OUT
  5
D83
 10
75.229104
 20
197.038088
 30
0.0
 11
76.838956
 21
197.038088
 31
0.0
1001
ACAD
1000
RTMaterial
1005
0
  0
LINE
  8
F01_OUT
  5
D84
 10
82.126603
 20
197.038088
 30
0.0
 11
81.951603
 21
197.038088
 31
0.0
1001
ACAD
1000
RTMaterial
1005
0
  0
LINE
  8
F01_OUT
  5
D85
 10
82.126603
 20
195.938088
 30
0.0
 11
82.126603
 21
197.038088
 31
0.0
1001
ACAD
1000
RTMaterial
1005
0
  0
LINE
  8
F01_OUT
  5
D86
 10
46.474102
 20
197.038088
 30
0.0
 11
47.326603
 21
197.038088
 31
0.0
1001
ACAD
1000
RTMaterial
1005
0
  0
LINE
  8
F01_OUT
  5
D87
 10
39.751603
 20
197.038088
 30
0.0
 11
41.838956
 21
197.038088
 31
0.0
1001
ACAD
1000
RTMaterial
1005
0
  0
LINE
  8
F01_OUT
  5
D88
 10
44.86425
 20
197.038088
 30
0.0
 11
46.474102
 21
197.038088
 31
0.0
1001
ACAD
1000
RTMaterial
1005
0
  0
LINE
  8
F01_OUT
  5
D89
 10
39.751603
 20
197.038088
 30
0.0
 11
39.576603
 21
197.038088
 31
0.0
1001
ACAD
1000
RTMaterial
1005
0
  0
LINE
  8
F01_OUT
  5
D8A
 10
39.576603
 20
195.938088
 30
0.0
 11
39.576603
 21
197.038088
 31
0.0
1001
ACAD
1000
RTMaterial
1005
0
  0
LINE
  8
F01_OUT
  5
D8B
 10
39.576603
 20
200.238088
 30
0.0
 11
39.576603
 21
197.038088
 31
0.0
1001
ACAD
1000
RTMaterial
1005
0
  0
LINE
  8
F01_OUT
  5
D8C
 10
74.376603
 20
200.238088
 30
0.0
 11
74.376603
 21
197.038088
 31
0.0
1001
ACAD
1000
RTMaterial
1005
0
  0
LINE
  8
F01_OUT
  5
D8D
 10
65.676603
 20
200.238088
 30
0.0
 11
65.676603
 21
197.038088
 31
0.0
1001
ACAD
1000
RTMaterial
1005
0
  0
LINE
  8
F01_OUT
  5
D8E
 10
64.726603
 20
200.238088
 30
0.0
 11
64.726603
 21
197.038088
 31
0.0
1001
ACAD
1000
RTMaterial
1005
0
  0
LINE
  8
F01_OUT
  5
D8F
 10
73.426603
 20
200.238088
 30
0.0
 11
73.426603
 21
197.038088
 31
0.0
1001
ACAD
1000
RTMaterial
1005
0
  0
LINE
  8
F01_OUT
  5
D90
 10
38.651603
 20
200.538088
 30
0.0
 11
39.276603
 21
200.538088
 31
0.0
1001
ACAD
1000
RTMaterial
1005
0
  0
LINE
  8
F01_OUT
  5
D91
 10
73.851603
 20
200.538088
 30
0.0
 11
74.076603
 21
200.538088
 31
0.0
1001
ACAD
1000
RTMaterial
1005
0
  0
LINE
  8
F01_OUT
  5
D92
 10
47.626603
 20
200.538088
 30
0.0
 11
47.851603
 21
200.538088
 31
0.0
1001
ACAD
1000
RTMaterial
1005
0
  0
LINE
  8
F01_OUT
  5
D93
 10
65.026603
 20
200.538088
 30
0.0
 11
65.376603
 21
200.538088
 31
0.0
1001
ACAD
1000
RTMaterial
1005
0
  0
LINE
  8
F01_OUT
  5
D94
 10
73.726603
 20
200.538088
 30
0.0
 11
73.851603
 21
200.538088
 31
0.0
1001
ACAD
1000
RTMaterial
1005
0
  0
LINE
  8
F01_OUT
  5
D95
 10
47.851603
 20
200.538088
 30
0.0
 11
47.976603
 21
200.538088
 31
0.0
1001
ACAD
1000
RTMaterial
1005
0
  0
LINE
  8
F01_OUT
  5
D96
 10
56.326603
 20
200.538088
 30
0.0
 11
56.676603
 21
200.538088
 31
0.0
1001
ACAD
1000
RTMaterial
1005
0
  0
LINE
  8
F01_OUT
  5
D97
 10
82.126603
 20
197.038088
 30
0.0
 11
82.126603
 21
200.238088
 31
0.0
1001
ACAD
1000
RTMaterial
1005
0
  0
LINE
  8
F01_OUT
  5
D98
 10
83.351603
 20
195.938088
 30
0.0
 11
83.351603
 21
200.238088
 31
0.0
1001
ACAD
1000
RTMaterial
1005
0
  0
LINE
  8
F01_OUT
  5
D99
 10
83.051603
 20
200.538088
 30
0.0
 11
82.426603
 21
200.538088
 31
0.0
1001
ACAD
1000
RTMaterial
1005
0
  0
LINE
  8
F01_OUT
  5
D9A
 10
38.351603
 20
200.238088
 30
0.0
 11
38.351603
 21
195.938088
 31
0.0
1001
ACAD
1000
RTMaterial
1005
0
  0
LINE
  8
F01_OUT
  5
D9B
 10
56.026603
 20
200.238088
 30
0.0
 11
56.026603
 21
197.038088
 31
0.0
1001
ACAD
1000
RTMaterial
1005
0
  0
LINE
  8
F01_OUT
  5
D9C
 10
48.276603
 20
200.238088
 30
0.0
 11
48.276603
 21
197.038088
 31
0.0
1001
ACAD
1000
RTMaterial
1005
0
  0
LINE
  8
F01_OUT
  5
D9D
 10
47.326603
 20
200.238088
 30
0.0
 11
47.326603
 21
197.038088
 31
0.0
1001
ACAD
1000
RTMaterial
1005
0
  0
LINE
  8
F01_OUT
  5
D9E
 10
56.976603
 20
200.238088
 30
0.0
 11
56.976603
 21
197.038088
 31
0.0
1001
ACAD
1000
RTMaterial
1005
0
  0
LINE
  8
F01_OUT
  5
D9F
 10
45.260212
 20
165.038088
 30
0.0
 11
45.201603
 21
165.038088
 31
0.0
1001
ACAD
1000
RTMaterial
1005
0
  0
LINE
  8
F01_OUT
  5
DA0
 10
45.201603
 20
165.038088
 30
0.0
 11
41.701603
 21
165.038088
 31
0.0
1001
ACAD
1000
RTMaterial
1005
0
  0
LINE
  8
F01_OUT
  5
DA1
 10
41.551603
 20
170.488088
 30
0.0
 11
41.551603
 21
172.488088
 31
0.0
1001
ACAD
1000
RTMaterial
1005
0
  0
LINE
  8
F01_OUT
  5
DA2
 10
41.551603
 20
180.588088
 30
0.0
 11
41.551603
 21
182.588088
 31
0.0
1001
ACAD
1000
RTMaterial
1005
0
  0
LINE
  8
F01_OUT
  5
DA3
 10
41.551603
 20
182.588088
 30
0.0
 11
40.051603
 21
182.588088
 31
0.0
1001
ACAD
1000
RTMaterial
1005
0
  0
LINE
  8
F01_OUT
  5
DA4
 10
40.051603
 20
180.588088
 30
0.0
 11
41.551603
 21
180.588088
 31
0.0
1001
ACAD
1000
RTMaterial
1005
0
  0
LINE
  8
F01_OUT
  5
DA5
 10
40.051603
 20
182.588088
 30
0.0
 11
40.051603
 21
180.588088
 31
0.0
1001
ACAD
1000
RTMaterial
1005
0
  0
LINE
  8
F01_OUT
  5
DA6
 10
40.051603
 20
172.488088
 30
0.0
 11
40.051603
 21
170.488088
 31
0.0
1001
ACAD
1000
RTMaterial
1005
0
  0
LINE
  8
F01_OUT
  5
DA7
 10
41.551603
 20
172.488088
 30
0.0
 11
40.051603
 21
172.488088
 31
0.0
1001
ACAD
1000
RTMaterial
1005
0
  0
LINE
  8
F01_OUT
  5
DA8
 10
41.201603
 20
165.038088
 30
0.0
 11
40.701603
 21
165.038088
 31
0.0
1001
ACAD
1000
RTMaterial
1005
0
  0
LINE
  8
F01_OUT
  5
DA9
 10
41.701603
 20
165.038088
 30
0.0
 11
41.201603
 21
165.038088
 31
0.0
1001
ACAD
1000
RTMaterial
1005
0
  0
LINE
  8
F01_OUT
  5
DAA
 10
40.051603
 20
170.488088
 30
0.0
 11
41.551603
 21
170.488088
 31
0.0
1001
ACAD
1000
RTMaterial
1005
0
  0
LINE
  8
F01_OUT
  5
DAB
 10
41.838956
 20
156.038088
 30
0.0
 11
39.751603
 21
156.038088
 31
0.0
1001
ACAD
1000
RTMaterial
1005
0
  0
LINE
  8
F01_OUT
  5
DAC
 10
46.474102
 20
156.038088
 30
0.0
 11
44.86425
 21
156.038088
 31
0.0
1001
ACAD
1000
RTMaterial
1005
0
  0
LINE
  8
F01_OUT
  5
DAD
 10
47.326603
 20
156.038088
 30
0.0
 11
46.474102
 21
156.038088
 31
0.0
1001
ACAD
1000
RTMaterial
1005
0
  0
LINE
  8
F01_OUT
  5
DAE
 10
47.851603
 20
152.538088
 30
0.0
 11
47.976603
 21
152.538088
 31
0.0
1001
ACAD
1000
RTMaterial
1005
0
  0
LINE
  8
F01_OUT
  5
DAF
 10
47.326603
 20
152.838088
 30
0.0
 11
47.326603
 21
156.038088
 31
0.0
1001
ACAD
1000
RTMaterial
1005
0
  0
LINE
  8
F01_OUT
  5
DB0
 10
48.276603
 20
152.838088
 30
0.0
 11
48.276603
 21
156.038088
 31
0.0
1001
ACAD
1000
RTMaterial
1005
0
  0
LINE
  8
F01_OUT
  5
DB1
 10
47.851603
 20
152.538088
 30
0.0
 11
47.626603
 21
152.538088
 31
0.0
1001
ACAD
1000
RTMaterial
1005
0
  0
LINE
  8
F01_OUT
  5
DB2
 10
38.351603
 20
167.638088
 30
0.0
 11
38.351603
 21
185.438088
 31
0.0
1001
ACAD
1000
RTMaterial
1005
0
  0
LINE
  8
F01_OUT
  5
DB3
 10
38.351603
 20
158.038088
 30
0.0
 11
38.351603
 21
165.038088
 31
0.0
1001
ACAD
1000
RTMaterial
1005
0
  0
LINE
  8
F01_OUT
  5
DB4
 10
38.351603
 20
165.038088
 30
0.0
 11
38.351603
 21
166.238088
 31
0.0
1001
ACAD
1000
RTMaterial
1005
0
  0
LINE
  8
F01_OUT
  5
DB5
 10
38.351603
 20
157.138088
 30
0.0
 11
38.351603
 21
158.038088
 31
0.0
1001
ACAD
1000
RTMaterial
1005
0
  0
LINE
  8
F01_OUT
  5
DB6
 10
38.351603
 20
166.238088
 30
0.0
 11
38.351603
 21
167.038088
 31
0.0
1001
ACAD
1000
RTMaterial
1005
0
  0
LINE
  8
F01_OUT
  5
DB7
 10
38.351603
 20
167.538088
 30
0.0
 11
38.351603
 21
167.038088
 31
0.0
1001
ACAD
1000
RTMaterial
1005
0
  0
LINE
  8
F01_OUT
  5
DB8
 10
38.351603
 20
167.538088
 30
0.0
 11
38.351603
 21
167.638088
 31
0.0
1001
ACAD
1000
RTMaterial
1005
0
  0
LINE
  8
F01_OUT
  5
DB9
 10
40.701603
 20
165.038088
 30
0.0
 11
39.576603
 21
165.038088
 31
0.0
1001
ACAD
1000
RTMaterial
1005
0
  0
LINE
  8
F01_OUT
  5
DBA
 10
38.351603
 20
186.838088
 30
0.0
 11
38.351603
 21
188.038088
 31
0.0
1001
ACAD
1000
RTMaterial
1005
0
  0
LINE
  8
F01_OUT
  5
DBB
 10
38.351603
 20
186.038088
 30
0.0
 11
38.351603
 21
186.838088
 31
0.0
1001
ACAD
1000
RTMaterial
1005
0
  0
LINE
  8
F01_OUT
  5
DBC
 10
38.351603
 20
185.438088
 30
0.0
 11
38.351603
 21
185.538088
 31
0.0
1001
ACAD
1000
RTMaterial
1005
0
  0
LINE
  8
F01_OUT
  5
DBD
 10
38.351603
 20
185.538088
 30
0.0
 11
38.351603
 21
186.038088
 31
0.0
1001
ACAD
1000
RTMaterial
1005
0
  0
LINE
  8
F01_OUT
  5
DBE
 10
39.576603
 20
157.138088
 30
0.0
 11
39.576603
 21
156.038088
 31
0.0
1001
ACAD
1000
RTMaterial
1005
0
  0
LINE
  8
F01_OUT
  5
DBF
 10
39.576603
 20
156.038088
 30
0.0
 11
39.751603
 21
156.038088
 31
0.0
1001
ACAD
1000
RTMaterial
1005
0
  0
LINE
  8
F01_OUT
  5
DC0
 10
39.576603
 20
156.038088
 30
0.0
 11
39.576603
 21
152.838088
 31
0.0
1001
ACAD
1000
RTMaterial
1005
0
  0
LINE
  8
F01_OUT
  5
DC1
 10
38.351603
 20
157.138088
 30
0.0
 11
38.351603
 21
152.838088
 31
0.0
1001
ACAD
1000
RTMaterial
1005
0
  0
LINE
  8
F01_OUT
  5
DC2
 10
38.651603
 20
152.538088
 30
0.0
 11
39.276603
 21
152.538088
 31
0.0
1001
ACAD
1000
RTMaterial
1005
0
  0
LINE
  8
F01_OUT
  5
DC3
 10
64.726603
 20
156.038088
 30
0.0
 11
56.976603
 21
156.038088
 31
0.0
1001
ACAD
1000
RTMaterial
1005
0
  0
LINE
  8
F01_OUT
  5
DC4
 10
56.676603
 20
152.538088
 30
0.0
 11
56.326603
 21
152.538088
 31
0.0
1001
ACAD
1000
RTMaterial
1005
0
  0
LINE
  8
F01_OUT
  5
DC5
 10
56.976603
 20
152.838088
 30
0.0
 11
56.976603
 21
156.038088
 31
0.0
1001
ACAD
1000
RTMaterial
1005
0
  0
LINE
  8
F01_OUT
  5
DC6
 10
56.026603
 20
152.838088
 30
0.0
 11
56.026603
 21
156.038088
 31
0.0
1001
ACAD
1000
RTMaterial
1005
0
  0
ARC
  8
F01_OUT
  5
DC7
 10
69.551603
 20
177.738088
 30
0.0
 40
0.3
 50
0.0
 51
90.0
1001
ACAD
1000
RTMaterial
1005
0
  0
ARC
  8
F01_OUT
  5
DC8
 10
69.551603
 20
175.338088
 30
0.0
 40
0.3
 50
270.0
 51
0.0
1001
ACAD
1000
RTMaterial
1005
0
  0
ARC
  8
F01_OUT
  5
DC9
 10
68.651603
 20
175.338088
 30
0.0
 40
0.3
 50
180.0
 51
270.0
1001
ACAD
1000
RTMaterial
1005
0
  0
ARC
  8
F01_OUT
  5
DCA
 10
68.651603
 20
177.738088
 30
0.0
 40
0.3
 50
90.0
 51
180.0
1001
ACAD
1000
RTMaterial
1005
0
  0
LINE
  8
F01_OUT
  5
DCB
 10
69.551603
 20
175.038088
 30
0.0
 11
68.651603
 21
175.038088
 31
0.0
1001
ACAD
1000
RTMaterial
1005
0
  0
LINE
  8
F01_OUT
  5
DCC
 10
68.351603
 20
177.338088
 30
0.0
 11
68.351603
 21
177.738088
 31
0.0
1001
ACAD
1000
RTMaterial
1005
0
  0
LINE
  8
F01_OUT
  5
DCD
 10
68.351603
 20
175.338088
 30
0.0
 11
68.351603
 21
175.738088
 31
0.0
1001
ACAD
1000
RTMaterial
1005
0
  0
LINE
  8
F01_OUT
  5
DCE
 10
69.851603
 20
177.738088
 30
0.0
 11
69.851603
 21
175.338088
 31
0.0
1001
ACAD
1000
RTMaterial
1005
0
  0
LINE
  8
F01_OUT
  5
DCF
 10
68.351603
 20
175.738088
 30
0.0
 11
68.351603
 21
177.338088
 31
0.0
1001
ACAD
1000
RTMaterial
1005
0
  0
LINE
  8
F01_OUT
  5
DD0
 10
68.651603
 20
178.038088
 30
0.0
 11
69.551603
 21
178.038088
 31
0.0
1001
ACAD
1000
RTMaterial
1005
0
  0
LINE
  8
F01_OUT
  5
DD1
 10
56.676603
 20
152.538088
 30
0.0
 11
56.326603
 21
152.538088
 31
0.0
1001
ACAD
1000
RTMaterial
1005
0
  0
LINE
  8
F01_OUT
  5
DD2
 10
65.026603
 20
152.538088
 30
0.0
 11
56.676603
 21
152.538088
 31
0.0
1001
ACAD
1000
RTMaterial
1005
0
  0
LINE
  8
F01_OUT
  5
DD3
 10
56.326603
 20
152.538088
 30
0.0
 11
53.901603
 21
152.538088
 31
0.0
1001
ACAD
1000
RTMaterial
1005
0
  0
LINE
  8
F01_OUT
  5
DD4
 10
56.976603
 20
156.038088
 30
0.0
 11
56.951603
 21
156.038088
 31
0.0
1001
ACAD
1000
RTMaterial
1005
0
  0
LINE
  8
F01_OUT
  5
DD5
 10
65.051603
 20
156.038088
 30
0.0
 11
64.751603
 21
156.038088
 31
0.0
1001
ACAD
1000
RTMaterial
1005
0
  0
LINE
  8
F01_OUT
  5
DD6
 10
64.726603
 20
156.038088
 30
0.0
 11
56.976603
 21
156.038088
 31
0.0
1001
ACAD
1000
RTMaterial
1005
0
  0
LINE
  8
F01_OUT
  5
DD7
 10
56.951603
 20
156.038088
 30
0.0
 11
56.651603
 21
156.038088
 31
0.0
1001
ACAD
1000
RTMaterial
1005
0
  0
LINE
  8
F01_OUT
  5
DD8
 10
56.351603
 20
156.038088
 30
0.0
 11
56.651603
 21
156.038088
 31
0.0
1001
ACAD
1000
RTMaterial
1005
0
  0
LINE
  8
F01_OUT
  5
DD9
 10
38.351603
 20
186.838088
 30
0.0
 11
38.351603
 21
188.038088
 31
0.0
1001
ACAD
1000
RTMaterial
1005
0
  0
LINE
  8
F01_OUT
  5
DDA
 10
38.351603
 20
165.038088
 30
0.0
 11
38.351603
 21
166.238088
 31
0.0
1001
ACAD
1000
RTMaterial
1005
0
  0
LINE
  8
F01_OUT
  5
DDB
 10
38.351603
 20
158.038088
 30
0.0
 11
38.351603
 21
165.038088
 31
0.0
1001
ACAD
1000
RTMaterial
1005
0
  0
LINE
  8
F01_OUT
  5
DDC
 10
47.976603
 20
152.538088
 30
0.0
 11
53.901603
 21
152.538088
 31
0.0
1001
ACAD
1000
RTMaterial
1005
0
  0
LINE
  8
F01_OUT
  5
DDD
 10
53.401603
 20
154.038088
 30
0.0
 11
48.351603
 21
154.038088
 31
0.0
1001
ACAD
1000
RTMaterial
1005
0
  0
LINE
  8
F01_OUT
  5
DDE
 10
53.401603
 20
156.038088
 30
0.0
 11
53.401603
 21
154.038088
 31
0.0
1001
ACAD
1000
RTMaterial
1005
0
  0
LINE
  8
F01_OUT
  5
DDF
 10
47.851603
 20
152.538088
 30
0.0
 11
47.626603
 21
152.538088
 31
0.0
1001
ACAD
1000
RTMaterial
1005
0
  0
LINE
  8
F01_OUT
  5
DE0
 10
47.626603
 20
152.538088
 30
0.0
 11
39.851603
 21
152.538088
 31
0.0
1001
ACAD
1000
RTMaterial
1005
0
  0
LINE
  8
F01_OUT
  5
DE1
 10
47.851603
 20
152.538088
 30
0.0
 11
47.976603
 21
152.538088
 31
0.0
1001
ACAD
1000
RTMaterial
1005
0
  0
LINE
  8
F01_OUT
  5
DE2
 10
48.351603
 20
154.038088
 30
0.0
 11
48.351603
 21
156.038088
 31
0.0
1001
ACAD
1000
RTMaterial
1005
0
  0
LINE
  8
F01_OUT
  5
DE3
 10
47.651603
 20
156.038088
 30
0.0
 11
47.326603
 21
156.038088
 31
0.0
1001
ACAD
1000
RTMaterial
1005
0
  0
LINE
  8
F01_OUT
  5
DE4
 10
47.326603
 20
156.038088
 30
0.0
 11
46.474102
 21
156.038088
 31
0.0
1001
ACAD
1000
RTMaterial
1005
0
  0
LINE
  8
F01_OUT
  5
DE5
 10
47.851603
 20
156.038088
 30
0.0
 11
47.951603
 21
156.038088
 31
0.0
1001
ACAD
1000
RTMaterial
1005
0
  0
LINE
  8
F01_OUT
  5
DE6
 10
47.651603
 20
156.038088
 30
0.0
 11
47.851603
 21
156.038088
 31
0.0
1001
ACAD
1000
RTMaterial
1005
0
  0
LINE
  8
F01_OUT
  5
DE7
 10
48.276603
 20
156.038088
 30
0.0
 11
47.951603
 21
156.038088
 31
0.0
1001
ACAD
1000
RTMaterial
1005
0
  0
LINE
  8
F01_OUT
  5
DE8
 10
56.326603
 20
200.538088
 30
0.0
 11
56.676603
 21
200.538088
 31
0.0
1001
ACAD
1000
RTMaterial
1005
0
  0
LINE
  8
F01_OUT
  5
DE9
 10
47.851603
 20
200.538088
 30
0.0
 11
47.976603
 21
200.538088
 31
0.0
1001
ACAD
1000
RTMaterial
1005
0
  0
LINE
  8
F01_OUT
  5
DEA
 10
47.976603
 20
200.538088
 30
0.0
 11
56.326603
 21
200.538088
 31
0.0
1001
ACAD
1000
RTMaterial
1005
0
  0
LINE
  8
F01_OUT
  5
DEB
 10
73.726603
 20
200.538088
 30
0.0
 11
73.851603
 21
200.538088
 31
0.0
1001
ACAD
1000
RTMaterial
1005
0
  0
LINE
  8
F01_OUT
  5
DEC
 10
65.026603
 20
200.538088
 30
0.0
 11
65.376603
 21
200.538088
 31
0.0
1001
ACAD
1000
RTMaterial
1005
0
  0
LINE
  8
F01_OUT
  5
DED
 10
65.376603
 20
200.538088
 30
0.0
 11
73.726603
 21
200.538088
 31
0.0
1001
ACAD
1000
RTMaterial
1005
0
  0
LINE
  8
F01_OUT
  5
DEE
 10
47.626603
 20
200.538088
 30
0.0
 11
47.851603
 21
200.538088
 31
0.0
1001
ACAD
1000
RTMaterial
1005
0
  0
LINE
  8
F01_OUT
  5
DEF
 10
39.851603
 20
200.538088
 30
0.0
 11
47.626603
 21
200.538088
 31
0.0
1001
ACAD
1000
RTMaterial
1005
0
  0
LINE
  8
F01_OUT
  5
DF0
 10
73.851603
 20
200.538088
 30
0.0
 11
74.076603
 21
200.538088
 31
0.0
1001
ACAD
1000
RTMaterial
1005
0
  0
LINE
  8
F01_OUT
  5
DF1
 10
74.076603
 20
200.538088
 30
0.0
 11
81.851603
 21
200.538088
 31
0.0
1001
ACAD
1000
RTMaterial
1005
0
  0
LINE
  8
F01_OUT
  5
DF2
 10
56.676603
 20
200.538088
 30
0.0
 11
65.026603
 21
200.538088
 31
0.0
1001
ACAD
1000
RTMaterial
1005
0
  0
LINE
  8
F01_OUT
  5
DF3
 10
47.326603
 20
197.038088
 30
0.0
 11
47.651603
 21
197.038088
 31
0.0
1001
ACAD
1000
RTMaterial
1005
0
  0
LINE
  8
F01_OUT
  5
DF4
 10
46.474102
 20
197.038088
 30
0.0
 11
47.326603
 21
197.038088
 31
0.0
1001
ACAD
1000
RTMaterial
1005
0
  0
LINE
  8
F01_OUT
  5
DF5
 10
73.851603
 20
197.038088
 30
0.0
 11
73.751603
 21
197.038088
 31
0.0
1001
ACAD
1000
RTMaterial
1005
0
  0
LINE
  8
F01_OUT
  5
DF6
 10
73.426603
 20
197.038088
 30
0.0
 11
73.751603
 21
197.038088
 31
0.0
1001
ACAD
1000
RTMaterial
1005
0
  0
LINE
  8
F01_OUT
  5
DF7
 10
64.726603
 20
197.038088
 30
0.0
 11
64.751603
 21
197.038088
 31
0.0
1001
ACAD
1000
RTMaterial
1005
0
  0
LINE
  8
F01_OUT
  5
DF8
 10
74.051603
 20
197.038088
 30
0.0
 11
74.376603
 21
197.038088
 31
0.0
1001
ACAD
1000
RTMaterial
1005
0
  0
LINE
  8
F01_OUT
  5
DF9
 10
74.376603
 20
197.038088
 30
0.0
 11
75.229104
 21
197.038088
 31
0.0
1001
ACAD
1000
RTMaterial
1005
0
  0
LINE
  8
F01_OUT
  5
DFA
 10
65.376603
 20
152.538088
 30
0.0
 11
65.026603
 21
152.538088
 31
0.0
1001
ACAD
1000
RTMaterial
1005
0
  0
LINE
  8
F01_OUT
  5
DFB
 10
73.726603
 20
152.538088
 30
0.0
 11
73.851603
 21
152.538088
 31
0.0
1001
ACAD
1000
RTMaterial
1005
0
  0
LINE
  8
F01_OUT
  5
DFC
 10
67.801603
 20
152.538088
 30
0.0
 11
73.726603
 21
152.538088
 31
0.0
1001
ACAD
1000
RTMaterial
1005
0
  0
LINE
  8
F01_OUT
  5
DFD
 10
67.801603
 20
152.538088
 30
0.0
 11
65.376603
 21
152.538088
 31
0.0
1001
ACAD
1000
RTMaterial
1005
0
  0
LINE
  8
F01_OUT
  5
DFE
 10
74.076603
 20
152.538088
 30
0.0
 11
73.851603
 21
152.538088
 31
0.0
1001
ACAD
1000
RTMaterial
1005
0
  0
LINE
  8
F01_OUT
  5
DFF
 10
81.851603
 20
152.538088
 30
0.0
 11
74.076603
 21
152.538088
 31
0.0
1001
ACAD
1000
RTMaterial
1005
0
  0
LINE
  8
F01_OUT
  5
E00
 10
73.351603
 20
156.038088
 30
0.0
 11
73.351603
 21
154.038088
 31
0.0
1001
ACAD
1000
RTMaterial
1005
0
  0
LINE
  8
F01_OUT
  5
E01
 10
73.351603
 20
154.038088
 30
0.0
 11
68.301603
 21
154.038088
 31
0.0
1001
ACAD
1000
RTMaterial
1005
0
  0
LINE
  8
F01_OUT
  5
E02
 10
68.301603
 20
154.038088
 30
0.0
 11
68.301603
 21
156.038088
 31
0.0
1001
ACAD
1000
RTMaterial
1005
0
  0
LINE
  8
F01_OUT
  5
E03
 10
83.351603
 20
195.038088
 30
0.0
 11
83.351603
 21
188.038088
 31
0.0
1001
ACAD
1000
RTMaterial
1005
0
  0
LINE
  8
F01_OUT
  5
E04
 10
83.351603
 20
188.038088
 30
0.0
 11
83.351603
 21
186.838088
 31
0.0
1001
ACAD
1000
RTMaterial
1005
0
  0
LINE
  8
F01_OUT
  5
E05
 10
83.351603
 20
166.238088
 30
0.0
 11
83.351603
 21
165.038088
 31
0.0
1001
ACAD
1000
RTMaterial
1005
0
  0
LINE
  8
F01_OUT
  5
E06
 10
83.351603
 20
158.038088
 30
0.0
 11
83.351603
 21
165.038088
 31
0.0
1001
ACAD
1000
RTMaterial
1005
0
  0
LINE
  8
F01_OUT
  5
E07
 10
68.301603
 20
156.038088
 30
0.0
 11
66.751603
 21
156.038088
 31
0.0
1001
ACAD
1000
RTMaterial
1005
0
  0
LINE
  8
F01_OUT
  5
E08
 10
73.351603
 20
156.038088
 30
0.0
 11
73.051603
 21
156.038088
 31
0.0
1001
ACAD
1000
RTMaterial
1005
0
  0
LINE
  8
F01_OUT
  5
E09
 10
73.751603
 20
156.038088
 30
0.0
 11
73.426603
 21
156.038088
 31
0.0
1001
ACAD
1000
RTMaterial
1005
0
  0
LINE
  8
F01_OUT
  5
E0A
 10
73.426603
 20
156.038088
 30
0.0
 11
73.351603
 21
156.038088
 31
0.0
1001
ACAD
1000
RTMaterial
1005
0
  0
LINE
  8
F01_OUT
  5
E0B
 10
65.751603
 20
156.038088
 30
0.0
 11
65.676603
 21
156.038088
 31
0.0
1001
ACAD
1000
RTMaterial
1005
0
  0
LINE
  8
F01_OUT
  5
E0C
 10
65.676603
 20
156.038088
 30
0.0
 11
65.351603
 21
156.038088
 31
0.0
1001
ACAD
1000
RTMaterial
1005
0
  0
LINE
  8
F01_OUT
  5
E0D
 10
66.751603
 20
156.038088
 30
0.0
 11
65.751603
 21
156.038088
 31
0.0
1001
ACAD
1000
RTMaterial
1005
0
  0
LINE
  8
F01_OUT
  5
E0E
 10
73.051603
 20
156.038088
 30
0.0
 11
72.051603
 21
156.038088
 31
0.0
1001
ACAD
1000
RTMaterial
1005
0
  0
LINE
  8
F01_OUT
  5
E0F
 10
72.051603
 20
156.038088
 30
0.0
 11
68.301603
 21
156.038088
 31
0.0
1001
ACAD
1000
RTMaterial
1005
0
  0
LINE
  8
F01_OUT
  5
E10
 10
73.751603
 20
156.038088
 30
0.0
 11
73.851603
 21
156.038088
 31
0.0
1001
ACAD
1000
RTMaterial
1005
0
  0
LINE
  8
F01_OUT
  5
E11
 10
73.851603
 20
156.038088
 30
0.0
 11
74.051603
 21
156.038088
 31
0.0
1001
ACAD
1000
RTMaterial
1005
0
  0
LINE
  8
F01_OUT
  5
E12
 10
74.376603
 20
156.038088
 30
0.0
 11
74.051603
 21
156.038088
 31
0.0
1001
ACAD
1000
RTMaterial
1005
0
  0
LINE
  8
F01_OUT
  5
E13
 10
75.229104
 20
156.038088
 30
0.0
 11
74.376603
 21
156.038088
 31
0.0
1001
ACAD
1000
RTMaterial
1005
0
  0
LINE
  8
F01_OUT
  5
E14
 10
64.751603
 20
156.038088
 30
0.0
 11
64.726603
 21
156.038088
 31
0.0
1001
ACAD
1000
RTMaterial
1005
0
  0
LINE
  8
F01_OUT
  5
E15
 10
65.051603
 20
156.038088
 30
0.0
 11
65.351603
 21
156.038088
 31
0.0
1001
ACAD
1000
RTMaterial
1005
0
  0
LINE
  8
F01_OUT
  5
E16
 10
49.651603
 20
156.038088
 30
0.0
 11
48.651603
 21
156.038088
 31
0.0
1001
ACAD
1000
RTMaterial
1005
0
  0
LINE
  8
F01_OUT
  5
E17
 10
48.651603
 20
156.038088
 30
0.0
 11
48.351603
 21
156.038088
 31
0.0
1001
ACAD
1000
RTMaterial
1005
0
  0
LINE
  8
F01_OUT
  5
E18
 10
48.351603
 20
156.038088
 30
0.0
 11
48.276603
 21
156.038088
 31
0.0
1001
ACAD
1000
RTMaterial
1005
0
  0
LINE
  8
F01_OUT
  5
E19
 10
53.401603
 20
156.038088
 30
0.0
 11
49.651603
 21
156.038088
 31
0.0
1001
ACAD
1000
RTMaterial
1005
0
  0
LINE
  8
F01_OUT
  5
E1A
 10
56.351603
 20
156.038088
 30
0.0
 11
56.026603
 21
156.038088
 31
0.0
1001
ACAD
1000
RTMaterial
1005
0
  0
LINE
  8
F01_OUT
  5
E1B
 10
54.951603
 20
156.038088
 30
0.0
 11
53.401603
 21
156.038088
 31
0.0
1001
ACAD
1000
RTMaterial
1005
0
  0
LINE
  8
F01_OUT
  5
E1C
 10
56.026603
 20
156.038088
 30
0.0
 11
55.951603
 21
156.038088
 31
0.0
1001
ACAD
1000
RTMaterial
1005
0
  0
LINE
  8
F01_OUT
  5
E1D
 10
55.951603
 20
156.038088
 30
0.0
 11
54.951603
 21
156.038088
 31
0.0
1001
ACAD
1000
RTMaterial
1005
0
  0
LINE
  8
F01_OUT
  5
E1E
 10
54.351603
 20
199.538088
 30
0.0
 11
54.351603
 21
197.038088
 31
0.0
1001
ACAD
1000
RTMaterial
1005
0
  0
LINE
  8
F01_OUT
  5
E1F
 10
54.351603
 20
199.538088
 30
0.0
 11
56.026603
 21
199.538088
 31
0.0
1001
ACAD
1000
RTMaterial
1005
0
  0
LINE
  8
F01_OUT
  5
E20
 10
65.676603
 20
199.538088
 30
0.0
 11
67.351603
 21
199.538088
 31
0.0
1001
ACAD
1000
RTMaterial
1005
0
  0
LINE
  8
F01_OUT
  5
E21
 10
59.851603
 20
199.538088
 30
0.0
 11
61.851603
 21
199.538088
 31
0.0
1001
ACAD
1000
RTMaterial
1005
0
  0
LINE
  8
F01_OUT
  5
E22
 10
59.851603
 20
197.038088
 30
0.0
 11
59.851603
 21
199.538088
 31
0.0
1001
ACAD
1000
RTMaterial
1005
0
  0
LINE
  8
F01_OUT
  5
E23
 10
61.851603
 20
199.538088
 30
0.0
 11
61.851603
 21
197.038088
 31
0.0
1001
ACAD
1000
RTMaterial
1005
0
  0
LINE
  8
F01_OUT
  5
E24
 10
53.401603
 20
199.038088
 30
0.0
 11
53.401603
 21
197.038088
 31
0.0
1001
ACAD
1000
RTMaterial
1005
0
  0
LINE
  8
F01_OUT
  5
E25
 10
48.351603
 20
199.038088
 30
0.0
 11
53.401603
 21
199.038088
 31
0.0
1001
ACAD
1000
RTMaterial
1005
0
  0
LINE
  8
F01_OUT
  5
E26
 10
68.301603
 20
199.038088
 30
0.0
 11
73.351603
 21
199.038088
 31
0.0
1001
ACAD
1000
RTMaterial
1005
0
  0
LINE
  8
F01_OUT
  5
E27
 10
48.351603
 20
197.038088
 30
0.0
 11
48.351603
 21
199.038088
 31
0.0
1001
ACAD
1000
RTMaterial
1005
0
  0
LINE
  8
F01_OUT
  5
E28
 10
67.351603
 20
197.038088
 30
0.0
 11
67.351603
 21
199.538088
 31
0.0
1001
ACAD
1000
RTMaterial
1005
0
  0
LINE
  8
F01_OUT
  5
E29
 10
68.301603
 20
197.038088
 30
0.0
 11
68.301603
 21
199.038088
 31
0.0
1001
ACAD
1000
RTMaterial
1005
0
  0
LINE
  8
F01_OUT
  5
E2A
 10
73.351603
 20
199.038088
 30
0.0
 11
73.351603
 21
197.038088
 31
0.0
1001
ACAD
1000
RTMaterial
1005
0
  0
LINE
  8
F01_OUT
  5
E2B
 10
47.951603
 20
197.038088
 30
0.0
 11
47.851603
 21
197.038088
 31
0.0
1001
ACAD
1000
RTMaterial
1005
0
  0
LINE
  8
F01_OUT
  5
E2C
 10
47.851603
 20
197.038088
 30
0.0
 11
47.651603
 21
197.038088
 31
0.0
1001
ACAD
1000
RTMaterial
1005
0
  0
LINE
  8
F01_OUT
  5
E2D
 10
48.276603
 20
197.038088
 30
0.0
 11
48.351603
 21
197.038088
 31
0.0
1001
ACAD
1000
RTMaterial
1005
0
  0
LINE
  8
F01_OUT
  5
E2E
 10
48.351603
 20
197.038088
 30
0.0
 11
48.651603
 21
197.038088
 31
0.0
1001
ACAD
1000
RTMaterial
1005
0
  0
LINE
  8
F01_OUT
  5
E2F
 10
47.951603
 20
197.038088
 30
0.0
 11
48.276603
 21
197.038088
 31
0.0
1001
ACAD
1000
RTMaterial
1005
0
  0
LINE
  8
F01_OUT
  5
E30
 10
48.651603
 20
197.038088
 30
0.0
 11
49.651603
 21
197.038088
 31
0.0
1001
ACAD
1000
RTMaterial
1005
0
  0
LINE
  8
F01_OUT
  5
E31
 10
56.951603
 20
197.038088
 30
0.0
 11
56.976603
 21
197.038088
 31
0.0
1001
ACAD
1000
RTMaterial
1005
0
  0
LINE
  8
F01_OUT
  5
E32
 10
56.651603
 20
197.038088
 30
0.0
 11
56.351603
 21
197.038088
 31
0.0
1001
ACAD
1000
RTMaterial
1005
0
  0
LINE
  8
F01_OUT
  5
E33
 10
56.851603
 20
197.038088
 30
0.0
 11
56.951603
 21
197.038088
 31
0.0
1001
ACAD
1000
RTMaterial
1005
0
  0
LINE
  8
F01_OUT
  5
E34
 10
56.651603
 20
197.038088
 30
0.0
 11
56.851603
 21
197.038088
 31
0.0
1001
ACAD
1000
RTMaterial
1005
0
  0
LINE
  8
F01_OUT
  5
E35
 10
56.976603
 20
197.038088
 30
0.0
 11
59.851603
 21
197.038088
 31
0.0
1001
ACAD
1000
RTMaterial
1005
0
  0
LINE
  8
F01_OUT
  5
E36
 10
73.351603
 20
197.038088
 30
0.0
 11
73.426603
 21
197.038088
 31
0.0
1001
ACAD
1000
RTMaterial
1005
0
  0
LINE
  8
F01_OUT
  5
E37
 10
73.051603
 20
197.038088
 30
0.0
 11
73.351603
 21
197.038088
 31
0.0
1001
ACAD
1000
RTMaterial
1005
0
  0
LINE
  8
F01_OUT
  5
E38
 10
72.051603
 20
197.038088
 30
0.0
 11
73.051603
 21
197.038088
 31
0.0
1001
ACAD
1000
RTMaterial
1005
0
  0
LINE
  8
F01_OUT
  5
E39
 10
68.301603
 20
197.038088
 30
0.0
 11
72.051603
 21
197.038088
 31
0.0
1001
ACAD
1000
RTMaterial
1005
0
  0
LINE
  8
F01_OUT
  5
E3A
 10
67.351603
 20
197.038088
 30
0.0
 11
68.301603
 21
197.038088
 31
0.0
1001
ACAD
1000
RTMaterial
1005
0
  0
LINE
  8
F01_OUT
  5
E3B
 10
66.751603
 20
197.038088
 30
0.0
 11
67.351603
 21
197.038088
 31
0.0
1001
ACAD
1000
RTMaterial
1005
0
  0
LINE
  8
F01_OUT
  5
E3C
 10
65.676603
 20
197.038088
 30
0.0
 11
65.751603
 21
197.038088
 31
0.0
1001
ACAD
1000
RTMaterial
1005
0
  0
LINE
  8
F01_OUT
  5
E3D
 10
65.351603
 20
197.038088
 30
0.0
 11
65.676603
 21
197.038088
 31
0.0
1001
ACAD
1000
RTMaterial
1005
0
  0
LINE
  8
F01_OUT
  5
E3E
 10
65.351603
 20
197.038088
 30
0.0
 11
65.051603
 21
197.038088
 31
0.0
1001
ACAD
1000
RTMaterial
1005
0
  0
LINE
  8
F01_OUT
  5
E3F
 10
65.751603
 20
197.038088
 30
0.0
 11
66.751603
 21
197.038088
 31
0.0
1001
ACAD
1000
RTMaterial
1005
0
  0
LINE
  8
F01_OUT
  5
E40
 10
53.401603
 20
197.038088
 30
0.0
 11
54.351603
 21
197.038088
 31
0.0
1001
ACAD
1000
RTMaterial
1005
0
  0
LINE
  8
F01_OUT
  5
E41
 10
54.351603
 20
197.038088
 30
0.0
 11
54.951603
 21
197.038088
 31
0.0
1001
ACAD
1000
RTMaterial
1005
0
  0
LINE
  8
F01_OUT
  5
E42
 10
55.951603
 20
197.038088
 30
0.0
 11
56.026603
 21
197.038088
 31
0.0
1001
ACAD
1000
RTMaterial
1005
0
  0
LINE
  8
F01_OUT
  5
E43
 10
56.026603
 20
197.038088
 30
0.0
 11
56.351603
 21
197.038088
 31
0.0
1001
ACAD
1000
RTMaterial
1005
0
  0
LINE
  8
F01_OUT
  5
E44
 10
54.951603
 20
197.038088
 30
0.0
 11
55.951603
 21
197.038088
 31
0.0
1001
ACAD
1000
RTMaterial
1005
0
  0
LINE
  8
F01_OUT
  5
E45
 10
49.651603
 20
197.038088
 30
0.0
 11
53.401603
 21
197.038088
 31
0.0
1001
ACAD
1000
RTMaterial
1005
0
  0
LINE
  8
F01_OUT
  5
E46
 10
74.051603
 20
197.038088
 30
0.0
 11
73.851603
 21
197.038088
 31
0.0
1001
ACAD
1000
RTMaterial
1005
0
  0
LINE
  8
F01_OUT
  5
E47
 10
59.851603
 20
197.038088
 30
0.0
 11
61.851603
 21
197.038088
 31
0.0
1001
ACAD
1000
RTMaterial
1005
0
  0
LINE
  8
F01_OUT
  5
E48
 10
64.751603
 20
197.038088
 30
0.0
 11
64.851603
 21
197.038088
 31
0.0
1001
ACAD
1000
RTMaterial
1005
0
  0
LINE
  8
F01_OUT
  5
E49
 10
64.851603
 20
197.038088
 30
0.0
 11
65.051603
 21
197.038088
 31
0.0
1001
ACAD
1000
RTMaterial
1005
0
  0
LINE
  8
F01_OUT
  5
E4A
 10
61.851603
 20
197.038088
 30
0.0
 11
64.726603
 21
197.038088
 31
0.0
1001
ACAD
1000
RTMaterial
1005
0
  0
LINE
  8
F01_OUT
  5
E4B
 10
38.351603
 20
195.038088
 30
0.0
 11
38.351603
 21
188.038088
 31
0.0
1001
ACAD
1000
RTMaterial
1005
0
  0
ARC
  8
F01_OUT
  5
E4C
 10
39.851603
 20
153.538088
 30
0.0
 40
1.0
 50
247.811837
 51
270.0
1001
ACAD
1000
RTMaterial
1005
0
  0
ARC
  8
F01_OUT
  5
E4D
 10
43.351603
 20
156.538088
 30
0.0
 40
2.25
 50
306.869898
 51
347.160412
1001
ACAD
1000
RTMaterial
1005
0
  0
ARC
  8
F01_OUT
  5
E4E
 10
43.351603
 20
156.538088
 30
0.0
 40
2.25
 50
192.839588
 51
306.869898
1001
ACAD
1000
RTMaterial
1005
0
  0
ARC
  8
F01_OUT
  5
E4F
 10
81.851603
 20
199.538088
 30
0.0
 40
1.0
 50
67.811837
 51
90.0
1001
ACAD
1000
RTMaterial
1005
0
  0
ARC
  8
F01_OUT
  5
E50
 10
39.851603
 20
199.538088
 30
0.0
 40
1.0
 50
90.0
 51
112.188163
1001
ACAD
1000
RTMaterial
1005
0
  0
ARC
  8
F01_OUT
  5
E51
 10
43.351603
 20
196.538088
 30
0.0
 40
2.25
 50
12.839588
 51
53.130102
1001
ACAD
1000
RTMaterial
1005
0
  0
ARC
  8
F01_OUT
  5
E52
 10
78.351603
 20
196.538088
 30
0.0
 40
2.25
 50
126.869898
 51
167.160412
1001
ACAD
1000
RTMaterial
1005
0
  0
ARC
  8
F01_OUT
  5
E53
 10
78.351603
 20
196.538088
 30
0.0
 40
2.25
 50
12.839588
 51
126.869898
1001
ACAD
1000
RTMaterial
1005
0
  0
ARC
  8
F01_OUT
  5
E54
 10
43.351603
 20
196.538088
 30
0.0
 40
2.25
 50
53.130102
 51
167.160412
1001
ACAD
1000
RTMaterial
1005
0
  0
ARC
  8
F01_OUT
  5
E55
 10
81.851603
 20
153.538088
 30
0.0
 40
1.0
 50
270.0
 51
292.188163
1001
ACAD
1000
RTMaterial
1005
0
  0
ARC
  8
F01_OUT
  5
E56
 10
78.351603
 20
156.538088
 30
0.0
 40
2.25
 50
300.737869
 51
347.160412
1001
ACAD
1000
RTMaterial
1005
0
  0
ARC
  8
F01_OUT
  5
E57
 10
78.351603
 20
156.538088
 30
0.0
 40
2.25
 50
192.839588
 51
300.737869
1001
ACAD
1000
RTMaterial
1005
0
  0
ARC
  8
F01_OUT
  5
E58
 10
65.451603
 20
197.638088
 30
0.0
 40
0.4
 50
304.228866
 51
346.254379
1001
ACAD
1000
RTMaterial
1005
0
  0
ARC
  8
F01_OUT
  5
E59
 10
56.251603
 20
197.638088
 30
0.0
 40
0.4
 50
193.745621
 51
235.771134
1001
ACAD
1000
RTMaterial
1005
0
  0
LINE
  8
F01_OUT
  5
E5A
 10
65.676603
 20
198.896046
 30
0.0
 11
67.351603
 21
198.239477
 31
0.0
1001
ACAD
1000
RTMaterial
1005
0
  0
LINE
  8
F01_OUT
  5
E5B
 10
65.676603
 20
197.607149
 30
0.0
 11
67.12836
 21
197.038088
 31
0.0
1001
ACAD
1000
RTMaterial
1005
0
  0
LINE
  8
F01_OUT
  5
E5C
 10
68.301603
 20
197.867095
 30
0.0
 11
70.41652
 21
197.038088
 31
0.0
1001
ACAD
1000
RTMaterial
1005
0
  0
LINE
  8
F01_OUT
  5
E5D
 10
51.286686
 20
197.038088
 30
0.0
 11
53.401603
 21
197.867095
 31
0.0
1001
ACAD
1000
RTMaterial
1005
0
  0
LINE
  8
F01_OUT
  5
E5E
 10
54.574846
 20
197.038088
 30
0.0
 11
56.026603
 21
197.607149
 31
0.0
1001
ACAD
1000
RTMaterial
1005
0
  0
LINE
  8
F01_OUT
  5
E5F
 10
54.351603
 20
198.239477
 30
0.0
 11
56.026603
 21
198.896046
 31
0.0
1001
ACAD
1000
RTMaterial
1005
0
  0
ARC
  8
F01_OUT
  5
E60
 10
63.622884
 20
197.338088
 30
0.0
 40
2.2
 50
143.622605
 51
150.0
1001
ACAD
1000
RTMaterial
1005
0
  0
ARC
  8
F01_OUT
  5
E61
 10
60.851603
 20
198.938088
 30
0.0
 40
1.0
 50
210.0
 51
330.0
1001
ACAD
1000
RTMaterial
1005
0
  0
ARC
  8
F01_OUT
  5
E62
 10
58.080322
 20
197.338088
 30
0.0
 40
2.2
 50
30.0
 51
36.377395
1001
ACAD
1000
RTMaterial
1005
0
  0
LINE
  8
F01_OUT
  5
E63
 10
56.976603
 20
156.038088
 30
0.0
 11
56.951603
 21
156.038088
 31
0.0
1001
ACAD
1000
RTMaterial
1005
0
  0
LINE
  8
F01_OUT
  5
E64
 10
65.051603
 20
156.038088
 30
0.0
 11
64.751603
 21
156.038088
 31
0.0
1001
ACAD
1000
RTMaterial
1005
0
  0
LINE
  8
F01_OUT
  5
E65
 10
64.726603
 20
156.038088
 30
0.0
 11
56.976603
 21
156.038088
 31
0.0
1001
ACAD
1000
RTMaterial
1005
0
  0
LINE
  8
F01_OUT
  5
E66
 10
59.101603
 20
165.038088
 30
0.0
 11
58.601603
 21
165.038088
 31
0.0
1001
ACAD
1000
RTMaterial
1005
0
  0
LINE
  8
F01_OUT
  5
E67
 10
58.101603
 20
165.038088
 30
0.0
 11
56.651603
 21
165.038088
 31
0.0
1001
ACAD
1000
RTMaterial
1005
0
  0
LINE
  8
F01_OUT
  5
E68
 10
62.601603
 20
165.038088
 30
0.0
 11
59.101603
 21
165.038088
 31
0.0
1001
ACAD
1000
RTMaterial
1005
0
  0
LINE
  8
F01_OUT
  5
E69
 10
56.951603
 20
156.038088
 30
0.0
 11
56.651603
 21
156.038088
 31
0.0
1001
ACAD
1000
RTMaterial
1005
0
  0
LINE
  8
F01_OUT
  5
E6A
 10
56.351603
 20
156.038088
 30
0.0
 11
56.651603
 21
156.038088
 31
0.0
1001
ACAD
1000
RTMaterial
1005
0
  0
LINE
  8
F01_OUT
  5
E6B
 10
56.651603
 20
156.038088
 30
0.0
 11
56.651603
 21
165.038088
 31
0.0
1001
ACAD
1000
RTMaterial
1005
0
  0
LINE
  8
F01_OUT
  5
E6C
 10
56.351603
 20
156.038088
 30
0.0
 11
56.351603
 21
165.038088
 31
0.0
1001
ACAD
1000
RTMaterial
1005
0
  0
LINE
  8
F01_OUT
  5
E6D
 10
56.351603
 20
165.038088
 30
0.0
 11
56.651603
 21
165.038088
 31
0.0
1001
ACAD
1000
RTMaterial
1005
0
  0
LINE
  8
F01_OUT
  5
E6E
 10
50.401603
 20
165.038088
 30
0.0
 11
50.151603
 21
165.038088
 31
0.0
1001
ACAD
1000
RTMaterial
1005
0
  0
LINE
  8
F01_OUT
  5
E6F
 10
53.901603
 20
165.038088
 30
0.0
 11
52.151603
 21
165.038088
 31
0.0
1001
ACAD
1000
RTMaterial
1005
0
  0
LINE
  8
F01_OUT
  5
E70
 10
47.651603
 20
156.038088
 30
0.0
 11
47.651603
 21
165.038088
 31
0.0
1001
ACAD
1000
RTMaterial
1005
0
  0
LINE
  8
F01_OUT
  5
E71
 10
39.451603
 20
165.038088
 30
0.0
 11
38.351603
 21
165.038088
 31
0.0
1001
ACAD
1000
RTMaterial
1005
0
  0
LINE
  8
F01_OUT
  5
E72
 10
39.576603
 20
165.038088
 30
0.0
 11
39.451603
 21
165.038088
 31
0.0
1001
ACAD
1000
RTMaterial
1005
0
  0
LINE
  8
F01_OUT
  5
E73
 10
39.576603
 20
156.038088
 30
0.0
 11
39.751603
 21
156.038088
 31
0.0
1001
ACAD
1000
RTMaterial
1005
0
  0
LINE
  8
F01_OUT
  5
E74
 10
39.751603
 20
157.038088
 30
0.0
 11
39.576603
 21
157.038088
 31
0.0
1001
ACAD
1000
RTMaterial
1005
0
  0
LINE
  8
F01_OUT
  5
E75
 10
39.751603
 20
157.038088
 30
0.0
 11
39.751603
 21
157.138088
 31
0.0
1001
ACAD
1000
RTMaterial
1005
0
  0
LINE
  8
F01_OUT
  5
E76
 10
39.751603
 20
157.138088
 30
0.0
 11
38.351603
 21
157.138088
 31
0.0
1001
ACAD
1000
RTMaterial
1005
0
  0
LINE
  8
F01_OUT
  5
E77
 10
40.701603
 20
165.038088
 30
0.0
 11
39.576603
 21
165.038088
 31
0.0
1001
ACAD
1000
RTMaterial
1005
0
  0
LINE
  8
F01_OUT
  5
E78
 10
38.351603
 20
157.138088
 30
0.0
 11
38.351603
 21
158.038088
 31
0.0
1001
ACAD
1000
RTMaterial
1005
0
  0
LINE
  8
F01_OUT
  5
E79
 10
38.351603
 20
158.038088
 30
0.0
 11
38.351603
 21
165.038088
 31
0.0
1001
ACAD
1000
RTMaterial
1005
0
  0
LINE
  8
F01_OUT
  5
E7A
 10
47.651603
 20
156.038088
 30
0.0
 11
47.326603
 21
156.038088
 31
0.0
1001
ACAD
1000
RTMaterial
1005
0
  0
LINE
  8
F01_OUT
  5
E7B
 10
47.326603
 20
156.038088
 30
0.0
 11
46.474102
 21
156.038088
 31
0.0
1001
ACAD
1000
RTMaterial
1005
0
  0
LINE
  8
F01_OUT
  5
E7C
 10
46.474102
 20
156.038088
 30
0.0
 11
44.86425
 21
156.038088
 31
0.0
1001
ACAD
1000
RTMaterial
1005
0
  0
LINE
  8
F01_OUT
  5
E7D
 10
41.838956
 20
156.038088
 30
0.0
 11
39.751603
 21
156.038088
 31
0.0
1001
ACAD
1000
RTMaterial
1005
0
  0
LINE
  8
F01_OUT
  5
E7E
 10
44.86425
 20
156.038088
 30
0.0
 11
41.838956
 21
156.038088
 31
0.0
1001
ACAD
1000
RTMaterial
1005
0
  0
LINE
  8
F01_OUT
  5
E7F
 10
41.701603
 20
165.038088
 30
0.0
 11
41.201603
 21
165.038088
 31
0.0
1001
ACAD
1000
RTMaterial
1005
0
  0
LINE
  8
F01_OUT
  5
E80
 10
41.201603
 20
165.038088
 30
0.0
 11
40.701603
 21
165.038088
 31
0.0
1001
ACAD
1000
RTMaterial
1005
0
  0
LINE
  8
F01_OUT
  5
E81
 10
39.751603
 20
156.038088
 30
0.0
 11
39.751603
 21
157.038088
 31
0.0
1001
ACAD
1000
RTMaterial
1005
0
  0
LINE
  8
F01_OUT
  5
E82
 10
47.851603
 20
156.038088
 30
0.0
 11
47.951603
 21
156.038088
 31
0.0
1001
ACAD
1000
RTMaterial
1005
0
  0
LINE
  8
F01_OUT
  5
E83
 10
47.651603
 20
156.038088
 30
0.0
 11
47.851603
 21
156.038088
 31
0.0
1001
ACAD
1000
RTMaterial
1005
0
  0
LINE
  8
F01_OUT
  5
E84
 10
48.276603
 20
156.038088
 30
0.0
 11
47.951603
 21
156.038088
 31
0.0
1001
ACAD
1000
RTMaterial
1005
0
  0
LINE
  8
F01_OUT
  5
E85
 10
47.951603
 20
156.038088
 30
0.0
 11
47.951603
 21
165.038088
 31
0.0
1001
ACAD
1000
RTMaterial
1005
0
  0
LINE
  8
F01_OUT
  5
E86
 10
45.201603
 20
165.038088
 30
0.0
 11
41.701603
 21
165.038088
 31
0.0
1001
ACAD
1000
RTMaterial
1005
0
  0
LINE
  8
F01_OUT
  5
E87
 10
46.201603
 20
165.038088
 30
0.0
 11
45.701603
 21
165.038088
 31
0.0
1001
ACAD
1000
RTMaterial
1005
0
  0
LINE
  8
F01_OUT
  5
E88
 10
47.651603
 20
165.038088
 30
0.0
 11
47.951603
 21
165.038088
 31
0.0
1001
ACAD
1000
RTMaterial
1005
0
  0
LINE
  8
F01_OUT
  5
E89
 10
47.651603
 20
165.038088
 30
0.0
 11
46.201603
 21
165.038088
 31
0.0
1001
ACAD
1000
RTMaterial
1005
0
  0
LINE
  8
F01_OUT
  5
E8A
 10
45.260212
 20
165.038088
 30
0.0
 11
45.201603
 21
165.038088
 31
0.0
1001
ACAD
1000
RTMaterial
1005
0
  0
LINE
  8
F01_OUT
  5
E8B
 10
45.701603
 20
165.038088
 30
0.0
 11
45.260212
 21
165.038088
 31
0.0
1001
ACAD
1000
RTMaterial
1005
0
  0
LINE
  8
F01_OUT
  5
E8C
 10
81.951603
 20
156.038088
 30
0.0
 11
82.126603
 21
156.038088
 31
0.0
1001
ACAD
1000
RTMaterial
1005
0
  0
LINE
  8
F01_OUT
  5
E8D
 10
82.126603
 20
157.038088
 30
0.0
 11
81.951603
 21
157.038088
 31
0.0
1001
ACAD
1000
RTMaterial
1005
0
  0
LINE
  8
F01_OUT
  5
E8E
 10
83.351603
 20
157.138088
 30
0.0
 11
81.951603
 21
157.138088
 31
0.0
1001
ACAD
1000
RTMaterial
1005
0
  0
LINE
  8
F01_OUT
  5
E8F
 10
82.126603
 20
165.038088
 30
0.0
 11
81.211983
 21
165.038088
 31
0.0
1001
ACAD
1000
RTMaterial
1005
0
  0
LINE
  8
F01_OUT
  5
E90
 10
83.351603
 20
165.038088
 30
0.0
 11
82.251603
 21
165.038088
 31
0.0
1001
ACAD
1000
RTMaterial
1005
0
  0
LINE
  8
F01_OUT
  5
E91
 10
76.651603
 20
165.038088
 30
0.0
 11
74.051603
 21
165.038088
 31
0.0
1001
ACAD
1000
RTMaterial
1005
0
  0
LINE
  8
F01_OUT
  5
E92
 10
82.251603
 20
165.038088
 30
0.0
 11
82.126603
 21
165.038088
 31
0.0
1001
ACAD
1000
RTMaterial
1005
0
  0
LINE
  8
F01_OUT
  5
E93
 10
83.351603
 20
157.138088
 30
0.0
 11
83.351603
 21
158.038088
 31
0.0
1001
ACAD
1000
RTMaterial
1005
0
  0
LINE
  8
F01_OUT
  5
E94
 10
83.351603
 20
158.038088
 30
0.0
 11
83.351603
 21
165.038088
 31
0.0
1001
ACAD
1000
RTMaterial
1005
0
  0
LINE
  8
F01_OUT
  5
E95
 10
81.951603
 20
156.038088
 30
0.0
 11
79.86425
 21
156.038088
 31
0.0
1001
ACAD
1000
RTMaterial
1005
0
  0
LINE
  8
F01_OUT
  5
E96
 10
79.86425
 20
156.038088
 30
0.0
 11
76.838956
 21
156.038088
 31
0.0
1001
ACAD
1000
RTMaterial
1005
0
  0
LINE
  8
F01_OUT
  5
E97
 10
81.951603
 20
157.038088
 30
0.0
 11
81.951603
 21
157.138088
 31
0.0
1001
ACAD
1000
RTMaterial
1005
0
  0
LINE
  8
F01_OUT
  5
E98
 10
81.951603
 20
156.038088
 30
0.0
 11
81.951603
 21
157.038088
 31
0.0
1001
ACAD
1000
RTMaterial
1005
0
  0
LINE
  8
F01_OUT
  5
E99
 10
68.301603
 20
156.038088
 30
0.0
 11
66.751603
 21
156.038088
 31
0.0
1001
ACAD
1000
RTMaterial
1005
0
  0
LINE
  8
F01_OUT
  5
E9A
 10
73.351603
 20
156.038088
 30
0.0
 11
73.051603
 21
156.038088
 31
0.0
1001
ACAD
1000
RTMaterial
1005
0
  0
LINE
  8
F01_OUT
  5
E9B
 10
73.751603
 20
156.038088
 30
0.0
 11
73.426603
 21
156.038088
 31
0.0
1001
ACAD
1000
RTMaterial
1005
0
  0
LINE
  8
F01_OUT
  5
E9C
 10
73.426603
 20
156.038088
 30
0.0
 11
73.351603
 21
156.038088
 31
0.0
1001
ACAD
1000
RTMaterial
1005
0
  0
LINE
  8
F01_OUT
  5
E9D
 10
65.751603
 20
156.038088
 30
0.0
 11
65.676603
 21
156.038088
 31
0.0
1001
ACAD
1000
RTMaterial
1005
0
  0
LINE
  8
F01_OUT
  5
E9E
 10
65.676603
 20
156.038088
 30
0.0
 11
65.351603
 21
156.038088
 31
0.0
1001
ACAD
1000
RTMaterial
1005
0
  0
LINE
  8
F01_OUT
  5
E9F
 10
66.751603
 20
156.038088
 30
0.0
 11
65.751603
 21
156.038088
 31
0.0
1001
ACAD
1000
RTMaterial
1005
0
  0
LINE
  8
F01_OUT
  5
EA0
 10
73.051603
 20
156.038088
 30
0.0
 11
72.051603
 21
156.038088
 31
0.0
1001
ACAD
1000
RTMaterial
1005
0
  0
LINE
  8
F01_OUT
  5
EA1
 10
72.051603
 20
156.038088
 30
0.0
 11
68.301603
 21
156.038088
 31
0.0
1001
ACAD
1000
RTMaterial
1005
0
  0
LINE
  8
F01_OUT
  5
EA2
 10
76.838956
 20
156.038088
 30
0.0
 11
75.229104
 21
156.038088
 31
0.0
1001
ACAD
1000
RTMaterial
1005
0
  0
LINE
  8
F01_OUT
  5
EA3
 10
73.751603
 20
156.038088
 30
0.0
 11
73.851603
 21
156.038088
 31
0.0
1001
ACAD
1000
RTMaterial
1005
0
  0
LINE
  8
F01_OUT
  5
EA4
 10
73.851603
 20
156.038088
 30
0.0
 11
74.051603
 21
156.038088
 31
0.0
1001
ACAD
1000
RTMaterial
1005
0
  0
LINE
  8
F01_OUT
  5
EA5
 10
74.376603
 20
156.038088
 30
0.0
 11
74.051603
 21
156.038088
 31
0.0
1001
ACAD
1000
RTMaterial
1005
0
  0
LINE
  8
F01_OUT
  5
EA6
 10
75.229104
 20
156.038088
 30
0.0
 11
74.376603
 21
156.038088
 31
0.0
1001
ACAD
1000
RTMaterial
1005
0
  0
LINE
  8
F01_OUT
  5
EA7
 10
74.051603
 20
156.038088
 30
0.0
 11
74.051603
 21
165.038088
 31
0.0
1001
ACAD
1000
RTMaterial
1005
0
  0
LINE
  8
F01_OUT
  5
EA8
 10
65.351603
 20
156.038088
 30
0.0
 11
65.351603
 21
165.038088
 31
0.0
1001
ACAD
1000
RTMaterial
1005
0
  0
LINE
  8
F01_OUT
  5
EA9
 10
65.051603
 20
156.038088
 30
0.0
 11
65.051603
 21
165.038088
 31
0.0
1001
ACAD
1000
RTMaterial
1005
0
  0
LINE
  8
F01_OUT
  5
EAA
 10
73.751603
 20
156.038088
 30
0.0
 11
73.751603
 21
165.038088
 31
0.0
1001
ACAD
1000
RTMaterial
1005
0
  0
LINE
  8
F01_OUT
  5
EAB
 10
64.751603
 20
156.038088
 30
0.0
 11
64.726603
 21
156.038088
 31
0.0
1001
ACAD
1000
RTMaterial
1005
0
  0
LINE
  8
F01_OUT
  5
EAC
 10
65.051603
 20
156.038088
 30
0.0
 11
65.351603
 21
156.038088
 31
0.0
1001
ACAD
1000
RTMaterial
1005
0
  0
LINE
  8
F01_OUT
  5
EAD
 10
72.301603
 20
165.038088
 30
0.0
 11
71.801603
 21
165.038088
 31
0.0
1001
ACAD
1000
RTMaterial
1005
0
  0
LINE
  8
F01_OUT
  5
EAE
 10
71.801603
 20
165.038088
 30
0.0
 11
71.551603
 21
165.038088
 31
0.0
1001
ACAD
1000
RTMaterial
1005
0
  0
LINE
  8
F01_OUT
  5
EAF
 10
73.751603
 20
165.038088
 30
0.0
 11
72.301603
 21
165.038088
 31
0.0
1001
ACAD
1000
RTMaterial
1005
0
  0
LINE
  8
F01_OUT
  5
EB0
 10
79.851603
 20
165.038088
 30
0.0
 11
76.651603
 21
165.038088
 31
0.0
1001
ACAD
1000
RTMaterial
1005
0
  0
LINE
  8
F01_OUT
  5
EB1
 10
73.751603
 20
165.038088
 30
0.0
 11
74.051603
 21
165.038088
 31
0.0
1001
ACAD
1000
RTMaterial
1005
0
  0
LINE
  8
F01_OUT
  5
EB2
 10
81.211983
 20
165.038088
 30
0.0
 11
79.851603
 21
165.038088
 31
0.0
1001
ACAD
1000
RTMaterial
1005
0
  0
LINE
  8
F01_OUT
  5
EB3
 10
71.551603
 20
165.038088
 30
0.0
 11
71.301603
 21
165.038088
 31
0.0
1001
ACAD
1000
RTMaterial
1005
0
  0
LINE
  8
F01_OUT
  5
EB4
 10
63.601603
 20
165.038088
 30
0.0
 11
63.101603
 21
165.038088
 31
0.0
1001
ACAD
1000
RTMaterial
1005
0
  0
LINE
  8
F01_OUT
  5
EB5
 10
67.801603
 20
165.038088
 30
0.0
 11
67.301603
 21
165.038088
 31
0.0
1001
ACAD
1000
RTMaterial
1005
0
  0
LINE
  8
F01_OUT
  5
EB6
 10
69.551603
 20
165.038088
 30
0.0
 11
67.801603
 21
165.038088
 31
0.0
1001
ACAD
1000
RTMaterial
1005
0
  0
LINE
  8
F01_OUT
  5
EB7
 10
66.801603
 20
165.038088
 30
0.0
 11
65.351603
 21
165.038088
 31
0.0
1001
ACAD
1000
RTMaterial
1005
0
  0
LINE
  8
F01_OUT
  5
EB8
 10
65.051603
 20
165.038088
 30
0.0
 11
65.351603
 21
165.038088
 31
0.0
1001
ACAD
1000
RTMaterial
1005
0
  0
LINE
  8
F01_OUT
  5
EB9
 10
65.051603
 20
165.038088
 30
0.0
 11
63.601603
 21
165.038088
 31
0.0
1001
ACAD
1000
RTMaterial
1005
0
  0
LINE
  8
F01_OUT
  5
EBA
 10
67.301603
 20
165.038088
 30
0.0
 11
66.801603
 21
165.038088
 31
0.0
1001
ACAD
1000
RTMaterial
1005
0
  0
LINE
  8
F01_OUT
  5
EBB
 10
71.301603
 20
165.038088
 30
0.0
 11
69.551603
 21
165.038088
 31
0.0
1001
ACAD
1000
RTMaterial
1005
0
  0
LINE
  8
F01_OUT
  5
EBC
 10
49.401603
 20
165.038088
 30
0.0
 11
47.951603
 21
165.038088
 31
0.0
1001
ACAD
1000
RTMaterial
1005
0
  0
LINE
  8
F01_OUT
  5
EBD
 10
49.651603
 20
156.038088
 30
0.0
 11
48.651603
 21
156.038088
 31
0.0
1001
ACAD
1000
RTMaterial
1005
0
  0
LINE
  8
F01_OUT
  5
EBE
 10
48.651603
 20
156.038088
 30
0.0
 11
48.351603
 21
156.038088
 31
0.0
1001
ACAD
1000
RTMaterial
1005
0
  0
LINE
  8
F01_OUT
  5
EBF
 10
48.351603
 20
156.038088
 30
0.0
 11
48.276603
 21
156.038088
 31
0.0
1001
ACAD
1000
RTMaterial
1005
0
  0
LINE
  8
F01_OUT
  5
EC0
 10
53.401603
 20
156.038088
 30
0.0
 11
49.651603
 21
156.038088
 31
0.0
1001
ACAD
1000
RTMaterial
1005
0
  0
LINE
  8
F01_OUT
  5
EC1
 10
56.351603
 20
156.038088
 30
0.0
 11
56.026603
 21
156.038088
 31
0.0
1001
ACAD
1000
RTMaterial
1005
0
  0
LINE
  8
F01_OUT
  5
EC2
 10
54.951603
 20
156.038088
 30
0.0
 11
53.401603
 21
156.038088
 31
0.0
1001
ACAD
1000
RTMaterial
1005
0
  0
LINE
  8
F01_OUT
  5
EC3
 10
56.026603
 20
156.038088
 30
0.0
 11
55.951603
 21
156.038088
 31
0.0
1001
ACAD
1000
RTMaterial
1005
0
  0
LINE
  8
F01_OUT
  5
EC4
 10
55.951603
 20
156.038088
 30
0.0
 11
54.951603
 21
156.038088
 31
0.0
1001
ACAD
1000
RTMaterial
1005
0
  0
LINE
  8
F01_OUT
  5
EC5
 10
50.151603
 20
165.038088
 30
0.0
 11
49.901603
 21
165.038088
 31
0.0
1001
ACAD
1000
RTMaterial
1005
0
  0
LINE
  8
F01_OUT
  5
EC6
 10
63.101603
 20
165.038088
 30
0.0
 11
62.601603
 21
165.038088
 31
0.0
1001
ACAD
1000
RTMaterial
1005
0
  0
LINE
  8
F01_OUT
  5
EC7
 10
49.901603
 20
165.038088
 30
0.0
 11
49.401603
 21
165.038088
 31
0.0
1001
ACAD
1000
RTMaterial
1005
0
  0
LINE
  8
F01_OUT
  5
EC8
 10
58.601603
 20
165.038088
 30
0.0
 11
58.101603
 21
165.038088
 31
0.0
1001
ACAD
1000
RTMaterial
1005
0
  0
LINE
  8
F01_OUT
  5
EC9
 10
54.401603
 20
165.038088
 30
0.0
 11
53.901603
 21
165.038088
 31
0.0
1001
ACAD
1000
RTMaterial
1005
0
  0
LINE
  8
F01_OUT
  5
ECA
 10
54.901603
 20
165.038088
 30
0.0
 11
54.401603
 21
165.038088
 31
0.0
1001
ACAD
1000
RTMaterial
1005
0
  0
LINE
  8
F01_OUT
  5
ECB
 10
56.351603
 20
165.038088
 30
0.0
 11
54.901603
 21
165.038088
 31
0.0
1001
ACAD
1000
RTMaterial
1005
0
  0
LINE
  8
F01_OUT
  5
ECC
 10
52.151603
 20
165.038088
 30
0.0
 11
50.401603
 21
165.038088
 31
0.0
1001
ACAD
1000
RTMaterial
1005
0
  0
CIRCLE
  8
F01_OUT
  5
ECD
 10
43.451603
 20
192.038088
 30
0.0
 40
3.0
1001
ACAD
1000
RTMaterial
1005
0
  0
LINE
  8
F01_OUT
  5
ECE
 10
-61.812825
 20
159.488088
 30
0.0
 11
-61.812825
 21
158.888088
 31
0.0
1001
ACAD
1000
RTMaterial
1005
0
  0
LINE
  8
F01_OUT
  5
ECF
 10
-61.812825
 20
192.238087
 30
0.0
 11
-61.812825
 21
159.488088
 31
0.0
1001
ACAD
1000
RTMaterial
1005
0
  0
LINE
  8
F01_OUT
  5
ED0
 10
-63.012825
 20
158.888088
 30
0.0
 11
-61.812825
 21
158.888088
 31
0.0
1001
ACAD
1000
RTMaterial
1005
0
  0
LINE
  8
F01_OUT
  5
ED1
 10
-63.112825
 20
159.488088
 30
0.0
 11
-61.812825
 21
159.488088
 31
0.0
1001
ACAD
1000
RTMaterial
1005
0
  0
LINE
  8
F01_OUT
  5
ED2
 10
-64.812825
 20
156.038088
 30
0.0
 11
-64.812825
 21
152.538088
 31
0.0
1001
ACAD
1000
RTMaterial
1005
0
  0
LINE
  8
F01_OUT
  5
ED3
 10
-64.812825
 20
156.538088
 30
0.0
 11
-64.812825
 21
156.038088
 31
0.0
1001
ACAD
1000
RTMaterial
1005
0
  0
LINE
  8
F01_OUT
  5
ED4
 10
-64.812825
 20
158.888088
 30
0.0
 11
-64.812825
 21
156.538088
 31
0.0
1001
ACAD
1000
RTMaterial
1005
0
  0
LINE
  8
F01_OUT
  5
ED5
 10
-64.012825
 20
160.088088
 30
0.0
 11
-63.212825
 21
160.088088
 31
0.0
1001
ACAD
1000
RTMaterial
1005
0
  0
LINE
  8
F01_OUT
  5
ED6
 10
-64.812825
 20
158.888088
 30
0.0
 11
-64.012825
 21
160.088088
 31
0.0
1001
ACAD
1000
RTMaterial
1005
0
  0
LINE
  8
F01_OUT
  5
ED7
 10
-63.112825
 20
159.488088
 30
0.0
 11
-63.212825
 21
160.088088
 31
0.0
1001
ACAD
1000
RTMaterial
1005
0
  0
LINE
  8
F01_OUT
  5
ED8
 10
-63.012825
 20
158.888088
 30
0.0
 11
-63.112825
 21
159.488088
 31
0.0
1001
ACAD
1000
RTMaterial
1005
0
  0
LINE
  8
F01_OUT
  5
ED9
 10
-64.812825
 20
152.538088
 30
0.0
 11
-59.312825
 21
152.538088
 31
0.0
1001
ACAD
1000
RTMaterial
1005
0
  0
LINE
  8
F01_OUT
  5
EDA
 10
-58.812825
 20
153.538088
 30
0.0
 11
-58.812825
 21
153.038088
 31
0.0
1001
ACAD
1000
RTMaterial
1005
0
  0
LINE
  8
F01_OUT
  5
EDB
 10
-58.812825
 20
156.038088
 30
0.0
 11
-58.812825
 21
153.538088
 31
0.0
1001
ACAD
1000
RTMaterial
1005
0
  0
LINE
  8
F01_OUT
  5
EDC
 10
-44.312825
 20
160.538088
 30
0.0
 11
-44.008977
 21
160.538088
 31
0.0
1001
ACAD
1000
RTMaterial
1005
0
  0
LINE
  8
F01_OUT
  5
EDD
 10
-45.312825
 20
159.538088
 30
0.0
 11
-45.312825
 21
159.038088
 31
0.0
1001
ACAD
1000
RTMaterial
1005
0
  0
LINE
  8
F01_OUT
  5
EDE
 10
-45.312825
 20
160.538088
 30
0.0
 11
-45.312825
 21
159.538088
 31
0.0
1001
ACAD
1000
RTMaterial
1005
0
  0
LINE
  8
F01_OUT
  5
EDF
 10
-45.312825
 20
160.538088
 30
0.0
 11
-44.312825
 21
160.538088
 31
0.0
1001
ACAD
1000
RTMaterial
1005
0
  0
LINE
  8
F01_OUT
  5
EE0
 10
-58.812825
 20
160.538088
 30
0.0
 11
-45.312825
 21
160.538088
 31
0.0
1001
ACAD
1000
RTMaterial
1005
0
  0
LINE
  8
F01_OUT
  5
EE1
 10
-43.569747
 20
160.284498
 30
0.0
 11
-44.008977
 21
160.538088
 31
0.0
1001
ACAD
1000
RTMaterial
1005
0
  0
LINE
  8
F01_OUT
  5
EE2
 10
-58.812825
 20
156.952301
 30
0.0
 11
-58.812825
 21
156.038088
 31
0.0
1001
ACAD
1000
RTMaterial
1005
0
  0
LINE
  8
F01_OUT
  5
EE3
 10
-58.812825
 20
157.452301
 30
0.0
 11
-58.812825
 21
156.952301
 31
0.0
1001
ACAD
1000
RTMaterial
1005
0
  0
LINE
  8
F01_OUT
  5
EE4
 10
-58.812825
 20
157.452301
 30
0.0
 11
-58.812825
 21
160.538088
 31
0.0
1001
ACAD
1000
RTMaterial
1005
0
  0
LINE
  8
F01_OUT
  5
EE5
 10
-38.812825
 20
156.038088
 30
0.0
 11
-38.812825
 21
157.538088
 31
0.0
1001
ACAD
1000
RTMaterial
1005
0
  0
LINE
  8
F01_OUT
  5
EE6
 10
-37.812825
 20
156.038088
 30
0.0
 11
-37.812825
 21
197.038088
 31
0.0
1001
ACAD
1000
RTMaterial
1005
0
  0
LINE
  8
F01_OUT
  5
EE7
 10
-38.812825
 20
156.038088
 30
0.0
 11
-58.812825
 21
156.038088
 31
0.0
1001
ACAD
1000
RTMaterial
1005
0
  0
LINE
  8
F01_OUT
  5
EE8
 10
-36.812825
 20
156.038088
 30
0.0
 11
-37.812825
 21
156.038088
 31
0.0
1001
ACAD
1000
RTMaterial
1005
0
  0
LINE
  8
F01_OUT
  5
EE9
 10
-37.812825
 20
156.038088
 30
0.0
 11
-38.812825
 21
156.038088
 31
0.0
1001
ACAD
1000
RTMaterial
1005
0
  0
LINE
  8
F01_OUT
  5
EEA
 10
-35.312825
 20
156.038088
 30
0.0
 11
-36.812825
 21
156.038088
 31
0.0
1001
ACAD
1000
RTMaterial
1005
0
  0
LINE
  8
F01_OUT
  5
EEB
 10
-44.812825
 20
158.538088
 30
0.0
 11
-40.544876
 21
158.538088
 31
0.0
1001
ACAD
1000
RTMaterial
1005
0
  0
LINE
  8
F01_OUT
  5
EEC
 10
-37.812825
 20
157.538088
 30
0.0
 11
-38.812825
 21
157.538088
 31
0.0
1001
ACAD
1000
RTMaterial
1005
0
  0
LINE
  8
F01_OUT
  5
EED
 10
-44.812825
 20
158.538088
 30
0.0
 11
-45.312825
 21
159.038088
 31
0.0
1001
ACAD
1000
RTMaterial
1005
0
  0
LINE
  8
F01_OUT
  5
EEE
 10
-43.769747
 20
159.538088
 30
0.0
 11
-44.312825
 21
159.538088
 31
0.0
1001
ACAD
1000
RTMaterial
1005
0
  0
LINE
  8
F01_OUT
  5
EEF
 10
-44.312825
 20
159.538088
 30
0.0
 11
-45.312825
 21
159.538088
 31
0.0
1001
ACAD
1000
RTMaterial
1005
0
  0
LINE
  8
F01_OUT
  5
EF0
 10
-40.544876
 20
158.538088
 30
0.0
 11
-38.812825
 21
157.538088
 31
0.0
1001
ACAD
1000
RTMaterial
1005
0
  0
LINE
  8
F01_OUT
  5
EF1
 10
-59.312825
 20
200.538088
 30
0.0
 11
-64.812825
 21
200.538088
 31
0.0
1001
ACAD
1000
RTMaterial
1005
0
  0
LINE
  8
F01_OUT
  5
EF2
 10
-58.812825
 20
199.538088
 30
0.0
 11
-58.812825
 21
200.038088
 31
0.0
1001
ACAD
1000
RTMaterial
1005
0
  0
LINE
  8
F01_OUT
  5
EF3
 10
-58.812825
 20
197.038088
 30
0.0
 11
-58.812825
 21
199.538088
 31
0.0
1001
ACAD
1000
RTMaterial
1005
0
  0
LINE
  8
F01_OUT
  5
EF4
 10
-61.612825
 20
195.538088
 30
0.0
 11
-61.662825
 21
195.538088
 31
0.0
1001
ACAD
1000
RTMaterial
1005
0
  0
LINE
  8
F01_OUT
  5
EF5
 10
-61.662825
 20
195.538088
 30
0.0
 11
-62.712825
 21
195.538088
 31
0.0
1001
ACAD
1000
RTMaterial
1005
0
  0
LINE
  8
F01_OUT
  5
EF6
 10
-61.412825
 20
193.730908
 30
0.0
 11
-61.412825
 21
195.338088
 31
0.0
1001
ACAD
1000
RTMaterial
1005
0
  0
LINE
  8
F01_OUT
  5
EF7
 10
-61.412825
 20
195.338088
 30
0.0
 11
-61.412825
 21
195.538088
 31
0.0
1001
ACAD
1000
RTMaterial
1005
0
  0
LINE
  8
F01_OUT
  5
EF8
 10
-62.912825
 20
195.538088
 30
0.0
 11
-62.912825
 21
195.338088
 31
0.0
1001
ACAD
1000
RTMaterial
1005
0
  0
LINE
  8
F01_OUT
  5
EF9
 10
-62.912825
 20
195.338088
 30
0.0
 11
-62.912825
 21
193.638088
 31
0.0
1001
ACAD
1000
RTMaterial
1005
0
  0
LINE
  8
F01_OUT
  5
EFA
 10
-64.812825
 20
192.238088
 30
0.0
 11
-64.812825
 21
200.538088
 31
0.0
1001
ACAD
1000
RTMaterial
1005
0
  0
LINE
  8
F01_OUT
  5
EFB
 10
-61.812825
 20
192.238087
 30
0.0
 11
-61.412825
 21
193.730908
 31
0.0
1001
ACAD
1000
RTMaterial
1005
0
  0
LINE
  8
F01_OUT
  5
EFC
 10
-64.812825
 20
192.238088
 30
0.0
 11
-63.893115
 21
192.238088
 31
0.0
1001
ACAD
1000
RTMaterial
1005
0
  0
LINE
  8
F01_OUT
  5
EFD
 10
-62.912825
 20
193.638088
 30
0.0
 11
-63.893115
 21
192.238088
 31
0.0
1001
ACAD
1000
RTMaterial
1005
0
  0
LINE
  8
F01_OUT
  5
EFE
 10
-36.812825
 20
197.038088
 30
0.0
 11
-37.812825
 21
197.038088
 31
0.0
1001
ACAD
1000
RTMaterial
1005
0
  0
LINE
  8
F01_OUT
  5
EFF
 10
-36.812825
 20
197.038088
 30
0.0
 11
-35.312825
 21
197.038088
 31
0.0
1001
ACAD
1000
RTMaterial
1005
0
  0
LINE
  8
F01_OUT
  5
F00
 10
-45.312825
 20
194.038088
 30
0.0
 11
-45.312825
 21
193.538088
 31
0.0
1001
ACAD
1000
RTMaterial
1005
0
  0
LINE
  8
F01_OUT
  5
F01
 10
-45.312825
 20
194.038088
 30
0.0
 11
-44.812825
 21
194.538088
 31
0.0
1001
ACAD
1000
RTMaterial
1005
0
  0
LINE
  8
F01_OUT
  5
F02
 10
-44.008977
 20
192.538088
 30
0.0
 11
-43.569747
 21
192.791677
 31
0.0
1001
ACAD
1000
RTMaterial
1005
0
  0
LINE
  8
F01_OUT
  5
F03
 10
-45.312825
 20
193.538088
 30
0.0
 11
-45.312825
 21
192.538088
 31
0.0
1001
ACAD
1000
RTMaterial
1005
0
  0
LINE
  8
F01_OUT
  5
F04
 10
-58.812825
 20
192.538088
 30
0.0
 11
-45.312825
 21
192.538088
 31
0.0
1001
ACAD
1000
RTMaterial
1005
0
  0
LINE
  8
F01_OUT
  5
F05
 10
-58.812825
 20
192.538088
 30
0.0
 11
-58.812825
 21
195.623874
 31
0.0
1001
ACAD
1000
RTMaterial
1005
0
  0
LINE
  8
F01_OUT
  5
F06
 10
-58.812825
 20
197.038088
 30
0.0
 11
-38.812825
 21
197.038088
 31
0.0
1001
ACAD
1000
RTMaterial
1005
0
  0
LINE
  8
F01_OUT
  5
F07
 10
-38.812825
 20
197.038088
 30
0.0
 11
-37.812825
 21
197.038088
 31
0.0
1001
ACAD
1000
RTMaterial
1005
0
  0
LINE
  8
F01_OUT
  5
F08
 10
-38.812825
 20
197.038088
 30
0.0
 11
-38.812825
 21
195.538088
 31
0.0
1001
ACAD
1000
RTMaterial
1005
0
  0
LINE
  8
F01_OUT
  5
F09
 10
-58.812825
 20
197.038088
 30
0.0
 11
-58.812825
 21
196.123874
 31
0.0
1001
ACAD
1000
RTMaterial
1005
0
  0
LINE
  8
F01_OUT
  5
F0A
 10
-58.812825
 20
196.123874
 30
0.0
 11
-58.812825
 21
195.623874
 31
0.0
1001
ACAD
1000
RTMaterial
1005
0
  0
LINE
  8
F01_OUT
  5
F0B
 10
-44.312825
 20
193.538088
 30
0.0
 11
-43.769747
 21
193.538088
 31
0.0
1001
ACAD
1000
RTMaterial
1005
0
  0
LINE
  8
F01_OUT
  5
F0C
 10
-45.312825
 20
193.538088
 30
0.0
 11
-44.312825
 21
193.538088
 31
0.0
1001
ACAD
1000
RTMaterial
1005
0
  0
LINE
  8
F01_OUT
  5
F0D
 10
-44.812825
 20
194.538088
 30
0.0
 11
-40.544876
 21
194.538088
 31
0.0
1001
ACAD
1000
RTMaterial
1005
0
  0
LINE
  8
F01_OUT
  5
F0E
 10
-44.312825
 20
192.538088
 30
0.0
 11
-44.008977
 21
192.538088
 31
0.0
1001
ACAD
1000
RTMaterial
1005
0
  0
LINE
  8
F01_OUT
  5
F0F
 10
-45.312825
 20
192.538088
 30
0.0
 11
-44.312825
 21
192.538088
 31
0.0
1001
ACAD
1000
RTMaterial
1005
0
  0
LINE
  8
F01_OUT
  5
F10
 10
-37.812825
 20
195.538088
 30
0.0
 11
-38.812825
 21
195.538088
 31
0.0
1001
ACAD
1000
RTMaterial
1005
0
  0
LINE
  8
F01_OUT
  5
F11
 10
-38.812825
 20
195.538088
 30
0.0
 11
-40.544876
 21
194.538088
 31
0.0
1001
ACAD
1000
RTMaterial
1005
0
  0
ARC
  8
F01_OUT
  5
F12
 10
-59.312825
 20
153.038088
 30
0.0
 40
0.5
 50
270.0
 51
0.0
1001
ACAD
1000
RTMaterial
1005
0
  0
ARC
  8
F01_OUT
  5
F13
 10
-43.769747
 20
159.938088
 30
0.0
 40
0.4
 50
270.0
 51
60.0
1001
ACAD
1000
RTMaterial
1005
0
  0
ARC
  8
F01_OUT
  5
F14
 10
-59.312825
 20
200.038088
 30
0.0
 40
0.5
 50
0.0
 51
90.0
1001
ACAD
1000
RTMaterial
1005
0
  0
ARC
  8
F01_OUT
  5
F15
 10
-61.612825
 20
195.338088
 30
0.0
 40
0.2
 50
0.0
 51
90.0
1001
ACAD
1000
RTMaterial
1005
0
  0
ARC
  8
F01_OUT
  5
F16
 10
-62.712825
 20
195.338088
 30
0.0
 40
0.2
 50
90.0
 51
180.0
1001
ACAD
1000
RTMaterial
1005
0
  0
ARC
  8
F01_OUT
  5
F17
 10
-62.162825
 20
195.538088
 30
0.0
 40
0.75
 50
0.0
 51
180.0
1001
ACAD
1000
RTMaterial
1005
0
  0
ARC
  8
F01_OUT
  5
F18
 10
-43.769747
 20
193.138088
 30
0.0
 40
0.4
 50
300.0
 51
90.0
1001
ACAD
1000
RTMaterial
1005
0
  0
LINE
  8
F01_OUT
  5
F19
 10
-61.662825
 20
193.338088
 30
0.0
 11
-61.662825
 21
193.448441
 31
0.0
1001
ACAD
1000
RTMaterial
1005
0
  0
LINE
  8
F01_OUT
  5
F1A
 10
-62.862825
 20
193.338088
 30
0.0
 11
-62.862825
 21
193.448441
 31
0.0
1001
ACAD
1000
RTMaterial
1005
0
  0
LINE
  8
F01_OUT
  5
F1B
 10
-62.862825
 20
193.448441
 30
0.0
 11
-62.862825
 21
195.470375
 31
0.0
1001
ACAD
1000
RTMaterial
1005
0
  0
LINE
  8
F01_OUT
  5
F1C
 10
-61.662825
 20
193.448441
 30
0.0
 11
-61.662825
 21
195.538088
 31
0.0
1001
ACAD
1000
RTMaterial
1005
0
  0
ARC
  8
F01_OUT
  5
F1D
 10
-62.262825
 20
193.338088
 30
0.0
 40
0.6
 50
90.0
 51
180.0
1001
ACAD
1000
RTMaterial
1005
0
  0
ARC
  8
F01_OUT
  5
F1E
 10
-62.262825
 20
193.338088
 30
0.0
 40
0.6
 50
0.0
 51
90.0
1001
ACAD
1000
RTMaterial
1005
0
  0
ARC
  8
F01_OUT
  5
F1F
 10
-62.262825
 20
193.338088
 30
0.0
 40
0.6
 50
180.0
 51
0.0
1001
ACAD
1000
RTMaterial
1005
0
  0
ARC
  8
F01_OUT
  5
F20
 10
-17.612825
 20
167.038088
 30
0.0
 40
0.5
 50
0.0
 51
90.0
1001
ACAD
1000
RTMaterial
1005
0
  0
ARC
  8
F01_OUT
  5
F21
 10
-17.612825
 20
186.038088
 30
0.0
 40
0.5
 50
270.0
 51
0.0
1001
ACAD
1000
RTMaterial
1005
0
  0
ARC
  8
F01_OUT
  5
F22
 10
-33.607676
 20
199.538088
 30
0.0
 40
1.0
 50
90.0
 51
135.572996
1001
ACAD
1000
RTMaterial
1005
0
  0
ARC
  8
F01_OUT
  5
F23
 10
-18.817974
 20
199.538088
 30
0.0
 40
1.0
 50
44.427004
 51
90.0
1001
ACAD
1000
RTMaterial
1005
0
  0
ARC
  8
F01_OUT
  5
F24
 10
-33.607676
 20
199.538088
 30
0.0
 40
1.0
 50
135.572996
 51
165.0
1001
ACAD
1000
RTMaterial
1005
0
  0
ARC
  8
F01_OUT
  5
F25
 10
-18.817974
 20
199.538088
 30
0.0
 40
1.0
 50
15.0
 51
44.427004
1001
ACAD
1000
RTMaterial
1005
0
  0
ARC
  8
F01_OUT
  5
F26
 10
-18.112825
 20
196.906435
 30
0.0
 40
1.0
 50
0.0
 51
7.565094
1001
ACAD
1000
RTMaterial
1005
0
  0
ARC
  8
F01_OUT
  5
F27
 10
-18.112825
 20
196.906435
 30
0.0
 40
1.0
 50
7.565094
 51
15.0
1001
ACAD
1000
RTMaterial
1005
0
  0
ARC
  8
F01_OUT
  5
F28
 10
-18.112825
 20
156.16974
 30
0.0
 40
1.0
 50
345.0
 51
0.0
1001
ACAD
1000
RTMaterial
1005
0
  0
ARC
  8
F01_OUT
  5
F29
 10
-18.817974
 20
153.538088
 30
0.0
 40
1.0
 50
270.0
 51
315.572996
1001
ACAD
1000
RTMaterial
1005
0
  0
ARC
  8
F01_OUT
  5
F2A
 10
-33.607676
 20
153.538088
 30
0.0
 40
1.0
 50
224.427004
 51
270.0
1001
ACAD
1000
RTMaterial
1005
0
  0
ARC
  8
F01_OUT
  5
F2B
 10
-18.817974
 20
153.538088
 30
0.0
 40
1.0
 50
315.572996
 51
345.0
1001
ACAD
1000
RTMaterial
1005
0
  0
ARC
  8
F01_OUT
  5
F2C
 10
-33.607676
 20
153.538088
 30
0.0
 40
1.0
 50
195.0
 51
224.427004
1001
ACAD
1000
RTMaterial
1005
0
  0
LINE
  8
F01_OUT
  5
F2D
 10
-17.112825
 20
193.847093
 30
0.0
 11
-17.112825
 21
191.504113
 31
0.0
1001
ACAD
1000
RTMaterial
1005
0
  0
LINE
  8
F01_OUT
  5
F2E
 10
-17.112825
 20
189.947035
 30
0.0
 11
-17.112825
 21
188.038088
 31
0.0
1001
ACAD
1000
RTMaterial
1005
0
  0
LINE
  8
F01_OUT
  5
F2F
 10
-17.112825
 20
190.138088
 30
0.0
 11
-17.112825
 21
189.947035
 31
0.0
1001
ACAD
1000
RTMaterial
1005
0
  0
LINE
  8
F01_OUT
  5
F30
 10
-17.112825
 20
191.504113
 30
0.0
 11
-17.112825
 21
190.138088
 31
0.0
1001
ACAD
1000
RTMaterial
1005
0
  0
LINE
  8
F01_OUT
  5
F31
 10
-17.112825
 20
165.738088
 30
0.0
 11
-17.112825
 21
165.038088
 31
0.0
1001
ACAD
1000
RTMaterial
1005
0
  0
LINE
  8
F01_OUT
  5
F32
 10
-17.112825
 20
159.229082
 30
0.0
 11
-17.112825
 21
157.788088
 31
0.0
1001
ACAD
1000
RTMaterial
1005
0
  0
LINE
  8
F01_OUT
  5
F33
 10
-17.112825
 20
187.138088
 30
0.0
 11
-17.112825
 21
188.038088
 31
0.0
1001
ACAD
1000
RTMaterial
1005
0
  0
LINE
  8
F01_OUT
  5
F34
 10
-17.112825
 20
162.938088
 30
0.0
 11
-17.112825
 21
161.572062
 31
0.0
1001
ACAD
1000
RTMaterial
1005
0
  0
LINE
  8
F01_OUT
  5
F35
 10
-17.112825
 20
163.12914
 30
0.0
 11
-17.112825
 21
162.938088
 31
0.0
1001
ACAD
1000
RTMaterial
1005
0
  0
LINE
  8
F01_OUT
  5
F36
 10
-17.112825
 20
165.738088
 30
0.0
 11
-17.112825
 21
165.938088
 31
0.0
1001
ACAD
1000
RTMaterial
1005
0
  0
LINE
  8
F01_OUT
  5
F37
 10
-17.112825
 20
164.788088
 30
0.0
 11
-17.112825
 21
163.12914
 31
0.0
1001
ACAD
1000
RTMaterial
1005
0
  0
LINE
  8
F01_OUT
  5
F38
 10
-17.112825
 20
165.038088
 30
0.0
 11
-17.112825
 21
164.788088
 31
0.0
1001
ACAD
1000
RTMaterial
1005
0
  0
LINE
  8
F01_OUT
  5
F39
 10
-17.112825
 20
165.938088
 30
0.0
 11
-17.112825
 21
167.038088
 31
0.0
1001
ACAD
1000
RTMaterial
1005
0
  0
LINE
  8
F01_OUT
  5
F3A
 10
-17.112825
 20
161.572062
 30
0.0
 11
-17.112825
 21
159.229082
 31
0.0
1001
ACAD
1000
RTMaterial
1005
0
  0
LINE
  8
F01_OUT
  5
F3B
 10
-17.112825
 20
186.038088
 30
0.0
 11
-17.112825
 21
187.138088
 31
0.0
1001
ACAD
1000
RTMaterial
1005
0
  0
LINE
  8
F01_OUT
  5
F3C
 10
-17.112825
 20
195.938088
 30
0.0
 11
-17.112825
 21
195.288088
 31
0.0
1001
ACAD
1000
RTMaterial
1005
0
  0
LINE
  8
F01_OUT
  5
F3D
 10
-17.112825
 20
195.288088
 30
0.0
 11
-17.112825
 21
193.847093
 31
0.0
1001
ACAD
1000
RTMaterial
1005
0
  0
LINE
  8
F01_OUT
  5
F3E
 10
-20.812825
 20
185.438088
 30
0.0
 11
-20.812825
 21
185.538088
 31
0.0
1001
ACAD
1000
RTMaterial
1005
0
  0
LINE
  8
F01_OUT
  5
F3F
 10
-20.612825
 20
185.538088
 30
0.0
 11
-17.612825
 21
185.538088
 31
0.0
1001
ACAD
1000
RTMaterial
1005
0
  0
LINE
  8
F01_OUT
  5
F40
 10
-20.812825
 20
185.538088
 30
0.0
 11
-20.612825
 21
185.538088
 31
0.0
1001
ACAD
1000
RTMaterial
1005
0
  0
LINE
  8
F01_OUT
  5
F41
 10
-20.812825
 20
185.038088
 30
0.0
 11
-20.812825
 21
185.438088
 31
0.0
1001
ACAD
1000
RTMaterial
1005
0
  0
LINE
  8
F01_OUT
  5
F42
 10
-20.812825
 20
179.538088
 30
0.0
 11
-20.812825
 21
183.938088
 31
0.0
1001
ACAD
1000
RTMaterial
1005
0
  0
LINE
  8
F01_OUT
  5
F43
 10
-20.812825
 20
184.038087
 30
0.0
 11
-20.812825
 21
185.038088
 31
0.0
1001
ACAD
1000
RTMaterial
1005
0
  0
LINE
  8
F01_OUT
  5
F44
 10
-20.812825
 20
183.938088
 30
0.0
 11
-20.812825
 21
184.038087
 31
0.0
1001
ACAD
1000
RTMaterial
1005
0
  0
LINE
  8
F01_OUT
  5
F45
 10
-20.812825
 20
179.288088
 30
0.0
 11
-20.812825
 21
179.538088
 31
0.0
1001
ACAD
1000
RTMaterial
1005
0
  0
LINE
  8
F01_OUT
  5
F46
 10
-20.812825
 20
178.138088
 30
0.0
 11
-20.812825
 21
179.288088
 31
0.0
1001
ACAD
1000
RTMaterial
1005
0
  0
LINE
  8
F01_OUT
  5
F47
 10
-20.812825
 20
178.088088
 30
0.0
 11
-20.812825
 21
178.138088
 31
0.0
1001
ACAD
1000
RTMaterial
1005
0
  0
LINE
  8
F01_OUT
  5
F48
 10
-36.812825
 20
197.038088
 30
0.0
 11
-35.312825
 21
197.038088
 31
0.0
1001
ACAD
1000
RTMaterial
1005
0
  0
LINE
  8
F01_OUT
  5
F49
 10
-36.812825
 20
197.038088
 30
0.0
 11
-37.812825
 21
197.038088
 31
0.0
1001
ACAD
1000
RTMaterial
1005
0
  0
LINE
  8
F01_OUT
  5
F4A
 10
-17.112825
 20
195.938088
 30
0.0
 11
-17.112825
 21
196.906435
 31
0.0
1001
ACAD
1000
RTMaterial
1005
0
  0
LINE
  8
F01_OUT
  5
F4B
 10
-33.607676
 20
200.538088
 30
0.0
 11
-18.817974
 21
200.538088
 31
0.0
1001
ACAD
1000
RTMaterial
1005
0
  0
LINE
  8
F01_OUT
  5
F4C
 10
-34.573601
 20
199.796907
 30
0.0
 11
-35.312825
 21
197.038088
 31
0.0
1001
ACAD
1000
RTMaterial
1005
0
  0
LINE
  8
F01_OUT
  5
F4D
 10
-17.852048
 20
199.796907
 30
0.0
 11
-17.146899
 21
197.165254
 31
0.0
1001
ACAD
1000
RTMaterial
1005
0
  0
LINE
  8
F01_OUT
  5
F4E
 10
-20.812825
 20
174.988088
 30
0.0
 11
-20.812825
 21
178.088088
 31
0.0
1001
ACAD
1000
RTMaterial
1005
0
  0
LINE
  8
F01_OUT
  5
F4F
 10
-20.812825
 20
169.138088
 30
0.0
 11
-20.812825
 21
173.788088
 31
0.0
1001
ACAD
1000
RTMaterial
1005
0
  0
LINE
  8
F01_OUT
  5
F50
 10
-20.812825
 20
173.788088
 30
0.0
 11
-20.812825
 21
174.938088
 31
0.0
1001
ACAD
1000
RTMaterial
1005
0
  0
LINE
  8
F01_OUT
  5
F51
 10
-20.812825
 20
167.638088
 30
0.0
 11
-20.812825
 21
169.038088
 31
0.0
1001
ACAD
1000
RTMaterial
1005
0
  0
LINE
  8
F01_OUT
  5
F52
 10
-20.812825
 20
174.938088
 30
0.0
 11
-20.812825
 21
174.988088
 31
0.0
1001
ACAD
1000
RTMaterial
1005
0
  0
LINE
  8
F01_OUT
  5
F53
 10
-20.812825
 20
169.038088
 30
0.0
 11
-20.812825
 21
169.138088
 31
0.0
1001
ACAD
1000
RTMaterial
1005
0
  0
LINE
  8
F01_OUT
  5
F54
 10
-20.812825
 20
167.638088
 30
0.0
 11
-20.812825
 21
167.538088
 31
0.0
1001
ACAD
1000
RTMaterial
1005
0
  0
LINE
  8
F01_OUT
  5
F55
 10
-20.612825
 20
167.538088
 30
0.0
 11
-17.612825
 21
167.538088
 31
0.0
1001
ACAD
1000
RTMaterial
1005
0
  0
LINE
  8
F01_OUT
  5
F56
 10
-20.812825
 20
167.538088
 30
0.0
 11
-20.612825
 21
167.538088
 31
0.0
1001
ACAD
1000
RTMaterial
1005
0
  0
LINE
  8
F01_OUT
  5
F57
 10
-17.112825
 20
157.788088
 30
0.0
 11
-17.112825
 21
157.138088
 31
0.0
1001
ACAD
1000
RTMaterial
1005
0
  0
LINE
  8
F01_OUT
  5
F58
 10
-17.112825
 20
156.16974
 30
0.0
 11
-17.112825
 21
157.138088
 31
0.0
1001
ACAD
1000
RTMaterial
1005
0
  0
LINE
  8
F01_OUT
  5
F59
 10
-35.312825
 20
156.038088
 30
0.0
 11
-36.812825
 21
156.038088
 31
0.0
1001
ACAD
1000
RTMaterial
1005
0
  0
LINE
  8
F01_OUT
  5
F5A
 10
-36.812825
 20
156.038088
 30
0.0
 11
-37.812825
 21
156.038088
 31
0.0
1001
ACAD
1000
RTMaterial
1005
0
  0
LINE
  8
F01_OUT
  5
F5B
 10
-17.146899
 20
155.910921
 30
0.0
 11
-17.852048
 21
153.279268
 31
0.0
1001
ACAD
1000
RTMaterial
1005
0
  0
LINE
  8
F01_OUT
  5
F5C
 10
-33.607676
 20
152.538088
 30
0.0
 11
-18.817974
 21
152.538088
 31
0.0
1001
ACAD
1000
RTMaterial
1005
0
  0
LINE
  8
F01_OUT
  5
F5D
 10
-35.312825
 20
156.038088
 30
0.0
 11
-34.573601
 21
153.279268
 31
0.0
1001
ACAD
1000
RTMaterial
1005
0
  0
LINE
  8
F01_OUT
  5
F5E
 10
-20.812825
 20
185.538088
 30
0.0
 11
-20.612825
 21
185.538088
 31
0.0
1001
ACAD
1000
RTMaterial
1005
0
  0
LINE
  8
F01_OUT
  5
F5F
 10
-20.812825
 20
167.538088
 30
0.0
 11
-20.612825
 21
167.538088
 31
0.0
1001
ACAD
1000
RTMaterial
1005
0
  0
LINE
  8
F01_OUT
  5
F60
 10
-17.112825
 20
188.038088
 30
0.0
 11
-17.012825
 21
188.038088
 31
0.0
1001
ACAD
1000
RTMaterial
1005
0
  0
LINE
  8
F01_OUT
  5
F61
 10
-17.012825
 20
187.138088
 30
0.0
 11
-17.112825
 21
187.138088
 31
0.0
1001
ACAD
1000
RTMaterial
1005
0
  0
LINE
  8
F01_OUT
  5
F62
 10
-17.012825
 20
188.038088
 30
0.0
 11
-17.012825
 21
187.138088
 31
0.0
1001
ACAD
1000
RTMaterial
1005
0
  0
LINE
  8
F01_OUT
  5
F63
 10
-17.012825
 20
187.138088
 30
0.0
 11
-17.012825
 21
186.938088
 31
0.0
1001
ACAD
1000
RTMaterial
1005
0
  0
LINE
  8
F01_OUT
  5
F64
 10
-17.112825
 20
166.138088
 30
0.0
 11
-17.012825
 21
166.138088
 31
0.0
1001
ACAD
1000
RTMaterial
1005
0
  0
LINE
  8
F01_OUT
  5
F65
 10
-17.012825
 20
165.938088
 30
0.0
 11
-17.112825
 21
165.938088
 31
0.0
1001
ACAD
1000
RTMaterial
1005
0
  0
LINE
  8
F01_OUT
  5
F66
 10
-17.012825
 20
186.938088
 30
0.0
 11
-17.112825
 21
186.938088
 31
0.0
1001
ACAD
1000
RTMaterial
1005
0
  0
LINE
  8
F01_OUT
  5
F67
 10
-16.300633
 20
188.038088
 30
0.0
 11
-16.505437
 21
188.038088
 31
0.0
1001
ACAD
1000
RTMaterial
1005
0
  0
LINE
  8
F01_OUT
  5
F68
 10
-17.012825
 20
188.038088
 30
0.0
 11
-16.505437
 21
188.038088
 31
0.0
1001
ACAD
1000
RTMaterial
1005
0
  0
LINE
  8
F01_OUT
  5
F69
 10
-15.812825
 20
188.038088
 30
0.0
 11
-16.300633
 21
188.038088
 31
0.0
1001
ACAD
1000
RTMaterial
1005
0
  0
LINE
  8
F01_OUT
  5
F6A
 10
-20.812825
 20
185.438088
 30
0.0
 11
-20.812825
 21
185.538088
 31
0.0
1001
ACAD
1000
RTMaterial
1005
0
  0
LINE
  8
F01_OUT
  5
F6B
 10
-15.812825
 20
185.438088
 30
0.0
 11
-15.812825
 21
188.038088
 31
0.0
1001
ACAD
1000
RTMaterial
1005
0
  0
LINE
  8
F01_OUT
  5
F6C
 10
-20.812825
 20
185.438088
 30
0.0
 11
-15.812825
 21
185.438088
 31
0.0
1001
ACAD
1000
RTMaterial
1005
0
  0
LINE
  8
F01_OUT
  5
F6D
 10
-20.812825
 20
185.038088
 30
0.0
 11
-20.812825
 21
185.438088
 31
0.0
1001
ACAD
1000
RTMaterial
1005
0
  0
LINE
  8
F01_OUT
  5
F6E
 10
-20.812825
 20
179.538088
 30
0.0
 11
-20.812825
 21
183.938088
 31
0.0
1001
ACAD
1000
RTMaterial
1005
0
  0
LINE
  8
F01_OUT
  5
F6F
 10
-20.812825
 20
184.038087
 30
0.0
 11
-20.812825
 21
185.038088
 31
0.0
1001
ACAD
1000
RTMaterial
1005
0
  0
LINE
  8
F01_OUT
  5
F70
 10
-20.812825
 20
183.938088
 30
0.0
 11
-20.812825
 21
184.038087
 31
0.0
1001
ACAD
1000
RTMaterial
1005
0
  0
LINE
  8
F01_OUT
  5
F71
 10
-20.812825
 20
179.288088
 30
0.0
 11
-20.812825
 21
179.538088
 31
0.0
1001
ACAD
1000
RTMaterial
1005
0
  0
LINE
  8
F01_OUT
  5
F72
 10
-20.812825
 20
178.138088
 30
0.0
 11
-20.812825
 21
179.288088
 31
0.0
1001
ACAD
1000
RTMaterial
1005
0
  0
LINE
  8
F01_OUT
  5
F73
 10
-20.812825
 20
178.088088
 30
0.0
 11
-20.812825
 21
178.138088
 31
0.0
1001
ACAD
1000
RTMaterial
1005
0
  0
LINE
  8
F01_OUT
  5
F74
 10
-20.812825
 20
169.138088
 30
0.0
 11
-20.812825
 21
173.788088
 31
0.0
1001
ACAD
1000
RTMaterial
1005
0
  0
LINE
  8
F01_OUT
  5
F75
 10
-20.812825
 20
173.788088
 30
0.0
 11
-20.812825
 21
174.938088
 31
0.0
1001
ACAD
1000
RTMaterial
1005
0
  0
LINE
  8
F01_OUT
  5
F76
 10
-20.812825
 20
167.638088
 30
0.0
 11
-20.812825
 21
169.038088
 31
0.0
1001
ACAD
1000
RTMaterial
1005
0
  0
LINE
  8
F01_OUT
  5
F77
 10
-20.812825
 20
174.938088
 30
0.0
 11
-20.812825
 21
174.988088
 31
0.0
1001
ACAD
1000
RTMaterial
1005
0
  0
LINE
  8
F01_OUT
  5
F78
 10
-20.812825
 20
169.038088
 30
0.0
 11
-20.812825
 21
169.138088
 31
0.0
1001
ACAD
1000
RTMaterial
1005
0
  0
LINE
  8
F01_OUT
  5
F79
 10
-20.812825
 20
167.638088
 30
0.0
 11
-20.812825
 21
167.538088
 31
0.0
1001
ACAD
1000
RTMaterial
1005
0
  0
LINE
  8
F01_OUT
  5
F7A
 10
-15.812825
 20
167.638088
 30
0.0
 11
-15.812825
 21
185.438088
 31
0.0
1001
ACAD
1000
RTMaterial
1005
0
  0
LINE
  8
F01_OUT
  5
F7B
 10
-15.812825
 20
165.038088
 30
0.0
 11
-16.300633
 21
165.038088
 31
0.0
1001
ACAD
1000
RTMaterial
1005
0
  0
LINE
  8
F01_OUT
  5
F7C
 10
-15.812825
 20
165.038088
 30
0.0
 11
-15.812825
 21
167.638088
 31
0.0
1001
ACAD
1000
RTMaterial
1005
0
  0
LINE
  8
F01_OUT
  5
F7D
 10
-17.012825
 20
165.038088
 30
0.0
 11
-16.505437
 21
165.038088
 31
0.0
1001
ACAD
1000
RTMaterial
1005
0
  0
LINE
  8
F01_OUT
  5
F7E
 10
-16.300633
 20
165.038088
 30
0.0
 11
-16.505437
 21
165.038088
 31
0.0
1001
ACAD
1000
RTMaterial
1005
0
  0
LINE
  8
F01_OUT
  5
F7F
 10
-17.112825
 20
165.038088
 30
0.0
 11
-17.012825
 21
165.038088
 31
0.0
1001
ACAD
1000
RTMaterial
1005
0
  0
LINE
  8
F01_OUT
  5
F80
 10
-17.012825
 20
165.038088
 30
0.0
 11
-17.012825
 21
165.938088
 31
0.0
1001
ACAD
1000
RTMaterial
1005
0
  0
LINE
  8
F01_OUT
  5
F81
 10
-17.012825
 20
165.938088
 30
0.0
 11
-17.012825
 21
166.138088
 31
0.0
1001
ACAD
1000
RTMaterial
1005
0
  0
LINE
  8
F01_OUT
  5
F82
 10
-15.812825
 20
167.638088
 30
0.0
 11
-20.812825
 21
167.638088
 31
0.0
1001
ACAD
1000
RTMaterial
1005
0
  0
LINE
  8
F01_OUT
  5
F83
 10
-17.121529
 20
197.038088
 30
0.0
 11
-16.300633
 21
197.038088
 31
0.0
1001
ACAD
1000
RTMaterial
1005
0
  0
LINE
  8
F01_OUT
  5
F84
 10
-17.112825
 20
195.288088
 30
0.0
 11
-17.112825
 21
193.847093
 31
0.0
1001
ACAD
1000
RTMaterial
1005
0
  0
LINE
  8
F01_OUT
  5
F85
 10
-17.112825
 20
195.938088
 30
0.0
 11
-17.112825
 21
195.288088
 31
0.0
1001
ACAD
1000
RTMaterial
1005
0
  0
LINE
  8
F01_OUT
  5
F86
 10
-17.012825
 20
188.038088
 30
0.0
 11
-16.505437
 21
188.038088
 31
0.0
1001
ACAD
1000
RTMaterial
1005
0
  0
LINE
  8
F01_OUT
  5
F87
 10
-16.300633
 20
188.038088
 30
0.0
 11
-16.505437
 21
188.038088
 31
0.0
1001
ACAD
1000
RTMaterial
1005
0
  0
LINE
  8
F01_OUT
  5
F88
 10
-17.112825
 20
195.938088
 30
0.0
 11
-16.089891
 21
195.938088
 31
0.0
1001
ACAD
1000
RTMaterial
1005
0
  0
LINE
  8
F01_OUT
  5
F89
 10
-17.112825
 20
188.038088
 30
0.0
 11
-17.012825
 21
188.038088
 31
0.0
1001
ACAD
1000
RTMaterial
1005
0
  0
LINE
  8
F01_OUT
  5
F8A
 10
-17.112825
 20
191.504113
 30
0.0
 11
-17.112825
 21
190.138088
 31
0.0
1001
ACAD
1000
RTMaterial
1005
0
  0
LINE
  8
F01_OUT
  5
F8B
 10
-17.112825
 20
190.138088
 30
0.0
 11
-17.112825
 21
189.947035
 31
0.0
1001
ACAD
1000
RTMaterial
1005
0
  0
LINE
  8
F01_OUT
  5
F8C
 10
-17.112825
 20
189.947035
 30
0.0
 11
-17.112825
 21
188.038088
 31
0.0
1001
ACAD
1000
RTMaterial
1005
0
  0
LINE
  8
F01_OUT
  5
F8D
 10
-17.112825
 20
193.847093
 30
0.0
 11
-17.112825
 21
191.504113
 31
0.0
1001
ACAD
1000
RTMaterial
1005
0
  0
ARC
  8
F01_OUT
  5
F8E
 10
-36.812825
 20
192.538088
 30
0.0
 40
21.0
 50
9.317473
 51
12.373625
1001
ACAD
1000
RTMaterial
1005
0
  0
ARC
  8
F01_OUT
  5
F8F
 10
-36.812825
 20
192.538088
 30
0.0
 40
21.0
 50
347.626375
 51
9.317473
1001
ACAD
1000
RTMaterial
1005
0
  0
LINE
  8
F01_OUT
  5
F90
 10
-17.112825
 20
157.138088
 30
0.0
 11
-16.089891
 21
157.138088
 31
0.0
1001
ACAD
1000
RTMaterial
1005
0
  0
LINE
  8
F01_OUT
  5
F91
 10
-17.112825
 20
165.038088
 30
0.0
 11
-17.012825
 21
165.038088
 31
0.0
1001
ACAD
1000
RTMaterial
1005
0
  0
LINE
  8
F01_OUT
  5
F92
 10
-16.300633
 20
165.038088
 30
0.0
 11
-16.505437
 21
165.038088
 31
0.0
1001
ACAD
1000
RTMaterial
1005
0
  0
LINE
  8
F01_OUT
  5
F93
 10
-17.012825
 20
165.038088
 30
0.0
 11
-16.505437
 21
165.038088
 31
0.0
1001
ACAD
1000
RTMaterial
1005
0
  0
LINE
  8
F01_OUT
  5
F94
 10
-17.121529
 20
156.038088
 30
0.0
 11
-16.300633
 21
156.038088
 31
0.0
1001
ACAD
1000
RTMaterial
1005
0
  0
LINE
  8
F01_OUT
  5
F95
 10
-17.112825
 20
157.788088
 30
0.0
 11
-17.112825
 21
157.138088
 31
0.0
1001
ACAD
1000
RTMaterial
1005
0
  0
LINE
  8
F01_OUT
  5
F96
 10
-17.112825
 20
161.572062
 30
0.0
 11
-17.112825
 21
159.229082
 31
0.0
1001
ACAD
1000
RTMaterial
1005
0
  0
LINE
  8
F01_OUT
  5
F97
 10
-17.112825
 20
165.038088
 30
0.0
 11
-17.112825
 21
164.788088
 31
0.0
1001
ACAD
1000
RTMaterial
1005
0
  0
LINE
  8
F01_OUT
  5
F98
 10
-17.112825
 20
164.788088
 30
0.0
 11
-17.112825
 21
163.12914
 31
0.0
1001
ACAD
1000
RTMaterial
1005
0
  0
LINE
  8
F01_OUT
  5
F99
 10
-17.112825
 20
163.12914
 30
0.0
 11
-17.112825
 21
162.938088
 31
0.0
1001
ACAD
1000
RTMaterial
1005
0
  0
LINE
  8
F01_OUT
  5
F9A
 10
-17.112825
 20
162.938088
 30
0.0
 11
-17.112825
 21
161.572062
 31
0.0
1001
ACAD
1000
RTMaterial
1005
0
  0
LINE
  8
F01_OUT
  5
F9B
 10
-17.112825
 20
159.229082
 30
0.0
 11
-17.112825
 21
157.788088
 31
0.0
1001
ACAD
1000
RTMaterial
1005
0
  0
LINE
  8
F01_OUT
  5
F9C
 10
-17.112825
 20
165.738088
 30
0.0
 11
-17.112825
 21
165.038088
 31
0.0
1001
ACAD
1000
RTMaterial
1005
0
  0
ARC
  8
F01_OUT
  5
F9D
 10
-36.812825
 20
160.538088
 30
0.0
 40
21.0
 50
347.626375
 51
350.682527
1001
ACAD
1000
RTMaterial
1005
0
  0
ARC
  8
F01_OUT
  5
F9E
 10
-36.812825
 20
160.538088
 30
0.0
 40
21.0
 50
350.682527
 51
12.373625
1001
ACAD
1000
RTMaterial
1005
0
  0
LINE
  8
F03_CNT
  5
F9F
 10
-26.320856
 20
161.038088
 30
0.0
 11
-32.440617
 21
161.038088
 31
0.0
1001
ACAD
1000
RTMaterial
1005
0
  0
LINE
  8
F03_CNT
  5
FA0
 10
118.53698
 20
156.538088
 30
0.0
 11
108.03698
 21
156.538088
 31
0.0
1001
ACAD
1000
RTMaterial
1005
0
  0
LINE
  8
F03_CNT
  5
FA1
 10
113.28698
 20
161.788088
 30
0.0
 11
113.28698
 21
151.288088
 31
0.0
1001
ACAD
1000
RTMaterial
1005
0
  0
LINE
  8
F03_CNT
  5
FA2
 10
153.53698
 20
156.538088
 30
0.0
 11
143.03698
 21
156.538088
 31
0.0
1001
ACAD
1000
RTMaterial
1005
0
  0
LINE
  8
F03_CNT
  5
FA3
 10
148.28698
 20
161.788088
 30
0.0
 11
148.28698
 21
151.288088
 31
0.0
1001
ACAD
1000
RTMaterial
1005
0
  0
LINE
  8
F03_CNT
  5
FA4
 10
153.53698
 20
196.538088
 30
0.0
 11
143.03698
 21
196.538088
 31
0.0
1001
ACAD
1000
RTMaterial
1005
0
  0
LINE
  8
F03_CNT
  5
FA5
 10
148.28698
 20
201.788088
 30
0.0
 11
148.28698
 21
191.288088
 31
0.0
1001
ACAD
1000
RTMaterial
1005
0
  0
LINE
  8
F03_CNT
  5
FA6
 10
118.53698
 20
196.538088
 30
0.0
 11
108.03698
 21
196.538088
 31
0.0
1001
ACAD
1000
RTMaterial
1005
0
  0
LINE
  8
F03_CNT
  5
FA7
 10
113.28698
 20
201.788088
 30
0.0
 11
113.28698
 21
191.288088
 31
0.0
1001
ACAD
1000
RTMaterial
1005
0
  0
LINE
  8
F03_CNT
  5
FA8
 10
130.78698
 20
202.26794
 30
0.0
 11
130.78698
 21
151.27294
 31
0.0
1001
ACAD
1000
RTMaterial
1005
0
  0
LINE
  8
F03_CNT
  5
FA9
 10
155.247932
 20
176.538088
 30
0.0
 11
106.052756
 21
176.538088
 31
0.0
1001
ACAD
1000
RTMaterial
1005
0
  0
LINE
  8
F03_CNT
  5
FAA
 10
19.01483
 20
176.538088
 30
0.0
 11
-79.036195
 21
176.538088
 31
0.0
1001
ACAD
1000
RTMaterial
1005
0
  0
LINE
  8
F03_CNT
  5
FAB
 10
-26.320856
 20
192.038088
 30
0.0
 11
-32.440617
 21
192.038088
 31
0.0
1001
ACAD
1000
RTMaterial
1005
0
  0
LINE
  8
F03_CNT
  5
FAC
 10
43.451603
 20
197.288088
 30
0.0
 11
43.451603
 21
186.788088
 31
0.0
1001
ACAD
1000
RTMaterial
1005
0
  0
LINE
  8
F03_CNT
  5
FAD
 10
48.701603
 20
192.038088
 30
0.0
 11
38.201603
 21
192.038088
 31
0.0
1001
ACAD
1000
RTMaterial
1005
0
  0
LINE
  8
F03_CNT
  5
FAE
 10
69.551603
 20
197.288088
 30
0.0
 11
69.551603
 21
186.788088
 31
0.0
1001
ACAD
1000
RTMaterial
1005
0
  0
LINE
  8
F03_CNT
  5
FAF
 10
74.801603
 20
192.038088
 30
0.0
 11
64.301603
 21
192.038088
 31
0.0
1001
ACAD
1000
RTMaterial
1005
0
  0
LINE
  8
F03_CNT
  5
FB0
 10
78.251603
 20
197.288088
 30
0.0
 11
78.251603
 21
186.788088
 31
0.0
1001
ACAD
1000
RTMaterial
1005
0
  0
LINE
  8
F03_CNT
  5
FB1
 10
83.501603
 20
192.038088
 30
0.0
 11
73.001603
 21
192.038088
 31
0.0
1001
ACAD
1000
RTMaterial
1005
0
  0
LINE
  8
F03_CNT
  5
FB2
 10
52.151603
 20
197.288088
 30
0.0
 11
52.151603
 21
186.788088
 31
0.0
1001
ACAD
1000
RTMaterial
1005
0
  0
LINE
  8
F03_CNT
  5
FB3
 10
57.401603
 20
192.038088
 30
0.0
 11
46.901603
 21
192.038088
 31
0.0
1001
ACAD
1000
RTMaterial
1005
0
  0
LINE
  8
F03_CNT
  5
FB4
 10
66.101603
 20
192.038088
 30
0.0
 11
55.601603
 21
192.038088
 31
0.0
1001
ACAD
1000
RTMaterial
1005
0
  0
LINE
  8
F03_CNT
  5
FB5
 10
60.851603
 20
202.26794
 30
0.0
 11
60.851603
 21
151.27294
 31
0.0
1001
ACAD
1000
RTMaterial
1005
0
  0
LINE
  8
F03_CNT
  5
FB6
 10
66.101603
 20
161.038088
 30
0.0
 11
55.601603
 21
161.038088
 31
0.0
1001
ACAD
1000
RTMaterial
1005
0
  0
LINE
  8
F03_CNT
  5
FB7
 10
43.451603
 20
166.288088
 30
0.0
 11
43.451603
 21
155.788088
 31
0.0
1001
ACAD
1000
RTMaterial
1005
0
  0
LINE
  8
F03_CNT
  5
FB8
 10
48.701603
 20
161.038088
 30
0.0
 11
38.201603
 21
161.038088
 31
0.0
1001
ACAD
1000
RTMaterial
1005
0
  0
LINE
  8
F03_CNT
  5
FB9
 10
69.551603
 20
166.288088
 30
0.0
 11
69.551603
 21
155.788088
 31
0.0
1001
ACAD
1000
RTMaterial
1005
0
  0
LINE
  8
F03_CNT
  5
FBA
 10
74.801603
 20
161.038088
 30
0.0
 11
64.301603
 21
161.038088
 31
0.0
1001
ACAD
1000
RTMaterial
1005
0
  0
LINE
  8
F03_CNT
  5
FBB
 10
78.251603
 20
166.288088
 30
0.0
 11
78.251603
 21
155.788088
 31
0.0
1001
ACAD
1000
RTMaterial
1005
0
  0
LINE
  8
F03_CNT
  5
FBC
 10
83.501603
 20
161.038088
 30
0.0
 11
73.001603
 21
161.038088
 31
0.0
1001
ACAD
1000
RTMaterial
1005
0
  0
LINE
  8
F03_CNT
  5
FBD
 10
52.151603
 20
166.288088
 30
0.0
 11
52.151603
 21
155.788088
 31
0.0
1001
ACAD
1000
RTMaterial
1005
0
  0
LINE
  8
F03_CNT
  5
FBE
 10
57.401603
 20
161.038088
 30
0.0
 11
46.901603
 21
161.038088
 31
0.0
1001
ACAD
1000
RTMaterial
1005
0
  0
LINE
  8
F03_CNT
  5
FBF
 10
85.312555
 20
176.538088
 30
0.0
 11
36.117379
 21
176.538088
 31
0.0
1001
ACAD
1000
RTMaterial
1005
0
  0
LINE
  8
F10_IMG3
  5
FC0
 10
18.187175
 20
175.738088
 30
0.0
 11
18.187175
 21
177.338088
 31
0.0
1001
ACAD
1000
RTMaterial
1005
0
  0
LINE
  8
F10_IMG3
  5
FC1
 10
18.187175
 20
177.338088
 30
0.0
 11
17.387175
 21
177.338088
 31
0.0
1001
ACAD
1000
RTMaterial
1005
0
  0
LINE
  8
F10_IMG3
  5
FC2
 10
17.387175
 20
175.738088
 30
0.0
 11
18.187175
 21
175.738088
 31
0.0
1001
ACAD
1000
RTMaterial
1005
0
  0
LINE
  8
F10_IMG3
  5
FC3
 10
-8.012825
 20
188.338088
 30
0.0
 11
-12.312825
 21
188.338088
 31
0.0
1001
ACAD
1000
RTMaterial
1005
0
  0
LINE
  8
F10_IMG3
  5
FC4
 10
-12.312825
 20
188.338088
 30
0.0
 11
-13.312825
 21
187.338088
 31
0.0
1001
ACAD
1000
RTMaterial
1005
0
  0
LINE
  8
F10_IMG3
  5
FC5
 10
-13.412825
 20
187.238088
 30
0.0
 11
-15.789612
 21
184.861301
 31
0.0
1001
ACAD
1000
RTMaterial
1005
0
  0
LINE
  8
F10_IMG3
  5
FC6
 10
-13.312825
 20
187.338088
 30
0.0
 11
-13.412825
 21
187.238088
 31
0.0
1001
ACAD
1000
RTMaterial
1005
0
  0
LINE
  8
F10_IMG3
  5
FC7
 10
-14.612825
 20
187.238088
 30
0.0
 11
-13.412825
 21
187.238088
 31
0.0
1001
ACAD
1000
RTMaterial
1005
0
  0
LINE
  8
F10_IMG3
  5
FC8
 10
-14.612825
 20
187.238088
 30
0.0
 11
-14.812825
 21
187.238088
 31
0.0
1001
ACAD
1000
RTMaterial
1005
0
  0
LINE
  8
F10_IMG3
  5
FC9
 10
-14.812825
 20
187.238088
 30
0.0
 11
-15.812825
 21
186.238088
 31
0.0
1001
ACAD
1000
RTMaterial
1005
0
  0
LINE
  8
F10_IMG3
  5
FCA
 10
-15.812825
 20
168.238088
 30
0.0
 11
-12.312825
 21
164.738088
 31
0.0
1001
ACAD
1000
RTMaterial
1005
0
  0
LINE
  8
F10_IMG3
  5
FCB
 10
-15.789612
 20
185.738088
 30
0.0
 11
-15.812825
 21
185.738088
 31
0.0
1001
ACAD
1000
RTMaterial
1005
0
  0
LINE
  8
F10_IMG3
  5
FCC
 10
-15.789612
 20
184.861301
 30
0.0
 11
-15.812825
 21
184.838088
 31
0.0
1001
ACAD
1000
RTMaterial
1005
0
  0
LINE
  8
F10_IMG3
  5
FCD
 10
-15.789612
 20
185.738088
 30
0.0
 11
-15.789612
 21
184.861301
 31
0.0
1001
ACAD
1000
RTMaterial
1005
0
  0
LINE
  8
F10_IMG3
  5
FCE
 10
-15.812825
 20
168.238088
 30
0.0
 11
-15.812825
 21
184.838088
 31
0.0
1001
ACAD
1000
RTMaterial
1005
0
  0
LINE
  8
F10_IMG3
  5
FCF
 10
-15.812825
 20
185.738088
 30
0.0
 11
-15.812825
 21
186.238088
 31
0.0
1001
ACAD
1000
RTMaterial
1005
0
  0
LINE
  8
F10_IMG3
  5
FD0
 10
-8.012825
 20
164.738088
 30
0.0
 11
-12.312825
 21
164.738088
 31
0.0
1001
ACAD
1000
RTMaterial
1005
0
  0
ARC
  8
F10_IMG3
  5
FDB
 10
-7.012825
 20
164.538088
 30
0.0
 40
1.0
 50
180.0
 51
240.0
1001
ACAD
1000
RTMaterial
1005
0
  0
ARC
  8
F10_IMG3
  5
FDC
 10
15.387175
 20
164.538088
 30
0.0
 40
1.0
 50
300.0
 51
0.0
1001
ACAD
1000
RTMaterial
1005
0
  0
ARC
  8
F10_IMG3
  5
FDD
 10
14.682026
 20
163.038088
 30
0.0
 40
1.0
 50
270.0
 51
315.572996
1001
ACAD
1000
RTMaterial
1005
0
  0
ARC
  8
F10_IMG3
  5
FDE
 10
-6.307676
 20
163.038088
 30
0.0
 40
1.0
 50
224.427004
 51
270.0
1001
ACAD
1000
RTMaterial
1005
0
  0
ARC
  8
F10_IMG3
  5
FDF
 10
-6.307676
 20
163.038088
 30
0.0
 40
1.0
 50
195.0
 51
224.427004
1001
ACAD
1000
RTMaterial
1005
0
  0
ARC
  8
F10_IMG3
  5
FE0
 10
14.682026
 20
163.038088
 30
0.0
 40
1.0
 50
315.572996
 51
345.0
1001
ACAD
1000
RTMaterial
1005
0
  0
ARC
  8
F10_IMG3
  5
FE1
 10
14.682026
 20
190.038088
 30
0.0
 40
1.0
 50
44.427004
 51
90.0
1001
ACAD
1000
RTMaterial
1005
0
  0
ARC
  8
F10_IMG3
  5
FE2
 10
14.682026
 20
190.038088
 30
0.0
 40
1.0
 50
15.0
 51
44.427004
1001
ACAD
1000
RTMaterial
1005
0
  0
ARC
  8
F10_IMG3
  5
FE3
 10
15.387175
 20
188.538088
 30
0.0
 40
1.0
 50
44.427004
 51
60.0
1001
ACAD
1000
RTMaterial
1005
0
  0
ARC
  8
F10_IMG3
  5
FE4
 10
15.387175
 20
188.538088
 30
0.0
 40
1.0
 50
0.0
 51
44.427004
1001
ACAD
1000
RTMaterial
1005
0
  0
ARC
  8
F10_IMG3
  5
FE5
 10
-7.012825
 20
188.538088
 30
0.0
 40
1.0
 50
135.572996
 51
180.0
1001
ACAD
1000
RTMaterial
1005
0
  0
ARC
  8
F10_IMG3
  5
FE6
 10
-7.012825
 20
188.538088
 30
0.0
 40
1.0
 50
120.0
 51
135.572996
1001
ACAD
1000
RTMaterial
1005
0
  0
ARC
  8
F10_IMG3
  5
FE7
 10
-6.307676
 20
190.038088
 30
0.0
 40
1.0
 50
90.0
 51
135.572996
1001
ACAD
1000
RTMaterial
1005
0
  0
ARC
  8
F10_IMG3
  5
FE8
 10
-6.307676
 20
190.038088
 30
0.0
 40
1.0
 50
135.572996
 51
165.0
1001
ACAD
1000
RTMaterial
1005
0
  0
LINE
  8
F10_IMG3
  5
FE9
 10
16.387175
 20
164.538088
 30
0.0
 11
16.387175
 21
165.538088
 31
0.0
1001
ACAD
1000
RTMaterial
1005
0
  0
LINE
  8
F10_IMG3
  5
FEA
 10
-8.012825
 20
164.738088
 30
0.0
 11
-8.012825
 21
164.538088
 31
0.0
1001
ACAD
1000
RTMaterial
1005
0
  0
LINE
  8
F10_IMG3
  5
FEB
 10
14.682026
 20
162.038088
 30
0.0
 11
-6.307676
 21
162.038088
 31
0.0
1001
ACAD
1000
RTMaterial
1005
0
  0
LINE
  8
F10_IMG3
  5
FEC
 10
-7.512825
 20
163.672062
 30
0.0
 11
-7.273601
 21
162.779268
 31
0.0
1001
ACAD
1000
RTMaterial
1005
0
  0
LINE
  8
F10_IMG3
  5
FED
 10
15.647952
 20
162.779268
 30
0.0
 11
15.887175
 21
163.672062
 31
0.0
1001
ACAD
1000
RTMaterial
1005
0
  0
LINE
  8
F10_IMG3
  5
FEE
 10
16.387175
 20
187.538088
 30
0.0
 11
16.387175
 21
188.538088
 31
0.0
1001
ACAD
1000
RTMaterial
1005
0
  0
LINE
  8
F10_IMG3
  5
FEF
 10
15.887175
 20
189.404113
 30
0.0
 11
15.647952
 21
190.296907
 31
0.0
1001
ACAD
1000
RTMaterial
1005
0
  0
LINE
  8
F10_IMG3
  5
FF0
 10
-8.012825
 20
188.338088
 30
0.0
 11
-8.012825
 21
188.538088
 31
0.0
1001
ACAD
1000
RTMaterial
1005
0
  0
LINE
  8
F10_IMG3
  5
FF1
 10
-6.307676
 20
191.038088
 30
0.0
 11
14.682026
 21
191.038088
 31
0.0
1001
ACAD
1000
RTMaterial
1005
0
  0
LINE
  8
F10_IMG3
  5
FF2
 10
-7.512825
 20
189.404113
 30
0.0
 11
-7.273601
 21
190.296907
 31
0.0
1001
ACAD
1000
RTMaterial
1005
0
  0
ARC
  8
F10_IMG3
  5
FF3
 10
-3.612825
 20
183.038088
 30
0.0
 40
21.0
 50
348.741367
 51
8.764932
1001
ACAD
1000
RTMaterial
1005
0
  0
ARC
  8
F10_IMG3
  5
FF4
 10
-3.612825
 20
170.038088
 30
0.0
 40
21.0
 50
347.626375
 51
351.235068
1001
ACAD
1000
RTMaterial
1005
0
  0
ARC
  8
F10_IMG3
  5
FF5
 10
-3.612825
 20
170.038088
 30
0.0
 40
21.0
 50
351.235068
 51
11.258633
1001
ACAD
1000
RTMaterial
1005
0
  0
ARC
  8
F10_IMG3
  5
FF6
 10
-3.612825
 20
183.038088
 30
0.0
 40
21.0
 50
8.764932
 51
12.373625
1001
ACAD
1000
RTMaterial
1005
0
  0
LINE
  8
F10_IMG3
  5
FF7
 10
16.387175
 20
165.538088
 30
0.0
 11
16.899367
 21
165.538088
 31
0.0
1001
ACAD
1000
RTMaterial
1005
0
  0
LINE
  8
F10_IMG3
  5
FF8
 10
17.187175
 20
174.438088
 30
0.0
 11
17.187175
 21
174.138088
 31
0.0
1001
ACAD
1000
RTMaterial
1005
0
  0
LINE
  8
F10_IMG3
  5
FF9
 10
17.387175
 20
174.438088
 30
0.0
 11
17.187175
 21
174.438088
 31
0.0
1001
ACAD
1000
RTMaterial
1005
0
  0
LINE
  8
F10_IMG3
  5
FFA
 10
17.187175
 20
174.138088
 30
0.0
 11
16.983049
 21
174.138088
 31
0.0
1001
ACAD
1000
RTMaterial
1005
0
  0
LINE
  8
F10_IMG3
  5
FFB
 10
17.387175
 20
178.638088
 30
0.0
 11
17.387175
 21
174.438088
 31
0.0
1001
ACAD
1000
RTMaterial
1005
0
  0
LINE
  8
F10_IMG3
  5
FFC
 10
17.187175
 20
178.638088
 30
0.0
 11
17.387175
 21
178.638088
 31
0.0
1001
ACAD
1000
RTMaterial
1005
0
  0
LINE
  8
F10_IMG3
  5
FFD
 10
16.983049
 20
178.938088
 30
0.0
 11
17.187175
 21
178.938088
 31
0.0
1001
ACAD
1000
RTMaterial
1005
0
  0
LINE
  8
F10_IMG3
  5
FFE
 10
17.187175
 20
178.938088
 30
0.0
 11
17.187175
 21
178.638088
 31
0.0
1001
ACAD
1000
RTMaterial
1005
0
  0
LINE
  8
F10_IMG3
  5
FFF
 10
16.387175
 20
187.538088
 30
0.0
 11
16.899367
 21
187.538088
 31
0.0
1001
ACAD
1000
RTMaterial
1005
0
  0
LINE
  8
F04_HID
  5
1000
 10
-28.812825
 20
164.938088
 30
0.0
 11
-28.812825
 21
157.338088
 31
0.0
1001
ACAD
1000
RTMaterial
1005
0
  0
LINE
  8
F04_HID
  5
1001
 10
-29.812825
 20
157.338088
 30
0.0
 11
-28.812825
 21
157.338088
 31
0.0
1001
ACAD
1000
RTMaterial
1005
0
  0
LINE
  8
F04_HID
  5
1002
 10
-29.812825
 20
164.938088
 30
0.0
 11
-29.812825
 21
157.338088
 31
0.0
1001
ACAD
1000
RTMaterial
1005
0
  0
LINE
  8
F04_HID
  5
1003
 10
-29.812825
 20
164.938088
 30
0.0
 11
-28.812825
 21
164.938088
 31
0.0
1001
ACAD
1000
RTMaterial
1005
0
  0
LINE
  8
F04_HID
  5
1004
 10
-29.812825
 20
188.138088
 30
0.0
 11
-28.812825
 21
188.138088
 31
0.0
1001
ACAD
1000
RTMaterial
1005
0
  0
LINE
  8
F04_HID
  5
1005
 10
-29.812825
 20
188.138088
 30
0.0
 11
-29.812825
 21
195.738088
 31
0.0
1001
ACAD
1000
RTMaterial
1005
0
  0
LINE
  8
F04_HID
  5
1006
 10
-29.812825
 20
195.738088
 30
0.0
 11
-28.812825
 21
195.738088
 31
0.0
1001
ACAD
1000
RTMaterial
1005
0
  0
LINE
  8
F04_HID
  5
1007
 10
-28.812825
 20
188.138088
 30
0.0
 11
-28.812825
 21
195.738088
 31
0.0
1001
ACAD
1000
RTMaterial
1005
0
  0
LINE
  8
F09_IMG2
  5
1008
 10
0.887175
 20
175.138088
 30
0.0
 11
0.987175
 21
175.138088
 31
0.0
1001
ACAD
1000
RTMaterial
1005
0
  0
LINE
  8
F09_IMG2
  5
1009
 10
0.987175
 20
175.438088
 30
0.0
 11
0.987175
 21
175.138088
 31
0.0
1001
ACAD
1000
RTMaterial
1005
0
  0
LINE
  8
F09_IMG2
  5
100A
 10
0.987175
 20
177.638088
 30
0.0
 11
0.987175
 21
175.438088
 31
0.0
1001
ACAD
1000
RTMaterial
1005
0
  0
LINE
  8
F09_IMG2
  5
100B
 10
0.987175
 20
177.938088
 30
0.0
 11
0.887175
 21
177.938088
 31
0.0
1001
ACAD
1000
RTMaterial
1005
0
  0
LINE
  8
F09_IMG2
  5
100C
 10
0.987175
 20
177.638088
 30
0.0
 11
0.987175
 21
177.938088
 31
0.0
1001
ACAD
1000
RTMaterial
1005
0
  0
LINE
  8
F09_IMG2
  5
100D
 10
-9.045498
 20
191.538088
 30
0.0
 11
-1.580152
 21
191.538088
 31
0.0
1001
ACAD
1000
RTMaterial
1005
0
  0
LINE
  8
F09_IMG2
  5
100E
 10
-15.812825
 20
185.538088
 30
0.0
 11
-15.812825
 21
167.538088
 31
0.0
1001
ACAD
1000
RTMaterial
1005
0
  0
LINE
  8
F09_IMG2
  5
100F
 10
-10.616672
 20
188.538088
 30
0.0
 11
-15.812825
 21
185.538088
 31
0.0
1001
ACAD
1000
RTMaterial
1005
0
  0
LINE
  8
F09_IMG2
  5
1010
 10
-10.616672
 20
188.538088
 30
0.0
 11
-10.011424
 21
190.796907
 31
0.0
1001
ACAD
1000
RTMaterial
1005
0
  0
LINE
  8
F09_IMG2
  5
1011
 10
-1.580152
 20
161.538088
 30
0.0
 11
-9.045498
 21
161.538088
 31
0.0
1001
ACAD
1000
RTMaterial
1005
0
  0
LINE
  8
F09_IMG2
  5
1012
 10
-10.616672
 20
164.538088
 30
0.0
 11
-15.812825
 21
167.538088
 31
0.0
1001
ACAD
1000
RTMaterial
1005
0
  0
LINE
  8
F09_IMG2
  5
1013
 10
-10.011424
 20
162.279268
 30
0.0
 11
-10.616672
 21
164.538088
 31
0.0
1001
ACAD
1000
RTMaterial
1005
0
  0
LINE
  8
F09_IMG2
  5
1014
 10
0.687175
 20
164.938087
 30
0.0
 11
0.587175
 21
164.938087
 31
0.0
1001
ACAD
1000
RTMaterial
1005
0
  0
LINE
  8
F09_IMG2
  5
1015
 10
0.496237
 20
165.133105
 30
0.0
 11
0.587175
 21
164.938087
 31
0.0
1001
ACAD
1000
RTMaterial
1005
0
  0
LINE
  8
F09_IMG2
  5
1016
 10
0.887175
 20
165.138087
 30
0.0
 11
0.687175
 21
164.938087
 31
0.0
1001
ACAD
1000
RTMaterial
1005
0
  0
LINE
  8
F09_IMG2
  5
1017
 10
-0.614226
 20
162.279268
 30
0.0
 11
-0.026902
 21
164.471191
 31
0.0
1001
ACAD
1000
RTMaterial
1005
0
  0
LINE
  8
F09_IMG2
  5
1018
 10
0.887175
 20
187.938088
 30
0.0
 11
1.187175
 21
187.638088
 31
0.0
1001
ACAD
1000
RTMaterial
1005
0
  0
LINE
  8
F09_IMG2
  5
1019
 10
1.187175
 20
187.038088
 30
0.0
 11
1.187175
 21
187.638088
 31
0.0
1001
ACAD
1000
RTMaterial
1005
0
  0
LINE
  8
F09_IMG2
  5
101A
 10
1.187175
 20
165.438087
 30
0.0
 11
0.887175
 21
165.138087
 31
0.0
1001
ACAD
1000
RTMaterial
1005
0
  0
LINE
  8
F09_IMG2
  5
101B
 10
1.187175
 20
166.038087
 30
0.0
 11
1.187175
 21
165.438087
 31
0.0
1001
ACAD
1000
RTMaterial
1005
0
  0
LINE
  8
F09_IMG2
  5
101C
 10
0.887175
 20
186.738088
 30
0.0
 11
0.887175
 21
166.338087
 31
0.0
1001
ACAD
1000
RTMaterial
1005
0
  0
LINE
  8
F09_IMG2
  5
101D
 10
0.587175
 20
188.138088
 30
0.0
 11
0.687175
 21
188.138088
 31
0.0
1001
ACAD
1000
RTMaterial
1005
0
  0
LINE
  8
F09_IMG2
  5
101F
 10
0.496237
 20
187.94307
 30
0.0
 11
0.587175
 21
188.138088
 31
0.0
1001
ACAD
1000
RTMaterial
1005
0
  0
LINE
  8
F09_IMG2
  5
1021
 10
0.687175
 20
188.138088
 30
0.0
 11
0.887175
 21
187.938088
 31
0.0
1001
ACAD
1000
RTMaterial
1005
0
  0
LINE
  8
F09_IMG2
  5
1022
 10
-0.614226
 20
190.796907
 30
0.0
 11
-0.026902
 21
188.604984
 31
0.0
1001
ACAD
1000
RTMaterial
1005
0
  0
ARC
  8
F09_IMG2
  5
1023
 10
-1.580152
 20
190.538088
 30
0.0
 40
1.0
 50
15.0
 51
90.0
1001
ACAD
1000
RTMaterial
1005
0
  0
ARC
  8
F09_IMG2
  5
1024
 10
-9.045498
 20
190.538088
 30
0.0
 40
1.0
 50
90.0
 51
165.0
1001
ACAD
1000
RTMaterial
1005
0
  0
ARC
  8
F09_IMG2
  5
1025
 10
-9.045498
 20
162.538088
 30
0.0
 40
1.0
 50
195.0
 51
270.0
1001
ACAD
1000
RTMaterial
1005
0
  0
ARC
  8
F09_IMG2
  5
1026
 10
-1.580152
 20
162.538088
 30
0.0
 40
1.0
 50
270.0
 51
345.0
1001
ACAD
1000
RTMaterial
1005
0
  0
ARC
  8
F09_IMG2
  5
1027
 10
0.887175
 20
187.038088
 30
0.0
 40
0.3
 50
270.0
 51
0.0
1001
ACAD
1000
RTMaterial
1005
0
  0
ARC
  8
F09_IMG2
  5
1028
 10
0.887175
 20
166.038087
 30
0.0
 40
0.3
 50
0.0
 51
90.0
1001
ACAD
1000
RTMaterial
1005
0
  0
LINE
  8
F09_IMG2
  5
1029
 10
0.473098
 20
164.038088
 30
0.0
 11
0.473098
 21
165.119746
 31
0.0
1001
ACAD
1000
RTMaterial
1005
0
  0
LINE
  8
F09_IMG2
  5
102A
 10
0.473098
 20
164.038088
 30
0.0
 11
-0.026902
 21
164.038088
 31
0.0
1001
ACAD
1000
RTMaterial
1005
0
  0
LINE
  8
F09_IMG2
  5
102B
 10
-0.026902
 20
164.038088
 30
0.0
 11
-0.026902
 21
164.471191
 31
0.0
1001
ACAD
1000
RTMaterial
1005
0
  0
LINE
  8
F09_IMG2
  5
102C
 10
0.473098
 20
187.956429
 30
0.0
 11
0.473098
 21
189.038088
 31
0.0
1001
ACAD
1000
RTMaterial
1005
0
  0
LINE
  8
F09_IMG2
  5
102D
 10
-0.026902
 20
188.604984
 30
0.0
 11
-0.026902
 21
189.038088
 31
0.0
1001
ACAD
1000
RTMaterial
1005
0
  0
LINE
  8
F09_IMG2
  5
102E
 10
0.473098
 20
189.038088
 30
0.0
 11
-0.026902
 21
189.038088
 31
0.0
1001
ACAD
1000
RTMaterial
1005
0
  0
INSERT
  8
F05_PRO
  5
102F
  2
_OPEN30
 10
146.805345
 20
158.231385
 30
0.0
 41
2.77
 42
2.77
 50
311.185926
 43
2.77
1001
ACAD
1000
DSTYLE
1002
{
1070
     6
1000
OPEN30
1070
    41
1040
2.77
1002
}
  0
LINE
  8
F05_PRO
  5
1162
 10
144.981287
 20
160.316023
 30
0.0
 11
114.768615
 21
194.84479
 31
0.0
1001
ACAD
1000
R13OBJECT
1002
{
1005
102F
1002
}
  0
INSERT
  8
F05_PRO
  5
1030
  2
_OPEN30
 10
114.768615
 20
194.84479
 30
0.0
 41
2.77
 42
2.77
 50
131.185926
 43
2.77
1001
ACAD
1000
DSTYLE
1002
{
1070
     6
1000
OPEN30
1070
    41
1040
2.77
1002
}
  0
LINE
  8
F05_PRO
  5
1163
 10
116.592672
 20
192.760153
 30
0.0
 11
146.805345
 21
158.231385
 31
0.0
1001
ACAD
1000
R13OBJECT
1002
{
1005
1030
1002
}
  0
INSERT
  8
F05_PRO
  5
1031
  2
_OPEN30
 10
146.805345
 20
194.84479
 30
0.0
 41
2.77
 42
2.77
 50
48.814074
 43
2.77
1001
ACAD
1000
DSTYLE
1002
{
1070
     6
1000
OPEN30
1070
    41
1040
2.77
1002
}
  0
LINE
  8
F05_PRO
  5
1164
 10
144.981287
 20
192.760153
 30
0.0
 11
114.768615
 21
158.231385
 31
0.0
1001
ACAD
1000
R13OBJECT
1002
{
1005
1031
1002
}
  0
INSERT
  8
F05_PRO
  5
1032
  2
_OPEN30
 10
114.768615
 20
158.231385
 30
0.0
 41
2.77
 42
2.77
 50
228.814074
 43
2.77
1001
ACAD
1000
DSTYLE
1002
{
1070
     6
1000
OPEN30
1070
    41
1040
2.77
1002
}
  0
LINE
  8
F05_PRO
  5
1165
 10
116.592672
 20
160.316023
 30
0.0
 11
146.805345
 21
194.84479
 31
0.0
1001
ACAD
1000
R13OBJECT
1002
{
1005
1032
1002
}
  0
INSERT
  8
F02_DIM
  5
1033
  2
_OPEN30
 10
149.856067
 20
198.150684
 30
0.0
 41
2.77
 42
2.77
 50
229.867294
 43
2.77
1001
ACAD
1000
DSTYLE
1002
{
1070
     6
1000
OPEN30
1070
    41
1040
2.77
1002
}
  0
POLYLINE
  8
F02_DIM
  5
1166
 66
     1
 10
0.0
 20
0.0
 30
0.0
 70
   128
1001
ACAD
1000
R13OBJECT
1002
{
1005
1033
1002
}
  0
VERTEX
  8
F02_DIM
  5
1167
 10
151.641498
 20
200.268498
 30
0.0
  0
VERTEX
  8
F02_DIM
  5
1168
 10
155.631061
 20
205.00077
 30
0.0
  0
VERTEX
  8
F02_DIM
  5
1169
 10
167.630065
 20
205.00077
 30
0.0
  0
SEQEND
  8
F02_DIM
  5
116A
  0
INSERT
  8
F05_PRO
  5
1036
  2
_DOTSMALL
 10
79.693764
 20
193.107766
 30
0.0
 41
2.32
 42
2.32
 50
216.339928
 43
2.32
1001
ACAD
1000
DSTYLE
1002
{
1070
     6
1000
DOTSMALL
1070
    41
1040
2.32
1070
   341
1005
280DBB03000005DF
1070
   344
1005
5C37BB03000005DF
1002
}
  0
POLYLINE
  8
F05_PRO
  5
116B
 66
     1
 10
0.0
 20
0.0
 30
0.0
 70
   128
1001
ACAD
1000
R13OBJECT
1002
{
1005
1036
1002
}
  0
VERTEX
  8
F05_PRO
  5
116C
 10
79.693764
 20
193.107766
 30
0.0
  0
VERTEX
  8
F05_PRO
  5
116D
 10
84.902963
 20
196.939895
 30
0.0
  0
VERTEX
  8
F05_PRO
  5
116E
 10
100.147238
 20
196.939895
 30
0.0
  0
SEQEND
  8
F05_PRO
  5
116F
  0
INSERT
  8
F05_PRO
  5
1038
  2
_DOTSMALL
 10
41.811636
 20
193.564099
 30
0.0
 41
2.32
 42
2.32
 50
288.753733
 43
2.32
1001
ACAD
1000
DSTYLE
1002
{
1070
     6
1000
DOTSMALL
1070
    41
1040
2.32
1070
   341
1005
B007BB03000005DF
1070
   344
1005
E43DBB03000005DF
1002
}
  0
POLYLINE
  8
F05_PRO
  5
1170
 66
     1
 10
0.0
 20
0.0
 30
0.0
 70
   128
1001
ACAD
1000
R13OBJECT
1002
{
1005
1038
1002
}
  0
VERTEX
  8
F05_PRO
  5
1171
 10
41.811636
 20
193.564099
 30
0.0
  0
VERTEX
  8
F05_PRO
  5
1172
 10
34.947343
 20
213.781326
 30
0.0
  0
VERTEX
  8
F05_PRO
  5
1173
 10
25.832288
 20
213.781326
 30
0.0
  0
SEQEND
  8
F05_PRO
  5
1174
  0
LINE
  8
F05_PRO
  5
1039
 10
81.878308
 20
165.72791
 30
0.0
 11
85.529597
 21
164.997652
 31
0.0
1001
ACAD
1000
RTMaterial
1005
0
  0
LINE
  8
F05_PRO
  5
103A
 10
81.959448
 20
186.743107
 30
0.0
 11
85.691877
 21
188.041344
 31
0.0
1001
ACAD
1000
RTMaterial
1005
0
  0
LINE
  8
F08_IMG
  5
103D
 10
-75.812825
 20
164.338088
 30
0.0
 11
-61.812825
 21
164.338088
 31
0.0
1001
ACAD
1000
RTMaterial
1005
0
  0
LINE
  8
F08_IMG
  5
103E
 10
-62.812825
 20
163.338088
 30
0.0
 11
-62.812825
 21
159.488088
 31
0.0
1001
ACAD
1000
RTMaterial
1005
0
  0
LINE
  8
F08_IMG
  5
103F
 10
-62.812825
 20
194.188088
 30
0.0
 11
-62.812825
 21
190.338088
 31
0.0
1001
ACAD
1000
RTMaterial
1005
0
  0
LINE
  8
F08_IMG
  5
1040
 10
-76.812825
 20
163.338088
 30
0.0
 11
-62.812825
 21
163.338088
 31
0.0
1001
ACAD
1000
RTMaterial
1005
0
  0
LINE
  8
F08_IMG
  5
1041
 10
-76.812825
 20
190.338088
 30
0.0
 11
-62.812825
 21
190.338088
 31
0.0
1001
ACAD
1000
RTMaterial
1005
0
  0
LINE
  8
F08_IMG
  5
1042
 10
-76.812825
 20
190.338088
 30
0.0
 11
-76.812825
 21
163.338088
 31
0.0
1001
ACAD
1000
RTMaterial
1005
0
  0
LINE
  8
F08_IMG
  5
1043
 10
-75.812825
 20
189.338088
 30
0.0
 11
-75.812825
 21
164.338088
 31
0.0
1001
ACAD
1000
RTMaterial
1005
0
  0
LINE
  8
F08_IMG
  5
1044
 10
-75.812825
 20
189.338088
 30
0.0
 11
-61.812825
 21
189.338088
 31
0.0
1001
ACAD
1000
RTMaterial
1005
0
  0
LINE
  8
F08_IMG
  5
1045
 10
-61.812825
 20
164.338088
 30
0.0
 11
-61.812825
 21
159.488088
 31
0.0
1001
ACAD
1000
RTMaterial
1005
0
  0
ARC
  8
F05_PRO
  5
1046
 10
-64.433891
 20
83.775023
 30
0.0
 40
3.78
 50
182.729155
 51
279.960292
1001
ACAD
1000
ASC_BOUNDS
1002
{
1070
    19
1002
}
  0
ARC
  8
F05_PRO
  5
1047
 10
-71.901216
 20
87.600039
 30
0.0
 40
1.575
 50
90.0
 51
168.003101
  0
LINE
  8
F05_PRO
  5
1048
 10
-72.374914
 20
80.175039
 30
0.0
 11
-71.648164
 21
83.595039
 31
0.0
  0
LINE
  8
F05_PRO
  5
1049
 10
-75.089197
 20
80.175039
 30
0.0
 11
-73.441816
 21
87.927417
 31
0.0
  0
LINE
  8
F05_PRO
  5
104A
 10
-75.089197
 20
80.175039
 30
0.0
 11
-72.374914
 21
80.175039
 31
0.0
  0
ARC
  8
F05_PRO
  5
104B
 10
-62.917929
 20
85.572127
 30
0.0
 40
3.191557
 50
2.961866
 51
93.426847
  0
ARC
  8
F05_PRO
  5
104C
 10
-62.903382
 20
85.609557
 30
0.0
 40
3.745468
 50
1.499529
 51
100.57959
1001
ACAD
1000
ASC_BOUNDS
1002
{
1070
    19
1002
}
  0
LINE
  8
F05_PRO
  5
104D
 10
-71.192989
 20
85.737039
 30
0.0
 11
-71.027763
 21
86.514576
 31
0.0
  0
ARC
  8
F05_PRO
  5
104E
 10
-62.745964
 20
83.709213
 30
0.0
 40
5.449335
 50
144.533818
 51
158.153358
  0
POLYLINE
  8
F05_PRO
  5
104F
 66
     1
 10
0.0
 20
0.0
 30
0.0
 70
   128
  0
VERTEX
  8
F05_PRO
  5
1175
 10
-63.108702
 20
88.757977
 30
0.0
  0
VERTEX
  8
F05_PRO
  5
1176
 10
-63.883265
 20
88.646424
 30
0.0
  0
VERTEX
  8
F05_PRO
  5
1177
 10
-64.643842
 20
88.376041
 30
0.0
  0
VERTEX
  8
F05_PRO
  5
1178
 10
-65.365826
 20
87.955574
 30
0.0
  0
VERTEX
  8
F05_PRO
  5
1179
 10
-66.025857
 20
87.398629
 30
0.0
  0
VERTEX
  8
F05_PRO
  5
117A
 10
-66.602579
 20
86.723224
 30
0.0
  0
VERTEX
  8
F05_PRO
  5
117B
 10
-67.077334
 20
85.951212
 30
0.0
  0
VERTEX
  8
F05_PRO
  5
117C
 10
-67.43476
 20
85.107572
 30
0.0
  0
SEQEND
  8
F05_PRO
  5
117D
  0
LINE
  8
F05_PRO
  5
1050
 10
-66.386044
 20
85.089039
 30
0.0
 11
-59.159197
 21
85.089039
 31
0.0
  0
LINE
  8
F05_PRO
  5
1051
 10
-66.248606
 20
85.737039
 30
0.0
 11
-59.730636
 21
85.737039
 31
0.0
  0
ARC
  8
F05_PRO
  5
1052
 10
-64.803488
 20
85.557986
 30
0.0
 40
5.051744
 50
280.279158
 51
339.332945
1001
ACAD
1000
ASC_BOUNDS
1002
{
1070
    19
1002
}
  0
ARC
  8
F05_PRO
  5
1053
 10
-64.645069
 20
85.416413
 30
0.0
 40
5.433708
 50
279.159834
 51
342.417868
1001
ACAD
1000
ASC_BOUNDS
1002
{
1070
    19
1002
}
  0
LINE
  8
F05_PRO
  5
1054
 10
-66.248606
 20
85.737039
 30
0.0
 11
-66.386044
 21
85.089039
 31
0.0
  0
LINE
  8
F05_PRO
  5
1055
 10
-71.192989
 20
85.737039
 30
0.0
 11
-67.803945
 21
85.737039
 31
0.0
  0
POLYLINE
  8
F05_PRO
  5
1056
 66
     1
 10
0.0
 20
0.0
 30
0.0
 70
   128
  0
VERTEX
  8
F05_PRO
  5
117E
 10
-67.43476
 20
85.107572
 30
0.0
  0
VERTEX
  8
F05_PRO
  5
117F
 10
-67.604244
 20
84.336575
 30
0.0
  0
VERTEX
  8
F05_PRO
  5
1180
 10
-67.640543
 20
83.583631
 30
0.0
  0
SEQEND
  8
F05_PRO
  5
1181
  0
LINE
  8
F05_PRO
  5
1057
 10
-71.648164
 20
83.595039
 30
0.0
 11
-68.209604
 21
83.595039
 31
0.0
  0
ARC
  8
F05_PRO
  5
1058
 10
-64.279475
 20
83.945776
 30
0.0
 40
3.379597
 50
186.002385
 51
276.412304
1001
ACAD
1000
ASC_BOUNDS
1002
{
1070
    19
1002
}
  0
LINE
  8
F05_PRO
  5
1059
 10
-59.465197
 20
83.775039
 30
0.0
 11
-60.076838
 21
83.775039
 31
0.0
  0
LINE
  8
F05_PRO
  5
105A
 10
-59.159197
 20
85.089039
 30
0.0
 11
-59.159197
 21
85.707572
 31
0.0
  0
LINE
  8
F05_PRO
  5
105B
 10
-66.246697
 20
89.175039
 30
0.0
 11
-66.543697
 21
87.728486
 31
0.0
  0
ARC
  8
F05_PRO
  5
105C
 10
-62.853392
 20
84.326795
 30
0.0
 40
5.01895
 50
98.442625
 51
137.3304
1001
ACAD
1000
ASC_BOUNDS
1002
{
1070
    19
1002
}
  0
LINE
  8
F05_PRO
  5
105D
 10
-70.587591
 20
86.871039
 30
0.0
 11
-67.184219
 21
86.871039
 31
0.0
  0
ARC
  8
F05_PRO
  5
105E
 10
-70.587591
 20
86.421039
 30
0.0
 40
0.45
 50
90.0
 51
168.003101
  0
LINE
  8
F05_PRO
  5
105F
 10
-71.901216
 20
89.175039
 30
0.0
 11
-66.246697
 21
89.175039
 31
0.0
  0
TEXT
  8
F05_PRO
  5
1060
 10
-31.929644
 20
80.007792
 30
0.0
 40
4.0
  1
SKH4A, SKH4G, SKH4L
 41
0.8
  7
FSTD1
  0
TEXT
  8
F05_PRO
  5
1061
 10
-50.155513
 20
80.007792
 30
0.0
 40
4.0
  1
Type
  7
FSTD1
  0
TEXT
  8
F05_PRO
  5
1062
 10
138.769843
 20
85.308514
 30
0.0
 40
2.0
  1
図面番号
  7
FSTD1
  0
LINE
  8
F05_PRO
  5
1063
 10
87.83757
 20
88.363465
 30
0.0
 11
163.82997
 21
88.363465
 31
0.0
  0
LINE
  8
F05_PRO
  5
1064
 10
87.83757
 20
84.363865
 30
0.0
 11
163.82997
 21
84.363865
 31
0.0
  0
LINE
  8
F05_PRO
  5
1065
 10
87.83757
 20
80.364265
 30
0.0
 11
163.82997
 21
80.364265
 31
0.0
  0
LINE
  8
F05_PRO
  5
1066
 10
87.83757
 20
76.364665
 30
0.0
 11
163.82997
 21
76.364665
 31
0.0
  0
LINE
  8
F05_PRO
  5
1067
 10
87.83757
 20
72.365065
 30
0.0
 11
163.82997
 21
72.365065
 31
0.0
  0
LINE
  8
F05_PRO
  5
1068
 10
111.83517
 20
88.363465
 30
0.0
 11
111.83517
 21
72.365065
 31
0.0
  0
LINE
  8
F05_PRO
  5
1069
 10
131.83317
 20
88.363465
 30
0.0
 11
131.83317
 21
72.365065
 31
0.0
  0
LINE
  8
F05_PRO
  5
106A
 10
87.83757
 20
88.363465
 30
0.0
 11
87.83757
 21
72.365065
 31
0.0
  0
LINE
  8
F05_PRO
  5
106B
 10
95.83677
 20
88.363465
 30
0.0
 11
95.83677
 21
72.365065
 31
0.0
  0
TEXT
  8
F05_PRO
  5
106C
 10
89.784886
 20
77.470101
 30
0.0
 40
2.0
  1
変更
  7
FSTD1
  0
TEXT
  8
F05_PRO
  5
106D
 10
89.784886
 20
81.248223
 30
0.0
 40
2.0
  1
作成
  7
FSTD1
  0
TEXT
  8
F05_PRO
  5
106E
 10
113.199628
 20
81.248223
 30
0.0
 40
2.0
  1
SKH4A
  7
FSTD1
  0
TEXT
  8
F05_PRO
  5
106F
 10
118.723703
 20
85.308514
 30
0.0
 40
2.0
  1
ﾌｧｲﾙ名
  7
FSTD1
  0
TEXT
  8
F05_PRO
  5
1070
 10
97.911518
 20
81.248223
 30
0.0
 40
2.0
  1
2011-10
  7
FSTD1
  0
TEXT
  8
F05_PRO
  5
1071
 10
101.408213
 20
85.308514
 30
0.0
 40
2.0
  1
日付
  7
FSTD1
  0
LINE
  8
F05_PRO
  5
1072
 10
163.82997
 20
88.363465
 30
0.0
 11
163.82997
 21
72.365065
 31
0.0
  0
LINE
  8
F05_PRO
  5
1073
 10
155.83077
 20
88.363465
 30
0.0
 11
155.83077
 21
72.365065
 31
0.0
  0
TEXT
  8
F05_PRO
  5
1074
 10
157.917743
 20
85.308514
 30
0.0
 40
2.0
  1
変更
  7
FSTD1
  0
TEXT
  8
F05_PRO
  5
1075
 10
-73.233058
 20
134.304836
 30
0.0
 40
2.5
  1
※1 : 補助接点ユニット(SZ1KA□)(ヘッドオン)を取り付けた場合
  7
FSTD1
  0
TEXT
  8
F05_PRO
  5
1076
 10
-73.233058
 20
129.125811
 30
0.0
 40
2.5
  1
※2 : 補助接点ユニット(SZ1FA□)(ヘッドオン)を取り付けた場合
  7
FSTD1
  0
DIMENSION
  8
F02_DIM
  5
1077
  2
*D2
 10
-58.812825
 20
204.924047
 30
0.0
 11
-61.812825
 21
207.424047
 31
0.0
 12
-450.113932
 22
101.209525
 32
0.0
 13
-64.812825
 23
200.538088
 33
0.0
 14
-58.812825
 24
200.038088
 34
0.0
  3
FSTD1
1001
ACAD
1000
DSTYLE
1002
{
1070
    40
1040
1.0
1002
}
  0
DIMENSION
  8
F02_DIM
  5
1078
  2
*D3
 10
-28.812825
 20
211.454842
 30
0.0
 11
-46.812825
 21
213.954842
 31
0.0
 12
-450.113932
 22
101.209525
 32
0.0
 13
-64.812825
 23
200.538088
 33
0.0
 14
-28.812825
 24
195.738088
 34
0.0
  3
FSTD1
1001
ACAD
1000
DSTYLE
1002
{
1070
    40
1040
1.0
1002
}
  0
LINE
  8
F08_IMG
  5
1079
 10
-62.812825
 20
159.488088
 30
0.0
 11
-61.812825
 21
159.488088
 31
0.0
  0
LINE
  8
F08_IMG
  5
107A
 10
-62.812825
 20
194.188088
 30
0.0
 11
-61.812825
 21
194.188088
 31
0.0
  0
LINE
  8
F08_IMG
  5
107B
 10
-61.812825
 20
189.338088
 30
0.0
 11
-61.812825
 21
194.188088
 31
0.0
1001
ACAD
1000
RTMaterial
1005
0
  0
DIMENSION
  8
F02_DIM
  5
107C
  2
*D4
 10
-15.812825
 20
218.33377
 30
0.0
 11
-40.312825
 21
220.83377
 31
0.0
 12
-450.113932
 22
101.209525
 32
0.0
 13
-64.812825
 23
200.538088
 33
0.0
 14
-15.812825
 24
188.038088
 34
0.0
  3
FSTD1
1001
ACAD
1000
DSTYLE
1002
{
1070
    40
1040
1.0
1002
}
  0
DIMENSION
  8
F02_DIM
  5
107D
  2
*D5
 10
-76.812825
 20
224.970372
 30
0.0
 11
-46.312825
 21
227.470372
 31
0.0
 12
-450.113932
 22
101.209525
 32
0.0
 13
-15.812825
 23
188.038088
 33
0.0
 14
-76.812825
 24
190.338088
 34
0.0
  3
FSTD1
1001
ACAD
1000
DSTYLE
1002
{
1070
    40
1040
1.0
1002
}
  0
TEXT
  8
F02_DIM
  5
107E
 10
-42.883838
 20
226.547672
 30
0.0
 40
2.5
  1
(レール高さ15の場合)
 41
0.8
  7
FSTD1
  0
DIMENSION
  8
F02_DIM
  5
107F
  2
*D6
 10
1.187175
 20
218.33377
 30
0.0
 11
-7.312825
 21
220.83377
 31
0.0
 12
-450.113932
 22
101.209525
 32
0.0
  1
(<>)
 13
-15.812825
 23
188.038088
 33
0.0
 14
1.187175
 24
187.638088
 34
0.0
  3
FSTD1
1001
ACAD
1000
DSTYLE
1002
{
1070
    40
1040
1.0
1002
}
  0
DIMENSION
  8
F02_DIM
  5
1080
  2
*D7
 10
18.187175
 20
224.970372
 30
0.0
 11
1.187175
 21
227.470372
 31
0.0
 12
-450.113932
 22
101.209525
 32
0.0
  1
(<>)
 13
-15.812825
 23
188.038088
 33
0.0
 14
18.187175
 24
177.338088
 34
0.0
  3
FSTD1
1001
ACAD
1000
DSTYLE
1002
{
1070
    40
1040
1.0
1002
}
  0
TEXT
  8
F02_DIM
  5
1081
 10
-2.389801
 20
220.950143
 30
0.0
 40
2.5
  1
※2
  7
FSTD1
  0
TEXT
  8
F02_DIM
  5
1082
 10
6.514787
 20
226.345745
 30
0.0
 40
2.5
  1
※1
  7
FSTD1
  0
POLYLINE
  8
F02_DIM
  5
1083
 66
     1
 10
0.0
 20
0.0
 30
0.0
 70
     1
  0
VERTEX
  8
F02_DIM
  5
1182
 10
126.199144
 20
212.60259
 30
0.0
  0
VERTEX
  8
F02_DIM
  5
1183
 10
135.036661
 20
212.60259
 30
0.0
  0
VERTEX
  8
F02_DIM
  5
1184
 10
135.036661
 20
207.949205
 30
0.0
  0
VERTEX
  8
F02_DIM
  5
1185
 10
126.199144
 20
207.949205
 30
0.0
  0
SEQEND
  8
F02_DIM
  5
1186
  0
POLYLINE
  8
F02_DIM
  5
1084
 66
     1
 10
0.0
 20
0.0
 30
0.0
 70
     1
  0
VERTEX
  8
F02_DIM
  5
1187
 10
158.743165
 20
180.215783
 30
0.0
  0
VERTEX
  8
F02_DIM
  5
1188
 10
163.438306
 20
180.215783
 30
0.0
  0
VERTEX
  8
F02_DIM
  5
1189
 10
163.438306
 20
173.18474
 30
0.0
  0
VERTEX
  8
F02_DIM
  5
118A
 10
158.743165
 20
173.18474
 30
0.0
  0
SEQEND
  8
F02_DIM
  5
118B
  0
DIMENSION
  8
F02_DIM
  5
1085
  2
*D8
 10
52.151603
 20
213.762472
 30
0.0
 11
47.801603
 21
216.262472
 31
0.0
 12
-450.113932
 22
101.209525
 32
0.0
 13
43.451603
 23
197.288088
 33
0.0
 14
52.151603
 24
197.288088
 34
0.0
  3
FSTD1
1001
ACAD
1000
DSTYLE
1002
{
1070
    40
1040
1.0
1002
}
  0
DIMENSION
  8
F02_DIM
  5
1086
  2
*D9
 10
64.726603
 20
206.881968
 30
0.0
 11
60.851603
 21
206.881968
 31
0.0
 12
-450.113932
 22
101.209525
 32
0.0
 70
   128
  1
7.7
 13
56.976603
 23
200.238088
 33
0.0
 14
64.726603
 24
200.238088
 34
0.0
  3
FSTD1
1001
ACAD
1000
DSTYLE
1002
{
1070
    40
1040
1.0
1002
}
  0
TEXT
  8
F05_PRO
  5
1087
 10
26.397158
 20
217.947198
 30
0.0
 40
2.5
  1
端子
  7
FSTD1
  0
TEXT
  8
F05_PRO
  5
1088
 10
26.397158
 20
214.947198
 30
0.0
 40
2.5
  1
M3.5
  7
FSTD1
  0
TEXT
  8
F05_PRO
  5
108B
 10
85.422129
 20
201.178176
 30
0.0
 40
2.5
  1
コイル端子
  7
FSTD1
  0
TEXT
  8
F05_PRO
  5
108C
 10
85.422129
 20
198.178176
 30
0.0
 40
2.5
  1
M3.5
  7
FSTD1
  0
DIMENSION
  8
F02_DIM
  5
108D
  2
*D10
 10
83.351603
 20
221.66365
 30
0.0
 11
60.851603
 21
224.16365
 31
0.0
 12
-450.113932
 22
101.209525
 32
0.0
 13
38.351603
 23
200.238088
 33
0.0
 14
83.351603
 24
200.238088
 34
0.0
  3
FSTD1
1001
ACAD
1000
DSTYLE
1002
{
1070
    40
1040
1.0
1002
}
  0
DIMENSION
  8
F02_DIM
  5
108E
  2
*D11
 10
34.139398
 20
161.038088
 30
0.0
 11
31.639398
 21
176.538088
 31
0.0
 12
-450.113932
 22
101.209525
 32
0.0
 13
38.201603
 23
192.038088
 33
0.0
 14
38.201603
 24
161.038088
 34
0.0
 50
90.0
  3
FSTD1
1001
ACAD
1000
DSTYLE
1002
{
1070
    40
1040
1.0
1002
}
  0
DIMENSION
  8
F02_DIM
  5
108F
  2
*D12
 10
27.708715
 20
152.538088
 30
0.0
 11
25.208715
 21
176.538088
 31
0.0
 12
-450.113932
 22
101.209525
 32
0.0
 13
38.651603
 23
200.538088
 33
0.0
 14
38.651603
 24
152.538088
 34
0.0
 50
90.0
  3
FSTD1
1001
ACAD
1000
DSTYLE
1002
{
1070
    40
1040
1.0
1002
}
  0
TEXT
  8
F05_PRO
  5
1090
 10
156.333756
 20
208.849549
 30
0.0
 40
2.5
  1
取付穴
  7
FSTD1
  0
TEXT
  8
F05_PRO
  5
1091
 10
156.333756
 20
205.849549
 30
0.0
 40
2.5
  1
2XM4
  7
FSTD1
  0
TEXT
  8
F05_PRO
  5
1092
 10
120.578905
 20
219.302618
 30
0.0
 40
3.0
  1
取付穴寸法図
  7
FSTD1
  0
TEXT
  8
F05_PRO
  5
1093
 10
104.300371
 20
132.105773
 30
0.0
 40
2.5
  1
対角線の取付穴2ヵ所で取付けてください。
  7
FSTD1
  0
DIMENSION
  8
F02_DIM
  5
1094
  2
*D13
 10
148.28698
 20
207.413207
 30
0.0
 11
130.78698
 21
209.913207
 31
0.0
 12
-450.113932
 22
101.209525
 32
0.0
 13
113.28698
 23
201.788088
 33
0.0
 14
148.28698
 24
161.788088
 34
0.0
  3
FSTD1
1001
ACAD
1000
DSTYLE
1002
{
1070
    40
1040
1.0
1002
}
  0
DIMENSION
  8
F02_DIM
  5
1095
  2
*D14
 10
163.843291
 20
156.538088
 30
0.0
 11
161.343291
 21
176.538088
 31
0.0
 12
-450.113932
 22
101.209525
 32
0.0
 13
153.53698
 23
196.538088
 33
0.0
 14
118.53698
 24
156.538088
 34
0.0
 50
90.0
  3
FSTD1
1001
ACAD
1000
DSTYLE
1002
{
1070
    40
1040
1.0
1002
}
  0
TEXT
  8
F05_PRO
  5
1098
 10
133.197628
 20
81.248223
 30
0.0
 40
2.0
  1
F0B0 03 01(5)    a
  7
FSTD1
  0
TEXT
  8
F05_PRO
  5
1099
 10
41.4983
 20
185.790315
 30
0.0
 40
1.8
  1
13
 41
0.7
  7
FSTD2
  0
TEXT
  8
F05_PRO
  5
109A
 10
44.728507
 20
185.843179
 30
0.0
 40
1.8
  1
NO
 41
0.7
  7
FSTD2
  0
TEXT
  8
F05_PRO
  5
109B
 10
49.478869
 20
185.849373
 30
0.0
 40
1.8
  1
21
 41
0.7
  7
FSTD2
  0
TEXT
  8
F05_PRO
  5
109C
 10
53.222877
 20
185.817535
 30
0.0
 40
1.8
  1
NC
 41
0.7
  7
FSTD2
  0
TEXT
  8
F05_PRO
  5
109D
 10
58.419216
 20
185.842468
 30
0.0
 40
1.8
  1
31
 41
0.7
  7
FSTD2
  0
TEXT
  8
F05_PRO
  5
109E
 10
62.004198
 20
185.854786
 30
0.0
 40
1.8
  1
NC
 41
0.7
  7
FSTD2
  0
TEXT
  8
F05_PRO
  5
109F
 10
66.491557
 20
185.84704
 30
0.0
 40
1.8
  1
43
 41
0.7
  7
FSTD2
  0
TEXT
  8
F05_PRO
  5
10A0
 10
75.021806
 20
185.893911
 30
0.0
 40
1.8
  1
A1
 41
0.7
  7
FSTD2
  0
TEXT
  8
F05_PRO
  5
10A1
 10
80.684059
 20
185.955807
 30
0.0
 40
1.8
  1
+
 41
0.7
  7
FSTD2
  0
TEXT
  8
F05_PRO
  5
10A2
 10
41.361788
 20
165.458817
 30
0.0
 40
1.8
  1
14
 41
0.7
  7
FSTD2
  0
TEXT
  8
F05_PRO
  5
10A4
 10
49.73905
 20
165.440907
 30
0.0
 40
1.8
  1
22
 41
0.7
  7
FSTD2
  0
TEXT
  8
F05_PRO
  5
10A6
 10
58.575341
 20
165.537719
 30
0.0
 40
1.8
  1
32
 41
0.7
  7
FSTD2
  0
TEXT
  8
F05_PRO
  5
10A8
 10
66.865138
 20
165.537682
 30
0.0
 40
1.8
  1
44
 41
0.7
  7
FSTD2
  0
TEXT
  8
F05_PRO
  5
10A9
 10
74.886326
 20
165.630145
 30
0.0
 40
1.8
  1
A2
 41
0.7
  7
FSTD2
  0
TEXT
  8
F05_PRO
  5
10AA
 10
80.383994
 20
165.542412
 30
0.0
 40
1.8
  1
-
 41
0.7
  7
FSTD2
  0
TEXT
  8
F05_PRO
  5
10AB
 10
70.54183
 20
185.770795
 30
0.0
 40
1.8
  1
NO
 41
0.7
  7
FSTD2
  0
TEXT
  8
F05_PRO
  5
1157
 10
-31.929644
 20
73.151076
 30
0.0
 40
4.0
  1
SKH4AH, SKH4GH, SKH4LH
 41
0.8
  7
FSTD1
  0
TEXT
  8
F02_DIM
  5
1158
 10
86.703311
 20
187.612315
 30
0.0
 40
2.5
  1
※3
  7
FSTD1
  0
TEXT
  8
F02_DIM
  5
1159
 10
86.703311
 20
163.129995
 30
0.0
 40
2.5
  1
※3
  7
FSTD1
  0
TEXT
  8
F05_PRO
  5
115A
 10
-73.233058
 20
123.86061
 30
0.0
 40
2.5
  1
※3 : DC操作器の場合
  7
FSTD1
  0
TEXT
  8
F05_PRO
  5
115B
 10
-73.233058
 20
118.681585
 30
0.0
 40
2.5
  1
注記1) 端子No.は2NO2NC(2a2b)品の場合を示す。
  7
FSTD1
  0
ENDSEC
  0
EOF
